  0
SECTION
  2
HEADER
  9
$ACADVER
  1
AC1015
  9
$ACADMAINTVER
 70
     6
  9
$DWGCODEPAGE
  3
ANSI_949
  9
$INSBASE
 10
0.0
 20
0.0
 30
0.0
  9
$EXTMIN
 10
-125.8750000000001
 20
-49.97180738881174
 30
0.0
  9
$EXTMAX
 10
67.90115522242802
 20
42.87500000000001
 30
0.0
  9
$LIMMIN
 10
0.0
 20
0.0
  9
$LIMMAX
 10
420.0
 20
297.0
  9
$ORTHOMODE
 70
     1
  9
$REGENMODE
 70
     1
  9
$FILLMODE
 70
     1
  9
$QTEXTMODE
 70
     0
  9
$MIRRTEXT
 70
     1
  9
$LTSCALE
 40
1.0
  9
$ATTMODE
 70
     1
  9
$TEXTSIZE
 40
3.5
  9
$TRACEWID
 40
1.0
  9
$TEXTSTYLE
  7
Standard
  9
$CLAYER
  8
0
  9
$CELTYPE
  6
ByLayer
  9
$CECOLOR
 62
   256
  9
$CELTSCALE
 40
1.0
  9
$DISPSILH
 70
     0
  9
$DIMSCALE
 40
1.0
  9
$DIMASZ
 40
3.302
  9
$DIMEXO
 40
1.0
  9
$DIMDLI
 40
3.75
  9
$DIMRND
 40
0.0
  9
$DIMDLE
 40
0.0
  9
$DIMEXE
 40
1.0
  9
$DIMTP
 40
0.0
  9
$DIMTM
 40
0.0
  9
$DIMTXT
 40
3.5
  9
$DIMCEN
 40
2.5
  9
$DIMTSZ
 40
0.0
  9
$DIMTOL
 70
     0
  9
$DIMLIM
 70
     0
  9
$DIMTIH
 70
     1
  9
$DIMTOH
 70
     1
  9
$DIMSE1
 70
     0
  9
$DIMSE2
 70
     0
  9
$DIMTAD
 70
     1
  9
$DIMZIN
 70
     0
  9
$DIMBLK
  1

  9
$DIMASO
 70
     1
  9
$DIMSHO
 70
     1
  9
$DIMPOST
  1

  9
$DIMAPOST
  1

  9
$DIMALT
 70
     0
  9
$DIMALTD
 70
     3
  9
$DIMALTF
 40
0.0393700787401575
  9
$DIMLFAC
 40
1.0
  9
$DIMTOFL
 70
     1
  9
$DIMTVP
 40
0.0
  9
$DIMTIX
 70
     0
  9
$DIMSOXD
 70
     0
  9
$DIMSAH
 70
     0
  9
$DIMBLK1
  1

  9
$DIMBLK2
  1

  9
$DIMSTYLE
  2
ISO-25
  9
$DIMCLRD
 70
     0
  9
$DIMCLRE
 70
     0
  9
$DIMCLRT
 70
     0
  9
$DIMTFAC
 40
1.0
  9
$DIMGAP
 40
1.524
  9
$DIMJUST
 70
     0
  9
$DIMSD1
 70
     0
  9
$DIMSD2
 70
     0
  9
$DIMTOLJ
 70
     0
  9
$DIMTZIN
 70
     0
  9
$DIMALTZ
 70
     0
  9
$DIMALTTZ
 70
     0
  9
$DIMUPT
 70
     0
  9
$DIMDEC
 70
     2
  9
$DIMTDEC
 70
     2
  9
$DIMALTU
 70
     2
  9
$DIMALTTD
 70
     3
  9
$DIMTXSTY
  7
Standard
  9
$DIMAUNIT
 70
     0
  9
$DIMADEC
 70
     2
  9
$DIMALTRND
 40
0.0
  9
$DIMAZIN
 70
     0
  9
$DIMDSEP
 70
    44
  9
$DIMATFIT
 70
     3
  9
$DIMFRAC
 70
     0
  9
$DIMLDRBLK
  1

  9
$DIMLUNIT
 70
     2
  9
$DIMLWD
 70
    -2
  9
$DIMLWE
 70
    -2
  9
$DIMTMOVE
 70
     0
  9
$LUNITS
 70
     2
  9
$LUPREC
 70
     2
  9
$SKETCHINC
 40
1.0
  9
$FILLETRAD
 40
10.0
  9
$AUNITS
 70
     0
  9
$AUPREC
 70
     2
  9
$MENU
  1
.
  9
$ELEVATION
 40
0.0
  9
$PELEVATION
 40
0.0
  9
$THICKNESS
 40
0.0
  9
$LIMCHECK
 70
     0
  9
$CHAMFERA
 40
0.0
  9
$CHAMFERB
 40
0.0
  9
$CHAMFERC
 40
0.0
  9
$CHAMFERD
 40
0.0
  9
$SKPOLY
 70
     0
  9
$TDCREATE
 40
2458260.592852813
  9
$TDUCREATE
 40
2458260.217852813
  9
$TDUPDATE
 40
2458268.61239816
  9
$TDUUPDATE
 40
2458268.23739816
  9
$TDINDWG
 40
0.0033994097
  9
$TDUSRTIMER
 40
0.0015556019
  9
$USRTIMER
 70
     1
  9
$ANGBASE
 50
0.0
  9
$ANGDIR
 70
     0
  9
$PDMODE
 70
     0
  9
$PDSIZE
 40
-1.0
  9
$PLINEWID
 40
0.0
  9
$SPLFRAME
 70
     0
  9
$SPLINETYPE
 70
     6
  9
$SPLINESEGS
 70
     8
  9
$HANDSEED
  5
1EF
  9
$SURFTAB1
 70
     6
  9
$SURFTAB2
 70
     6
  9
$SURFTYPE
 70
     6
  9
$SURFU
 70
     6
  9
$SURFV
 70
     6
  9
$UCSBASE
  2

  9
$UCSNAME
  2

  9
$UCSORG
 10
0.0
 20
0.0
 30
0.0
  9
$UCSXDIR
 10
1.0
 20
0.0
 30
0.0
  9
$UCSYDIR
 10
0.0
 20
1.0
 30
0.0
  9
$UCSORTHOREF
  2

  9
$UCSORTHOVIEW
 70
     0
  9
$UCSORGTOP
 10
0.0
 20
0.0
 30
0.0
  9
$UCSORGBOTTOM
 10
0.0
 20
0.0
 30
0.0
  9
$UCSORGLEFT
 10
0.0
 20
0.0
 30
0.0
  9
$UCSORGRIGHT
 10
0.0
 20
0.0
 30
0.0
  9
$UCSORGFRONT
 10
0.0
 20
0.0
 30
0.0
  9
$UCSORGBACK
 10
0.0
 20
0.0
 30
0.0
  9
$PUCSBASE
  2

  9
$PUCSNAME
  2

  9
$PUCSORG
 10
0.0
 20
0.0
 30
0.0
  9
$PUCSXDIR
 10
1.0
 20
0.0
 30
0.0
  9
$PUCSYDIR
 10
0.0
 20
1.0
 30
0.0
  9
$PUCSORTHOREF
  2

  9
$PUCSORTHOVIEW
 70
     0
  9
$PUCSORGTOP
 10
0.0
 20
0.0
 30
0.0
  9
$PUCSORGBOTTOM
 10
0.0
 20
0.0
 30
0.0
  9
$PUCSORGLEFT
 10
0.0
 20
0.0
 30
0.0
  9
$PUCSORGRIGHT
 10
0.0
 20
0.0
 30
0.0
  9
$PUCSORGFRONT
 10
0.0
 20
0.0
 30
0.0
  9
$PUCSORGBACK
 10
0.0
 20
0.0
 30
0.0
  9
$USERI1
 70
     0
  9
$USERI2
 70
     0
  9
$USERI3
 70
     0
  9
$USERI4
 70
     0
  9
$USERI5
 70
     0
  9
$USERR1
 40
0.0
  9
$USERR2
 40
0.0
  9
$USERR3
 40
0.0
  9
$USERR4
 40
0.0
  9
$USERR5
 40
0.0
  9
$WORLDVIEW
 70
     1
  9
$SHADEDGE
 70
     3
  9
$SHADEDIF
 70
    70
  9
$TILEMODE
 70
     1
  9
$MAXACTVP
 70
    64
  9
$PINSBASE
 10
0.0
 20
0.0
 30
0.0
  9
$PLIMCHECK
 70
     0
  9
$PEXTMIN
 10
1.000000000000000E+20
 20
1.000000000000000E+20
 30
1.000000000000000E+20
  9
$PEXTMAX
 10
-1.000000000000000E+20
 20
-1.000000000000000E+20
 30
-1.000000000000000E+20
  9
$PLIMMIN
 10
0.0
 20
0.0
  9
$PLIMMAX
 10
0.0
 20
0.0
  9
$UNITMODE
 70
     0
  9
$VISRETAIN
 70
     1
  9
$PLINEGEN
 70
     0
  9
$PSLTSCALE
 70
     1
  9
$TREEDEPTH
 70
  3020
  9
$CMLSTYLE
  2
Standard
  9
$CMLJUST
 70
     0
  9
$CMLSCALE
 40
20.0
  9
$PROXYGRAPHICS
 70
     1
  9
$MEASUREMENT
 70
     1
  9
$CELWEIGHT
370
    -1
  9
$ENDCAPS
280
     0
  9
$JOINSTYLE
280
     0
  9
$LWDISPLAY
290
     1
  9
$INSUNITS
 70
     4
  9
$HYPERLINKBASE
  1

  9
$STYLESHEET
  1

  9
$XEDIT
290
     1
  9
$CEPSNTYPE
380
     0
  9
$PSTYLEMODE
290
     1
  9
$FINGERPRINTGUID
  2
{A9A629E9-35FD-448B-8C30-DF6255EE858A}
  9
$VERSIONGUID
  2
{FAEB1C32-E019-11D5-929B-00C0DF256EC4}
  9
$EXTNAMES
290
     1
  9
$PSVPSCALE
 40
0.0
  9
$OLESTARTUP
290
     0
  0
ENDSEC
  0
SECTION
  2
CLASSES
  0
CLASS
  1
ACDBDICTIONARYWDFLT
  2
AcDbDictionaryWithDefault
  3
ObjectDBX Classes
 90
        0
280
     0
281
     0
  0
CLASS
  1
VISUALSTYLE
  2
AcDbVisualStyle
  3
ObjectDBX Classes
 90
     4095
280
     0
281
     0
  0
CLASS
  1
MATERIAL
  2
AcDbMaterial
  3
ObjectDBX Classes
 90
     1153
280
     0
281
     0
  0
CLASS
  1
SCALE
  2
AcDbScale
  3
ObjectDBX Classes
 90
     1153
280
     0
281
     0
  0
CLASS
  1
SUN
  2
AcDbSun
  3
SCENEOE
 90
     1153
280
     0
281
     0
  0
CLASS
  1
ACDBPLACEHOLDER
  2
AcDbPlaceHolder
  3
ObjectDBX Classes
 90
        0
280
     0
281
     0
  0
CLASS
  1
LAYOUT
  2
AcDbLayout
  3
ObjectDBX Classes
 90
        0
280
     0
281
     0
  0
CLASS
  1
TABLESTYLE
  2
AcDbTableStyle
  3
ObjectDBX Classes
 90
     4095
280
     0
281
     0
  0
CLASS
  1
MLEADERSTYLE
  2
AcDbMLeaderStyle
  3
ACDB_MLEADERSTYLE_CLASS
 90
     4095
280
     0
281
     0
  0
CLASS
  1
DICTIONARYVAR
  2
AcDbDictionaryVar
  3
ObjectDBX Classes
 90
        0
280
     0
281
     0
  0
CLASS
  1
DIMASSOC
  2
AcDbDimAssoc
  3
"AcDbDimAssoc|Product Desc:     AcDim ARX App For Dimension|Company:          Autodesk, Inc.|WEB Address:      www.autodesk.com"
 90
        0
280
     0
281
     0
  0
ENDSEC
  0
SECTION
  2
TABLES
  0
TABLE
  2
VPORT
  5
8
330
0
100
AcDbSymbolTable
 70
     1
  0
VPORT
  5
29
330
8
100
AcDbSymbolTableRecord
100
AcDbViewportTableRecord
  2
*Active
 70
     0
 10
0.0
 20
0.0
 11
1.0
 21
1.0
 12
-28.986922388786
 22
-3.54840369440587
 13
0.0
 23
0.0
 14
10.0
 24
10.0
 15
10.0
 25
10.0
 16
0.0
 26
0.0
 36
1.0
 17
0.0
 27
0.0
 37
0.0
 40
96.06820705180441
 41
2.057409879839786
 42
50.0
 43
0.0
 44
0.0
 50
0.0
 51
0.0
 71
    16
 72
  2000
 73
     1
 74
     3
 75
     0
 76
     0
 77
     0
 78
     0
281
     0
 65
     1
110
0.0
120
0.0
130
0.0
111
1.0
121
0.0
131
0.0
112
0.0
122
1.0
132
0.0
 79
     0
146
0.0
  0
ENDTAB
  0
TABLE
  2
LTYPE
  5
5
330
0
100
AcDbSymbolTable
 70
     6
  0
LTYPE
  5
14
330
5
100
AcDbSymbolTableRecord
100
AcDbLinetypeTableRecord
  2
ByBlock
 70
     0
  3

 72
    65
 73
     0
 40
0.0
  0
LTYPE
  5
15
330
5
100
AcDbSymbolTableRecord
100
AcDbLinetypeTableRecord
  2
ByLayer
 70
     0
  3

 72
    65
 73
     0
 40
0.0
  0
LTYPE
  5
16
330
5
100
AcDbSymbolTableRecord
100
AcDbLinetypeTableRecord
  2
Continuous
 70
     0
  3
Solid line
 72
    65
 73
     0
 40
0.0
  0
LTYPE
  5
6A
330
5
100
AcDbSymbolTableRecord
100
AcDbLinetypeTableRecord
  2
HIDDEN
 70
     0
  3
Hidden __ __ __ __ __ __ __ __ __ __ __ __ __ __
 72
    65
 73
     2
 40
1.905
 49
1.27
 74
     0
 49
-0.635
 74
     0
  0
LTYPE
  5
6B
330
5
100
AcDbSymbolTableRecord
100
AcDbLinetypeTableRecord
  2
PHANTOM
 70
     0
  3
Phantom ______  __  __  ______  __  __  ______
 72
    65
 73
     6
 40
12.7
 49
6.35
 74
     0
 49
-1.27
 74
     0
 49
1.27
 74
     0
 49
-1.27
 74
     0
 49
1.27
 74
     0
 49
-1.27
 74
     0
  0
LTYPE
  5
6C
330
5
100
AcDbSymbolTableRecord
100
AcDbLinetypeTableRecord
  2
CENTER
 70
     0
  3
Center ____ _ ____ _ ____ _ ____ _ ____ _ ____
 72
    65
 73
     4
 40
10.16
 49
6.35
 74
     0
 49
-1.27
 74
     0
 49
1.27
 74
     0
 49
-1.27
 74
     0
  0
LTYPE
  5
6D
330
5
100
AcDbSymbolTableRecord
100
AcDbLinetypeTableRecord
  2
CENTERX2
 70
     0
  3
Center (2x) ________  __  ________  __  _____
 72
    65
 73
     4
 40
20.32
 49
12.7
 74
     0
 49
-2.54
 74
     0
 49
2.54
 74
     0
 49
-2.54
 74
     0
  0
LTYPE
  5
6E
330
5
100
AcDbSymbolTableRecord
100
AcDbLinetypeTableRecord
  2
DOT2
 70
     0
  3
Dot (.5x) ........................................
 72
    65
 73
     2
 40
0.635
 49
0.0
 74
     0
 49
-0.635
 74
     0
  0
ENDTAB
  0
TABLE
  2
LAYER
  5
2
102
{ACAD_XDICTIONARY
360
174
102
}
330
0
100
AcDbSymbolTable
 70
    17
  0
LAYER
  5
10
330
2
100
AcDbSymbolTableRecord
100
AcDbLayerTableRecord
  2
0
 70
     0
 62
     7
  6
Continuous
370
    -3
390
F
  0
LAYER
  5
6F
330
2
100
AcDbSymbolTableRecord
100
AcDbLayerTableRecord
  2
FORMAT
 70
     0
 62
     2
  6
Continuous
370
    -3
390
F
  0
LAYER
  5
70
330
2
100
AcDbSymbolTableRecord
100
AcDbLayerTableRecord
  2
외형선
 70
     0
 62
   100
  6
Continuous
370
    30
390
F
  0
LAYER
  5
71
330
2
100
AcDbSymbolTableRecord
100
AcDbLayerTableRecord
  2
숨은선
 70
     0
 62
     2
  6
HIDDEN
370
    15
390
F
  0
LAYER
  5
72
330
2
100
AcDbSymbolTableRecord
100
AcDbLayerTableRecord
  2
중심선
 70
     0
 62
     1
  6
CENTERX2
370
    -3
390
F
  0
LAYER
  5
73
330
2
100
AcDbSymbolTableRecord
100
AcDbLayerTableRecord
  2
파단선
 70
     0
 62
     4
  6
Continuous
370
    -3
390
F
  0
LAYER
  5
74
330
2
100
AcDbSymbolTableRecord
100
AcDbLayerTableRecord
  2
해칭선
 70
     0
 62
     4
  6
Continuous
370
    -3
390
F
  0
LAYER
  5
75
330
2
100
AcDbSymbolTableRecord
100
AcDbLayerTableRecord
  2
가는실선
 70
     0
 62
     4
  6
Continuous
370
    -3
390
F
  0
LAYER
  5
76
330
2
100
AcDbSymbolTableRecord
100
AcDbLayerTableRecord
  2
치수_보조선
 70
     0
 62
     4
  6
Continuous
370
    -3
390
F
  0
LAYER
  5
77
330
2
100
AcDbSymbolTableRecord
100
AcDbLayerTableRecord
  2
치수문자_일반주서
 70
     0
 62
     7
  6
Continuous
370
    15
390
F
  0
LAYER
  5
78
330
2
100
AcDbSymbolTableRecord
100
AcDbLayerTableRecord
  2
개별주서
 70
     0
 62
   100
  6
Continuous
370
    30
390
F
  0
LAYER
  5
79
330
2
100
AcDbSymbolTableRecord
100
AcDbLayerTableRecord
  2
중간선
 70
     0
 62
     2
  6
Continuous
370
    15
390
F
  0
LAYER
  5
7A
330
2
100
AcDbSymbolTableRecord
100
AcDbLayerTableRecord
  2
윤곽선
 70
     0
 62
     3
  6
Continuous
370
    40
390
F
  0
LAYER
  5
7B
330
2
100
AcDbSymbolTableRecord
100
AcDbLayerTableRecord
  2
중심마크
 70
     0
 62
   100
  6
Continuous
370
    30
390
F
  0
LAYER
  5
7C
330
2
100
AcDbSymbolTableRecord
100
AcDbLayerTableRecord
  2
가상선
 70
     0
 62
     4
  6
PHANTOM
370
    -3
390
F
  0
LAYER
  5
7D
330
2
100
AcDbSymbolTableRecord
100
AcDbLayerTableRecord
  2
특수지정선
 70
     0
 62
     5
  6
CENTERX2
370
    60
390
F
  0
LAYER
  5
133
330
2
100
AcDbSymbolTableRecord
100
AcDbLayerTableRecord
  2
Defpoints
 70
     0
 62
     7
  6
Continuous
290
     0
370
    -3
390
F
  0
ENDTAB
  0
TABLE
  2
STYLE
  5
3
330
0
100
AcDbSymbolTable
 70
     2
  0
STYLE
  5
11
330
3
100
AcDbSymbolTableRecord
100
AcDbTextStyleTableRecord
  2
Standard
 70
     0
 40
0.0
 41
1.0
 50
0.0
 71
     0
 42
3.5
  3
txt
  4

  0
STYLE
  5
93
330
3
100
AcDbSymbolTableRecord
100
AcDbTextStyleTableRecord
  2
SLDTEXTSTYLE0
 70
     0
 40
0.0
 41
0.75
 50
0.0
 71
     0
 42
3.5
  3
TXT
  4

  0
ENDTAB
  0
TABLE
  2
VIEW
  5
6
330
0
100
AcDbSymbolTable
 70
     0
  0
ENDTAB
  0
TABLE
  2
UCS
  5
7
330
0
100
AcDbSymbolTable
 70
     0
  0
ENDTAB
  0
TABLE
  2
APPID
  5
9
330
0
100
AcDbSymbolTable
 70
     3
  0
APPID
  5
12
330
9
100
AcDbSymbolTableRecord
100
AcDbRegAppTableRecord
  2
ACAD
 70
     0
  0
APPID
  5
13A
330
9
100
AcDbSymbolTableRecord
100
AcDbRegAppTableRecord
  2
ACAD_DSTYLE_DIMRADIAL_EXTENSION
 70
     0
  0
APPID
  5
13B
330
9
100
AcDbSymbolTableRecord
100
AcDbRegAppTableRecord
  2
PE_URL
 70
     0
  0
ENDTAB
  0
TABLE
  2
DIMSTYLE
  5
A
330
0
100
AcDbSymbolTable
 70
     4
100
AcDbDimStyleTable
  0
DIMSTYLE
105
27
330
A
100
AcDbSymbolTableRecord
100
AcDbDimStyleTableRecord
  2
ISO-25
 70
     0
 41
2.5
 42
0.625
 43
3.75
 44
1.25
 73
     0
 74
     0
 77
     1
 78
     8
140
2.5
141
2.5
143
0.03937007874016
147
0.625
171
     3
172
     1
178
     0
271
     2
272
     2
274
     3
278
    44
283
     0
284
     8
340
11
  0
DIMSTYLE
105
D3
330
A
100
AcDbSymbolTableRecord
100
AcDbDimStyleTableRecord
  2
SLDDIMSTYLE0
 70
     0
 41
3.302
 44
0.0
 45
0.000000001
 73
     0
 74
     0
 77
     1
 78
    12
 79
     3
140
3.5
147
0.875
172
     1
173
     1
178
     0
271
     2
272
     2
276
     2
284
    12
289
     0
340
93
  0
DIMSTYLE
105
E1
330
A
100
AcDbSymbolTableRecord
100
AcDbDimStyleTableRecord
  2
SLDDIMSTYLE1
 70
     0
 41
3.302
 44
0.0
 45
0.000000001
 73
     0
 74
     0
 77
     1
 78
    12
 79
     3
140
3.5
147
0.875
173
     1
178
     0
271
     2
272
     2
276
     2
284
    12
340
93
  0
DIMSTYLE
105
138
102
{ACAD_REACTORS
330
E0
330
EB
330
F5
330
D2
330
1E1
102
}
330
A
100
AcDbSymbolTableRecord
100
AcDbDimStyleTableRecord
  2
SLDDIMSTYLE2
 70
     0
 41
3.302
 44
0.0
 45
0.000000001
 73
     0
 74
     0
 77
     1
 78
    12
 79
     3
140
3.5
147
0.875
172
     1
173
     1
178
     0
271
     2
272
     2
276
     2
284
    12
289
     0
340
93
  0
ENDTAB
  0
TABLE
  2
BLOCK_RECORD
  5
1
330
0
100
AcDbSymbolTable
 70
    12
  0
BLOCK_RECORD
  5
1F
330
1
100
AcDbSymbolTableRecord
100
AcDbBlockTableRecord
  2
*Model_Space
340
22
  0
BLOCK_RECORD
  5
1B
330
1
100
AcDbSymbolTableRecord
100
AcDbBlockTableRecord
  2
*Paper_Space
340
1E
  0
BLOCK_RECORD
  5
23
330
1
100
AcDbSymbolTableRecord
100
AcDbBlockTableRecord
  2
*Paper_Space0
340
26
  0
BLOCK_RECORD
  5
7E
330
1
100
AcDbSymbolTableRecord
100
AcDbBlockTableRecord
  2
블럭10
340
0
102
{BLKREFS
331
CA
102
}
  0
BLOCK_RECORD
  5
D4
330
1
100
AcDbSymbolTableRecord
100
AcDbBlockTableRecord
  2
_D
340
0
  0
BLOCK_RECORD
  5
E2
330
1
100
AcDbSymbolTableRecord
100
AcDbBlockTableRecord
  2
_D_1
340
0
  0
BLOCK_RECORD
  5
EC
330
1
100
AcDbSymbolTableRecord
100
AcDbBlockTableRecord
  2
_D_2
340
0
  0
BLOCK_RECORD
  5
F6
330
1
100
AcDbSymbolTableRecord
100
AcDbBlockTableRecord
  2
_D_3
340
0
  0
BLOCK_RECORD
  5
100
330
1
100
AcDbSymbolTableRecord
100
AcDbBlockTableRecord
  2
SW_DOWELSYMBOL_0
340
0
102
{BLKREFS
331
106
102
}
  0
BLOCK_RECORD
  5
16B
330
1
100
AcDbSymbolTableRecord
100
AcDbBlockTableRecord
  2
*D7
340
0
  0
BLOCK_RECORD
  5
178
330
1
100
AcDbSymbolTableRecord
100
AcDbBlockTableRecord
  2
*D8
340
0
  0
BLOCK_RECORD
  5
18A
330
1
100
AcDbSymbolTableRecord
100
AcDbBlockTableRecord
  2
*D9
340
0
  0
BLOCK_RECORD
  5
199
330
1
100
AcDbSymbolTableRecord
100
AcDbBlockTableRecord
  2
*D10
340
0
  0
BLOCK_RECORD
  5
1E4
330
1
100
AcDbSymbolTableRecord
100
AcDbBlockTableRecord
  2
*D11
340
0
  0
ENDTAB
  0
ENDSEC
  0
SECTION
  2
BLOCKS
  0
BLOCK
  5
20
330
1F
100
AcDbEntity
  8
0
100
AcDbBlockBegin
  2
*Model_Space
 70
     0
 10
0.0
 20
0.0
 30
0.0
  3
*Model_Space
  1

  0
ENDBLK
  5
21
330
1F
100
AcDbEntity
  8
0
100
AcDbBlockEnd
  0
BLOCK
  5
1C
330
1B
100
AcDbEntity
 67
     1
  8
0
100
AcDbBlockBegin
  2
*Paper_Space
 70
     0
 10
0.0
 20
0.0
 30
0.0
  3
*Paper_Space
  1

  0
ENDBLK
  5
1D
330
1B
100
AcDbEntity
 67
     1
  8
0
100
AcDbBlockEnd
  0
BLOCK
  5
24
330
23
100
AcDbEntity
  8
0
100
AcDbBlockBegin
  2
*Paper_Space0
 70
     0
 10
0.0
 20
0.0
 30
0.0
  3
*Paper_Space0
  1

  0
ENDBLK
  5
25
330
23
100
AcDbEntity
  8
0
100
AcDbBlockEnd
  0
BLOCK
  5
7F
330
7E
100
AcDbEntity
  8
0
100
AcDbBlockBegin
  2
블럭10
 70
     2
 10
0.0
 20
0.0
 30
0.0
  3
블럭10
  1

  0
ELLIPSE
  5
81
330
7E
100
AcDbEntity
  8
중심선
100
AcDbEllipse
 10
20.54032771741204
 20
12.0471743016438
 30
0.0
 11
6.600054785286829
 21
-1.261213355974178E-13
 31
0.0
210
0.0
220
0.0
230
1.0
 40
0.636358354079598
 41
0.9219305317359503
 42
6.513795318482858
  0
ELLIPSE
  5
82
330
7E
100
AcDbEntity
  8
중심선
100
AcDbEllipse
 10
20.54032771746488
 20
12.04717430159265
 30
0.0
 11
3.960054785062283
 21
1.540847449632565E-10
 31
0.0
210
0.0
220
0.0
230
1.0
 40
0.3939339440162632
 41
1.131841032648279
 42
5.62031148352944
  0
LINE
  5
83
330
7E
100
AcDbEntity
  8
중심선
100
AcDbLine
 10
2.268634060543552
 20
16.24717430164393
 30
0.0
 11
5.714909304380834
 21
16.24717430164393
 31
0.0
  0
LINE
  5
84
330
7E
100
AcDbEntity
  8
중심선
100
AcDbLine
 10
5.245725140726316
 20
7.84717430164391
 30
0.0
 11
8.692000384563599
 21
7.84717430164391
 31
0.0
  0
LINE
  5
85
330
7E
100
AcDbEntity
  8
중심선
100
AcDbLine
 10
15.74043728645272
 20
16.24717430164393
 30
0.0
 11
8.692000384563599
 21
7.84717430164391
 31
0.0
  0
LINE
  5
86
330
7E
100
AcDbEntity
  8
중심선
100
AcDbLine
 10
0.1404042013395286
 20
13.71084872107135
 30
0.0
 11
3.58671253028996
 21
13.71088815037384
 31
0.0
  0
LINE
  5
87
330
7E
100
AcDbEntity
  8
중심선
100
AcDbLine
 10
2.750260043222114
 20
10.84717430164391
 30
0.0
 11
6.196535287059397
 21
10.84717430164391
 31
0.0
  0
LINE
  5
88
330
7E
100
AcDbEntity
  8
중심선
100
AcDbLine
 10
12.29416204261559
 20
16.24717430164393
 30
0.0
 11
5.245725140726316
 21
7.84717430164391
 31
0.0
  0
LINE
  5
89
330
7E
100
AcDbEntity
  8
중심선
100
AcDbLine
 10
10.72767329541681
 20
16.24717430164393
 30
0.0
 11
6.196535287059397
 21
10.84717430164391
 31
0.0
  0
LINE
  5
8A
330
7E
100
AcDbEntity
  8
중심선
100
AcDbLine
 10
7.28139805157953
 20
16.24717430164393
 30
0.0
 11
2.750260043222114
 21
10.84717430164391
 31
0.0
  0
LINE
  5
8B
330
7E
100
AcDbEntity
  8
중심선
100
AcDbLine
 10
5.714909304380834
 20
16.24717430164393
 30
0.0
 11
3.58671253028996
 21
13.71088815037384
 31
0.0
  0
LINE
  5
8C
330
7E
100
AcDbEntity
  8
중심선
100
AcDbLine
 10
2.268634060543552
 20
16.24717430164393
 30
0.0
 11
0.1404042013395286
 21
13.71084872107135
 31
0.0
  0
LINE
  5
8D
330
7E
100
AcDbEntity
  8
중심선
100
AcDbLine
 10
7.28139805157953
 20
16.24717430164393
 30
0.0
 11
10.72767329541681
 21
16.24717430164393
 31
0.0
  0
LINE
  5
8E
330
7E
100
AcDbEntity
  8
중심선
100
AcDbLine
 10
12.29416204261559
 20
16.24717430164393
 30
0.0
 11
15.74043728645272
 21
16.24717430164393
 31
0.0
  0
LINE
  5
8F
330
7E
100
AcDbEntity
  8
중심선
100
AcDbLine
 10
19.22036997980202
 20
11.08717430171403
 30
0.0
 11
23.66174974927406
 21
11.08717430171406
 31
0.0
  0
LINE
  5
90
330
7E
100
AcDbEntity
  8
중심선
100
AcDbLine
 10
19.22039502424796
 20
13.00717430171391
 30
0.0
 11
19.22036997980202
 21
11.08717430171403
 31
0.0
  0
LINE
  5
91
330
7E
100
AcDbEntity
  8
중심선
100
AcDbLine
 10
19.22039502424796
 20
13.00717430171391
 30
0.0
 11
26.96566020931264
 21
13.00717430171391
 31
0.0
  0
LINE
  5
92
330
7E
100
AcDbEntity
  8
중심선
100
AcDbLine
 10
22.22332737316547
 20
13.45928029700563
 30
0.0
 11
24.52862924686651
 21
15.39360700705356
 31
0.0
  0
ATTDEF
  5
94
330
7E
100
AcDbEntity
  8
FORMAT
 62
     2
100
AcDbText
 10
-16.62882859820096
 20
2.075366912832191
 30
0.0
 40
4.233333333333333
  1
SEMD9916020E [ 2 FLUTE ]
 41
0.75
  7
SLDTEXTSTYLE0
 11
-16.62882859820096
 21
-0.0412997538344756
 31
0.0
100
AcDbAttributeDefinition
  3

  2
AUTOATTR0
 70
     0
 74
     1
  0
ENDBLK
  5
80
330
7E
100
AcDbEntity
  8
0
100
AcDbBlockEnd
  0
BLOCK
  5
D5
330
D4
100
AcDbEntity
  8
0
100
AcDbBlockBegin
  2
_D
 70
     0
 10
0.0
 20
0.0
 30
0.0
  3
_D
  1

  0
LINE
  5
D7
330
D4
100
AcDbEntity
  8
치수문자_일반주서
 62
     0
370
    -2
100
AcDbLine
 10
44.06250000000001
 20
-7.999999999999998
 30
0.0
 11
59.00000000000006
 21
-7.999999999999943
 31
0.0
  0
LINE
  5
D8
330
D4
100
AcDbEntity
  8
치수문자_일반주서
 62
     0
370
    -2
100
AcDbLine
 10
44.0625
 20
8.000000000000007
 30
0.0
 11
59.0
 21
8.000000000000062
 31
0.0
  0
LINE
  5
D9
330
D4
100
AcDbEntity
  8
치수문자_일반주서
 62
     0
370
    -2
100
AcDbLine
 10
59.0
 20
8.000000000000062
 30
0.0
 11
58.99999999999994
 21
24.75000000000014
 31
0.0
  0
LINE
  5
DA
330
D4
100
AcDbEntity
  8
치수문자_일반주서
 62
     0
370
    -2
100
AcDbLine
 10
59.00000000000006
 20
-7.999999999999943
 30
0.0
 11
59.0
 21
8.000000000000062
 31
0.0
  0
LINE
  5
DB
330
D4
100
AcDbEntity
  8
치수문자_일반주서
 62
     0
370
    -2
100
AcDbLine
 10
59.00000000000007
 20
-11.99999999999994
 30
0.0
 11
59.00000000000009
 21
-15.99999999999994
 31
0.0
  0
LINE
  5
DC
330
D4
100
AcDbEntity
  8
치수문자_일반주서
 62
     0
370
    -2
100
AcDbLine
 10
58.99999999999999
 20
12.00000000000006
 30
0.0
 11
58.99999999999997
 21
16.00000000000006
 31
0.0
  0
SOLID
  5
DD
330
D4
100
AcDbEntity
  8
치수문자_일반주서
 62
     0
100
AcDbTrace
 10
59.66666666666674
 20
-11.99999999999994
 30
0.0
 11
58.33333333333341
 21
-11.99999999999994
 31
0.0
 12
59.00000000000006
 22
-7.999999999999943
 32
0.0
 13
59.00000000000006
 23
-7.999999999999943
 33
0.0
  0
SOLID
  5
DE
330
D4
100
AcDbEntity
  8
치수문자_일반주서
 62
     0
100
AcDbTrace
 10
58.33333333333332
 20
12.00000000000006
 30
0.0
 11
59.66666666666665
 21
12.00000000000006
 31
0.0
 12
59.0
 22
8.000000000000062
 32
0.0
 13
59.0
 23
8.000000000000062
 33
0.0
  0
MTEXT
  5
DF
330
D4
100
AcDbEntity
  8
치수문자_일반주서
 62
     0
100
AcDbMText
 10
54.12499999999996
 20
20.37500000000012
 30
0.0
 40
4.0
 41
0.0
 71
     2
 72
     1
  1
\A1;%%c16
  7
SLDTEXTSTYLE0
 11
-3.552713678800499E-15
 21
1.0
 31
0.0
 73
     1
 44
1.0
  0
POINT
  5
1B3
330
D4
100
AcDbEntity
  8
Defpoints
 62
     0
100
AcDbPoint
 10
44.00000000000001
 20
-7.999999999999998
 30
0.0
  0
POINT
  5
1B4
330
D4
100
AcDbEntity
  8
Defpoints
 62
     0
100
AcDbPoint
 10
44.0
 20
8.000000000000007
 30
0.0
  0
POINT
  5
1B5
330
D4
100
AcDbEntity
  8
Defpoints
 62
     0
100
AcDbPoint
 10
59.0
 20
8.000000000000064
 30
0.0
  0
ENDBLK
  5
D6
330
D4
100
AcDbEntity
  8
0
100
AcDbBlockEnd
  0
BLOCK
  5
E3
330
E2
100
AcDbEntity
  8
0
100
AcDbBlockBegin
  2
_D_1
 70
     0
 10
0.0
 20
0.0
 30
0.0
  3
_D_1
  1

  0
LINE
  5
E5
330
E2
100
AcDbEntity
  8
치수문자_일반주서
 62
     0
370
    -2
100
AcDbLine
 10
44.0
 20
8.062500000000007
 30
0.0
 11
44.0
 21
23.00000000000001
 31
0.0
  0
LINE
  5
E6
330
E2
100
AcDbEntity
  8
치수문자_일반주서
 62
     0
370
    -2
100
AcDbLine
 10
12.0
 20
7.039308514421561
 30
0.0
 11
12.0
 21
23.00000000000001
 31
0.0
  0
LINE
  5
E7
330
E2
100
AcDbEntity
  8
치수문자_일반주서
 62
     0
370
    -2
100
AcDbLine
 10
40.0
 20
23.00000000000001
 30
0.0
 11
16.0
 21
23.00000000000001
 31
0.0
  0
SOLID
  5
E8
330
E2
100
AcDbEntity
  8
치수문자_일반주서
 62
     0
100
AcDbTrace
 10
40.0
 20
22.33333333333334
 30
0.0
 11
40.0
 21
23.66666666666667
 31
0.0
 12
44.0
 22
23.00000000000001
 32
0.0
 13
44.0
 23
23.00000000000001
 33
0.0
  0
SOLID
  5
E9
330
E2
100
AcDbEntity
  8
치수문자_일반주서
 62
     0
100
AcDbTrace
 10
16.0
 20
23.66666666666667
 30
0.0
 11
16.0
 21
22.33333333333334
 31
0.0
 12
12.0
 22
23.00000000000001
 32
0.0
 13
12.0
 23
23.00000000000001
 33
0.0
  0
MTEXT
  5
EA
330
E2
100
AcDbEntity
  8
치수문자_일반주서
 62
     0
100
AcDbMText
 10
28.0
 20
27.87500000000001
 30
0.0
 40
4.0
 41
0.0
 71
     2
 72
     1
  1
\A1;32
  7
SLDTEXTSTYLE0
 73
     1
 44
1.0
  0
POINT
  5
1A2
330
E2
100
AcDbEntity
  8
Defpoints
 62
     0
100
AcDbPoint
 10
44.0
 20
8.000000000000007
 30
0.0
  0
POINT
  5
1A3
330
E2
100
AcDbEntity
  8
Defpoints
 62
     0
100
AcDbPoint
 10
12.0
 20
6.976808514421561
 30
0.0
  0
POINT
  5
1A4
330
E2
100
AcDbEntity
  8
Defpoints
 62
     0
100
AcDbPoint
 10
12.0
 20
23.00000000000001
 30
0.0
  0
ENDBLK
  5
E4
330
E2
100
AcDbEntity
  8
0
100
AcDbBlockEnd
  0
BLOCK
  5
ED
330
EC
100
AcDbEntity
  8
0
100
AcDbBlockBegin
  2
_D_2
 70
     0
 10
0.0
 20
0.0
 30
0.0
  3
_D_2
  1

  0
LINE
  5
EF
330
EC
100
AcDbEntity
  8
치수문자_일반주서
 62
     0
370
    -2
100
AcDbLine
 10
44.0
 20
8.062500000000007
 30
0.0
 11
44.00000000000002
 21
38.00000000000001
 31
0.0
  0
LINE
  5
F0
330
EC
100
AcDbEntity
  8
치수문자_일반주서
 62
     0
370
    -2
100
AcDbLine
 10
-106.0
 20
7.062499999999993
 30
0.0
 11
-106.0
 21
38.00000000000001
 31
0.0
  0
LINE
  5
F1
330
EC
100
AcDbEntity
  8
치수문자_일반주서
 62
     0
370
    -2
100
AcDbLine
 10
40.00000000000002
 20
38.00000000000001
 30
0.0
 11
-102.0
 21
38.00000000000001
 31
0.0
  0
SOLID
  5
F2
330
EC
100
AcDbEntity
  8
치수문자_일반주서
 62
     0
100
AcDbTrace
 10
40.00000000000002
 20
37.33333333333334
 30
0.0
 11
40.00000000000002
 21
38.66666666666667
 31
0.0
 12
44.00000000000002
 22
38.00000000000001
 32
0.0
 13
44.00000000000002
 23
38.00000000000001
 33
0.0
  0
SOLID
  5
F3
330
EC
100
AcDbEntity
  8
치수문자_일반주서
 62
     0
100
AcDbTrace
 10
-102.0
 20
38.66666666666667
 30
0.0
 11
-102.0
 21
37.33333333333334
 31
0.0
 12
-106.0
 22
38.00000000000001
 32
0.0
 13
-106.0
 23
38.00000000000001
 33
0.0
  0
MTEXT
  5
F4
330
EC
100
AcDbEntity
  8
치수문자_일반주서
 62
     0
100
AcDbMText
 10
-30.99999999999999
 20
42.87500000000001
 30
0.0
 40
4.0
 41
0.0
 71
     2
 72
     1
  1
\A1;150
  7
SLDTEXTSTYLE0
 73
     1
 44
1.0
  0
POINT
  5
1A5
330
EC
100
AcDbEntity
  8
Defpoints
 62
     0
100
AcDbPoint
 10
44.0
 20
8.000000000000007
 30
0.0
  0
POINT
  5
1A6
330
EC
100
AcDbEntity
  8
Defpoints
 62
     0
100
AcDbPoint
 10
-106.0
 20
6.999999999999993
 30
0.0
  0
POINT
  5
1A7
330
EC
100
AcDbEntity
  8
Defpoints
 62
     0
100
AcDbPoint
 10
-106.0
 20
38.00000000000001
 30
0.0
  0
ENDBLK
  5
EE
330
EC
100
AcDbEntity
  8
0
100
AcDbBlockEnd
  0
BLOCK
  5
F7
330
F6
100
AcDbEntity
  8
0
100
AcDbBlockBegin
  2
_D_3
 70
     0
 10
0.0
 20
0.0
 30
0.0
  3
_D_3
  1

  0
LINE
  5
F9
330
F6
100
AcDbEntity
  8
치수문자_일반주서
 62
     0
370
    -2
100
AcDbLine
 10
-105.0625
 20
-8.000000000000002
 30
0.0
 11
-120.9999999999999
 21
-8.00000000000006
 31
0.0
  0
LINE
  5
FA
330
F6
100
AcDbEntity
  8
치수문자_일반주서
 62
     0
370
    -2
100
AcDbLine
 10
-105.0625
 20
7.999999999999998
 30
0.0
 11
-121.0
 21
7.99999999999994
 31
0.0
  0
LINE
  5
FB
330
F6
100
AcDbEntity
  8
치수문자_일반주서
 62
     0
370
    -2
100
AcDbLine
 10
-121.0
 20
7.99999999999994
 30
0.0
 11
-121.0
 21
24.74999999999994
 31
0.0
  0
LINE
  5
FC
330
F6
100
AcDbEntity
  8
치수문자_일반주서
 62
     0
370
    -2
100
AcDbLine
 10
-120.9999999999999
 20
-8.00000000000006
 30
0.0
 11
-121.0
 21
7.99999999999994
 31
0.0
  0
LINE
  5
FD
330
F6
100
AcDbEntity
  8
치수문자_일반주서
 62
     0
370
    -2
100
AcDbLine
 10
-120.9999999999999
 20
-12.00000000000006
 30
0.0
 11
-120.9999999999999
 21
-16.00000000000006
 31
0.0
  0
LINE
  5
FE
330
F6
100
AcDbEntity
  8
치수문자_일반주서
 62
     0
370
    -2
100
AcDbLine
 10
-121.0
 20
11.99999999999994
 30
0.0
 11
-121.0
 21
15.99999999999994
 31
0.0
  0
SOLID
  5
FF
330
F6
100
AcDbEntity
  8
치수문자_일반주서
 62
     0
100
AcDbTrace
 10
-120.3333333333332
 20
-12.00000000000006
 30
0.0
 11
-121.6666666666666
 21
-12.00000000000006
 31
0.0
 12
-120.9999999999999
 22
-8.00000000000006
 32
0.0
 13
-120.9999999999999
 23
-8.00000000000006
 33
0.0
  0
SOLID
  5
1A8
330
F6
100
AcDbEntity
  8
치수문자_일반주서
 62
     0
100
AcDbTrace
 10
-121.6666666666667
 20
11.99999999999994
 30
0.0
 11
-120.3333333333333
 21
11.99999999999994
 31
0.0
 12
-121.0
 22
7.99999999999994
 32
0.0
 13
-121.0
 23
7.99999999999994
 33
0.0
  0
MTEXT
  5
1A9
330
F6
100
AcDbEntity
  8
치수문자_일반주서
 62
     0
100
AcDbMText
 10
-125.875
 20
20.37499999999993
 30
0.0
 40
4.0
 41
0.0
 71
     2
 72
     1
  1
\A1;%%c16
  7
SLDTEXTSTYLE0
 11
-3.552713678800501E-15
 21
1.0
 31
0.0
 73
     1
 44
1.0
  0
POINT
  5
1B0
330
F6
100
AcDbEntity
  8
Defpoints
 62
     0
100
AcDbPoint
 10
-105.0
 20
-8.000000000000002
 30
0.0
  0
POINT
  5
1B1
330
F6
100
AcDbEntity
  8
Defpoints
 62
     0
100
AcDbPoint
 10
-105.0
 20
7.999999999999998
 30
0.0
  0
POINT
  5
1B2
330
F6
100
AcDbEntity
  8
Defpoints
 62
     0
100
AcDbPoint
 10
-121.0
 20
7.999999999999939
 30
0.0
  0
ENDBLK
  5
F8
330
F6
100
AcDbEntity
  8
0
100
AcDbBlockEnd
  0
BLOCK
  5
101
330
100
100
AcDbEntity
  8
0
100
AcDbBlockBegin
  2
SW_DOWELSYMBOL_0
 70
     0
 10
0.0
 20
0.0
 30
0.0
  3
SW_DOWELSYMBOL_0
  1

  0
CIRCLE
  5
103
330
100
100
AcDbEntity
  8
외형선
 62
     0
100
AcDbCircle
 10
0.0
 20
0.0
 30
0.0
 40
3.000000000000001
  0
HATCH
  5
104
330
100
100
AcDbEntity
  8
0
  6
Continuous
 62
     0
370
    30
100
AcDbHatch
 10
0.0
 20
0.0
 30
0.0
210
0.0
220
0.0
230
1.0
  2
SOLID
 70
     1
 71
     0
 91
        1
 92
        0
 93
        3
 72
     2
 10
-0.0000000000000069
 20
-0.0000000000000035
 40
3.000000000000001
 50
0.0
 51
90.0
 73
     1
 72
     1
 10
-0.0000000000000069
 20
2.999999999999998
 11
-0.0000000000000069
 21
-0.0000000000000036
 72
     1
 10
-0.0000000000000069
 20
-0.0000000000000035
 11
2.999999999999994
 21
-0.0000000000000035
 97
        0
 75
     0
 76
     1
 98
        1
 10
0.0
 20
0.0
  0
HATCH
  5
105
330
100
100
AcDbEntity
  8
0
  6
Continuous
 62
     0
370
    30
100
AcDbHatch
 10
0.0
 20
0.0
 30
0.0
210
0.0
220
0.0
230
1.0
  2
SOLID
 70
     1
 71
     0
 91
        1
 92
        0
 93
        3
 72
     2
 10
-0.0000000000000069
 20
-0.0000000000000035
 40
3.000000000000001
 50
180.0
 51
270.0000000000007
 73
     1
 72
     1
 10
-0.0000000000000069
 20
-3.000000000000005
 11
-0.0000000000000069
 21
-0.0000000000000036
 72
     1
 10
-0.0000000000000069
 20
-0.0000000000000035
 11
-3.000000000000008
 21
-0.0000000000000035
 97
        0
 75
     0
 76
     1
 98
        1
 10
0.0
 20
0.0
  0
ENDBLK
  5
102
330
100
100
AcDbEntity
  8
0
100
AcDbBlockEnd
  0
BLOCK
  5
16C
330
16B
100
AcDbEntity
  8
0
100
AcDbBlockBegin
  2
*D7
 70
     1
 10
0.0
 20
0.0
 30
0.0
  3
*D7
  1

  0
LINE
  5
16D
330
16B
100
AcDbEntity
  8
치수문자_일반주서
 62
     0
370
    -2
100
AcDbLine
 10
3.186440170087446
 20
22.82809278780842
 30
0.0
 11
22.06469775827815
 21
-0.0000000000000031
 31
0.0
  0
MTEXT
  5
16E
330
16B
100
AcDbEntity
  8
치수문자_일반주서
 62
     0
100
AcDbMText
 10
21.01414545688424
 20
5.781659784355693
 30
0.0
 40
4.0
 41
0.0
 71
     5
 72
     1
  1
\A1;R0.5
  7
SLDTEXTSTYLE0
 11
0.6372880340174896
 21
-0.7706256949376417
 31
0.0
 73
     1
 44
1.0
  0
LINE
  5
16F
330
16B
100
AcDbEntity
  8
치수문자_일반주서
 62
     0
370
    -2
100
AcDbLine
 10
0.0
 20
26.68122126249663
 30
0.0
 11
0.6372880340174873
 21
25.91059556755899
 31
0.0
  0
SOLID
  5
170
330
16B
100
AcDbEntity
  8
치수문자_일반주서
 62
     0
100
AcDbTrace
 10
3.700190633379207
 20
23.25295147715342
 30
0.0
 11
2.672689706795684
 21
22.40323409846343
 31
0.0
 12
0.6372880340174873
 22
25.91059556755899
 32
0.0
 13
0.6372880340174873
 23
25.91059556755899
 33
0.0
  0
POINT
  5
171
330
16B
100
AcDbEntity
  8
Defpoints
 62
     0
100
AcDbPoint
 10
0.6372880340174873
 20
25.91059556755899
 30
0.0
  0
POINT
  5
172
330
16B
100
AcDbEntity
  8
Defpoints
 62
     0
100
AcDbPoint
 10
0.0
 20
26.68122126249663
 30
0.0
  0
ENDBLK
  5
173
330
16B
100
AcDbEntity
  8
0
100
AcDbBlockEnd
  0
BLOCK
  5
179
330
178
100
AcDbEntity
  8
0
100
AcDbBlockBegin
  2
*D8
 70
     1
 10
0.0
 20
0.0
 30
0.0
  3
*D8
  1

  0
LINE
  5
17B
330
178
100
AcDbEntity
  8
치수문자_일반주서
 62
     0
370
    -2
100
AcDbLine
 10
0.8577241533997082
 20
25.76236719253982
 30
0.0
 11
15.79522415339976
 21
25.76236719253988
 31
0.0
  0
LINE
  5
17C
330
178
100
AcDbEntity
  8
치수문자_일반주서
 62
     0
370
    -2
100
AcDbLine
 10
0.8577241533997082
 20
41.76236719253982
 30
0.0
 11
15.7952241533997
 21
41.76236719253988
 31
0.0
  0
LINE
  5
17D
330
178
100
AcDbEntity
  8
치수문자_일반주서
 62
     0
370
    -2
100
AcDbLine
 10
15.7952241533997
 20
41.76236719253988
 30
0.0
 11
15.79522415339964
 21
58.51236719253997
 31
0.0
  0
LINE
  5
17E
330
178
100
AcDbEntity
  8
치수문자_일반주서
 62
     0
370
    -2
100
AcDbLine
 10
15.79522415339976
 20
25.76236719253988
 30
0.0
 11
15.7952241533997
 21
41.76236719253988
 31
0.0
  0
LINE
  5
17F
330
178
100
AcDbEntity
  8
치수문자_일반주서
 62
     0
370
    -2
100
AcDbLine
 10
15.79522415339977
 20
21.76236719253988
 30
0.0
 11
15.79522415339978
 21
17.76236719253988
 31
0.0
  0
LINE
  5
180
330
178
100
AcDbEntity
  8
치수문자_일반주서
 62
     0
370
    -2
100
AcDbLine
 10
15.79522415339969
 20
45.76236719253988
 30
0.0
 11
15.79522415339967
 21
49.76236719253988
 31
0.0
  0
SOLID
  5
181
330
178
100
AcDbEntity
  8
치수문자_일반주서
 62
     0
100
AcDbTrace
 10
16.46189082006644
 20
21.76236719253988
 30
0.0
 11
15.1285574867331
 21
21.76236719253988
 31
0.0
 12
15.79522415339976
 22
25.76236719253988
 32
0.0
 13
15.79522415339976
 23
25.76236719253988
 33
0.0
  0
SOLID
  5
182
330
178
100
AcDbEntity
  8
치수문자_일반주서
 62
     0
100
AcDbTrace
 10
15.12855748673302
 20
45.76236719253988
 30
0.0
 11
16.46189082006635
 21
45.76236719253988
 31
0.0
 12
15.7952241533997
 22
41.76236719253988
 32
0.0
 13
15.7952241533997
 23
41.76236719253988
 33
0.0
  0
MTEXT
  5
183
330
178
100
AcDbEntity
  8
치수문자_일반주서
 62
     0
100
AcDbMText
 10
10.92022415339966
 20
54.13736719253995
 30
0.0
 40
4.0
 41
0.0
 71
     2
 72
     1
  1
\A1;%%c16
  7
SLDTEXTSTYLE0
 11
-3.441691376337986E-15
 21
1.0
 31
0.0
 73
     1
 44
1.0
  0
POINT
  5
184
330
178
100
AcDbEntity
  8
Defpoints
 62
     0
100
AcDbPoint
 10
0.7952241533997082
 20
25.76236719253982
 30
0.0
  0
POINT
  5
185
330
178
100
AcDbEntity
  8
Defpoints
 62
     0
100
AcDbPoint
 10
0.7952241533997082
 20
41.76236719253982
 30
0.0
  0
POINT
  5
186
330
178
100
AcDbEntity
  8
Defpoints
 62
     0
100
AcDbPoint
 10
15.7952241533997
 20
41.76236719253988
 30
0.0
  0
ENDBLK
  5
17A
330
178
100
AcDbEntity
  8
0
100
AcDbBlockEnd
  0
BLOCK
  5
18B
330
18A
100
AcDbEntity
  8
0
100
AcDbBlockBegin
  2
*D9
 70
     1
 10
0.0
 20
0.0
 30
0.0
  3
*D9
  1

  0
LINE
  5
18D
330
18A
100
AcDbEntity
  8
치수문자_일반주서
 62
     0
370
    -2
100
AcDbLine
 10
55.99416278100562
 20
7.340184264312683
 30
0.0
 11
70.93166278100567
 21
7.34018426431274
 31
0.0
  0
LINE
  5
18E
330
18A
100
AcDbEntity
  8
치수문자_일반주서
 62
     0
370
    -2
100
AcDbLine
 10
55.99416278100562
 20
23.34018426431268
 30
0.0
 11
70.93166278100561
 21
23.34018426431274
 31
0.0
  0
LINE
  5
18F
330
18A
100
AcDbEntity
  8
치수문자_일반주서
 62
     0
370
    -2
100
AcDbLine
 10
70.93166278100561
 20
23.34018426431274
 30
0.0
 11
70.93166278100556
 21
40.09018426431282
 31
0.0
  0
LINE
  5
190
330
18A
100
AcDbEntity
  8
치수문자_일반주서
 62
     0
370
    -2
100
AcDbLine
 10
70.93166278100567
 20
7.34018426431274
 30
0.0
 11
70.93166278100561
 21
23.34018426431274
 31
0.0
  0
LINE
  5
191
330
18A
100
AcDbEntity
  8
치수문자_일반주서
 62
     0
370
    -2
100
AcDbLine
 10
70.93166278100568
 20
3.34018426431274
 30
0.0
 11
70.9316627810057
 21
-0.6598157356872605
 31
0.0
  0
LINE
  5
192
330
18A
100
AcDbEntity
  8
치수문자_일반주서
 62
     0
370
    -2
100
AcDbLine
 10
70.9316627810056
 20
27.34018426431274
 30
0.0
 11
70.93166278100558
 21
31.34018426431274
 31
0.0
  0
SOLID
  5
193
330
18A
100
AcDbEntity
  8
치수문자_일반주서
 62
     0
100
AcDbTrace
 10
71.59832944767236
 20
3.340184264312742
 30
0.0
 11
70.26499611433901
 21
3.340184264312737
 31
0.0
 12
70.93166278100567
 22
7.34018426431274
 32
0.0
 13
70.93166278100567
 23
7.34018426431274
 33
0.0
  0
SOLID
  5
194
330
18A
100
AcDbEntity
  8
치수문자_일반주서
 62
     0
100
AcDbTrace
 10
70.26499611433893
 20
27.34018426431273
 30
0.0
 11
71.59832944767227
 21
27.34018426431274
 31
0.0
 12
70.93166278100561
 22
23.34018426431274
 32
0.0
 13
70.93166278100561
 23
23.34018426431274
 33
0.0
  0
MTEXT
  5
195
330
18A
100
AcDbEntity
  8
치수문자_일반주서
 62
     0
100
AcDbMText
 10
66.05666278100557
 20
35.71518426431281
 30
0.0
 40
4.0
 41
0.0
 71
     2
 72
     1
  1
\A1;%%c16
  7
SLDTEXTSTYLE0
 11
-3.552713678800502E-15
 21
1.0
 31
0.0
 73
     1
 44
1.0
  0
POINT
  5
196
330
18A
100
AcDbEntity
  8
Defpoints
 62
     0
100
AcDbPoint
 10
55.93166278100562
 20
7.340184264312683
 30
0.0
  0
POINT
  5
197
330
18A
100
AcDbEntity
  8
Defpoints
 62
     0
100
AcDbPoint
 10
55.93166278100562
 20
23.34018426431268
 30
0.0
  0
POINT
  5
198
330
18A
100
AcDbEntity
  8
Defpoints
 62
     0
100
AcDbPoint
 10
70.93166278100561
 20
23.34018426431274
 30
0.0
  0
ENDBLK
  5
18C
330
18A
100
AcDbEntity
  8
0
100
AcDbBlockEnd
  0
BLOCK
  5
19A
330
199
100
AcDbEntity
  8
0
100
AcDbBlockBegin
  2
*D10
 70
     1
 10
0.0
 20
0.0
 30
0.0
  3
*D10
  1

  0
LINE
  5
19C
330
199
100
AcDbEntity
  8
치수문자_일반주서
 62
     0
370
    -2
100
AcDbLine
 10
64.0868608574385
 20
-10.4866076449408
 30
0.0
 11
82.96511844562932
 21
-33.31470043274912
 31
0.0
  0
MTEXT
  5
19D
330
199
100
AcDbEntity
  8
치수문자_일반주서
 62
     0
100
AcDbMText
 10
81.91456614423537
 20
-27.53304064839343
 30
0.0
 40
4.0
 41
0.0
 71
     5
 72
     1
  1
\A1;R0.5
  7
SLDTEXTSTYLE0
 11
0.6372880340174939
 21
-0.7706256949376381
 31
0.0
 73
     1
 44
1.0
  0
LINE
  5
19E
330
199
100
AcDbEntity
  8
치수문자_일반주서
 62
     0
370
    -2
100
AcDbLine
 10
60.90042068735102
 20
-6.633479170252606
 30
0.0
 11
61.53770872136852
 21
-7.404104865190245
 31
0.0
  0
SOLID
  5
19F
330
199
100
AcDbEntity
  8
치수문자_일반주서
 62
     0
100
AcDbTrace
 10
64.60061132073025
 20
-10.0617489555958
 30
0.0
 11
63.57311039414674
 21
-10.91146633428579
 31
0.0
 12
61.53770872136852
 22
-7.404104865190245
 32
0.0
 13
61.53770872136852
 23
-7.404104865190245
 33
0.0
  0
POINT
  5
1A0
330
199
100
AcDbEntity
  8
Defpoints
 62
     0
100
AcDbPoint
 10
61.53770872136852
 20
-7.404104865190245
 30
0.0
  0
POINT
  5
1A1
330
199
100
AcDbEntity
  8
Defpoints
 62
     0
100
AcDbPoint
 10
60.90042068735102
 20
-6.633479170252606
 30
0.0
  0
ENDBLK
  5
19B
330
199
100
AcDbEntity
  8
0
100
AcDbBlockEnd
  0
BLOCK
  5
1E5
330
1E4
100
AcDbEntity
  8
0
100
AcDbBlockBegin
  2
*D11
 70
     1
 10
0.0
 20
0.0
 30
0.0
  3
*D11
  1

  0
LINE
  5
1E7
330
1E4
100
AcDbEntity
  8
치수문자_일반주서
 62
     0
370
    -2
100
AcDbLine
 10
45.29761717271646
 20
-11.01255633207304
 30
0.0
 11
64.3093557069732
 21
-39.91142645019004
 31
0.0
  0
MTEXT
  5
1E8
330
1E4
100
AcDbEntity
  8
치수문자_일반주서
 62
     0
100
AcDbMText
 10
64.8562959564385
 20
-35.51175528480565
 30
0.0
 40
4.0
 41
0.0
 71
     5
 72
     1
  1
\A1;R2
  7
SLDTEXTSTYLE0
 11
0.5496028621194112
 21
-0.8354260553455055
 31
0.0
 73
     1
 44
1.0
  0
LINE
  5
1E9
330
1E4
100
AcDbEntity
  8
치수문자_일반주서
 62
     0
370
    -2
100
AcDbLine
 10
42.0
 20
-6.000000000000004
 30
0.0
 11
43.09920572423882
 21
-7.670852110691014
 31
0.0
  0
SOLID
  5
1EA
330
1E4
100
AcDbEntity
  8
치수문자_일반주서
 62
     0
100
AcDbTrace
 10
45.85456787628014
 20
-10.64615442399343
 30
0.0
 11
44.74066646915279
 21
-11.37895824015264
 31
0.0
 12
43.09920572423882
 22
-7.670852110691014
 32
0.0
 13
43.09920572423882
 23
-7.670852110691014
 33
0.0
  0
POINT
  5
1EB
330
1E4
100
AcDbEntity
  8
Defpoints
 62
     0
100
AcDbPoint
 10
43.09920572423882
 20
-7.670852110691014
 30
0.0
  0
POINT
  5
1EC
330
1E4
100
AcDbEntity
  8
Defpoints
 62
     0
100
AcDbPoint
 10
42.0
 20
-6.000000000000004
 30
0.0
  0
ENDBLK
  5
1E6
330
1E4
100
AcDbEntity
  8
0
100
AcDbBlockEnd
  0
ENDSEC
  0
SECTION
  2
ENTITIES
  0
LINE
  5
95
330
1F
100
AcDbEntity
  8
0
  6
Continuous
 62
   131
370
    15
100
AcDbLine
 10
8.949902463926737
 20
8.000000000000005
 30
0.0
 11
-105.0
 21
7.999999999999998
 31
0.0
  0
LINE
  5
96
330
1F
100
AcDbEntity
  8
0
  6
Continuous
 62
   131
370
    15
100
AcDbLine
 10
-105.0
 20
-8.000000000000002
 30
0.0
 11
8.94990246392674
 21
-7.999999999999995
 31
0.0
  0
LINE
  5
97
330
1F
100
AcDbEntity
  8
0
  6
Continuous
 62
   131
370
    15
100
AcDbLine
 10
-105.0
 20
7.999999999999988
 30
0.0
 11
-106.0
 21
6.999999999999993
 31
0.0
  0
LINE
  5
98
330
1F
100
AcDbEntity
  8
0
  6
Continuous
 62
   131
370
    15
100
AcDbLine
 10
-106.0
 20
-6.999999999999996
 30
0.0
 11
-105.0
 21
-7.999999999999991
 31
0.0
  0
SPLINE
  5
99
330
1F
100
AcDbEntity
  8
0
  6
Continuous
 62
   131
370
    15
100
AcDbSpline
210
0.0
220
0.0
230
1.0
 70
     8
 71
     3
 72
     9
 73
     5
 74
     0
 42
0.000000001
 43
0.00000001
 40
0.0
 40
0.0
 40
0.0
 40
0.0
 40
0.5558911996446149
 40
1.0
 40
1.0
 40
1.0
 40
1.0
 10
8.949865184419526
 20
-6.616073838713891
 30
0.0
 10
9.517100046229675
 20
-6.566860413326398
 30
0.0
 10
10.53750630949268
 20
-6.478329734267341
 30
0.0
 10
11.55023726864715
 20
-6.413165106083971
 30
0.0
 10
12.0
 20
-6.384224921235851
 30
0.0
  0
SPLINE
  5
9A
330
1F
100
AcDbEntity
  8
0
  6
Continuous
 62
     1
370
    15
100
AcDbSpline
210
0.0
220
0.0
230
1.0
 70
     8
 71
     3
 72
     9
 73
     5
 74
     0
 42
0.000000001
 43
0.00000001
 40
0.0
 40
0.0
 40
0.0
 40
0.0
 40
0.4404870499434066
 40
1.0
 40
1.0
 40
1.0
 40
1.0
 10
23.27339859548378
 20
2.049941855457882
 30
0.0
 10
22.94698870065299
 20
2.205291635339778
 30
0.0
 10
22.20596828955866
 20
2.557968927218974
 30
0.0
 10
21.46802262004769
 20
2.943981642702003
 30
0.0
 10
21.05513246151813
 20
3.15996075590127
 30
0.0
  0
SPLINE
  5
9B
330
1F
100
AcDbEntity
  8
0
  6
Continuous
 62
     1
370
    15
100
AcDbSpline
210
0.0
220
0.0
230
1.0
 70
     8
 71
     3
 72
    19
 73
    15
 74
     0
 42
0.000000001
 43
0.00000001
 40
0.0
 40
0.0
 40
0.0
 40
0.0
 40
0.135499866737338
 40
0.2379824416993838
 40
0.3210475506367818
 40
0.4211940631874485
 40
0.5343215955404874
 40
0.6427708633247942
 40
0.7205735942252637
 40
0.7929026787071687
 40
0.8607956584836236
 40
0.9257851527993041
 40
0.9885371089275178
 40
1.0
 40
1.0
 40
1.0
 40
1.0
 10
20.62881516212159
 20
6.357102943431552
 30
0.0
 10
20.33645055720019
 20
6.342381655914893
 30
0.0
 10
19.82296191532171
 20
6.316526221274763
 30
0.0
 10
19.12236910755816
 20
6.290273173541297
 30
0.0
 10
18.4903421310805
 20
6.271622992945917
 30
0.0
 10
17.84107661154387
 20
6.257495752180452
 30
0.0
 10
17.13769280002181
 20
6.248647687774332
 30
0.0
 10
16.47374546230296
 20
6.246693922778162
 30
0.0
 10
15.89892107261853
 20
6.248229037870326
 30
0.0
 10
15.41729865481594
 20
6.253683022723764
 30
0.0
 10
14.98457382636853
 20
6.262851712376557
 30
0.0
 10
14.58287055493641
 20
6.273212934158197
 30
0.0
 10
14.28360707751823
 20
6.281290453121209
 30
0.0
 10
14.12150389235825
 20
6.286973092819389
 30
0.0
 10
14.0964661644092
 20
6.287850807755433
 30
0.0
1001
PE_URL
1000

  0
SPLINE
  5
9C
330
1F
100
AcDbEntity
  8
0
  6
Continuous
 62
     1
370
    15
100
AcDbSpline
210
0.0
220
0.0
230
1.0
 70
     8
 71
     3
 72
    27
 73
    23
 74
     0
 42
0.000000001
 43
0.00000001
 40
0.0
 40
0.0
 40
0.0
 40
0.0
 40
0.0660649185158602
 40
0.1161607285526871
 40
0.150051210377667
 40
0.180672462522369
 40
0.2193863119978751
 40
0.2652009600995992
 40
0.3078257245667234
 40
0.3716582029716754
 40
0.425618636599625
 40
0.4793761179438288
 40
0.5329424826368028
 40
0.5927696782637075
 40
0.6566950123830868
 40
0.7105372697381661
 40
0.7403873230998888
 40
0.7678494102513395
 40
0.7956745393478708
 40
0.84197002868268
 40
0.9102246851806617
 40
1.0
 40
1.0
 40
1.0
 40
1.0
 10
41.02787726284918
 20
5.471619534617129
 30
0.0
 10
40.72128417570038
 20
5.446619958984013
 30
0.0
 10
40.18220720152878
 20
5.402663665927303
 30
0.0
 10
39.48555083316649
 20
5.358866460111764
 30
0.0
 10
38.94953744459472
 20
5.330267289940644
 30
0.0
 10
38.46495894924274
 20
5.308422482491466
 30
0.0
 10
37.92741808743894
 20
5.28896287061072
 30
0.0
 10
37.33494615720969
 20
5.273977798212869
 30
0.0
 10
36.62576121346585
 20
5.26405334850126
 30
0.0
 10
35.87890819510655
 20
5.263793116736696
 30
0.0
 10
35.07996090925364
 20
5.275672205619435
 30
0.0
 10
34.32808841762286
 20
5.297182113557451
 30
0.0
 10
33.54983252026831
 20
5.330035071651258
 30
0.0
 10
32.7206660862625
 20
5.377173998871585
 30
0.0
 10
31.88560530088521
 20
5.437255465900888
 30
0.0
 10
31.1981289088371
 20
5.496794324415816
 30
0.0
 10
30.68855042690456
 20
5.546106401357699
 30
0.0
 10
30.2970579949158
 20
5.586658780890142
 30
0.0
 10
29.82899808797337
 20
5.637985022553983
 30
0.0
 10
29.16609296710482
 20
5.716336061621114
 30
0.0
 10
28.21280970610129
 20
5.840138869805261
 30
0.0
 10
27.47303474589996
 20
5.952971522759635
 30
0.0
 10
27.05277566849887
 20
6.017070673423532
 30
0.0
  0
SPLINE
  5
9D
330
1F
100
AcDbEntity
  8
0
  6
Continuous
 62
     1
370
    15
100
AcDbSpline
210
0.0
220
0.0
230
1.0
 70
     8
 71
     3
 72
    16
 73
    12
 74
     0
 42
0.000000001
 43
0.00000001
 40
0.0
 40
0.0
 40
0.0
 40
0.0
 40
0.1698106417099655
 40
0.2949071710949646
 40
0.3818584177867009
 40
0.4819532242942708
 40
0.6043684163889591
 40
0.7206992391153236
 40
0.8638780818289327
 40
0.9873553828164775
 40
1.0
 40
1.0
 40
1.0
 40
1.0
 10
27.05277566849887
 20
-6.017070673423517
 30
0.0
 10
27.38730888774403
 20
-5.965682758851188
 30
0.0
 10
27.96828687788312
 20
-5.876438266501414
 30
0.0
 10
28.72246702088761
 20
-5.773853998854274
 30
0.0
 10
29.34761713975089
 20
-5.694770414582814
 30
0.0
 10
29.96433473033572
 20
-5.622288106312382
 30
0.0
 10
30.63616506693187
 20
-5.550396057816388
 30
0.0
 10
31.39269618946073
 20
-5.478577786429224
 30
0.0
 10
32.15255283528599
 20
-5.417824064515254
 30
0.0
 10
32.70347857027408
 20
-5.378396178940004
 30
0.0
 10
32.97265472963569
 20
-5.363970390347762
 30
0.0
 10
32.99765900180425
 20
-5.362630352117547
 30
0.0
1001
PE_URL
1000

  0
SPLINE
  5
9E
330
1F
100
AcDbEntity
  8
0
  6
Continuous
 62
     1
370
    15
100
AcDbSpline
210
0.0
220
0.0
230
1.0
 70
     8
 71
     3
 72
    21
 73
    17
 74
     0
 42
0.000000001
 43
0.00000001
 40
0.0
 40
0.0
 40
0.0
 40
0.0
 40
0.1141856972151699
 40
0.1973553085212386
 40
0.2510460381485799
 40
0.2985893480877906
 40
0.3478279035318616
 40
0.3992662519016471
 40
0.4540655648364748
 40
0.5130119240823966
 40
0.5951772854364721
 40
0.6808870810375753
 40
0.7567619537793788
 40
0.8196952942361455
 40
0.8973400582469093
 40
1.0
 40
1.0
 40
1.0
 40
1.0
 10
12.0
 20
-6.384224921235851
 30
0.0
 10
12.32945293126343
 20
-6.365811955015245
 30
0.0
 10
12.89886999906131
 20
-6.333987508364879
 30
0.0
 10
13.62216697601521
 20
-6.303889499511588
 30
0.0
 10
14.15503094481283
 20
-6.285323566207033
 30
0.0
 10
14.58310026057589
 20
-6.273058299778743
 30
0.0
 10
14.98450840756767
 20
-6.262895751328744
 30
0.0
 10
15.41731774800053
 20
-6.253670169479232
 30
0.0
 10
15.89891543736461
 20
-6.248232831438445
 30
0.0
 10
16.47374770918079
 20
-6.246692410213814
 30
0.0
 10
17.13769208061591
 20
-6.248648172067546
 30
0.0
 10
17.8410767839322
 20
-6.257495636131218
 30
0.0
 10
18.49034209587183
 20
-6.271623016647866
 30
0.0
 10
19.12236911841273
 20
-6.290273166234146
 30
0.0
 10
19.8229619112558
 20
-6.316526224011869
 30
0.0
 10
20.33645055572507
 20
-6.342381656907909
 30
0.0
 10
20.62881516212159
 20
-6.357102943431541
 30
0.0
1001
PE_URL
1000

  0
SPLINE
  5
9F
330
1F
100
AcDbEntity
  8
0
  6
Continuous
 62
   131
370
    15
100
AcDbSpline
210
0.0
220
0.0
230
1.0
 70
     8
 71
     3
 72
    10
 73
     6
 74
     0
 42
0.000000001
 43
0.00000001
 40
0.0
 40
0.0
 40
0.0
 40
0.0
 40
0.5
 40
0.5
 40
1.0
 40
1.0
 40
1.0
 40
1.0
 10
12.00000000001211
 20
6.976808514418136
 30
0.0
 10
11.49137821011963
 20
7.120458891460884
 30
0.0
 10
10.98622428597801
 20
7.249722589781117
 30
0.0
 10
9.967905304899517
 20
7.479147149147454
 30
0.0
 10
9.457274942885263
 20
7.579038022687691
 30
0.0
 10
8.94980040827636
 20
7.663252224098644
 30
0.0
  0
LINE
  5
A0
330
1F
100
AcDbEntity
  8
0
  6
Continuous
 62
   131
370
    15
100
AcDbLine
 10
12.0
 20
6.976808514421561
 30
0.0
 11
12.0
 21
5.624311459327619
 31
0.0
  0
SPLINE
  5
A1
330
1F
100
AcDbEntity
  8
0
  6
Continuous
 62
   131
370
    15
100
AcDbSpline
210
0.0
220
0.0
230
1.0
 70
     8
 71
     3
 72
    10
 73
     6
 74
     0
 42
0.000000001
 43
0.00000001
 40
0.0
 40
0.0
 40
0.0
 40
0.0
 40
0.5
 40
0.5
 40
1.0
 40
1.0
 40
1.0
 40
1.0
 10
8.94990246392675
 20
6.730875140027472
 30
0.0
 10
9.457360411448885
 20
6.572333257972058
 30
0.0
 10
9.967973666594808
 20
6.399848195567363
 30
0.0
 10
10.98625831872147
 20
6.030032015429043
 30
0.0
 10
11.49139525783066
 20
5.833075718771215
 30
0.0
 10
12.0
 20
5.624311459327617
 30
0.0
  0
SPLINE
  5
A2
330
1F
100
AcDbEntity
  8
0
  6
Continuous
 62
   131
370
    15
100
AcDbSpline
210
0.0
220
0.0
230
1.0
 70
     8
 71
     3
 72
    10
 73
     6
 74
     0
 42
0.000000001
 43
0.00000001
 40
0.0
 40
0.0
 40
0.0
 40
0.0
 40
0.5
 40
0.5
 40
1.0
 40
1.0
 40
1.0
 40
1.0
 10
12.00000000001212
 20
-6.976808514418125
 30
0.0
 10
11.49137821011963
 20
-7.120458891460873
 30
0.0
 10
10.98622428597801
 20
-7.249722589781104
 30
0.0
 10
9.967905304899517
 20
-7.479147149147441
 30
0.0
 10
9.457274942885263
 20
-7.57903802268768
 30
0.0
 10
8.94980040827636
 20
-7.663252224098633
 30
0.0
  0
LINE
  5
A3
330
1F
100
AcDbEntity
  8
0
  6
Continuous
 62
   131
370
    15
100
AcDbLine
 10
8.949902463926744
 20
7.663350644684368
 30
0.0
 11
8.949902463926737
 21
8.000000000000005
 31
0.0
  0
LINE
  5
A4
330
1F
100
AcDbEntity
  8
0
  6
Continuous
 62
   131
370
    15
100
AcDbLine
 10
-105.0
 20
7.999999999999988
 30
0.0
 11
-105.0
 21
-8.000000000000002
 31
0.0
  0
LINE
  5
A5
330
1F
100
AcDbEntity
  8
0
  6
Continuous
 62
   131
370
    15
100
AcDbLine
 10
8.94990246392674
 20
-7.999999999999995
 30
0.0
 11
8.949902463926753
 21
6.730874673358147
 31
0.0
  0
LINE
  5
A6
330
1F
100
AcDbEntity
  8
0
  6
Continuous
 62
   131
370
    15
100
AcDbLine
 10
-106.0
 20
6.999999999999993
 30
0.0
 11
-106.0
 21
-6.999999999999996
 31
0.0
  0
SPLINE
  5
A7
330
1F
100
AcDbEntity
  8
0
  6
Continuous
 62
   131
370
    15
100
AcDbSpline
210
0.0
220
0.0
230
1.0
 70
    24
 71
     3
 72
    14
 73
    10
 74
     0
 42
0.000000001
 43
0.00000001
 40
0.0
 40
0.0
 40
0.0
 40
0.0
 40
0.25
 40
0.25
 40
0.5
 40
0.5
 40
0.75
 40
0.75
 40
1.0
 40
1.0
 40
1.0
 40
1.0
 10
12.0
 20
3.769990348492536
 30
0.0
 10
12.0
 20
3.15640351976284
 30
0.0
 10
12.0
 20
2.479649199054311
 30
0.0
 10
12.0
 20
1.049134643391115
 30
0.0
 10
12.0
 20
0.2959200947174382
 30
0.0
 10
12.0
 20
-1.215212901673539
 30
0.0
 10
12.0
 20
-1.972326154552581
 30
0.0
 10
12.0
 20
-3.417696032934747
 30
0.0
 10
12.0
 20
-4.105386107054565
 30
0.0
 10
12.0
 20
-4.732473697169119
 30
0.0
  0
SPLINE
  5
A8
330
1F
100
AcDbEntity
  8
0
  6
Continuous
 62
   131
370
    15
100
AcDbSpline
210
0.0
220
0.0
230
1.0
 70
     8
 71
     3
 72
    10
 73
     6
 74
     0
 42
0.000000001
 43
0.00000001
 40
0.0
 40
0.0
 40
0.0
 40
0.0
 40
0.5
 40
0.5
 40
1.0
 40
1.0
 40
1.0
 40
1.0
 10
12.0
 20
-4.732473697169122
 30
0.0
 10
11.4913890305373
 20
-4.574370148109928
 30
0.0
 10
10.98624588703635
 20
-4.407088285570047
 30
0.0
 10
9.967948695025774
 20
-4.054535503034856
 30
0.0
 10
9.457329190979072
 20
-3.869513551947684
 30
0.0
 10
8.949865184419526
 20
-3.677449484805354
 30
0.0
  0
SPLINE
  5
A9
330
1F
100
AcDbEntity
  8
0
  6
Continuous
 62
   131
370
    15
100
AcDbSpline
210
0.0
220
0.0
230
1.0
 70
     8
 71
     3
 72
    10
 73
     6
 74
     0
 42
0.000000001
 43
0.00000001
 40
0.0
 40
0.0
 40
0.0
 40
0.0
 40
0.5
 40
0.5
 40
1.0
 40
1.0
 40
1.0
 40
1.0
 10
12.0
 20
3.769990348492534
 30
0.0
 10
11.49139114895331
 20
3.921941461869286
 30
0.0
 10
10.98625011607785
 20
4.065950274583581
 30
0.0
 10
9.967957189915786
 20
4.337733410950442
 30
0.0
 10
9.45733981163524
 20
4.465236169982748
 30
0.0
 10
8.949877866252939
 20
4.583223772031167
 30
0.0
  0
SPLINE
  5
AA
330
1F
100
AcDbEntity
  8
0
  6
Continuous
 62
   131
370
    15
100
AcDbSpline
210
0.0
220
0.0
230
1.0
 70
    24
 71
     3
 72
    10
 73
     6
 74
     0
 42
0.000000001
 43
0.00000001
 40
0.0
 40
0.0
 40
0.0
 40
0.0
 40
0.5
 40
0.5
 40
1.0
 40
1.0
 40
1.0
 40
1.0
 10
12.0
 20
5.624311459327621
 30
0.0
 10
12.0
 20
5.430393375591724
 30
0.0
 10
12.0
 20
5.158202013015036
 30
0.0
 10
12.0
 20
4.513669434639876
 30
0.0
 10
12.0
 20
4.143439577033264
 30
0.0
 10
12.0
 20
3.769990348492533
 30
0.0
  0
SPLINE
  5
AB
330
1F
100
AcDbEntity
  8
0
  6
Continuous
 62
   131
370
    15
100
AcDbSpline
210
0.0
220
0.0
230
1.0
 70
    24
 71
     3
 72
    12
 73
     8
 74
     0
 42
0.000000001
 43
0.00000001
 40
0.0
 40
0.0
 40
0.0
 40
0.0
 40
0.1811622565190045
 40
0.3646833587558047
 40
0.6313577802857891
 40
0.905765778105952
 40
0.9999999999999999
 40
0.9999999999999999
 40
0.9999999999999999
 40
0.9999999999999999
 10
12.0
 20
-4.732473697169122
 30
0.0
 10
12.0
 20
-4.916690526475068
 30
0.0
 10
12.0
 20
-5.287522803250054
 30
0.0
 10
12.0
 20
-5.789162538051222
 30
0.0
 10
12.0
 20
-6.189518420850233
 30
0.0
 10
12.0
 20
-6.389885432324273
 30
0.0
 10
12.0
 20
-6.366577803630957
 30
0.0
 10
12.0
 20
-6.360619787601721
 30
0.0
  0
SPLINE
  5
AC
330
1F
100
AcDbEntity
  8
0
  6
Continuous
 62
   131
370
    15
100
AcDbSpline
210
0.0
220
0.0
230
1.0
 70
    24
 71
     3
 72
    10
 73
     6
 74
     0
 42
0.000000001
 43
0.00000001
 40
0.0
 40
0.0
 40
0.0
 40
0.0
 40
0.0703889726968534
 40
0.760796118213199
 40
1.0
 40
1.0
 40
1.0
 40
1.0
 10
12.0
 20
-6.464629869783751
 30
0.0
 10
12.0
 20
-6.477707546476252
 30
0.0
 10
12.0
 20
-6.619057040320274
 30
0.0
 10
12.0
 20
-6.787271821854439
 30
0.0
 10
12.0
 20
-6.938018871802568
 30
0.0
 10
12.0
 20
-6.976808514412673
 30
0.0
  0
SPLINE
  5
AD
330
1F
100
AcDbEntity
  8
0
  6
Continuous
 62
     1
370
    15
100
AcDbSpline
210
0.0
220
0.0
230
1.0
 70
     8
 71
     3
 72
    15
 73
    11
 74
     0
 42
0.000000001
 43
0.00000001
 40
0.0
 40
0.0
 40
0.0
 40
0.0
 40
0.1390286860927154
 40
0.2780645635740754
 40
0.4171066509280676
 40
0.5588665129738106
 40
0.7006337950848097
 40
0.8424058505495423
 40
0.9841800277997684
 40
1.0
 40
1.0
 40
1.0
 40
1.0
 10
43.83303027675039
 20
-6.280749470069924
 30
0.0
 10
42.87819082398371
 20
-6.075214554511694
 30
0.0
 10
40.9684625284878
 20
-5.664134091909755
 30
0.0
 10
38.10376903058675
 20
-4.734639005058861
 30
0.0
 10
35.22032068063829
 20
-3.61522451533006
 30
0.0
 10
32.3180191467814
 20
-2.326251702090737
 30
0.0
 10
29.39696206743902
 20
-0.9245395992050852
 30
0.0
 10
26.47578786172681
 20
0.5076957408728547
 30
0.0
 10
24.41965074120245
 20
1.528292247290771
 30
0.0
 10
23.33724827646171
 20
2.016720586282209
 30
0.0
 10
23.22859210514208
 20
2.065751104049488
 30
0.0
1001
PE_URL
1000

  0
SPLINE
  5
AE
330
1F
100
AcDbEntity
  8
0
  6
Continuous
 62
     1
370
    15
100
AcDbSpline
210
0.0
220
0.0
230
1.0
 70
     8
 71
     3
 72
    14
 73
    10
 74
     0
 42
0.000000001
 43
0.00000001
 40
0.0
 40
0.0
 40
0.0
 40
0.0
 40
0.25
 40
0.25
 40
0.5
 40
0.5
 40
0.75
 40
0.75
 40
1.0
 40
1.0
 40
1.0
 40
1.0
 10
43.83303027798234
 20
-6.280749470302124
 30
0.0
 10
43.75166249360654
 20
-6.460206252793103
 30
0.0
 10
43.64369319901539
 20
-6.620010974255701
 30
0.0
 10
43.3768237597337
 20
-6.893019879747301
 30
0.0
 10
43.22405740431476
 20
-6.99964508101566
 30
0.0
 10
42.88916590069729
 20
-7.150842871876279
 30
0.0
 10
42.71286023591697
 20
-7.192641564034523
 30
0.0
 10
42.35405559963123
 20
-7.214847908236895
 30
0.0
 10
42.17661464061872
 20
-7.195521418652765
 30
0.0
 10
41.99999999999988
 20
-7.149801698982101
 30
0.0
  0
SPLINE
  5
AF
330
1F
100
AcDbEntity
  8
0
  6
Continuous
 62
     1
370
    15
100
AcDbSpline
210
0.0
220
0.0
230
1.0
 70
     8
 71
     3
 72
    46
 73
    42
 74
     0
 42
0.000000001
 43
0.00000001
 40
0.0
 40
0.0
 40
0.0
 40
0.0
 40
0.0625000000000002
 40
0.0625000000000002
 40
0.0937500000000003
 40
0.0937500000000003
 40
0.1250000000000004
 40
0.1250000000000004
 40
0.1875000000000003
 40
0.1875000000000003
 40
0.2187500000000003
 40
0.2187500000000003
 40
0.2500000000000003
 40
0.2500000000000003
 40
0.2812500000000002
 40
0.2812500000000002
 40
0.3125000000000002
 40
0.3125000000000002
 40
0.3750000000000002
 40
0.3750000000000002
 40
0.4062500000000002
 40
0.4062500000000002
 40
0.4375000000000002
 40
0.4375000000000002
 40
0.5000000000000002
 40
0.5000000000000002
 40
0.5625000000000002
 40
0.5625000000000002
 40
0.6250000000000003
 40
0.6250000000000003
 40
0.6875000000000002
 40
0.6875000000000002
 40
0.7500000000000002
 40
0.7500000000000002
 40
0.8125000000000001
 40
0.8125000000000001
 40
0.8750000000000001
 40
0.8750000000000001
 40
0.9375
 40
0.9375
 40
1.0
 40
1.0
 40
1.0
 40
1.0
 10
42.00000000000163
 20
-7.149801698982553
 30
0.0
 10
41.37449082565403
 20
-6.987877953576275
 30
0.0
 10
40.75309439381895
 20
-6.804514638664683
 30
0.0
 10
39.81349112895464
 20
-6.498445590129898
 30
0.0
 10
39.50005231735638
 20
-6.391347852666576
 30
0.0
 10
38.87485049102217
 20
-6.167757096543696
 30
0.0
 10
38.56412189379982
 20
-6.051401604981509
 30
0.0
 10
37.62842747178271
 20
-5.688350396684199
 30
0.0
 10
36.99980441808572
 20
-5.427537877990843
 30
0.0
 10
36.06252423645739
 20
-5.013458998382637
 30
0.0
 10
35.75199478039274
 20
-4.871790655950215
 30
0.0
 10
35.12774729053784
 20
-4.58076829800751
 30
0.0
 10
34.81452230591851
 20
-4.43147902160772
 30
0.0
 10
34.18801622228663
 20
-4.126343769730758
 30
0.0
 10
33.87473676579402
 20
-3.970498592506977
 30
0.0
 10
33.25027263084545
 20
-3.653342739491716
 30
0.0
 10
32.93978398451386
 20
-3.492159416139891
 30
0.0
 10
32.00279715928569
 20
-3.000045236072336
 30
0.0
 10
31.37415256934744
 20
-2.661077168464345
 30
0.0
 10
30.43810163957369
 20
-2.143253764956948
 30
0.0
 10
30.12749546263291
 20
-1.969144135237051
 30
0.0
 10
29.50246809023462
 20
-1.61747827144721
 30
0.0
 10
29.18906243570644
 20
-1.440108399516817
 30
0.0
 10
28.24939529723666
 20
-0.9052065325655961
 30
0.0
 10
27.62781312603227
 20
-0.5456787155362056
 30
0.0
 10
26.37710137473643
 20
0.1759527831035245
 30
0.0
 10
25.7486023544495
 20
0.5379333491140105
 30
0.0
 10
24.50249957820546
 20
1.25433322451827
 30
0.0
 10
23.8766713825387
 20
1.610328550537613
 30
0.0
 10
22.62423486949012
 20
2.310466208096925
 30
0.0
 10
22.00316817578487
 20
2.653596512568113
 30
0.0
 10
20.75138888367029
 20
3.323355556798446
 30
0.0
 10
20.12336580616453
 20
3.649440066108531
 30
0.0
 10
18.8792224827936
 20
4.275404944500032
 30
0.0
 10
18.25098374407348
 20
4.577307671788835
 30
0.0
 10
16.99933019346538
 20
5.1505397004781
 30
0.0
 10
16.37822591954834
 20
5.421608244342126
 30
0.0
 10
15.12570846692465
 20
5.930520479735793
 30
0.0
 10
14.50018816018449
 20
6.167491602275803
 30
0.0
 10
13.25379926752824
 20
6.601918826242349
 30
0.0
 10
12.62527065913771
 20
6.800212922718962
 30
0.0
 10
12.00000000001211
 20
6.976808514418138
 30
0.0
1001
PE_URL
1000

  0
SPLINE
  5
B0
330
1F
100
AcDbEntity
  8
0
  6
Continuous
 62
     1
370
    15
100
AcDbSpline
210
0.0
220
0.0
230
1.0
 70
     8
 71
     3
 72
    46
 73
    42
 74
     0
 42
0.000000001
 43
0.00000001
 40
0.0
 40
0.0
 40
0.0
 40
0.0
 40
0.0624999999999999
 40
0.0624999999999999
 40
0.1249999999999999
 40
0.1249999999999999
 40
0.1874999999999998
 40
0.1874999999999998
 40
0.2499999999999998
 40
0.2499999999999998
 40
0.3124999999999998
 40
0.3124999999999998
 40
0.3749999999999999
 40
0.3749999999999999
 40
0.4374999999999999
 40
0.4374999999999999
 40
0.4999999999999999
 40
0.4999999999999999
 40
0.5624999999999998
 40
0.5624999999999998
 40
0.5937499999999997
 40
0.5937499999999997
 40
0.6249999999999996
 40
0.6249999999999996
 40
0.6874999999999993
 40
0.6874999999999993
 40
0.7187499999999994
 40
0.7187499999999994
 40
0.7499999999999996
 40
0.7499999999999996
 40
0.7812499999999996
 40
0.7812499999999996
 40
0.8124999999999996
 40
0.8124999999999996
 40
0.8749999999999998
 40
0.8749999999999998
 40
0.9062499999999998
 40
0.9062499999999998
 40
0.9374999999999999
 40
0.9374999999999999
 40
1.0
 40
1.0
 40
1.0
 40
1.0
 10
12.00000000000001
 20
5.624311459327617
 30
0.0
 10
12.6252706591258
 20
5.367659966957644
 30
0.0
 10
13.2537992675166
 20
5.09331992635142
 30
0.0
 10
14.50018816017348
 20
4.516870762336421
 30
0.0
 10
15.12570846691377
 20
4.213621863456815
 30
0.0
 10
16.378225919538
 20
3.582992138732721
 30
0.0
 10
16.9993301934553
 20
3.256653676172851
 30
0.0
 10
18.25098374406386
 20
2.584481379381746
 30
0.0
 10
18.87922248278424
 20
2.239008917114642
 30
0.0
 10
20.1233658061558
 20
1.538822898947561
 30
0.0
 10
20.75138888366167
 20
1.181845830301228
 30
0.0
 10
22.00316817577681
 20
0.4636448419756547
 30
0.0
 10
22.62423486948229
 20
0.1029579454754046
 30
0.0
 10
23.87667138253135
 20
-0.6188224196455221
 30
0.0
 10
24.50249957819845
 20
-0.9788420895269153
 30
0.0
 10
25.74860235444292
 20
-1.689681623332848
 30
0.0
 10
26.3771013747301
 20
-2.042050327711695
 30
0.0
 10
27.62781312602649
 20
-2.731007833225191
 30
0.0
 10
28.2493952972311
 20
-3.067520318085085
 30
0.0
 10
29.18906243570125
 20
-3.558021403334142
 30
0.0
 10
29.50246809022957
 20
-3.718956650606315
 30
0.0
 10
30.12749546262813
 20
-4.034604647782079
 30
0.0
 10
30.43810163956906
 20
-4.189155528605383
 30
0.0
 10
31.37415256934314
 20
-4.643586910936368
 30
0.0
 10
32.00279715928163
 20
-4.933989168096567
 30
0.0
 10
32.93978398451021
 20
-5.344785343603674
 30
0.0
 10
33.25027263084193
 20
-5.477485386235683
 30
0.0
 10
33.87473676579074
 20
-5.734833163056532
 30
0.0
 10
34.18801622228348
 20
-5.859371210070075
 30
0.0
 10
34.81452230591561
 20
-6.099292156676309
 30
0.0
 10
35.12774729053505
 20
-6.214674429676867
 30
0.0
 10
35.75199478039023
 20
-6.43552480553722
 30
0.0
 10
36.06252423645501
 20
-6.540950560896416
 30
0.0
 10
36.99980441808368
 20
-6.842671560993394
 30
0.0
 10
37.62842747178093
 20
-7.023862138465103
 30
0.0
 10
38.56412189379842
 20
-7.262049339489219
 30
0.0
 10
38.8748504910209
 20
-7.335882925151463
 30
0.0
 10
39.50005231735536
 20
-7.472542838533266
 30
0.0
 10
39.81349112895375
 20
-7.535277139188832
 30
0.0
 10
40.75309439381845
 20
-7.706014071302062
 30
0.0
 10
41.37449082565377
 20
-7.895063213615436
 30
0.0
 10
42.0
 20
-8.000000000000004
 30
0.0
1001
PE_URL
1000

  0
SPLINE
  5
B2
330
1F
100
AcDbEntity
  8
0
  6
Continuous
 62
     1
370
    15
100
AcDbSpline
210
0.0
220
0.0
230
1.0
 70
     8
 71
     3
 72
    12
 73
     8
 74
     0
 42
0.000000001
 43
0.00000001
 40
0.0
 40
0.0
 40
0.0
 40
0.0
 40
0.0461343867017847
 40
0.2872868426173132
 40
0.52843365959483
 40
0.7642199156596116
 40
1.0
 40
1.0
 40
1.0
 40
1.0
 10
24.11345920567245
 20
-0.753662321729882
 30
0.0
 10
23.9271747905297
 20
-0.6801923288685416
 30
0.0
 10
22.7671493673868
 20
-0.22268191667454
 30
0.0
 10
20.63340924855419
 20
0.6532026657867221
 30
0.0
 10
17.73386954282468
 20
1.797251899588146
 30
0.0
 10
14.85610417657442
 20
2.870237684020803
 30
0.0
 10
12.95202641885112
 20
3.470075410503068
 30
0.0
 10
12.00000000000001
 20
3.769990348492533
 30
0.0
1001
PE_URL
1000

  0
SPLINE
  5
B3
330
1F
100
AcDbEntity
  8
0
  6
Continuous
 62
   131
370
    15
100
AcDbSpline
210
0.0
220
0.0
230
1.0
 70
    24
 71
     3
 72
    10
 73
     6
 74
     0
 42
0.000000001
 43
0.00000001
 40
0.0
 40
0.0
 40
0.0
 40
0.0
 40
0.5
 40
0.5
 40
1.0
 40
1.0
 40
1.0
 40
1.0
 10
12.00000000000001
 20
5.624311459327619
 30
0.0
 10
12.00000000000001
 20
5.430393375591722
 30
0.0
 10
12.00000000000001
 20
5.158202013015035
 30
0.0
 10
12.00000000000001
 20
4.513669434639873
 30
0.0
 10
12.00000000000001
 20
4.143439577033262
 30
0.0
 10
12.00000000000001
 20
3.769990348492532
 30
0.0
  0
LINE
  5
B4
330
1F
100
AcDbEntity
  8
0
  6
Continuous
 62
     1
370
    15
100
AcDbLine
 10
42.0
 20
-8.000000000000004
 30
0.0
 11
42.00000000000001
 21
-7.149801698982137
 31
0.0
  0
SPLINE
  5
B5
330
1F
100
AcDbEntity
  8
0
  6
Continuous
 62
     1
370
    15
100
AcDbSpline
210
0.0
220
0.0
230
1.0
 70
     8
 71
     3
 72
     8
 73
     4
 74
     0
 42
0.000000001
 43
0.00000001
 40
0.0
 40
0.0
 40
0.0
 40
0.0
 40
1.0
 40
1.0
 40
1.0
 40
1.0
 10
44.00000000000001
 20
-2.052120859954027
 30
0.0
 10
44.00000000000001
 20
-2.080889774611474
 30
0.0
 10
43.99471536904915
 20
-2.106026549174311
 30
0.0
 10
43.98418746977166
 20
-2.127559612277812
 30
0.0
1001
PE_URL
1000

  0
SPLINE
  5
B6
330
1F
100
AcDbEntity
  8
0
  6
Continuous
 62
     1
370
    15
100
AcDbSpline
210
0.0
220
0.0
230
1.0
 70
     8
 71
     3
 72
    12
 73
     8
 74
     0
 42
0.000000001
 43
0.00000001
 40
0.0
 40
0.0
 40
0.0
 40
0.0
 40
0.4999999999999996
 40
0.4999999999999996
 40
0.7499999999999998
 40
0.7499999999999998
 40
1.0
 40
1.0
 40
1.0
 40
1.0
 10
43.9841874697719
 20
-2.127559612277326
 30
0.0
 10
42.79968961436992
 20
-1.349467828251298
 30
0.0
 10
41.63645935272022
 20
-0.5327655267753522
 30
0.0
 10
39.92604817626189
 20
0.7548019509486784
 30
0.0
 10
39.36163986928979
 20
1.194684947827648
 30
0.0
 10
38.2476256320004
 20
2.100145436796425
 30
0.0
 10
37.70831066845921
 20
2.557266874010635
 30
0.0
 10
37.19105862163382
 20
3.019864326945604
 30
0.0
1001
PE_URL
1000

  0
SPLINE
  5
B7
330
1F
100
AcDbEntity
  8
0
  6
Continuous
 62
     1
370
    15
100
AcDbSpline
210
0.0
220
0.0
230
1.0
 70
     8
 71
     3
 72
     8
 73
     4
 74
     0
 42
0.000000001
 43
0.00000001
 40
0.0
 40
0.0
 40
0.0
 40
0.0
 40
1.0
 40
1.0
 40
1.0
 40
1.0
 10
37.19105862163384
 20
3.019864326945595
 30
0.0
 10
37.02263526458802
 20
3.206654443686952
 30
0.0
 10
36.87052847026537
 20
3.387297393970791
 30
0.0
 10
36.7373481387292
 20
3.560809913711478
 30
0.0
  0
LINE
  5
B8
330
1F
100
AcDbEntity
  8
0
  6
Continuous
 62
     1
370
    15
100
AcDbLine
 10
36.73734813872919
 20
3.560809913711477
 30
0.0
 11
44.00000000000001
 21
0.0000000000000097
 31
0.0
  0
LINE
  5
B9
330
1F
100
AcDbEntity
  8
0
  6
Continuous
 62
     1
370
    15
100
AcDbLine
 10
44.00000000000001
 20
0.0000000000000097
 30
0.0
 11
44.00000000000001
 21
-2.052120859954028
 31
0.0
1001
PE_URL
1000

  0
SPLINE
  5
BA
330
1F
100
AcDbEntity
  8
0
  6
Continuous
 62
     1
370
    15
100
AcDbSpline
210
0.0
220
0.0
230
1.0
 70
     8
 71
     3
 72
    14
 73
    10
 74
     0
 42
0.000000001
 43
0.00000001
 40
0.0
 40
0.0
 40
0.0
 40
0.0
 40
0.1178907251089072
 40
0.2942451567696018
 40
0.4706089482265517
 40
0.6469787611057999
 40
0.8233512508900626
 40
0.9997230703295819
 40
1.0
 40
1.0
 40
1.0
 40
1.0
 10
37.19105862151651
 20
3.019864326993302
 30
0.0
 10
36.54040507964356
 20
3.279006602226814
 30
0.0
 10
34.9164295442124
 20
3.925803534990398
 30
0.0
 10
32.31797745388813
 20
4.813675667024937
 30
0.0
 10
29.39700529199754
 20
5.604118861993165
 30
0.0
 10
26.47581507246257
 20
6.153580402808629
 30
0.0
 10
23.55460424898673
 20
6.396824575259012
 30
0.0
 10
21.60558495871057
 20
6.455617991907145
 30
0.0
 10
20.63031810973644
 20
6.357036960793719
 30
0.0
 10
20.62878919810577
 20
6.356882416747449
 30
0.0
  0
SPLINE
  5
BB
330
1F
100
AcDbEntity
  8
0
  6
Continuous
 62
     1
370
    15
100
AcDbSpline
210
0.0
220
0.0
230
1.0
 70
     8
 71
     3
 72
    12
 73
     8
 74
     0
 42
0.000000001
 43
0.00000001
 40
0.0
 40
0.0
 40
0.0
 40
0.0
 40
0.25
 40
0.25
 40
0.5
 40
0.5
 40
1.0
 40
1.0
 40
1.0
 40
1.0
 10
43.9841874697719
 20
-2.127559612277329
 30
0.0
 10
43.98519175543714
 20
-2.544576788479799
 30
0.0
 10
43.98453603052356
 20
-2.954305000121586
 30
0.0
 10
43.9790784610291
 20
-3.735533967372672
 30
0.0
 10
43.97422679115845
 20
-4.111063881974951
 30
0.0
 10
43.94755766215066
 20
-5.162029684314309
 30
0.0
 10
43.916560485948
 20
-5.76756455958286
 30
0.0
 10
43.83303027798235
 20
-6.280749470302125
 30
0.0
1001
PE_URL
1000

  0
SPLINE
  5
BC
330
1F
100
AcDbEntity
  8
0
  6
Continuous
 62
     1
370
    15
100
AcDbSpline
210
0.0
220
0.0
230
1.0
 70
     8
 71
     3
 72
     9
 73
     5
 74
     0
 42
0.000000001
 43
0.00000001
 40
0.0
 40
0.0
 40
0.0
 40
0.0
 40
0.9822387836911277
 40
1.0
 40
1.0
 40
1.0
 40
1.0
 10
44.00000000000001
 20
5.600000000000013
 30
0.0
 10
43.02667386406391
 20
5.598364919929905
 30
0.0
 10
42.03574767371488
 20
5.596700273718355
 30
0.0
 10
41.04480425571359
 20
5.471671210098449
 30
0.0
 10
41.02720389531662
 20
5.4694505418546
 30
0.0
  0
SPLINE
  5
BD
330
1F
100
AcDbEntity
  8
0
  6
Continuous
 62
     1
370
    15
100
AcDbSpline
210
0.0
220
0.0
230
1.0
 70
     8
 71
     3
 72
    10
 73
     6
 74
     0
 42
0.000000001
 43
0.00000001
 40
0.0
 40
0.0
 40
0.0
 40
0.0
 40
0.5
 40
0.5
 40
1.0
 40
1.0
 40
1.0
 40
1.0
 10
44.00000000000001
 20
5.600000000000013
 30
0.0
 10
42.78112931358215
 20
5.306359680126939
 30
0.0
 10
41.56578933140035
 20
4.991936873426654
 30
0.0
 10
39.14290166896195
 20
4.319471564879888
 30
0.0
 10
37.93516183955823
 20
3.962962459586935
 30
0.0
 10
36.73734813872906
 20
3.560809913711618
 30
0.0
  0
LINE
  5
BE
330
1F
100
AcDbEntity
  8
0
  6
Continuous
 62
     1
370
    15
100
AcDbLine
 10
44.00000000000001
 20
-2.052120859954028
 30
0.0
 11
44.00000000000002
 21
-5.996865172900738
 31
0.0
1001
PE_URL
1000

  0
SPLINE
  5
BF
330
1F
100
AcDbEntity
  8
0
  6
Continuous
 62
     1
370
    15
100
AcDbSpline
210
0.0
220
0.0
230
1.0
 70
     8
 71
     3
 72
    13
 73
     9
 74
     0
 42
0.000000001
 43
0.00000001
 40
0.0
 40
0.0
 40
0.0
 40
0.0
 40
0.0389556746611835
 40
0.2328929641518465
 40
0.426829516538652
 40
0.6207616519743233
 40
0.8103832428836594
 40
1.0
 40
1.0
 40
1.0
 40
1.0
 10
27.06261348029211
 20
-5.994352579366931
 30
0.0
 10
26.86702029822784
 20
-6.03174418870569
 30
0.0
 10
25.69768421728376
 20
-6.255286530329879
 30
0.0
 10
23.55460045876584
 20
-6.403842158055915
 30
0.0
 10
20.63340072069569
 20
-6.409108766757654
 30
0.0
 10
17.7338542018344
 20
-6.106067131756614
 30
0.0
 10
14.85609911211146
 20
-5.562524444944967
 30
0.0
 10
12.95202494755889
 20
-5.009154928668233
 30
0.0
 10
12.0
 20
-4.732473697169122
 30
0.0
1001
PE_URL
1000

  0
SPLINE
  5
C0
330
1F
100
AcDbEntity
  8
0
  6
Continuous
 62
   131
370
    15
100
AcDbSpline
210
0.0
220
0.0
230
1.0
 70
    24
 71
     3
 72
    14
 73
    10
 74
     0
 42
0.000000001
 43
0.00000001
 40
0.0
 40
0.0
 40
0.0
 40
0.0
 40
0.25
 40
0.25
 40
0.5
 40
0.5
 40
0.75
 40
0.75
 40
1.0
 40
1.0
 40
1.0
 40
1.0
 10
12.00000000000001
 20
3.769990348492533
 30
0.0
 10
12.00000000000001
 20
3.156403519762837
 30
0.0
 10
12.00000000000001
 20
2.479649199054306
 30
0.0
 10
12.00000000000001
 20
1.04913464339111
 30
0.0
 10
12.00000000000001
 20
0.2959200947174348
 30
0.0
 10
12.00000000000001
 20
-1.215212901673542
 30
0.0
 10
12.00000000000001
 20
-1.972326154552585
 30
0.0
 10
12.00000000000001
 20
-3.417696032934751
 30
0.0
 10
12.00000000000001
 20
-4.105386107054569
 30
0.0
 10
12.00000000000001
 20
-4.73247369716912
 30
0.0
  0
LINE
  5
C1
330
1F
100
AcDbEntity
  8
0
  6
Continuous
 62
     1
370
    15
100
AcDbLine
 10
44.00000000000001
 20
0.0000000000000097
 30
0.0
 11
44.00000000000001
 21
5.600000000000013
 31
0.0
  0
SPLINE
  5
C2
330
1F
100
AcDbEntity
  8
0
  6
Continuous
 62
   131
370
    15
100
AcDbSpline
210
0.0
220
0.0
230
1.0
 70
    24
 71
     3
 72
    12
 73
     8
 74
     0
 42
0.000000001
 43
0.00000001
 40
0.0
 40
0.0
 40
0.0
 40
0.0
 40
0.1813524020232168
 40
0.3650661255774421
 40
0.6320204450470779
 40
0.906716457866103
 40
1.0
 40
1.0
 40
1.0
 40
1.0
 10
12.00000000000001
 20
-4.732473697169124
 30
0.0
 10
12.00000000000001
 20
-4.916689755929428
 30
0.0
 10
12.00000000000001
 20
-5.287520481580152
 30
0.0
 10
12.00000000000001
 20
-5.789173748190745
 30
0.0
 10
12.00000000000001
 20
-6.189453845566021
 30
0.0
 10
12.00000000000001
 20
-6.389731573800673
 30
0.0
 10
12.00000000000001
 20
-6.366584911592333
 30
0.0
 10
12.00000000000001
 20
-6.360717187121479
 30
0.0
  0
SPLINE
  5
C3
330
1F
100
AcDbEntity
  8
0
  6
Continuous
 62
     1
370
    15
100
AcDbSpline
210
0.0
220
0.0
230
1.0
 70
     8
 71
     3
 72
    13
 73
     9
 74
     0
 42
0.000000001
 43
0.00000001
 40
0.0
 40
0.0
 40
0.0
 40
0.0
 40
0.0243496580059015
 40
0.2816632028935309
 40
0.4600327250066379
 40
0.6384021317495163
 40
0.8192008564599902
 40
1.0
 40
1.0
 40
1.0
 40
1.0
 10
32.99938692906059
 20
5.36341207315786
 30
0.0
 10
33.07245311205762
 20
5.396649743670835
 30
0.0
 10
33.9176417845704
 20
5.781124496093856
 30
0.0
 10
35.29840046332541
 20
6.289744855275347
 30
0.0
 10
37.14037950828664
 20
6.894369629710464
 30
0.0
 10
38.75290686237749
 20
7.320442200193858
 30
0.0
 10
40.37238477076421
 20
7.65855303918745
 30
0.0
 10
41.44840882513502
 20
7.89400455796864
 30
0.0
 10
42.0
 20
8.000000000000007
 30
0.0
  0
SPLINE
  5
C5
330
1F
100
AcDbEntity
  8
0
  6
Continuous
 62
     1
370
    15
100
AcDbSpline
210
0.0
220
0.0
230
1.0
 70
    24
 71
     3
 72
     8
 73
     4
 74
     0
 42
0.000000001
 43
0.00000001
 40
0.0
 40
0.0
 40
0.0
 40
0.0
 40
1.0
 40
1.0
 40
1.0
 40
1.0
 10
44.00000000000001
 20
5.600000000000011
 30
0.0
 10
44.00000000000001
 20
5.725489983580634
 30
0.0
 10
44.00000000000001
 20
5.858232972941099
 30
0.0
 10
44.00000000000001
 20
5.996865172903082
 30
0.0
  0
LINE
  5
C6
330
1F
100
AcDbEntity
  8
0
  6
Continuous
 62
     1
370
    15
100
AcDbLine
 10
14.09646616440919
 20
-6.287850807755426
 30
0.0
 11
12.00000000001212
 21
-6.976808514418125
 31
0.0
1001
PE_URL
1000

  0
SPLINE
  5
C7
330
1F
100
AcDbEntity
  8
0
  6
Continuous
 62
   131
370
    15
100
AcDbSpline
210
0.0
220
0.0
230
1.0
 70
    24
 71
     3
 72
    11
 73
     7
 74
     0
 42
0.000000001
 43
0.00000001
 40
0.0
 40
0.0
 40
0.0
 40
0.0
 40
0.0715391937255929
 40
0.4161277616612137
 40
0.761117916661116
 40
0.9999999999999999
 40
0.9999999999999999
 40
0.9999999999999999
 40
0.9999999999999999
 10
12.00000000000001
 20
-6.464629869783751
 30
0.0
 10
12.00000000000001
 20
-6.477705735268952
 30
0.0
 10
12.00000000000001
 20
-6.553765170003573
 30
0.0
 10
12.00000000000001
 20
-6.686133967871604
 30
0.0
 10
12.00000000000001
 20
-6.843660935214243
 30
0.0
 10
12.00000000000001
 20
-6.938149864713218
 30
0.0
 10
12.00000000000001
 20
-6.976808514412673
 30
0.0
  0
LINE
  5
C8
330
1F
100
AcDbEntity
  8
중심선
100
AcDbLine
 10
-113.0
 20
0.0000000000000018
 30
0.0
 11
51.00000000000003
 21
0.0000000000000018
 31
0.0
  0
CIRCLE
  5
C9
330
1F
100
AcDbEntity
  8
외형선
100
AcDbCircle
 10
0.0
 20
0.0
 30
0.0
 40
3.000000000000001
  0
INSERT
  5
CA
330
1F
100
AcDbEntity
  8
0
  6
Continuous
 62
     7
100
AcDbBlockReference
 66
     1
  2
블럭10
 10
-44.24677438630136
 20
-52.04717430164393
 30
0.0
  0
ATTRIB
  5
CB
330
CA
100
AcDbEntity
  8
FORMAT
 62
     2
100
AcDbText
 10
-60.87560298450233
 20
-49.97180738881174
 30
0.0
 40
4.233333333333333
  1
SEMD9916020E [ 2 FLUTE ]
 41
0.75
  7
SLDTEXTSTYLE0
 11
-60.87560298450233
 21
-52.08847405547841
 31
0.0
100
AcDbAttribute
  2
AUTOATTR0
 70
     0
 74
     1
  0
SEQEND
  5
CC
330
CA
100
AcDbEntity
  8
0
  6
Continuous
 62
     7
  0
HATCH
  5
CD
330
1F
100
AcDbEntity
  8
중심선
100
AcDbHatch
 10
0.0
 20
0.0
 30
0.0
210
0.0
220
0.0
230
1.0
  2
SOLID
 70
     1
 71
     0
 91
        1
 92
        0
 93
        4
 72
     1
 10
-38.53186508192051
 20
-35.8
 11
-41.97814032575779
 21
-35.8
 72
     1
 10
-41.97814032575779
 20
-35.8
 11
-44.10637018496182
 21
-38.33632558057259
 72
     1
 10
-44.10637018496182
 20
-38.33632558057259
 11
-40.66006185601138
 21
-38.3362861512701
 72
     1
 10
-40.66006185601138
 20
-38.3362861512701
 11
-38.53186508192051
 21
-35.8
 97
        0
 75
     0
 76
     1
 98
        1
 10
-18.11150254243597
 20
0.0
  0
HATCH
  5
CE
330
1F
100
AcDbEntity
  8
중심선
100
AcDbHatch
 10
0.0
 20
0.0
 30
0.0
210
0.0
220
0.0
230
1.0
  2
SOLID
 70
     1
 71
     0
 91
        1
 92
        0
 93
        4
 72
     1
 10
-33.51910109088456
 20
-35.8
 11
-36.96537633472184
 21
-35.8
 72
     1
 10
-36.96537633472184
 20
-35.8
 11
-41.49651434307923
 21
-41.20000000000002
 72
     1
 10
-41.49651434307923
 20
-41.20000000000002
 11
-38.05023909924194
 21
-41.20000000000002
 72
     1
 10
-38.05023909924195
 20
-41.20000000000002
 11
-33.51910109088456
 21
-35.8
 97
        0
 75
     0
 76
     1
 98
        1
 10
-18.11150254243597
 20
0.0
  0
HATCH
  5
CF
330
1F
100
AcDbEntity
  8
중심선
100
AcDbHatch
 10
0.0
 20
0.0
 30
0.0
210
0.0
220
0.0
230
1.0
  2
SOLID
 70
     1
 71
     0
 91
        1
 92
        0
 93
        4
 72
     1
 10
-28.50633709984866
 20
-35.80000000000003
 11
-31.95261234368578
 21
-35.8
 72
     1
 10
-31.95261234368578
 20
-35.8
 11
-39.00104924557503
 21
-44.20000000000002
 72
     1
 10
-39.00104924557503
 20
-44.20000000000002
 11
-35.55477400173775
 21
-44.20000000000002
 72
     1
 10
-35.55477400173774
 20
-44.20000000000002
 11
-28.50633709984866
 21
-35.80000000000003
 97
        0
 75
     0
 76
     1
 98
        1
 10
-18.11150254243597
 20
0.0
  0
HATCH
  5
D0
330
1F
100
AcDbEntity
  8
중심선
100
AcDbHatch
 10
0.0
 20
0.0
 30
0.0
210
0.0
220
0.0
230
1.0
  2
SOLID
 70
     1
 71
     0
 91
        1
 92
        0
 93
        6
 72
     3
 10
-23.70644666883646
 20
-40.00000000005127
 11
3.960054785062283
 21
1.540882976769353E-10
 40
0.3939339440162628
 50
17.09539180608436
 51
320.0019657685081
 73
     0
 72
     1
 10
-22.02344701313587
 20
-38.5878940046383
 11
-19.71814513943483
 21
-36.65356729459038
 72
     3
 10
-23.70644666888931
 20
-40.00000000000015
 11
6.600054785286829
 21
-1.278976924368180E-13
 40
0.636358354079598
 50
39.99873849337411
 51
368.4976242363724
 73
     1
 72
     1
 10
-17.2811141769887
 20
-39.03999999993002
 11
-25.02637936205339
 21
-39.03999999992999
 72
     1
 10
-25.02637936205339
 20
-39.03999999992999
 11
-25.02640440649932
 21
-40.95999999992991
 72
     1
 10
-25.02640440649932
 20
-40.95999999992991
 11
-20.58502463702728
 21
-40.95999999992988
 97
        0
 75
     0
 76
     1
 98
        1
 10
-18.11150254243597
 20
0.0
  0
POINT
  5
D1
330
1F
100
AcDbEntity
  8
치수문자_일반주서
100
AcDbPoint
 10
7.267949192431153
 20
0.0000000000000016
 30
0.0
  0
DIMENSION
  5
D2
330
1F
100
AcDbEntity
  8
치수문자_일반주서
100
AcDbDimension
  2
_D
 10
59.0
 20
8.000000000000062
 30
0.0
 11
58.99999999999996
 21
20.37500000000014
 31
0.0
 70
   160
  1
%%c<>
 71
     2
 42
16.00000000000001
 52
-270.0
  3
SLDDIMSTYLE2
100
AcDbAlignedDimension
 13
44.00000000000001
 23
-7.999999999999998
 33
0.0
 14
44.0
 24
8.000000000000007
 34
0.0
 50
90.0000000000002
100
AcDbRotatedDimension
1001
PE_URL
1000

1001
ACAD
1000
DSTYLE
1002
{
1070
    41
1040
4.0
1070
   140
1040
4.0
1002
}
  0
DIMENSION
  5
E0
330
1F
100
AcDbEntity
  8
치수문자_일반주서
100
AcDbDimension
  2
_D_1
 10
12.0
 20
23.00000000000001
 30
0.0
 11
28.0
 21
23.00000000000001
 31
0.0
 70
   160
  1
<>
 71
     2
 42
32.0
  3
SLDDIMSTYLE2
100
AcDbAlignedDimension
 13
44.0
 23
8.000000000000007
 33
0.0
 14
12.0
 24
6.976808514421561
 34
0.0
100
AcDbRotatedDimension
1001
PE_URL
1000

1001
ACAD
1000
DSTYLE
1002
{
1070
    41
1040
4.0
1070
   140
1040
4.0
1002
}
  0
DIMENSION
  5
EB
330
1F
100
AcDbEntity
  8
치수문자_일반주서
100
AcDbDimension
  2
_D_2
 10
-106.0
 20
38.00000000000001
 30
0.0
 11
-30.99999999999999
 21
38.00000000000001
 31
0.0
 70
   160
  1
<>
 71
     2
 42
150.0
  3
SLDDIMSTYLE2
100
AcDbAlignedDimension
 13
44.0
 23
8.000000000000007
 33
0.0
 14
-106.0
 24
6.999999999999993
 34
0.0
 50
0.0000000000000054
100
AcDbRotatedDimension
1001
PE_URL
1000

1001
ACAD
1000
DSTYLE
1002
{
1070
    41
1040
4.0
1070
   140
1040
4.0
1002
}
  0
DIMENSION
  5
F5
330
1F
100
AcDbEntity
  8
치수문자_일반주서
100
AcDbDimension
  2
_D_3
 10
-121.0
 20
7.99999999999994
 30
0.0
 11
-121.0
 21
20.37499999999994
 31
0.0
 70
   160
  1
%%c<>
 71
     2
 42
16.0
 52
-270.0
  3
SLDDIMSTYLE2
100
AcDbAlignedDimension
 13
-105.0
 23
-8.000000000000002
 33
0.0
 14
-105.0
 24
7.999999999999998
 34
0.0
 50
90.0000000000002
100
AcDbRotatedDimension
1001
PE_URL
1000

1001
ACAD
1000
DSTYLE
1002
{
1070
    41
1040
4.0
1070
   140
1040
4.0
1002
}
  0
INSERT
  5
106
330
1F
100
AcDbEntity
  8
외형선
100
AcDbBlockReference
  2
SW_DOWELSYMBOL_0
 10
0.0
 20
0.0
 30
0.0
  0
ARC
  5
1DF
330
1F
100
AcDbEntity
  8
0
  6
Continuous
 62
     1
370
    15
100
AcDbCircle
 10
42.0
 20
6.000000000000008
 30
0.0
 40
1.999999999999999
100
AcDbArc
 50
0.0
 51
90.0
1001
PE_URL
1000

  0
ARC
  5
1E0
102
{ACAD_REACTORS
102
}
330
1F
100
AcDbEntity
  8
0
  6
Continuous
 62
     1
370
    15
100
AcDbCircle
 10
42.0
 20
-6.000000000000004
 30
0.0
 40
1.999999999999999
100
AcDbArc
 50
270.0
 51
0.0
1001
PE_URL
1000

  0
DIMENSION
  5
1E1
102
{ACAD_REACTORS
102
}
102
{ACAD_XDICTIONARY
360
1E2
102
}
330
1F
100
AcDbEntity
  8
치수문자_일반주서
100
AcDbDimension
  2
*D11
 10
42.0
 20
-6.000000000000004
 30
0.0
 11
62.45444604732018
 21
-37.09186351339896
 31
0.0
 70
   164
 71
     5
 42
1.999999999999998
  3
SLDDIMSTYLE2
100
AcDbRadialDimension
 15
43.09920572423882
 25
-7.670852110691014
 35
0.0
 40
0.0
1001
ACAD
1000
DSTYLE
1002
{
1070
    41
1040
4.0
1070
   140
1040
4.0
1002
}
1001
ACAD_DSTYLE_DIMRADIAL_EXTENSION
1070
   387
1070
     1
1070
   388
1040
4.71238898038469
1070
   390
1040
0.0
1001
PE_URL
1000

  0
ENDSEC
  0
SECTION
  2
OBJECTS
  0
DICTIONARY
  5
C
330
0
100
AcDbDictionary
281
     1
  3
ACAD_DETAILVIEWSTYLE
350
130
  3
ACAD_GROUP
350
D
  3
ACAD_LAYOUT
350
1A
  3
ACAD_MLINESTYLE
350
17
  3
ACAD_PLOTSETTINGS
350
19
  3
ACAD_PLOTSTYLENAME
350
E
  3
ACAD_SCALELIST
350
47
  3
ACAD_SECTIONVIEWSTYLE
350
131
  3
AcDbVariableDictionary
350
12B
  3
APPDATA
350
128
  3
DWGPROPS
350
1EE
  0
DICTIONARY
  5
174
330
2
100
AcDbDictionary
280
     1
281
     1
  3
ACAD_LAYERSTATES
360
175
  0
DICTIONARY
  5
1E2
330
1E1
100
AcDbDictionary
280
     1
281
     1
  0
DICTIONARY
  5
130
102
{ACAD_REACTORS
330
C
102
}
330
C
100
AcDbDictionary
281
     1
  0
DICTIONARY
  5
D
102
{ACAD_REACTORS
330
C
102
}
330
C
100
AcDbDictionary
281
     1
  0
DICTIONARY
  5
1A
102
{ACAD_REACTORS
330
C
102
}
330
C
100
AcDbDictionary
281
     1
  3
Layout1
350
1E
  3
Layout2
350
26
  3
Model
350
22
  0
DICTIONARY
  5
17
102
{ACAD_REACTORS
330
C
102
}
330
C
100
AcDbDictionary
281
     1
  3
Standard
350
18
  0
DICTIONARY
  5
19
102
{ACAD_REACTORS
330
C
102
}
330
C
100
AcDbDictionary
281
     1
  0
ACDBDICTIONARYWDFLT
  5
E
102
{ACAD_REACTORS
330
C
102
}
330
C
100
AcDbDictionary
281
     1
  3
Normal
350
F
100
AcDbDictionaryWithDefault
340
F
  0
DICTIONARY
  5
47
102
{ACAD_REACTORS
330
C
102
}
330
C
100
AcDbDictionary
281
     1
  3
A0
350
48
  3
A1
350
49
  3
A2
350
4A
  3
A3
350
4B
  3
A4
350
4C
  3
A5
350
4D
  3
A6
350
4E
  3
A7
350
4F
  3
A8
350
50
  3
A9
350
51
  3
B0
350
52
  3
B1
350
53
  3
B2
350
54
  3
B3
350
55
  3
B4
350
56
  3
B5
350
57
  3
B6
350
58
  3
B7
350
59
  3
B8
350
5A
  3
B9
350
5B
  3
C0
350
5C
  3
C1
350
5D
  3
C2
350
5E
  3
C3
350
5F
  3
C4
350
60
  3
C5
350
61
  3
C6
350
62
  3
C7
350
63
  3
C8
350
64
  3
C9
350
65
  3
D0
350
66
  3
D1
350
67
  3
D2
350
68
  0
DICTIONARY
  5
131
102
{ACAD_REACTORS
330
C
102
}
330
C
100
AcDbDictionary
281
     1
  0
DICTIONARY
  5
12B
102
{ACAD_REACTORS
330
C
102
}
330
C
100
AcDbDictionary
281
     1
  0
DICTIONARY
  5
128
102
{ACAD_REACTORS
330
C
102
}
330
C
100
AcDbDictionary
281
     1
  0
XRECORD
  5
1EE
102
{ACAD_REACTORS
330
C
102
}
330
C
100
AcDbXrecord
280
     1
  1
DWGPROPS COOKIE
  2

  3

  4

  6

  7

  8
12017044
  9

300
=
301
=
302
=
303
=
304
=
305
=
306
=
307
=
308
=
309
=
 40
0.0
 41
2458260.217852813
 42
2458268.23739816
  1

 90
        0
  0
DICTIONARY
  5
175
102
{ACAD_REACTORS
330
174
102
}
330
174
100
AcDbDictionary
281
     1
  0
LAYOUT
  5
1E
102
{ACAD_REACTORS
330
1A
102
}
330
1A
100
AcDbPlotSettings
  1

  2
none_device
  4

  6

 40
0.0
 41
0.0
 42
0.0
 43
0.0
 44
0.0
 45
0.0
 46
0.0
 47
0.0
 48
0.0
 49
0.0
140
0.0
141
0.0
142
1.0
143
1.0
 70
   688
 72
     1
 73
     0
 74
     5
  7

 75
    16
147
1.0
148
0.0
149
0.0
100
AcDbLayout
  1
Layout1
 70
     1
 71
     1
 10
0.0
 20
0.0
 11
420.0
 21
297.0
 12
0.0
 22
0.0
 32
0.0
 14
1.000000000000000E+20
 24
1.000000000000000E+20
 34
1.000000000000000E+20
 15
-1.000000000000000E+20
 25
-1.000000000000000E+20
 35
-1.000000000000000E+20
146
0.0
 13
0.0
 23
0.0
 33
0.0
 16
1.0
 26
0.0
 36
0.0
 17
0.0
 27
1.0
 37
0.0
 76
     0
330
1B
  0
LAYOUT
  5
26
102
{ACAD_REACTORS
330
1A
102
}
330
1A
100
AcDbPlotSettings
  1

  2
none_device
  4

  6

 40
0.0
 41
0.0
 42
0.0
 43
0.0
 44
0.0
 45
0.0
 46
0.0
 47
0.0
 48
0.0
 49
0.0
140
0.0
141
0.0
142
1.0
143
1.0
 70
   688
 72
     1
 73
     0
 74
     5
  7

 75
    16
147
1.0
148
0.0
149
0.0
100
AcDbLayout
  1
Layout2
 70
     1
 71
     2
 10
0.0
 20
0.0
 11
0.0
 21
0.0
 12
0.0
 22
0.0
 32
0.0
 14
0.0
 24
0.0
 34
0.0
 15
0.0
 25
0.0
 35
0.0
146
0.0
 13
0.0
 23
0.0
 33
0.0
 16
1.0
 26
0.0
 36
0.0
 17
0.0
 27
1.0
 37
0.0
 76
     0
330
23
  0
LAYOUT
  5
22
102
{ACAD_REACTORS
330
1A
102
}
330
1A
100
AcDbPlotSettings
  1

  2
none_device
  4
ANSI_A_(11.00_x_8.50_Inches)
  6

 40
6.35
 41
19.05
 42
6.35000508
 43
19.05000254
 44
279.4
 45
215.9
 46
191.8576215944525
 47
84.21747508443055
 48
0.0
 49
0.0
140
0.0
141
0.0
142
0.0698076923076923
143
1.0
 70
  1696
 72
     0
 73
     0
 74
     0
  7

 75
     0
147
0.0235690232323232
148
0.0
149
0.0
100
AcDbLayout
  1
Model
 70
     1
 71
     0
 10
0.0
 20
0.0
 11
420.0
 21
297.0
 12
0.0
 22
0.0
 32
0.0
 14
-125.8750000000001
 24
-49.97180738881174
 34
0.0
 15
67.90115522242802
 25
42.87500000000001
 35
0.0
146
0.0
 13
0.0
 23
0.0
 33
0.0
 16
1.0
 26
0.0
 36
0.0
 17
0.0
 27
1.0
 37
0.0
 76
     0
330
1F
331
29
  0
MLINESTYLE
  5
18
102
{ACAD_REACTORS
330
17
102
}
330
17
100
AcDbMlineStyle
  2
Standard
 70
     0
  3

 62
   256
 51
90.0
 52
90.0
 71
     2
 49
0.5
 62
   256
  6
BYLAYER
 49
-0.5
 62
   256
  6
BYLAYER
  0
ACDBPLACEHOLDER
  5
F
102
{ACAD_REACTORS
330
E
102
}
330
E
  0
SCALE
  5
48
102
{ACAD_REACTORS
330
47
102
}
330
47
100
AcDbScale
 70
     0
300
1:1
140
1.0
141
1.0
290
     1
  0
SCALE
  5
49
102
{ACAD_REACTORS
330
47
102
}
330
47
100
AcDbScale
 70
     0
300
1:2
140
1.0
141
2.0
290
     0
  0
SCALE
  5
4A
102
{ACAD_REACTORS
330
47
102
}
330
47
100
AcDbScale
 70
     0
300
1:4
140
1.0
141
4.0
290
     0
  0
SCALE
  5
4B
102
{ACAD_REACTORS
330
47
102
}
330
47
100
AcDbScale
 70
     0
300
1:5
140
1.0
141
5.0
290
     0
  0
SCALE
  5
4C
102
{ACAD_REACTORS
330
47
102
}
330
47
100
AcDbScale
 70
     0
300
1:8
140
1.0
141
8.0
290
     0
  0
SCALE
  5
4D
102
{ACAD_REACTORS
330
47
102
}
330
47
100
AcDbScale
 70
     0
300
1:10
140
1.0
141
10.0
290
     0
  0
SCALE
  5
4E
102
{ACAD_REACTORS
330
47
102
}
330
47
100
AcDbScale
 70
     0
300
1:16
140
1.0
141
16.0
290
     0
  0
SCALE
  5
4F
102
{ACAD_REACTORS
330
47
102
}
330
47
100
AcDbScale
 70
     0
300
1:20
140
1.0
141
20.0
290
     0
  0
SCALE
  5
50
102
{ACAD_REACTORS
330
47
102
}
330
47
100
AcDbScale
 70
     0
300
1:30
140
1.0
141
30.0
290
     0
  0
SCALE
  5
51
102
{ACAD_REACTORS
330
47
102
}
330
47
100
AcDbScale
 70
     0
300
1:40
140
1.0
141
40.0
290
     0
  0
SCALE
  5
52
102
{ACAD_REACTORS
330
47
102
}
330
47
100
AcDbScale
 70
     0
300
1:50
140
1.0
141
50.0
290
     0
  0
SCALE
  5
53
102
{ACAD_REACTORS
330
47
102
}
330
47
100
AcDbScale
 70
     0
300
1:100
140
1.0
141
100.0
290
     0
  0
SCALE
  5
54
102
{ACAD_REACTORS
330
47
102
}
330
47
100
AcDbScale
 70
     0
300
2:1
140
2.0
141
1.0
290
     0
  0
SCALE
  5
55
102
{ACAD_REACTORS
330
47
102
}
330
47
100
AcDbScale
 70
     0
300
4:1
140
4.0
141
1.0
290
     0
  0
SCALE
  5
56
102
{ACAD_REACTORS
330
47
102
}
330
47
100
AcDbScale
 70
     0
300
8:1
140
8.0
141
1.0
290
     0
  0
SCALE
  5
57
102
{ACAD_REACTORS
330
47
102
}
330
47
100
AcDbScale
 70
     0
300
10:1
140
10.0
141
1.0
290
     0
  0
SCALE
  5
58
102
{ACAD_REACTORS
330
47
102
}
330
47
100
AcDbScale
 70
     0
300
100:1
140
100.0
141
1.0
290
     0
  0
SCALE
  5
59
102
{ACAD_REACTORS
330
47
102
}
330
47
100
AcDbScale
 70
     0
300
1/128" = 1'-0"
140
0.0078125
141
12.0
290
     0
  0
SCALE
  5
5A
102
{ACAD_REACTORS
330
47
102
}
330
47
100
AcDbScale
 70
     0
300
1/64" = 1'-0"
140
0.015625
141
12.0
290
     0
  0
SCALE
  5
5B
102
{ACAD_REACTORS
330
47
102
}
330
47
100
AcDbScale
 70
     0
300
1/32" = 1'-0"
140
0.03125
141
12.0
290
     0
  0
SCALE
  5
5C
102
{ACAD_REACTORS
330
47
102
}
330
47
100
AcDbScale
 70
     0
300
1/16" = 1'-0"
140
0.0625
141
12.0
290
     0
  0
SCALE
  5
5D
102
{ACAD_REACTORS
330
47
102
}
330
47
100
AcDbScale
 70
     0
300
3/32" = 1'-0"
140
0.09375
141
12.0
290
     0
  0
SCALE
  5
5E
102
{ACAD_REACTORS
330
47
102
}
330
47
100
AcDbScale
 70
     0
300
1/8" = 1'-0"
140
0.125
141
12.0
290
     0
  0
SCALE
  5
5F
102
{ACAD_REACTORS
330
47
102
}
330
47
100
AcDbScale
 70
     0
300
3/16" = 1'-0"
140
0.1875
141
12.0
290
     0
  0
SCALE
  5
60
102
{ACAD_REACTORS
330
47
102
}
330
47
100
AcDbScale
 70
     0
300
1/4" = 1'-0"
140
0.25
141
12.0
290
     0
  0
SCALE
  5
61
102
{ACAD_REACTORS
330
47
102
}
330
47
100
AcDbScale
 70
     0
300
3/8" = 1'-0"
140
0.375
141
12.0
290
     0
  0
SCALE
  5
62
102
{ACAD_REACTORS
330
47
102
}
330
47
100
AcDbScale
 70
     0
300
1/2" = 1'-0"
140
0.5
141
12.0
290
     0
  0
SCALE
  5
63
102
{ACAD_REACTORS
330
47
102
}
330
47
100
AcDbScale
 70
     0
300
3/4" = 1'-0"
140
0.75
141
12.0
290
     0
  0
SCALE
  5
64
102
{ACAD_REACTORS
330
47
102
}
330
47
100
AcDbScale
 70
     0
300
1" = 1'-0"
140
1.0
141
12.0
290
     0
  0
SCALE
  5
65
102
{ACAD_REACTORS
330
47
102
}
330
47
100
AcDbScale
 70
     0
300
1-1/2" = 1'-0"
140
1.5
141
12.0
290
     0
  0
SCALE
  5
66
102
{ACAD_REACTORS
330
47
102
}
330
47
100
AcDbScale
 70
     0
300
3" = 1'-0"
140
3.0
141
12.0
290
     0
  0
SCALE
  5
67
102
{ACAD_REACTORS
330
47
102
}
330
47
100
AcDbScale
 70
     0
300
6" = 1'-0"
140
6.0
141
12.0
290
     0
  0
SCALE
  5
68
102
{ACAD_REACTORS
330
47
102
}
330
47
100
AcDbScale
 70
     0
300
1'-0" = 1'-0"
140
12.0
141
12.0
290
     0
  0
ENDSEC
  0
EOF
