  0
SECTION
  2
HEADER
  9
$ACADVER
  1
AC1015
  9
$ACADMAINTVER
 70
     6
  9
$DWGCODEPAGE
  3
ANSI_949
  9
$INSBASE
 10
0.0
 20
0.0
 30
0.0
  9
$EXTMIN
 10
-119.875
 20
-49.97180738881174
 30
0.0
  9
$EXTMAX
 10
74.4152346548377
 20
44.87500000000001
 30
0.0
  9
$LIMMIN
 10
0.0
 20
0.0
  9
$LIMMAX
 10
420.0
 20
297.0
  9
$ORTHOMODE
 70
     0
  9
$REGENMODE
 70
     1
  9
$FILLMODE
 70
     1
  9
$QTEXTMODE
 70
     0
  9
$MIRRTEXT
 70
     1
  9
$LTSCALE
 40
1.0
  9
$ATTMODE
 70
     1
  9
$TEXTSIZE
 40
3.5
  9
$TRACEWID
 40
1.0
  9
$TEXTSTYLE
  7
Standard
  9
$CLAYER
  8
0
  9
$CELTYPE
  6
ByLayer
  9
$CECOLOR
 62
   256
  9
$CELTSCALE
 40
1.0
  9
$DISPSILH
 70
     0
  9
$DIMSCALE
 40
1.0
  9
$DIMASZ
 40
3.302
  9
$DIMEXO
 40
1.0
  9
$DIMDLI
 40
3.75
  9
$DIMRND
 40
0.0
  9
$DIMDLE
 40
0.0
  9
$DIMEXE
 40
1.0
  9
$DIMTP
 40
0.0
  9
$DIMTM
 40
0.0
  9
$DIMTXT
 40
3.5
  9
$DIMCEN
 40
2.5
  9
$DIMTSZ
 40
0.0
  9
$DIMTOL
 70
     0
  9
$DIMLIM
 70
     0
  9
$DIMTIH
 70
     1
  9
$DIMTOH
 70
     1
  9
$DIMSE1
 70
     0
  9
$DIMSE2
 70
     0
  9
$DIMTAD
 70
     1
  9
$DIMZIN
 70
     0
  9
$DIMBLK
  1

  9
$DIMASO
 70
     1
  9
$DIMSHO
 70
     1
  9
$DIMPOST
  1

  9
$DIMAPOST
  1

  9
$DIMALT
 70
     0
  9
$DIMALTD
 70
     3
  9
$DIMALTF
 40
0.0393700787401575
  9
$DIMLFAC
 40
1.0
  9
$DIMTOFL
 70
     1
  9
$DIMTVP
 40
0.0
  9
$DIMTIX
 70
     0
  9
$DIMSOXD
 70
     0
  9
$DIMSAH
 70
     0
  9
$DIMBLK1
  1

  9
$DIMBLK2
  1

  9
$DIMSTYLE
  2
ISO-25
  9
$DIMCLRD
 70
     0
  9
$DIMCLRE
 70
     0
  9
$DIMCLRT
 70
     0
  9
$DIMTFAC
 40
1.0
  9
$DIMGAP
 40
1.524
  9
$DIMJUST
 70
     0
  9
$DIMSD1
 70
     0
  9
$DIMSD2
 70
     0
  9
$DIMTOLJ
 70
     0
  9
$DIMTZIN
 70
     0
  9
$DIMALTZ
 70
     0
  9
$DIMALTTZ
 70
     0
  9
$DIMUPT
 70
     0
  9
$DIMDEC
 70
     2
  9
$DIMTDEC
 70
     2
  9
$DIMALTU
 70
     2
  9
$DIMALTTD
 70
     3
  9
$DIMTXSTY
  7
Standard
  9
$DIMAUNIT
 70
     0
  9
$DIMADEC
 70
     2
  9
$DIMALTRND
 40
0.0
  9
$DIMAZIN
 70
     0
  9
$DIMDSEP
 70
    44
  9
$DIMATFIT
 70
     3
  9
$DIMFRAC
 70
     0
  9
$DIMLDRBLK
  1

  9
$DIMLUNIT
 70
     2
  9
$DIMLWD
 70
    -2
  9
$DIMLWE
 70
    -2
  9
$DIMTMOVE
 70
     0
  9
$LUNITS
 70
     2
  9
$LUPREC
 70
     2
  9
$SKETCHINC
 40
1.0
  9
$FILLETRAD
 40
10.0
  9
$AUNITS
 70
     0
  9
$AUPREC
 70
     2
  9
$MENU
  1
.
  9
$ELEVATION
 40
0.0
  9
$PELEVATION
 40
0.0
  9
$THICKNESS
 40
0.0
  9
$LIMCHECK
 70
     0
  9
$CHAMFERA
 40
0.0
  9
$CHAMFERB
 40
0.0
  9
$CHAMFERC
 40
0.0
  9
$CHAMFERD
 40
0.0
  9
$SKPOLY
 70
     0
  9
$TDCREATE
 40
2458260.59304
  9
$TDUCREATE
 40
2458260.21804
  9
$TDUPDATE
 40
2458268.600682246
  9
$TDUUPDATE
 40
2458268.225682246
  9
$TDINDWG
 40
0.0033496412
  9
$TDUSRTIMER
 40
0.0038711458
  9
$USRTIMER
 70
     1
  9
$ANGBASE
 50
0.0
  9
$ANGDIR
 70
     0
  9
$PDMODE
 70
     0
  9
$PDSIZE
 40
-1.0
  9
$PLINEWID
 40
0.0
  9
$SPLFRAME
 70
     0
  9
$SPLINETYPE
 70
     6
  9
$SPLINESEGS
 70
     8
  9
$HANDSEED
  5
23F
  9
$SURFTAB1
 70
     6
  9
$SURFTAB2
 70
     6
  9
$SURFTYPE
 70
     6
  9
$SURFU
 70
     6
  9
$SURFV
 70
     6
  9
$UCSBASE
  2

  9
$UCSNAME
  2

  9
$UCSORG
 10
0.0
 20
0.0
 30
0.0
  9
$UCSXDIR
 10
1.0
 20
0.0
 30
0.0
  9
$UCSYDIR
 10
0.0
 20
1.0
 30
0.0
  9
$UCSORTHOREF
  2

  9
$UCSORTHOVIEW
 70
     0
  9
$UCSORGTOP
 10
0.0
 20
0.0
 30
0.0
  9
$UCSORGBOTTOM
 10
0.0
 20
0.0
 30
0.0
  9
$UCSORGLEFT
 10
0.0
 20
0.0
 30
0.0
  9
$UCSORGRIGHT
 10
0.0
 20
0.0
 30
0.0
  9
$UCSORGFRONT
 10
0.0
 20
0.0
 30
0.0
  9
$UCSORGBACK
 10
0.0
 20
0.0
 30
0.0
  9
$PUCSBASE
  2

  9
$PUCSNAME
  2

  9
$PUCSORG
 10
0.0
 20
0.0
 30
0.0
  9
$PUCSXDIR
 10
1.0
 20
0.0
 30
0.0
  9
$PUCSYDIR
 10
0.0
 20
1.0
 30
0.0
  9
$PUCSORTHOREF
  2

  9
$PUCSORTHOVIEW
 70
     0
  9
$PUCSORGTOP
 10
0.0
 20
0.0
 30
0.0
  9
$PUCSORGBOTTOM
 10
0.0
 20
0.0
 30
0.0
  9
$PUCSORGLEFT
 10
0.0
 20
0.0
 30
0.0
  9
$PUCSORGRIGHT
 10
0.0
 20
0.0
 30
0.0
  9
$PUCSORGFRONT
 10
0.0
 20
0.0
 30
0.0
  9
$PUCSORGBACK
 10
0.0
 20
0.0
 30
0.0
  9
$USERI1
 70
     0
  9
$USERI2
 70
     0
  9
$USERI3
 70
     0
  9
$USERI4
 70
     0
  9
$USERI5
 70
     0
  9
$USERR1
 40
0.0
  9
$USERR2
 40
0.0
  9
$USERR3
 40
0.0
  9
$USERR4
 40
0.0
  9
$USERR5
 40
0.0
  9
$WORLDVIEW
 70
     1
  9
$SHADEDGE
 70
     3
  9
$SHADEDIF
 70
    70
  9
$TILEMODE
 70
     1
  9
$MAXACTVP
 70
    64
  9
$PINSBASE
 10
0.0
 20
0.0
 30
0.0
  9
$PLIMCHECK
 70
     0
  9
$PEXTMIN
 10
1.000000000000000E+20
 20
1.000000000000000E+20
 30
1.000000000000000E+20
  9
$PEXTMAX
 10
-1.000000000000000E+20
 20
-1.000000000000000E+20
 30
-1.000000000000000E+20
  9
$PLIMMIN
 10
0.0
 20
0.0
  9
$PLIMMAX
 10
0.0
 20
0.0
  9
$UNITMODE
 70
     0
  9
$VISRETAIN
 70
     1
  9
$PLINEGEN
 70
     0
  9
$PSLTSCALE
 70
     1
  9
$TREEDEPTH
 70
  3020
  9
$CMLSTYLE
  2
Standard
  9
$CMLJUST
 70
     0
  9
$CMLSCALE
 40
20.0
  9
$PROXYGRAPHICS
 70
     1
  9
$MEASUREMENT
 70
     1
  9
$CELWEIGHT
370
    -1
  9
$ENDCAPS
280
     0
  9
$JOINSTYLE
280
     0
  9
$LWDISPLAY
290
     1
  9
$INSUNITS
 70
     4
  9
$HYPERLINKBASE
  1

  9
$STYLESHEET
  1

  9
$XEDIT
290
     1
  9
$CEPSNTYPE
380
     0
  9
$PSTYLEMODE
290
     1
  9
$FINGERPRINTGUID
  2
{BFDF1E1A-5771-49C5-93C8-04FEC9BACFD7}
  9
$VERSIONGUID
  2
{FAEB1C32-E019-11D5-929B-00C0DF256EC4}
  9
$EXTNAMES
290
     1
  9
$PSVPSCALE
 40
0.0
  9
$OLESTARTUP
290
     0
  0
ENDSEC
  0
SECTION
  2
CLASSES
  0
CLASS
  1
ACDBDICTIONARYWDFLT
  2
AcDbDictionaryWithDefault
  3
ObjectDBX Classes
 90
        0
280
     0
281
     0
  0
CLASS
  1
VISUALSTYLE
  2
AcDbVisualStyle
  3
ObjectDBX Classes
 90
     4095
280
     0
281
     0
  0
CLASS
  1
MATERIAL
  2
AcDbMaterial
  3
ObjectDBX Classes
 90
     1153
280
     0
281
     0
  0
CLASS
  1
SCALE
  2
AcDbScale
  3
ObjectDBX Classes
 90
     1153
280
     0
281
     0
  0
CLASS
  1
SUN
  2
AcDbSun
  3
SCENEOE
 90
     1153
280
     0
281
     0
  0
CLASS
  1
ACDBPLACEHOLDER
  2
AcDbPlaceHolder
  3
ObjectDBX Classes
 90
        0
280
     0
281
     0
  0
CLASS
  1
LAYOUT
  2
AcDbLayout
  3
ObjectDBX Classes
 90
        0
280
     0
281
     0
  0
CLASS
  1
TABLESTYLE
  2
AcDbTableStyle
  3
ObjectDBX Classes
 90
     4095
280
     0
281
     0
  0
CLASS
  1
MLEADERSTYLE
  2
AcDbMLeaderStyle
  3
ACDB_MLEADERSTYLE_CLASS
 90
     4095
280
     0
281
     0
  0
CLASS
  1
DIMASSOC
  2
AcDbDimAssoc
  3
"AcDbDimAssoc|Product Desc:     AcDim ARX App For Dimension|Company:          Autodesk, Inc.|WEB Address:      www.autodesk.com"
 90
        0
280
     0
281
     0
  0
CLASS
  1
DICTIONARYVAR
  2
AcDbDictionaryVar
  3
ObjectDBX Classes
 90
        0
280
     0
281
     0
  0
ENDSEC
  0
SECTION
  2
TABLES
  0
TABLE
  2
VPORT
  5
8
330
0
100
AcDbSymbolTable
 70
     1
  0
VPORT
  5
29
330
8
100
AcDbSymbolTableRecord
100
AcDbViewportTableRecord
  2
*Active
 70
     0
 10
0.0
 20
0.0
 11
1.0
 21
1.0
 12
-22.72988267258116
 22
-2.548403694405863
 13
0.0
 23
0.0
 14
10.0
 24
10.0
 15
10.0
 25
10.0
 16
0.0
 26
0.0
 36
1.0
 17
0.0
 27
0.0
 37
0.0
 40
96.74374353658798
 41
2.057409879839786
 42
50.0
 43
0.0
 44
0.0
 50
0.0
 51
0.0
 71
    16
 72
  2000
 73
     1
 74
     3
 75
     0
 76
     0
 77
     0
 78
     0
281
     0
 65
     1
110
0.0
120
0.0
130
0.0
111
1.0
121
0.0
131
0.0
112
0.0
122
1.0
132
0.0
 79
     0
146
0.0
  0
ENDTAB
  0
TABLE
  2
LTYPE
  5
5
330
0
100
AcDbSymbolTable
 70
     6
  0
LTYPE
  5
14
330
5
100
AcDbSymbolTableRecord
100
AcDbLinetypeTableRecord
  2
ByBlock
 70
     0
  3

 72
    65
 73
     0
 40
0.0
  0
LTYPE
  5
15
330
5
100
AcDbSymbolTableRecord
100
AcDbLinetypeTableRecord
  2
ByLayer
 70
     0
  3

 72
    65
 73
     0
 40
0.0
  0
LTYPE
  5
16
330
5
100
AcDbSymbolTableRecord
100
AcDbLinetypeTableRecord
  2
Continuous
 70
     0
  3
Solid line
 72
    65
 73
     0
 40
0.0
  0
LTYPE
  5
6A
330
5
100
AcDbSymbolTableRecord
100
AcDbLinetypeTableRecord
  2
HIDDEN
 70
     0
  3
Hidden __ __ __ __ __ __ __ __ __ __ __ __ __ __
 72
    65
 73
     2
 40
1.905
 49
1.27
 74
     0
 49
-0.635
 74
     0
  0
LTYPE
  5
6B
330
5
100
AcDbSymbolTableRecord
100
AcDbLinetypeTableRecord
  2
PHANTOM
 70
     0
  3
Phantom ______  __  __  ______  __  __  ______
 72
    65
 73
     6
 40
12.7
 49
6.35
 74
     0
 49
-1.27
 74
     0
 49
1.27
 74
     0
 49
-1.27
 74
     0
 49
1.27
 74
     0
 49
-1.27
 74
     0
  0
LTYPE
  5
6C
330
5
100
AcDbSymbolTableRecord
100
AcDbLinetypeTableRecord
  2
CENTER
 70
     0
  3
Center ____ _ ____ _ ____ _ ____ _ ____ _ ____
 72
    65
 73
     4
 40
10.16
 49
6.35
 74
     0
 49
-1.27
 74
     0
 49
1.27
 74
     0
 49
-1.27
 74
     0
  0
LTYPE
  5
6D
330
5
100
AcDbSymbolTableRecord
100
AcDbLinetypeTableRecord
  2
CENTERX2
 70
     0
  3
Center (2x) ________  __  ________  __  _____
 72
    65
 73
     4
 40
20.32
 49
12.7
 74
     0
 49
-2.54
 74
     0
 49
2.54
 74
     0
 49
-2.54
 74
     0
  0
LTYPE
  5
6E
330
5
100
AcDbSymbolTableRecord
100
AcDbLinetypeTableRecord
  2
DOT2
 70
     0
  3
Dot (.5x) ........................................
 72
    65
 73
     2
 40
0.635
 49
0.0
 74
     0
 49
-0.635
 74
     0
  0
ENDTAB
  0
TABLE
  2
LAYER
  5
2
102
{ACAD_XDICTIONARY
360
16B
102
}
330
0
100
AcDbSymbolTable
 70
    17
  0
LAYER
  5
10
330
2
100
AcDbSymbolTableRecord
100
AcDbLayerTableRecord
  2
0
 70
     0
 62
     7
  6
Continuous
370
    -3
390
F
  0
LAYER
  5
6F
330
2
100
AcDbSymbolTableRecord
100
AcDbLayerTableRecord
  2
FORMAT
 70
     0
 62
     2
  6
Continuous
370
    -3
390
F
  0
LAYER
  5
70
330
2
100
AcDbSymbolTableRecord
100
AcDbLayerTableRecord
  2
외형선
 70
     0
 62
   100
  6
Continuous
370
    30
390
F
  0
LAYER
  5
71
330
2
100
AcDbSymbolTableRecord
100
AcDbLayerTableRecord
  2
숨은선
 70
     0
 62
     2
  6
HIDDEN
370
    15
390
F
  0
LAYER
  5
72
330
2
100
AcDbSymbolTableRecord
100
AcDbLayerTableRecord
  2
중심선
 70
     0
 62
     1
  6
CENTERX2
370
    -3
390
F
  0
LAYER
  5
73
330
2
100
AcDbSymbolTableRecord
100
AcDbLayerTableRecord
  2
파단선
 70
     0
 62
     4
  6
Continuous
370
    -3
390
F
  0
LAYER
  5
74
330
2
100
AcDbSymbolTableRecord
100
AcDbLayerTableRecord
  2
해칭선
 70
     0
 62
     4
  6
Continuous
370
    -3
390
F
  0
LAYER
  5
75
330
2
100
AcDbSymbolTableRecord
100
AcDbLayerTableRecord
  2
가는실선
 70
     0
 62
     4
  6
Continuous
370
    -3
390
F
  0
LAYER
  5
76
330
2
100
AcDbSymbolTableRecord
100
AcDbLayerTableRecord
  2
치수_보조선
 70
     0
 62
     4
  6
Continuous
370
    -3
390
F
  0
LAYER
  5
77
330
2
100
AcDbSymbolTableRecord
100
AcDbLayerTableRecord
  2
치수문자_일반주서
 70
     0
 62
     7
  6
Continuous
370
    15
390
F
  0
LAYER
  5
78
330
2
100
AcDbSymbolTableRecord
100
AcDbLayerTableRecord
  2
개별주서
 70
     0
 62
   100
  6
Continuous
370
    30
390
F
  0
LAYER
  5
79
330
2
100
AcDbSymbolTableRecord
100
AcDbLayerTableRecord
  2
중간선
 70
     0
 62
     2
  6
Continuous
370
    15
390
F
  0
LAYER
  5
7A
330
2
100
AcDbSymbolTableRecord
100
AcDbLayerTableRecord
  2
윤곽선
 70
     0
 62
     3
  6
Continuous
370
    40
390
F
  0
LAYER
  5
7B
330
2
100
AcDbSymbolTableRecord
100
AcDbLayerTableRecord
  2
중심마크
 70
     0
 62
   100
  6
Continuous
370
    30
390
F
  0
LAYER
  5
7C
330
2
100
AcDbSymbolTableRecord
100
AcDbLayerTableRecord
  2
가상선
 70
     0
 62
     4
  6
PHANTOM
370
    -3
390
F
  0
LAYER
  5
7D
330
2
100
AcDbSymbolTableRecord
100
AcDbLayerTableRecord
  2
특수지정선
 70
     0
 62
     5
  6
CENTERX2
370
    60
390
F
  0
LAYER
  5
12A
330
2
100
AcDbSymbolTableRecord
100
AcDbLayerTableRecord
  2
Defpoints
 70
     0
 62
     7
  6
Continuous
290
     0
370
    -3
390
F
  0
ENDTAB
  0
TABLE
  2
STYLE
  5
3
330
0
100
AcDbSymbolTable
 70
     2
  0
STYLE
  5
11
330
3
100
AcDbSymbolTableRecord
100
AcDbTextStyleTableRecord
  2
Standard
 70
     0
 40
0.0
 41
1.0
 50
0.0
 71
     0
 42
3.5
  3
txt
  4

  0
STYLE
  5
93
330
3
100
AcDbSymbolTableRecord
100
AcDbTextStyleTableRecord
  2
SLDTEXTSTYLE0
 70
     0
 40
0.0
 41
0.75
 50
0.0
 71
     0
 42
3.5
  3
TXT
  4

  0
ENDTAB
  0
TABLE
  2
VIEW
  5
6
330
0
100
AcDbSymbolTable
 70
     0
  0
ENDTAB
  0
TABLE
  2
UCS
  5
7
330
0
100
AcDbSymbolTable
 70
     0
  0
ENDTAB
  0
TABLE
  2
APPID
  5
9
330
0
100
AcDbSymbolTable
 70
     3
  0
APPID
  5
12
330
9
100
AcDbSymbolTableRecord
100
AcDbRegAppTableRecord
  2
ACAD
 70
     0
  0
APPID
  5
131
330
9
100
AcDbSymbolTableRecord
100
AcDbRegAppTableRecord
  2
ACAD_DSTYLE_DIMRADIAL_EXTENSION
 70
     0
  0
APPID
  5
132
330
9
100
AcDbSymbolTableRecord
100
AcDbRegAppTableRecord
  2
PE_URL
 70
     0
  0
ENDTAB
  0
TABLE
  2
DIMSTYLE
  5
A
330
0
100
AcDbSymbolTable
 70
     4
100
AcDbDimStyleTable
  0
DIMSTYLE
105
27
330
A
100
AcDbSymbolTableRecord
100
AcDbDimStyleTableRecord
  2
ISO-25
 70
     0
 41
2.5
 42
0.625
 43
3.75
 44
1.25
 73
     0
 74
     0
 77
     1
 78
     8
140
2.5
141
2.5
143
0.03937007874016
147
0.625
171
     3
172
     1
178
     0
271
     2
272
     2
274
     3
278
    44
283
     0
284
     8
340
11
  0
DIMSTYLE
105
D3
330
A
100
AcDbSymbolTableRecord
100
AcDbDimStyleTableRecord
  2
SLDDIMSTYLE0
 70
     0
 41
3.302
 44
0.0
 45
0.000000001
 73
     0
 74
     0
 77
     1
 78
    12
 79
     3
140
3.5
147
0.875
172
     1
173
     1
178
     0
271
     2
272
     2
276
     2
284
    12
289
     0
340
93
  0
DIMSTYLE
105
E1
330
A
100
AcDbSymbolTableRecord
100
AcDbDimStyleTableRecord
  2
SLDDIMSTYLE1
 70
     0
 41
3.302
 44
0.0
 45
0.000000001
 73
     0
 74
     0
 77
     1
 78
    12
 79
     3
140
3.5
147
0.875
173
     1
178
     0
271
     2
272
     2
276
     2
284
    12
340
93
  0
DIMSTYLE
105
12F
102
{ACAD_REACTORS
330
E0
330
EB
330
D2
330
F5
330
22A
102
}
330
A
100
AcDbSymbolTableRecord
100
AcDbDimStyleTableRecord
  2
SLDDIMSTYLE2
 70
     0
 41
3.302
 44
0.0
 45
0.000000001
 73
     0
 74
     0
 77
     1
 78
    12
 79
     3
140
3.5
147
0.875
172
     1
173
     1
178
     0
271
     2
272
     2
276
     2
284
    12
289
     0
340
93
  0
ENDTAB
  0
TABLE
  2
BLOCK_RECORD
  5
1
330
0
100
AcDbSymbolTable
 70
    14
  0
BLOCK_RECORD
  5
1F
330
1
100
AcDbSymbolTableRecord
100
AcDbBlockTableRecord
  2
*Model_Space
340
22
  0
BLOCK_RECORD
  5
1B
330
1
100
AcDbSymbolTableRecord
100
AcDbBlockTableRecord
  2
*Paper_Space
340
1E
  0
BLOCK_RECORD
  5
23
330
1
100
AcDbSymbolTableRecord
100
AcDbBlockTableRecord
  2
*Paper_Space0
340
26
  0
BLOCK_RECORD
  5
7E
330
1
100
AcDbSymbolTableRecord
100
AcDbBlockTableRecord
  2
블럭10
340
0
102
{BLKREFS
331
CA
102
}
  0
BLOCK_RECORD
  5
D4
330
1
100
AcDbSymbolTableRecord
100
AcDbBlockTableRecord
  2
_D
340
0
  0
BLOCK_RECORD
  5
E2
330
1
100
AcDbSymbolTableRecord
100
AcDbBlockTableRecord
  2
_D_1
340
0
  0
BLOCK_RECORD
  5
EC
330
1
100
AcDbSymbolTableRecord
100
AcDbBlockTableRecord
  2
_D_2
340
0
  0
BLOCK_RECORD
  5
F6
330
1
100
AcDbSymbolTableRecord
100
AcDbBlockTableRecord
  2
_D_3
340
0
  0
BLOCK_RECORD
  5
100
330
1
100
AcDbSymbolTableRecord
100
AcDbBlockTableRecord
  2
SW_DOWELSYMBOL_0
340
0
102
{BLKREFS
331
106
102
}
  0
BLOCK_RECORD
  5
162
330
1
100
AcDbSymbolTableRecord
100
AcDbBlockTableRecord
  2
*D7
340
0
  0
BLOCK_RECORD
  5
16F
330
1
100
AcDbSymbolTableRecord
100
AcDbBlockTableRecord
  2
*D8
340
0
  0
BLOCK_RECORD
  5
181
330
1
100
AcDbSymbolTableRecord
100
AcDbBlockTableRecord
  2
*D9
340
0
  0
BLOCK_RECORD
  5
190
330
1
100
AcDbSymbolTableRecord
100
AcDbBlockTableRecord
  2
*D10
340
0
  0
BLOCK_RECORD
  5
1D1
330
1
100
AcDbSymbolTableRecord
100
AcDbBlockTableRecord
  2
*D11
340
0
  0
BLOCK_RECORD
  5
1DC
330
1
100
AcDbSymbolTableRecord
100
AcDbBlockTableRecord
  2
*D12
340
0
  0
BLOCK_RECORD
  5
22D
330
1
100
AcDbSymbolTableRecord
100
AcDbBlockTableRecord
  2
*D13
340
0
  0
ENDTAB
  0
ENDSEC
  0
SECTION
  2
BLOCKS
  0
BLOCK
  5
20
330
1F
100
AcDbEntity
  8
0
100
AcDbBlockBegin
  2
*Model_Space
 70
     0
 10
0.0
 20
0.0
 30
0.0
  3
*Model_Space
  1

  0
ENDBLK
  5
21
330
1F
100
AcDbEntity
  8
0
100
AcDbBlockEnd
  0
BLOCK
  5
1C
330
1B
100
AcDbEntity
 67
     1
  8
0
100
AcDbBlockBegin
  2
*Paper_Space
 70
     0
 10
0.0
 20
0.0
 30
0.0
  3
*Paper_Space
  1

  0
ENDBLK
  5
1D
330
1B
100
AcDbEntity
 67
     1
  8
0
100
AcDbBlockEnd
  0
BLOCK
  5
24
330
23
100
AcDbEntity
  8
0
100
AcDbBlockBegin
  2
*Paper_Space0
 70
     0
 10
0.0
 20
0.0
 30
0.0
  3
*Paper_Space0
  1

  0
ENDBLK
  5
25
330
23
100
AcDbEntity
  8
0
100
AcDbBlockEnd
  0
BLOCK
  5
7F
330
7E
100
AcDbEntity
  8
0
100
AcDbBlockBegin
  2
블럭10
 70
     2
 10
0.0
 20
0.0
 30
0.0
  3
블럭10
  1

  0
ELLIPSE
  5
81
330
7E
100
AcDbEntity
  8
중심선
100
AcDbEllipse
 10
20.54032771741204
 20
12.0471743016438
 30
0.0
 11
6.600054785286829
 21
-1.261213355974178E-13
 31
0.0
210
0.0
220
0.0
230
1.0
 40
0.636358354079598
 41
0.9219305317359503
 42
6.513795318482858
  0
ELLIPSE
  5
82
330
7E
100
AcDbEntity
  8
중심선
100
AcDbEllipse
 10
20.54032771746488
 20
12.04717430159265
 30
0.0
 11
3.960054785062283
 21
1.540847449632565E-10
 31
0.0
210
0.0
220
0.0
230
1.0
 40
0.3939339440162632
 41
1.131841032648279
 42
5.62031148352944
  0
LINE
  5
83
330
7E
100
AcDbEntity
  8
중심선
100
AcDbLine
 10
2.268634060543552
 20
16.24717430164393
 30
0.0
 11
5.714909304380834
 21
16.24717430164393
 31
0.0
  0
LINE
  5
84
330
7E
100
AcDbEntity
  8
중심선
100
AcDbLine
 10
5.245725140726316
 20
7.84717430164391
 30
0.0
 11
8.692000384563599
 21
7.84717430164391
 31
0.0
  0
LINE
  5
85
330
7E
100
AcDbEntity
  8
중심선
100
AcDbLine
 10
15.74043728645272
 20
16.24717430164393
 30
0.0
 11
8.692000384563599
 21
7.84717430164391
 31
0.0
  0
LINE
  5
86
330
7E
100
AcDbEntity
  8
중심선
100
AcDbLine
 10
0.1404042013395286
 20
13.71084872107135
 30
0.0
 11
3.58671253028996
 21
13.71088815037384
 31
0.0
  0
LINE
  5
87
330
7E
100
AcDbEntity
  8
중심선
100
AcDbLine
 10
2.750260043222114
 20
10.84717430164391
 30
0.0
 11
6.196535287059397
 21
10.84717430164391
 31
0.0
  0
LINE
  5
88
330
7E
100
AcDbEntity
  8
중심선
100
AcDbLine
 10
12.29416204261559
 20
16.24717430164393
 30
0.0
 11
5.245725140726316
 21
7.84717430164391
 31
0.0
  0
LINE
  5
89
330
7E
100
AcDbEntity
  8
중심선
100
AcDbLine
 10
10.72767329541681
 20
16.24717430164393
 30
0.0
 11
6.196535287059397
 21
10.84717430164391
 31
0.0
  0
LINE
  5
8A
330
7E
100
AcDbEntity
  8
중심선
100
AcDbLine
 10
7.28139805157953
 20
16.24717430164393
 30
0.0
 11
2.750260043222114
 21
10.84717430164391
 31
0.0
  0
LINE
  5
8B
330
7E
100
AcDbEntity
  8
중심선
100
AcDbLine
 10
5.714909304380834
 20
16.24717430164393
 30
0.0
 11
3.58671253028996
 21
13.71088815037384
 31
0.0
  0
LINE
  5
8C
330
7E
100
AcDbEntity
  8
중심선
100
AcDbLine
 10
2.268634060543552
 20
16.24717430164393
 30
0.0
 11
0.1404042013395286
 21
13.71084872107135
 31
0.0
  0
LINE
  5
8D
330
7E
100
AcDbEntity
  8
중심선
100
AcDbLine
 10
7.28139805157953
 20
16.24717430164393
 30
0.0
 11
10.72767329541681
 21
16.24717430164393
 31
0.0
  0
LINE
  5
8E
330
7E
100
AcDbEntity
  8
중심선
100
AcDbLine
 10
12.29416204261559
 20
16.24717430164393
 30
0.0
 11
15.74043728645272
 21
16.24717430164393
 31
0.0
  0
LINE
  5
8F
330
7E
100
AcDbEntity
  8
중심선
100
AcDbLine
 10
19.22036997980202
 20
11.08717430171403
 30
0.0
 11
23.66174974927406
 21
11.08717430171406
 31
0.0
  0
LINE
  5
90
330
7E
100
AcDbEntity
  8
중심선
100
AcDbLine
 10
19.22039502424796
 20
13.00717430171391
 30
0.0
 11
19.22036997980202
 21
11.08717430171403
 31
0.0
  0
LINE
  5
91
330
7E
100
AcDbEntity
  8
중심선
100
AcDbLine
 10
19.22039502424796
 20
13.00717430171391
 30
0.0
 11
26.96566020931264
 21
13.00717430171391
 31
0.0
  0
LINE
  5
92
330
7E
100
AcDbEntity
  8
중심선
100
AcDbLine
 10
22.22332737316547
 20
13.45928029700563
 30
0.0
 11
24.52862924686651
 21
15.39360700705356
 31
0.0
  0
ATTDEF
  5
94
330
7E
100
AcDbEntity
  8
FORMAT
 62
     2
100
AcDbText
 10
-16.62882859820096
 20
2.075366912832191
 30
0.0
 40
4.233333333333333
  1
SEMD9920005E [ 2 FLUTE ]
 41
0.75
  7
SLDTEXTSTYLE0
 11
-16.62882859820096
 21
-0.0412997538344756
 31
0.0
100
AcDbAttributeDefinition
  3

  2
AUTOATTR0
 70
     0
 74
     1
  0
ENDBLK
  5
80
330
7E
100
AcDbEntity
  8
0
100
AcDbBlockEnd
  0
BLOCK
  5
D5
330
D4
100
AcDbEntity
  8
0
100
AcDbBlockBegin
  2
_D
 70
     0
 10
0.0
 20
0.0
 30
0.0
  3
_D
  1

  0
LINE
  5
D7
330
D4
100
AcDbEntity
  8
치수문자_일반주서
 62
     0
370
    -2
100
AcDbLine
 10
50.06250000000003
 20
-10.00000000000002
 30
0.0
 11
65.00000000000009
 21
-9.999999999999957
 31
0.0
  0
LINE
  5
D8
330
D4
100
AcDbEntity
  8
치수문자_일반주서
 62
     0
370
    -2
100
AcDbLine
 10
50.06250000000003
 20
10.0
 30
0.0
 11
65.00000000000001
 21
10.00000000000006
 31
0.0
  0
LINE
  5
D9
330
D4
100
AcDbEntity
  8
치수문자_일반주서
 62
     0
370
    -2
100
AcDbLine
 10
65.00000000000001
 20
10.00000000000006
 30
0.0
 11
64.99999999999996
 21
27.25000000000016
 31
0.0
  0
LINE
  5
DA
330
D4
100
AcDbEntity
  8
치수문자_일반주서
 62
     0
370
    -2
100
AcDbLine
 10
65.00000000000009
 20
-9.999999999999957
 30
0.0
 11
65.00000000000001
 21
10.00000000000006
 31
0.0
  0
LINE
  5
DB
330
D4
100
AcDbEntity
  8
치수문자_일반주서
 62
     0
370
    -2
100
AcDbLine
 10
65.0000000000001
 20
-13.99999999999996
 30
0.0
 11
65.00000000000011
 21
-17.99999999999996
 31
0.0
  0
LINE
  5
DC
330
D4
100
AcDbEntity
  8
치수문자_일반주서
 62
     0
370
    -2
100
AcDbLine
 10
65.0
 20
14.00000000000006
 30
0.0
 11
64.99999999999999
 21
18.00000000000006
 31
0.0
  0
SOLID
  5
DD
330
D4
100
AcDbEntity
  8
치수문자_일반주서
 62
     0
100
AcDbTrace
 10
65.66666666666677
 20
-13.99999999999996
 30
0.0
 11
64.33333333333343
 21
-13.99999999999996
 31
0.0
 12
65.00000000000009
 22
-9.999999999999957
 32
0.0
 13
65.00000000000009
 23
-9.999999999999957
 33
0.0
  0
SOLID
  5
DE
330
D4
100
AcDbEntity
  8
치수문자_일반주서
 62
     0
100
AcDbTrace
 10
64.33333333333333
 20
14.00000000000006
 30
0.0
 11
65.66666666666667
 21
14.00000000000006
 31
0.0
 12
65.00000000000001
 22
10.00000000000006
 32
0.0
 13
65.00000000000001
 23
10.00000000000006
 33
0.0
  0
MTEXT
  5
DF
330
D4
100
AcDbEntity
  8
치수문자_일반주서
 62
     0
100
AcDbMText
 10
60.12499999999997
 20
22.62500000000014
 30
0.0
 40
4.0
 41
0.0
 71
     2
 72
     1
  1
\A1;%%c20
  7
SLDTEXTSTYLE0
 11
-3.552713678800498E-15
 21
1.0
 31
0.0
 73
     1
 44
1.0
  0
POINT
  5
1FC
330
D4
100
AcDbEntity
  8
Defpoints
 62
     0
100
AcDbPoint
 10
50.00000000000003
 20
-10.00000000000002
 30
0.0
  0
POINT
  5
1FD
330
D4
100
AcDbEntity
  8
Defpoints
 62
     0
100
AcDbPoint
 10
50.00000000000003
 20
10.0
 30
0.0
  0
POINT
  5
1FE
330
D4
100
AcDbEntity
  8
Defpoints
 62
     0
100
AcDbPoint
 10
65.00000000000001
 20
10.00000000000006
 30
0.0
  0
ENDBLK
  5
D6
330
D4
100
AcDbEntity
  8
0
100
AcDbBlockEnd
  0
BLOCK
  5
E3
330
E2
100
AcDbEntity
  8
0
100
AcDbBlockBegin
  2
_D_1
 70
     0
 10
0.0
 20
0.0
 30
0.0
  3
_D_1
  1

  0
LINE
  5
E5
330
E2
100
AcDbEntity
  8
치수문자_일반주서
 62
     0
370
    -2
100
AcDbLine
 10
50.00000000000003
 20
10.0625
 30
0.0
 11
50.00000000000003
 21
25.0
 31
0.0
  0
LINE
  5
E6
330
E2
100
AcDbEntity
  8
치수문자_일반주서
 62
     0
370
    -2
100
AcDbLine
 10
12.00000000000003
 20
8.161760266415786
 30
0.0
 11
12.00000000000003
 21
25.0
 31
0.0
  0
LINE
  5
E7
330
E2
100
AcDbEntity
  8
치수문자_일반주서
 62
     0
370
    -2
100
AcDbLine
 10
46.00000000000003
 20
25.0
 30
0.0
 11
16.00000000000003
 21
25.0
 31
0.0
  0
SOLID
  5
E8
330
E2
100
AcDbEntity
  8
치수문자_일반주서
 62
     0
100
AcDbTrace
 10
46.00000000000003
 20
24.33333333333333
 30
0.0
 11
46.00000000000003
 21
25.66666666666666
 31
0.0
 12
50.00000000000003
 22
25.0
 32
0.0
 13
50.00000000000003
 23
25.0
 33
0.0
  0
SOLID
  5
E9
330
E2
100
AcDbEntity
  8
치수문자_일반주서
 62
     0
100
AcDbTrace
 10
16.00000000000003
 20
25.66666666666666
 30
0.0
 11
16.00000000000003
 21
24.33333333333333
 31
0.0
 12
12.00000000000003
 22
25.0
 32
0.0
 13
12.00000000000003
 23
25.0
 33
0.0
  0
MTEXT
  5
EA
330
E2
100
AcDbEntity
  8
치수문자_일반주서
 62
     0
100
AcDbMText
 10
31.00000000000003
 20
29.875
 30
0.0
 40
4.0
 41
0.0
 71
     2
 72
     1
  1
\A1;38
  7
SLDTEXTSTYLE0
 73
     1
 44
1.0
  0
POINT
  5
1EB
330
E2
100
AcDbEntity
  8
Defpoints
 62
     0
100
AcDbPoint
 10
50.00000000000003
 20
10.0
 30
0.0
  0
POINT
  5
1EC
330
E2
100
AcDbEntity
  8
Defpoints
 62
     0
100
AcDbPoint
 10
12.00000000000003
 20
8.099260266415786
 30
0.0
  0
POINT
  5
1ED
330
E2
100
AcDbEntity
  8
Defpoints
 62
     0
100
AcDbPoint
 10
12.00000000000003
 20
25.0
 30
0.0
  0
ENDBLK
  5
E4
330
E2
100
AcDbEntity
  8
0
100
AcDbBlockEnd
  0
BLOCK
  5
ED
330
EC
100
AcDbEntity
  8
0
100
AcDbBlockBegin
  2
_D_2
 70
     0
 10
0.0
 20
0.0
 30
0.0
  3
_D_2
  1

  0
LINE
  5
EF
330
EC
100
AcDbEntity
  8
치수문자_일반주서
 62
     0
370
    -2
100
AcDbLine
 10
50.00000000000003
 20
10.0625
 30
0.0
 11
50.00000000000003
 21
40.00000000000001
 31
0.0
  0
LINE
  5
F0
330
EC
100
AcDbEntity
  8
치수문자_일반주서
 62
     0
370
    -2
100
AcDbLine
 10
-99.99999999999997
 20
9.062499999999993
 30
0.0
 11
-99.99999999999997
 21
40.00000000000001
 31
0.0
  0
LINE
  5
F1
330
EC
100
AcDbEntity
  8
치수문자_일반주서
 62
     0
370
    -2
100
AcDbLine
 10
46.00000000000003
 20
40.00000000000001
 30
0.0
 11
-95.99999999999997
 21
40.00000000000001
 31
0.0
  0
SOLID
  5
F2
330
EC
100
AcDbEntity
  8
치수문자_일반주서
 62
     0
100
AcDbTrace
 10
46.00000000000003
 20
39.33333333333334
 30
0.0
 11
46.00000000000003
 21
40.66666666666667
 31
0.0
 12
50.00000000000003
 22
40.00000000000001
 32
0.0
 13
50.00000000000003
 23
40.00000000000001
 33
0.0
  0
SOLID
  5
F3
330
EC
100
AcDbEntity
  8
치수문자_일반주서
 62
     0
100
AcDbTrace
 10
-95.99999999999997
 20
40.66666666666667
 30
0.0
 11
-95.99999999999997
 21
39.33333333333334
 31
0.0
 12
-99.99999999999997
 22
40.00000000000001
 32
0.0
 13
-99.99999999999997
 23
40.00000000000001
 33
0.0
  0
MTEXT
  5
F4
330
EC
100
AcDbEntity
  8
치수문자_일반주서
 62
     0
100
AcDbMText
 10
-24.99999999999997
 20
44.87500000000001
 30
0.0
 40
4.0
 41
0.0
 71
     2
 72
     1
  1
\A1;150
  7
SLDTEXTSTYLE0
 73
     1
 44
1.0
  0
POINT
  5
1EE
330
EC
100
AcDbEntity
  8
Defpoints
 62
     0
100
AcDbPoint
 10
50.00000000000003
 20
10.0
 30
0.0
  0
POINT
  5
1EF
330
EC
100
AcDbEntity
  8
Defpoints
 62
     0
100
AcDbPoint
 10
-99.99999999999997
 20
8.999999999999993
 30
0.0
  0
POINT
  5
1F0
330
EC
100
AcDbEntity
  8
Defpoints
 62
     0
100
AcDbPoint
 10
-99.99999999999997
 20
40.00000000000001
 30
0.0
  0
ENDBLK
  5
EE
330
EC
100
AcDbEntity
  8
0
100
AcDbBlockEnd
  0
BLOCK
  5
F7
330
F6
100
AcDbEntity
  8
0
100
AcDbBlockBegin
  2
_D_3
 70
     0
 10
0.0
 20
0.0
 30
0.0
  3
_D_3
  1

  0
LINE
  5
F9
330
F6
100
AcDbEntity
  8
치수문자_일반주서
 62
     0
370
    -2
100
AcDbLine
 10
-99.06249999999996
 20
-10.0
 30
0.0
 11
-114.9999999999999
 21
-10.00000000000007
 31
0.0
  0
LINE
  5
FA
330
F6
100
AcDbEntity
  8
치수문자_일반주서
 62
     0
370
    -2
100
AcDbLine
 10
-99.06249999999996
 20
9.999999999999996
 30
0.0
 11
-115.0
 21
9.999999999999936
 31
0.0
  0
LINE
  5
FB
330
F6
100
AcDbEntity
  8
치수문자_일반주서
 62
     0
370
    -2
100
AcDbLine
 10
-115.0
 20
9.999999999999936
 30
0.0
 11
-115.0
 21
27.24999999999994
 31
0.0
  0
LINE
  5
FC
330
F6
100
AcDbEntity
  8
치수문자_일반주서
 62
     0
370
    -2
100
AcDbLine
 10
-114.9999999999999
 20
-10.00000000000007
 30
0.0
 11
-115.0
 21
9.999999999999936
 31
0.0
  0
LINE
  5
FD
330
F6
100
AcDbEntity
  8
치수문자_일반주서
 62
     0
370
    -2
100
AcDbLine
 10
-114.9999999999999
 20
-14.00000000000007
 30
0.0
 11
-114.9999999999999
 21
-18.00000000000007
 31
0.0
  0
LINE
  5
FE
330
F6
100
AcDbEntity
  8
치수문자_일반주서
 62
     0
370
    -2
100
AcDbLine
 10
-115.0
 20
13.99999999999994
 30
0.0
 11
-115.0
 21
17.99999999999994
 31
0.0
  0
SOLID
  5
FF
330
F6
100
AcDbEntity
  8
치수문자_일반주서
 62
     0
100
AcDbTrace
 10
-114.3333333333332
 20
-14.00000000000007
 30
0.0
 11
-115.6666666666666
 21
-14.00000000000007
 31
0.0
 12
-114.9999999999999
 22
-10.00000000000007
 32
0.0
 13
-114.9999999999999
 23
-10.00000000000007
 33
0.0
  0
SOLID
  5
1F1
330
F6
100
AcDbEntity
  8
치수문자_일반주서
 62
     0
100
AcDbTrace
 10
-115.6666666666667
 20
13.99999999999993
 30
0.0
 11
-114.3333333333333
 21
13.99999999999994
 31
0.0
 12
-115.0
 22
9.999999999999936
 32
0.0
 13
-115.0
 23
9.999999999999936
 33
0.0
  0
MTEXT
  5
1F2
330
F6
100
AcDbEntity
  8
치수문자_일반주서
 62
     0
100
AcDbMText
 10
-119.875
 20
22.62499999999992
 30
0.0
 40
4.0
 41
0.0
 71
     2
 72
     1
  1
\A1;%%c20
  7
SLDTEXTSTYLE0
 11
-3.552713678800501E-15
 21
1.0
 31
0.0
 73
     1
 44
1.0
  0
POINT
  5
1F9
330
F6
100
AcDbEntity
  8
Defpoints
 62
     0
100
AcDbPoint
 10
-98.99999999999996
 20
-10.0
 30
0.0
  0
POINT
  5
1FA
330
F6
100
AcDbEntity
  8
Defpoints
 62
     0
100
AcDbPoint
 10
-98.99999999999996
 20
9.999999999999996
 30
0.0
  0
POINT
  5
1FB
330
F6
100
AcDbEntity
  8
Defpoints
 62
     0
100
AcDbPoint
 10
-115.0
 20
9.999999999999936
 30
0.0
  0
ENDBLK
  5
F8
330
F6
100
AcDbEntity
  8
0
100
AcDbBlockEnd
  0
BLOCK
  5
101
330
100
100
AcDbEntity
  8
0
100
AcDbBlockBegin
  2
SW_DOWELSYMBOL_0
 70
     0
 10
0.0
 20
0.0
 30
0.0
  3
SW_DOWELSYMBOL_0
  1

  0
CIRCLE
  5
103
330
100
100
AcDbEntity
  8
외형선
 62
     0
100
AcDbCircle
 10
0.0
 20
0.0
 30
0.0
 40
3.000000000000001
  0
HATCH
  5
104
330
100
100
AcDbEntity
  8
0
  6
Continuous
 62
     0
370
    30
100
AcDbHatch
 10
0.0
 20
0.0
 30
0.0
210
0.0
220
0.0
230
1.0
  2
SOLID
 70
     1
 71
     0
 91
        1
 92
        0
 93
        3
 72
     2
 10
-0.0000000000000069
 20
-0.0000000000000035
 40
3.000000000000001
 50
0.0
 51
90.0
 73
     1
 72
     1
 10
-0.0000000000000069
 20
2.999999999999998
 11
-0.0000000000000069
 21
-0.0000000000000036
 72
     1
 10
-0.0000000000000069
 20
-0.0000000000000035
 11
2.999999999999994
 21
-0.0000000000000035
 97
        0
 75
     0
 76
     1
 98
        1
 10
0.0
 20
0.0
  0
HATCH
  5
105
330
100
100
AcDbEntity
  8
0
  6
Continuous
 62
     0
370
    30
100
AcDbHatch
 10
0.0
 20
0.0
 30
0.0
210
0.0
220
0.0
230
1.0
  2
SOLID
 70
     1
 71
     0
 91
        1
 92
        0
 93
        3
 72
     2
 10
-0.0000000000000069
 20
-0.0000000000000035
 40
3.000000000000001
 50
180.0
 51
270.0000000000007
 73
     1
 72
     1
 10
-0.0000000000000069
 20
-3.000000000000005
 11
-0.0000000000000069
 21
-0.0000000000000036
 72
     1
 10
-0.0000000000000069
 20
-0.0000000000000035
 11
-3.000000000000008
 21
-0.0000000000000035
 97
        0
 75
     0
 76
     1
 98
        1
 10
0.0
 20
0.0
  0
ENDBLK
  5
102
330
100
100
AcDbEntity
  8
0
100
AcDbBlockEnd
  0
BLOCK
  5
163
330
162
100
AcDbEntity
  8
0
100
AcDbBlockBegin
  2
*D7
 70
     1
 10
0.0
 20
0.0
 30
0.0
  3
*D7
  1

  0
LINE
  5
164
330
162
100
AcDbEntity
  8
치수문자_일반주서
 62
     0
370
    -2
100
AcDbLine
 10
3.186440170087446
 20
22.82809278780842
 30
0.0
 11
22.06469775827815
 21
-0.0000000000000031
 31
0.0
  0
MTEXT
  5
165
330
162
100
AcDbEntity
  8
치수문자_일반주서
 62
     0
100
AcDbMText
 10
21.01414545688424
 20
5.781659784355693
 30
0.0
 40
4.0
 41
0.0
 71
     5
 72
     1
  1
\A1;R0.5
  7
SLDTEXTSTYLE0
 11
0.6372880340174896
 21
-0.7706256949376417
 31
0.0
 73
     1
 44
1.0
  0
LINE
  5
166
330
162
100
AcDbEntity
  8
치수문자_일반주서
 62
     0
370
    -2
100
AcDbLine
 10
0.0
 20
26.68122126249663
 30
0.0
 11
0.6372880340174873
 21
25.91059556755899
 31
0.0
  0
SOLID
  5
167
330
162
100
AcDbEntity
  8
치수문자_일반주서
 62
     0
100
AcDbTrace
 10
3.700190633379207
 20
23.25295147715342
 30
0.0
 11
2.672689706795684
 21
22.40323409846343
 31
0.0
 12
0.6372880340174873
 22
25.91059556755899
 32
0.0
 13
0.6372880340174873
 23
25.91059556755899
 33
0.0
  0
POINT
  5
168
330
162
100
AcDbEntity
  8
Defpoints
 62
     0
100
AcDbPoint
 10
0.6372880340174873
 20
25.91059556755899
 30
0.0
  0
POINT
  5
169
330
162
100
AcDbEntity
  8
Defpoints
 62
     0
100
AcDbPoint
 10
0.0
 20
26.68122126249663
 30
0.0
  0
ENDBLK
  5
16A
330
162
100
AcDbEntity
  8
0
100
AcDbBlockEnd
  0
BLOCK
  5
170
330
16F
100
AcDbEntity
  8
0
100
AcDbBlockBegin
  2
*D8
 70
     1
 10
0.0
 20
0.0
 30
0.0
  3
*D8
  1

  0
LINE
  5
172
330
16F
100
AcDbEntity
  8
치수문자_일반주서
 62
     0
370
    -2
100
AcDbLine
 10
0.8577241533997082
 20
25.76236719253982
 30
0.0
 11
15.79522415339976
 21
25.76236719253988
 31
0.0
  0
LINE
  5
173
330
16F
100
AcDbEntity
  8
치수문자_일반주서
 62
     0
370
    -2
100
AcDbLine
 10
0.8577241533997082
 20
41.76236719253982
 30
0.0
 11
15.7952241533997
 21
41.76236719253988
 31
0.0
  0
LINE
  5
174
330
16F
100
AcDbEntity
  8
치수문자_일반주서
 62
     0
370
    -2
100
AcDbLine
 10
15.7952241533997
 20
41.76236719253988
 30
0.0
 11
15.79522415339964
 21
58.51236719253997
 31
0.0
  0
LINE
  5
175
330
16F
100
AcDbEntity
  8
치수문자_일반주서
 62
     0
370
    -2
100
AcDbLine
 10
15.79522415339976
 20
25.76236719253988
 30
0.0
 11
15.7952241533997
 21
41.76236719253988
 31
0.0
  0
LINE
  5
176
330
16F
100
AcDbEntity
  8
치수문자_일반주서
 62
     0
370
    -2
100
AcDbLine
 10
15.79522415339977
 20
21.76236719253988
 30
0.0
 11
15.79522415339978
 21
17.76236719253988
 31
0.0
  0
LINE
  5
177
330
16F
100
AcDbEntity
  8
치수문자_일반주서
 62
     0
370
    -2
100
AcDbLine
 10
15.79522415339969
 20
45.76236719253988
 30
0.0
 11
15.79522415339967
 21
49.76236719253988
 31
0.0
  0
SOLID
  5
178
330
16F
100
AcDbEntity
  8
치수문자_일반주서
 62
     0
100
AcDbTrace
 10
16.46189082006644
 20
21.76236719253988
 30
0.0
 11
15.1285574867331
 21
21.76236719253988
 31
0.0
 12
15.79522415339976
 22
25.76236719253988
 32
0.0
 13
15.79522415339976
 23
25.76236719253988
 33
0.0
  0
SOLID
  5
179
330
16F
100
AcDbEntity
  8
치수문자_일반주서
 62
     0
100
AcDbTrace
 10
15.12855748673302
 20
45.76236719253988
 30
0.0
 11
16.46189082006635
 21
45.76236719253988
 31
0.0
 12
15.7952241533997
 22
41.76236719253988
 32
0.0
 13
15.7952241533997
 23
41.76236719253988
 33
0.0
  0
MTEXT
  5
17A
330
16F
100
AcDbEntity
  8
치수문자_일반주서
 62
     0
100
AcDbMText
 10
10.92022415339966
 20
54.13736719253995
 30
0.0
 40
4.0
 41
0.0
 71
     2
 72
     1
  1
\A1;%%c16
  7
SLDTEXTSTYLE0
 11
-3.441691376337986E-15
 21
1.0
 31
0.0
 73
     1
 44
1.0
  0
POINT
  5
17B
330
16F
100
AcDbEntity
  8
Defpoints
 62
     0
100
AcDbPoint
 10
0.7952241533997082
 20
25.76236719253982
 30
0.0
  0
POINT
  5
17C
330
16F
100
AcDbEntity
  8
Defpoints
 62
     0
100
AcDbPoint
 10
0.7952241533997082
 20
41.76236719253982
 30
0.0
  0
POINT
  5
17D
330
16F
100
AcDbEntity
  8
Defpoints
 62
     0
100
AcDbPoint
 10
15.7952241533997
 20
41.76236719253988
 30
0.0
  0
ENDBLK
  5
171
330
16F
100
AcDbEntity
  8
0
100
AcDbBlockEnd
  0
BLOCK
  5
182
330
181
100
AcDbEntity
  8
0
100
AcDbBlockBegin
  2
*D9
 70
     1
 10
0.0
 20
0.0
 30
0.0
  3
*D9
  1

  0
LINE
  5
184
330
181
100
AcDbEntity
  8
치수문자_일반주서
 62
     0
370
    -2
100
AcDbLine
 10
61.15778169406236
 20
31.62202340975013
 30
0.0
 11
76.09528169406241
 21
31.62202340975019
 31
0.0
  0
LINE
  5
185
330
181
100
AcDbEntity
  8
치수문자_일반주서
 62
     0
370
    -2
100
AcDbLine
 10
61.15778169406236
 20
47.62202340975013
 30
0.0
 11
76.09528169406235
 21
47.62202340975018
 31
0.0
  0
LINE
  5
186
330
181
100
AcDbEntity
  8
치수문자_일반주서
 62
     0
370
    -2
100
AcDbLine
 10
76.09528169406235
 20
47.62202340975018
 30
0.0
 11
76.0952816940623
 21
64.37202340975028
 31
0.0
  0
LINE
  5
187
330
181
100
AcDbEntity
  8
치수문자_일반주서
 62
     0
370
    -2
100
AcDbLine
 10
76.09528169406241
 20
31.62202340975019
 30
0.0
 11
76.09528169406235
 21
47.62202340975018
 31
0.0
  0
LINE
  5
188
330
181
100
AcDbEntity
  8
치수문자_일반주서
 62
     0
370
    -2
100
AcDbLine
 10
76.09528169406242
 20
27.62202340975019
 30
0.0
 11
76.09528169406244
 21
23.62202340975019
 31
0.0
  0
LINE
  5
189
330
181
100
AcDbEntity
  8
치수문자_일반주서
 62
     0
370
    -2
100
AcDbLine
 10
76.09528169406234
 20
51.62202340975018
 30
0.0
 11
76.09528169406232
 21
55.62202340975018
 31
0.0
  0
SOLID
  5
18A
330
181
100
AcDbEntity
  8
치수문자_일반주서
 62
     0
100
AcDbTrace
 10
76.7619483607291
 20
27.62202340975019
 30
0.0
 11
75.42861502739575
 21
27.62202340975018
 31
0.0
 12
76.09528169406241
 22
31.62202340975019
 32
0.0
 13
76.09528169406241
 23
31.62202340975019
 33
0.0
  0
SOLID
  5
18B
330
181
100
AcDbEntity
  8
치수문자_일반주서
 62
     0
100
AcDbTrace
 10
75.42861502739567
 20
51.62202340975018
 30
0.0
 11
76.76194836072901
 21
51.62202340975018
 31
0.0
 12
76.09528169406235
 22
47.62202340975018
 32
0.0
 13
76.09528169406235
 23
47.62202340975018
 33
0.0
  0
MTEXT
  5
18C
330
181
100
AcDbEntity
  8
치수문자_일반주서
 62
     0
100
AcDbMText
 10
71.22028169406231
 20
59.99702340975026
 30
0.0
 40
4.0
 41
0.0
 71
     2
 72
     1
  1
\A1;%%c16
  7
SLDTEXTSTYLE0
 11
-3.552713678800502E-15
 21
1.0
 31
0.0
 73
     1
 44
1.0
  0
POINT
  5
18D
330
181
100
AcDbEntity
  8
Defpoints
 62
     0
100
AcDbPoint
 10
61.09528169406236
 20
31.62202340975013
 30
0.0
  0
POINT
  5
18E
330
181
100
AcDbEntity
  8
Defpoints
 62
     0
100
AcDbPoint
 10
61.09528169406236
 20
47.62202340975013
 30
0.0
  0
POINT
  5
18F
330
181
100
AcDbEntity
  8
Defpoints
 62
     0
100
AcDbPoint
 10
76.09528169406235
 20
47.62202340975018
 30
0.0
  0
ENDBLK
  5
183
330
181
100
AcDbEntity
  8
0
100
AcDbBlockEnd
  0
BLOCK
  5
191
330
190
100
AcDbEntity
  8
0
100
AcDbBlockBegin
  2
*D10
 70
     1
 10
0.0
 20
0.0
 30
0.0
  3
*D10
  1

  0
LINE
  5
193
330
190
100
AcDbEntity
  8
치수문자_일반주서
 62
     0
370
    -2
100
AcDbLine
 10
74.91747622354295
 20
-12.93266919186379
 30
0.0
 11
93.79573381173365
 21
-35.76076197967221
 31
0.0
  0
MTEXT
  5
194
330
190
100
AcDbEntity
  8
치수문자_일반주서
 62
     0
100
AcDbMText
 10
92.74518151033973
 20
-29.97910219531652
 30
0.0
 40
4.0
 41
0.0
 71
     5
 72
     1
  1
\A1;R0.5
  7
SLDTEXTSTYLE0
 11
0.6372880340174896
 21
-0.7706256949376417
 31
0.0
 73
     1
 44
1.0
  0
LINE
  5
195
330
190
100
AcDbEntity
  8
치수문자_일반주서
 62
     0
370
    -2
100
AcDbLine
 10
71.7310360534555
 20
-9.079540717175586
 30
0.0
 11
72.36832408747298
 21
-9.850166412113225
 31
0.0
  0
SOLID
  5
196
330
190
100
AcDbEntity
  8
치수문자_일반주서
 62
     0
100
AcDbTrace
 10
75.4312266868347
 20
-12.5078105025188
 30
0.0
 11
74.40372576025119
 21
-13.35752788120879
 31
0.0
 12
72.36832408747298
 22
-9.850166412113225
 32
0.0
 13
72.36832408747298
 23
-9.850166412113225
 33
0.0
  0
POINT
  5
197
330
190
100
AcDbEntity
  8
Defpoints
 62
     0
100
AcDbPoint
 10
72.36832408747298
 20
-9.850166412113225
 30
0.0
  0
POINT
  5
198
330
190
100
AcDbEntity
  8
Defpoints
 62
     0
100
AcDbPoint
 10
71.7310360534555
 20
-9.079540717175586
 30
0.0
  0
ENDBLK
  5
192
330
190
100
AcDbEntity
  8
0
100
AcDbBlockEnd
  0
BLOCK
  5
1D2
330
1D1
100
AcDbEntity
  8
0
100
AcDbBlockBegin
  2
*D11
 70
     1
 10
0.0
 20
0.0
 30
0.0
  3
*D11
  1

  0
LINE
  5
1D3
330
1D1
100
AcDbEntity
  8
치수문자_일반주서
 62
     0
370
    -2
100
AcDbLine
 10
3.186440170087446
 20
22.82809278780842
 30
0.0
 11
22.06469775827815
 21
-0.0000000000000031
 31
0.0
  0
MTEXT
  5
1D4
330
1D1
100
AcDbEntity
  8
치수문자_일반주서
 62
     0
100
AcDbMText
 10
21.01414545688424
 20
5.781659784355693
 30
0.0
 40
4.0
 41
0.0
 71
     5
 72
     1
  1
\A1;R0.5
  7
SLDTEXTSTYLE0
 11
0.6372880340174896
 21
-0.7706256949376417
 31
0.0
 73
     1
 44
1.0
  0
LINE
  5
1D5
330
1D1
100
AcDbEntity
  8
치수문자_일반주서
 62
     0
370
    -2
100
AcDbLine
 10
0.0
 20
26.68122126249663
 30
0.0
 11
0.6372880340174873
 21
25.91059556755899
 31
0.0
  0
SOLID
  5
1D6
330
1D1
100
AcDbEntity
  8
치수문자_일반주서
 62
     0
100
AcDbTrace
 10
3.700190633379207
 20
23.25295147715342
 30
0.0
 11
2.672689706795684
 21
22.40323409846343
 31
0.0
 12
0.6372880340174873
 22
25.91059556755899
 32
0.0
 13
0.6372880340174873
 23
25.91059556755899
 33
0.0
  0
POINT
  5
1D7
330
1D1
100
AcDbEntity
  8
Defpoints
 62
     0
100
AcDbPoint
 10
0.6372880340174873
 20
25.91059556755899
 30
0.0
  0
POINT
  5
1D8
330
1D1
100
AcDbEntity
  8
Defpoints
 62
     0
100
AcDbPoint
 10
0.0
 20
26.68122126249663
 30
0.0
  0
ENDBLK
  5
1D9
330
1D1
100
AcDbEntity
  8
0
100
AcDbBlockEnd
  0
BLOCK
  5
1DD
330
1DC
100
AcDbEntity
  8
0
100
AcDbBlockBegin
  2
*D12
 70
     1
 10
0.0
 20
0.0
 30
0.0
  3
*D12
  1

  0
LINE
  5
1DF
330
1DC
100
AcDbEntity
  8
치수문자_일반주서
 62
     0
370
    -2
100
AcDbLine
 10
0.8577241533997082
 20
25.76236719253982
 30
0.0
 11
15.79522415339976
 21
25.76236719253988
 31
0.0
  0
LINE
  5
1E0
330
1DC
100
AcDbEntity
  8
치수문자_일반주서
 62
     0
370
    -2
100
AcDbLine
 10
0.8577241533997082
 20
41.76236719253982
 30
0.0
 11
15.7952241533997
 21
41.76236719253988
 31
0.0
  0
LINE
  5
1E1
330
1DC
100
AcDbEntity
  8
치수문자_일반주서
 62
     0
370
    -2
100
AcDbLine
 10
15.7952241533997
 20
41.76236719253988
 30
0.0
 11
15.79522415339964
 21
58.51236719253997
 31
0.0
  0
LINE
  5
1E2
330
1DC
100
AcDbEntity
  8
치수문자_일반주서
 62
     0
370
    -2
100
AcDbLine
 10
15.79522415339976
 20
25.76236719253988
 30
0.0
 11
15.7952241533997
 21
41.76236719253988
 31
0.0
  0
LINE
  5
1E3
330
1DC
100
AcDbEntity
  8
치수문자_일반주서
 62
     0
370
    -2
100
AcDbLine
 10
15.79522415339977
 20
21.76236719253988
 30
0.0
 11
15.79522415339978
 21
17.76236719253988
 31
0.0
  0
LINE
  5
1E4
330
1DC
100
AcDbEntity
  8
치수문자_일반주서
 62
     0
370
    -2
100
AcDbLine
 10
15.79522415339969
 20
45.76236719253988
 30
0.0
 11
15.79522415339967
 21
49.76236719253988
 31
0.0
  0
SOLID
  5
1E5
330
1DC
100
AcDbEntity
  8
치수문자_일반주서
 62
     0
100
AcDbTrace
 10
16.46189082006644
 20
21.76236719253988
 30
0.0
 11
15.1285574867331
 21
21.76236719253988
 31
0.0
 12
15.79522415339976
 22
25.76236719253988
 32
0.0
 13
15.79522415339976
 23
25.76236719253988
 33
0.0
  0
SOLID
  5
1E6
330
1DC
100
AcDbEntity
  8
치수문자_일반주서
 62
     0
100
AcDbTrace
 10
15.12855748673302
 20
45.76236719253988
 30
0.0
 11
16.46189082006635
 21
45.76236719253988
 31
0.0
 12
15.7952241533997
 22
41.76236719253988
 32
0.0
 13
15.7952241533997
 23
41.76236719253988
 33
0.0
  0
MTEXT
  5
1E7
330
1DC
100
AcDbEntity
  8
치수문자_일반주서
 62
     0
100
AcDbMText
 10
10.92022415339966
 20
54.13736719253995
 30
0.0
 40
4.0
 41
0.0
 71
     2
 72
     1
  1
\A1;%%c16
  7
SLDTEXTSTYLE0
 11
-3.441691376337986E-15
 21
1.0
 31
0.0
 73
     1
 44
1.0
  0
POINT
  5
1E8
330
1DC
100
AcDbEntity
  8
Defpoints
 62
     0
100
AcDbPoint
 10
0.7952241533997082
 20
25.76236719253982
 30
0.0
  0
POINT
  5
1E9
330
1DC
100
AcDbEntity
  8
Defpoints
 62
     0
100
AcDbPoint
 10
0.7952241533997082
 20
41.76236719253982
 30
0.0
  0
POINT
  5
1EA
330
1DC
100
AcDbEntity
  8
Defpoints
 62
     0
100
AcDbPoint
 10
15.7952241533997
 20
41.76236719253988
 30
0.0
  0
ENDBLK
  5
1DE
330
1DC
100
AcDbEntity
  8
0
100
AcDbBlockEnd
  0
BLOCK
  5
22E
330
22D
100
AcDbEntity
  8
0
100
AcDbBlockBegin
  2
*D13
 70
     1
 10
0.0
 20
0.0
 30
0.0
  3
*D13
  1

  0
LINE
  5
230
330
22D
100
AcDbEntity
  8
치수문자_일반주서
 62
     0
370
    -2
100
AcDbLine
 10
51.91070940071761
 20
-13.29980001911836
 30
0.0
 11
70.76753368426567
 21
-43.02223825734371
 31
0.0
  0
MTEXT
  5
231
330
22D
100
AcDbEntity
  8
치수문자_일반주서
 62
     0
100
AcDbMText
 10
70.44965354566294
 20
-37.15451278511156
 30
0.0
 40
4.0
 41
0.0
 71
     5
 72
     1
  1
\A1;R0.5
  7
SLDTEXTSTYLE0
 11
0.535713200159462
 21
-0.8444000042485246
 31
0.0
 73
     1
 44
1.0
  0
LINE
  5
232
330
22D
100
AcDbEntity
  8
치수문자_일반주서
 62
     0
370
    -2
100
AcDbLine
 10
49.50000000000003
 20
-9.5
 30
0.0
 11
49.76785660007976
 21
-9.922200002124264
 31
0.0
  0
SOLID
  5
233
330
22D
100
AcDbEntity
  8
치수문자_일반주서
 62
     0
100
AcDbTrace
 10
52.47364273688329
 20
-12.94265788567872
 30
0.0
 11
51.34777606455192
 21
-13.656942152558
 31
0.0
 12
49.76785660007976
 22
-9.922200002124264
 32
0.0
 13
49.76785660007976
 23
-9.922200002124264
 33
0.0
  0
POINT
  5
234
330
22D
100
AcDbEntity
  8
Defpoints
 62
     0
100
AcDbPoint
 10
49.76785660007976
 20
-9.922200002124264
 30
0.0
  0
POINT
  5
235
330
22D
100
AcDbEntity
  8
Defpoints
 62
     0
100
AcDbPoint
 10
49.50000000000003
 20
-9.5
 30
0.0
  0
ENDBLK
  5
22F
330
22D
100
AcDbEntity
  8
0
100
AcDbBlockEnd
  0
ENDSEC
  0
SECTION
  2
ENTITIES
  0
LINE
  5
95
330
1F
100
AcDbEntity
  8
0
  6
Continuous
 62
   131
370
    15
100
AcDbLine
 10
8.949879773513226
 20
10.0
 30
0.0
 11
-98.99999999999996
 21
9.999999999999996
 31
0.0
  0
LINE
  5
96
330
1F
100
AcDbEntity
  8
0
  6
Continuous
 62
   131
370
    15
100
AcDbLine
 10
-98.99999999999996
 20
-10.0
 30
0.0
 11
8.949879773513226
 21
-9.999999999999996
 31
0.0
  0
LINE
  5
97
330
1F
100
AcDbEntity
  8
0
  6
Continuous
 62
   131
370
    15
100
AcDbLine
 10
-98.99999999999996
 20
9.99999999999999
 30
0.0
 11
-99.99999999999997
 21
8.99999999999999
 31
0.0
  0
LINE
  5
98
330
1F
100
AcDbEntity
  8
0
  6
Continuous
 62
   131
370
    15
100
AcDbLine
 10
-99.99999999999997
 20
-8.999999999999996
 30
0.0
 11
-98.99999999999996
 21
-9.999999999999996
 31
0.0
  0
SPLINE
  5
99
330
1F
100
AcDbEntity
  8
0
  6
Continuous
 62
   131
370
    15
100
AcDbSpline
210
0.0
220
0.0
230
1.0
 70
     8
 71
     3
 72
     9
 73
     5
 74
     0
 42
0.000000001
 43
0.00000001
 40
0.0
 40
0.0
 40
0.0
 40
0.0
 40
0.5569865671250336
 40
1.0
 40
1.0
 40
1.0
 40
1.0
 10
8.949833805589241
 20
-8.04762749030322
 30
0.0
 10
9.526560706868896
 20
-8.009960221335668
 30
0.0
 10
10.56200201788024
 20
-7.942333331944107
 30
0.0
 10
11.55852633938625
 20
-7.900341947503271
 30
0.0
 10
12.00000000000003
 20
-7.881739200130965
 30
0.0
  0
SPLINE
  5
9A
330
1F
100
AcDbEntity
  8
0
  6
Continuous
 62
     1
370
    15
100
AcDbSpline
210
0.0
220
0.0
230
1.0
 70
     8
 71
     3
 72
     9
 73
     5
 74
     0
 42
0.000000001
 43
0.00000001
 40
0.0
 40
0.0
 40
0.0
 40
0.0
 40
0.505521321790848
 40
1.0
 40
1.0
 40
1.0
 40
1.0
 10
24.09292586789877
 20
2.562456437452167
 30
0.0
 10
23.62483613794864
 20
2.7855383218174
 30
0.0
 10
22.69888166328496
 20
3.226829074055005
 30
0.0
 10
21.77499934598917
 20
3.710720481034473
 30
0.0
 10
21.31815923891193
 20
3.949994464354448
 30
0.0
1001
PE_URL
1000

  0
SPLINE
  5
9B
330
1F
100
AcDbEntity
  8
0
  6
Continuous
 62
     1
370
    15
100
AcDbSpline
210
0.0
220
0.0
230
1.0
 70
     8
 71
     3
 72
    16
 73
    12
 74
     0
 42
0.000000001
 43
0.00000001
 40
0.0
 40
0.0
 40
0.0
 40
0.0
 40
0.1828123828009091
 40
0.3382568343383096
 40
0.4691634517517893
 40
0.5836238229723889
 40
0.6661810324389992
 40
0.7420446194454007
 40
0.8225190765402312
 40
0.9334163724297218
 40
1.0
 40
1.0
 40
1.0
 40
1.0
 10
20.78767664554989
 20
7.946401538192685
 30
0.0
 10
20.30245542237906
 20
7.9220654521834
 30
0.0
 10
19.4046530285321
 20
7.877036514386283
 30
0.0
 10
18.1156157352278
 20
7.836497800649791
 30
0.0
 10
16.99650566514957
 20
7.817540551261599
 30
0.0
 10
16.08336584924769
 20
7.806960732628014
 30
0.0
 10
15.32554023224356
 20
7.806002790279079
 30
0.0
 10
14.68284930237437
 20
7.81232469760807
 30
0.0
 10
13.99194212384247
 20
7.824233039252309
 30
0.0
 10
13.29112229991473
 20
7.838037338321975
 30
0.0
 10
12.8066043385909
 20
7.85487732430791
 30
0.0
 10
12.62483289600986
 20
7.861195002474767
 30
0.0
1001
PE_URL
1000

  0
SPLINE
  5
9C
330
1F
100
AcDbEntity
  8
0
  6
Continuous
 62
     1
370
    15
100
AcDbSpline
210
0.0
220
0.0
230
1.0
 70
     8
 71
     3
 72
    29
 73
    25
 74
     0
 42
0.000000001
 43
0.00000001
 40
0.0
 40
0.0
 40
0.0
 40
0.0
 40
0.063854187156197
 40
0.11394314447404
 40
0.1510749808735113
 40
0.1884062867731075
 40
0.2303112730735898
 40
0.2737021152810706
 40
0.310371443402344
 40
0.3509121885146624
 40
0.3907910166690356
 40
0.4367704013248384
 40
0.5005765542456887
 40
0.5557441177767131
 40
0.5983585397239991
 40
0.6334378516348507
 40
0.6673194248761881
 40
0.7039309717570587
 40
0.7494522156535816
 40
0.7965442259777907
 40
0.839298840016835
 40
0.8793948808018374
 40
0.9318276508443064
 40
1.0
 40
1.0
 40
1.0
 40
1.0
 10
46.28496866613349
 20
6.839527527896528
 30
0.0
 10
45.91861188524117
 20
6.809556903396488
 30
0.0
 10
45.26487490301091
 20
6.756076507678167
 30
0.0
 10
44.39087173341448
 20
6.700186666318947
 30
0.0
 10
43.6547794870723
 20
6.66090163786336
 30
0.0
 10
42.96938409229237
 20
6.630797447370838
 30
0.0
 10
42.25222133945817
 20
6.606589322253634
 30
0.0
 10
41.54249120119299
 20
6.590376045734311
 30
0.0
 10
40.8403049002876
 20
6.58150600685437
 30
0.0
 10
40.15866312593283
 20
6.579666919022485
 30
0.0
 10
39.42240849073821
 20
6.585326734428818
 30
0.0
 10
38.55036990036808
 20
6.601619608891589
 30
0.0
 10
37.58952429220962
 20
6.63304740952893
 30
0.0
 10
36.64885123835045
 20
6.678239175847661
 30
0.0
 10
35.87462132825747
 20
6.72478808737011
 30
0.0
 10
35.2247514367056
 20
6.770119861381612
 30
0.0
 10
34.61196551146129
 20
6.818059003245498
 30
0.0
 10
33.93866665785794
 20
6.876644657993928
 30
0.0
 10
33.18548924898703
 20
6.949622028574565
 30
0.0
 10
32.3941552225596
 20
7.034730769239993
 30
0.0
 10
31.63048937524505
 20
7.124764892869559
 30
0.0
 10
30.82997678499897
 20
7.226711459549556
 30
0.0
 10
29.8980782902248
 20
7.355072384426252
 30
0.0
 10
29.20578318899892
 20
7.461290564536831
 30
0.0
 10
28.8144616292399
 20
7.521330659926836
 30
0.0
  0
SPLINE
  5
9D
330
1F
100
AcDbEntity
  8
0
  6
Continuous
 62
     1
370
    15
100
AcDbSpline
210
0.0
220
0.0
230
1.0
 70
     8
 71
     3
 72
    17
 73
    13
 74
     0
 42
0.000000001
 43
0.00000001
 40
0.0
 40
0.0
 40
0.0
 40
0.0
 40
0.1468308097154532
 40
0.2631825489457497
 40
0.3513225702855832
 40
0.4393461181143811
 40
0.5362355956664645
 40
0.6358332284903575
 40
0.7207882662085051
 40
0.8165739716227924
 40
0.9120233785076047
 40
0.9999999999999999
 40
0.9999999999999999
 40
0.9999999999999999
 40
0.9999999999999999
 10
28.8144616292399
 20
-7.521330659926824
 30
0.0
 10
29.17394991225202
 20
-7.466069103380604
 30
0.0
 10
29.8183040694116
 20
-7.367017158228707
 30
0.0
 10
30.68538612298011
 20
-7.246300096723349
 30
0.0
 10
31.42165260673268
 20
-7.150815708677827
 30
0.0
 10
32.10778278695507
 20
-7.06785850323987
 30
0.0
 10
32.81878000774005
 20
-6.988241139331309
 30
0.0
 10
33.51900473897122
 20
-6.916677608921932
 30
0.0
 10
34.21511813446146
 20
-6.851769661112602
 30
0.0
 10
34.89782672292518
 20
-6.79486683711526
 30
0.0
 10
35.59055041077538
 20
-6.743235156899633
 30
0.0
 10
36.0464522947689
 20
-6.715645215807722
 30
0.0
 10
36.26511650420862
 20
-6.7024122530384
 30
0.0
1001
PE_URL
1000

  0
SPLINE
  5
9E
330
1F
100
AcDbEntity
  8
0
  6
Continuous
 62
     1
370
    15
100
AcDbSpline
210
0.0
220
0.0
230
1.0
 70
     8
 71
     3
 72
    16
 73
    12
 74
     0
 42
0.000000001
 43
0.00000001
 40
0.0
 40
0.0
 40
0.0
 40
0.0
 40
0.1327858254242124
 40
0.2358177731788376
 40
0.3105846103002661
 40
0.3810676015240655
 40
0.457769472604925
 40
0.5641117859407491
 40
0.6857339017723274
 40
0.8301535152632442
 40
1.0
 40
1.0
 40
1.0
 40
1.0
 10
12.00000000000002
 20
-7.881740103570273
 30
0.0
 10
12.3902813508832
 20
-7.867843125651319
 30
0.0
 10
13.08339207098058
 20
-7.843163124029959
 30
0.0
 10
13.99199731549665
 20
-7.824059360809333
 30
0.0
 10
14.68283741511132
 20
-7.812362104737211
 30
0.0
 10
15.32554360923135
 20
-7.80599216349154
 30
0.0
 10
16.08336450876286
 20
-7.806964950898355
 30
0.0
 10
16.99650613422753
 20
-7.817539075155624
 30
0.0
 10
18.11561557613528
 20
-7.836498301285968
 30
0.0
 10
19.40465307989281
 20
-7.877036352763166
 30
0.0
 10
20.30245544039851
 20
-7.922065395479399
 30
0.0
 10
20.78767664554989
 20
-7.946401538192678
 30
0.0
1001
PE_URL
1000

  0
SPLINE
  5
9F
330
1F
100
AcDbEntity
  8
0
  6
Continuous
 62
   131
370
    15
100
AcDbSpline
210
0.0
220
0.0
230
1.0
 70
     8
 71
     3
 72
    10
 73
     6
 74
     0
 42
0.000000001
 43
0.00000001
 40
0.0
 40
0.0
 40
0.0
 40
0.0
 40
0.5
 40
0.5
 40
1.0
 40
1.0
 40
1.0
 40
1.0
 10
12.00000000000251
 20
8.099260266414944
 30
0.0
 10
11.49236433198385
 20
8.271324469499028
 30
0.0
 10
10.98616548527131
 20
8.432784912094984
 30
0.0
 10
9.967895846602966
 20
8.734109782956374
 30
0.0
 10
9.457816413870717
 20
8.873741289468558
 30
0.0
 10
8.949753915136853
 20
9.001554882250112
 30
0.0
  0
LINE
  5
A0
330
1F
100
AcDbEntity
  8
0
  6
Continuous
 62
   131
370
    15
100
AcDbLine
 10
12.00000000000003
 20
8.099260266415786
 30
0.0
 11
12.00000000000003
 21
6.164356534232738
 31
0.0
  0
SPLINE
  5
A1
330
1F
100
AcDbEntity
  8
0
  6
Continuous
 62
   131
370
    15
100
AcDbSpline
210
0.0
220
0.0
230
1.0
 70
     8
 71
     3
 72
    10
 73
     6
 74
     0
 42
0.000000001
 43
0.00000001
 40
0.0
 40
0.0
 40
0.0
 40
0.0
 40
0.5
 40
0.5
 40
1.0
 40
1.0
 40
1.0
 40
1.0
 10
8.94987977351322
 20
7.448440237916558
 30
0.0
 10
9.457921628472247
 20
7.252653299630543
 30
0.0
 10
9.967980007312274
 20
7.046969413461325
 30
0.0
 10
10.98620744852258
 20
6.618157730196
 30
0.0
 10
11.49238529074841
 20
6.395339090426898
 30
0.0
 10
12.00000000000003
 20
6.16435653423274
 30
0.0
  0
LINE
  5
A2
330
1F
100
AcDbEntity
  8
0
  6
Continuous
 62
   131
370
    15
100
AcDbLine
 10
8.949879773513226
 20
-9.999999999999996
 30
0.0
 11
8.94987977351322
 21
7.448440758862632
 31
0.0
  0
SPLINE
  5
A3
330
1F
100
AcDbEntity
  8
0
  6
Continuous
 62
   131
370
    15
100
AcDbSpline
210
0.0
220
0.0
230
1.0
 70
     8
 71
     3
 72
    10
 73
     6
 74
     0
 42
0.000000001
 43
0.00000001
 40
0.0
 40
0.0
 40
0.0
 40
0.0
 40
0.5
 40
0.5
 40
1.0
 40
1.0
 40
1.0
 40
1.0
 10
12.00000000000251
 20
-8.099260266414937
 30
0.0
 10
11.49236433198385
 20
-8.271324469499021
 30
0.0
 10
10.98616548527131
 20
-8.432784912094974
 30
0.0
 10
9.967895846602966
 20
-8.734109782956363
 30
0.0
 10
9.457816413870717
 20
-8.873741289468551
 30
0.0
 10
8.949753915136856
 20
-9.001554882250101
 30
0.0
  0
LINE
  5
A4
330
1F
100
AcDbEntity
  8
0
  6
Continuous
 62
   131
370
    15
100
AcDbLine
 10
8.949879773513224
 20
9.001741546477135
 30
0.0
 11
8.949879773513226
 21
10.0
 31
0.0
  0
LINE
  5
A5
330
1F
100
AcDbEntity
  8
0
  6
Continuous
 62
   131
370
    15
100
AcDbLine
 10
-98.99999999999996
 20
9.99999999999999
 30
0.0
 11
-98.99999999999996
 21
-10.0
 31
0.0
  0
LINE
  5
A6
330
1F
100
AcDbEntity
  8
0
  6
Continuous
 62
   131
370
    15
100
AcDbLine
 10
-99.99999999999997
 20
8.999999999999993
 30
0.0
 11
-99.99999999999997
 21
-9.000000000000004
 31
0.0
  0
SPLINE
  5
A7
330
1F
100
AcDbEntity
  8
0
  6
Continuous
 62
   131
370
    15
100
AcDbSpline
210
0.0
220
0.0
230
1.0
 70
    24
 71
     3
 72
    10
 73
     6
 74
     0
 42
0.000000001
 43
0.00000001
 40
0.0
 40
0.0
 40
0.0
 40
0.0
 40
0.5
 40
0.5
 40
1.0
 40
1.0
 40
1.0
 40
1.0
 10
12.00000000000003
 20
6.164356534232738
 30
0.0
 10
12.00000000000003
 20
5.976171270123051
 30
0.0
 10
12.00000000000003
 20
5.686449402071917
 30
0.0
 10
12.00000000000003
 20
4.962817386484935
 30
0.0
 10
12.00000000000003
 20
4.531394061185873
 30
0.0
 10
12.00000000000003
 20
4.084836208163631
 30
0.0
  0
SPLINE
  5
A8
330
1F
100
AcDbEntity
  8
0
  6
Continuous
 62
   131
370
    15
100
AcDbSpline
210
0.0
220
0.0
230
1.0
 70
     8
 71
     3
 72
    10
 73
     6
 74
     0
 42
0.000000001
 43
0.00000001
 40
0.0
 40
0.0
 40
0.0
 40
0.0
 40
0.5
 40
0.5
 40
1.0
 40
1.0
 40
1.0
 40
1.0
 10
12.00000000000004
 20
4.084836208163637
 30
0.0
 10
11.49238024020694
 20
4.251592142730185
 30
0.0
 10
10.98619733642355
 20
4.412925248654721
 30
0.0
 10
9.96795972667491
 20
4.724388244342241
 30
0.0
 10
9.457896274368695
 20
4.874295211598247
 30
0.0
 10
8.949849444767302
 20
5.017520153805346
 30
0.0
  0
SPLINE
  5
A9
330
1F
100
AcDbEntity
  8
0
  6
Continuous
 62
   131
370
    15
100
AcDbSpline
210
0.0
220
0.0
230
1.0
 70
     8
 71
     3
 72
    10
 73
     6
 74
     0
 42
0.000000001
 43
0.00000001
 40
0.0
 40
0.0
 40
0.0
 40
0.0
 40
0.5
 40
0.5
 40
1.0
 40
1.0
 40
1.0
 40
1.0
 10
12.00000000000002
 20
-6.496629018753862
 30
0.0
 10
11.49237763586823
 20
-6.359681552922235
 30
0.0
 10
10.98619212206533
 20
-6.214487445588195
 30
0.0
 10
9.967949268855715
 20
-5.907850284070148
 30
0.0
 10
9.457883200390022
 20
-5.746582955314095
 30
0.0
 10
8.949833805589241
 20
-5.578319227553149
 30
0.0
  0
SPLINE
  5
AA
330
1F
100
AcDbEntity
  8
0
  6
Continuous
 62
   131
370
    15
100
AcDbSpline
210
0.0
220
0.0
230
1.0
 70
    24
 71
     3
 72
    14
 73
    10
 74
     0
 42
0.000000001
 43
0.00000001
 40
0.0
 40
0.0
 40
0.0
 40
0.0
 40
0.25
 40
0.25
 40
0.5
 40
0.5
 40
0.75
 40
0.75
 40
1.0
 40
1.0
 40
1.0
 40
1.0
 10
12.0
 20
4.084836208163639
 30
0.0
 10
12.0
 20
3.27189905493346
 30
0.0
 10
12.0
 20
2.389718700036211
 30
0.0
 10
12.0
 20
0.555152555806066
 30
0.0
 10
12.0
 20
-0.396477898220515
 30
0.0
 10
12.0
 20
-2.277109344432581
 30
0.0
 10
12.0
 20
-3.205108257557668
 30
0.0
 10
12.0
 20
-4.949630595449554
 30
0.0
 10
12.0
 20
-5.765525156294579
 30
0.0
 10
12.0
 20
-6.496629018753856
 30
0.0
  0
SPLINE
  5
AB
330
1F
100
AcDbEntity
  8
0
  6
Continuous
 62
   131
370
    15
100
AcDbSpline
210
0.0
220
0.0
230
1.0
 70
    24
 71
     3
 72
    11
 73
     7
 74
     0
 42
0.000000001
 43
0.00000001
 40
0.0
 40
0.0
 40
0.0
 40
0.0
 40
0.2218385944341897
 40
0.4465623951909246
 40
0.7732940585346975
 40
1.0
 40
1.0
 40
1.0
 40
1.0
 10
12.00000000000003
 20
-6.496629018753864
 30
0.0
 10
12.00000000000003
 20
-6.68610001391986
 30
0.0
 10
12.00000000000003
 20
-7.067506241435583
 30
0.0
 10
12.00000000000003
 20
-7.531804779848582
 30
0.0
 10
12.00000000000003
 20
-7.848980564421367
 30
0.0
 10
12.00000000000003
 20
-7.8471458273511
 30
0.0
 10
12.00000000000003
 20
-7.846394259710515
 30
0.0
  0
SPLINE
  5
AC
330
1F
100
AcDbEntity
  8
0
  6
Continuous
 62
   131
370
    15
100
AcDbSpline
210
0.0
220
0.0
230
1.0
 70
    24
 71
     3
 72
     9
 73
     5
 74
     0
 42
0.000000001
 43
0.00000001
 40
0.0
 40
0.0
 40
0.0
 40
0.0
 40
0.0526386963099781
 40
1.0
 40
1.0
 40
1.0
 40
1.0
 10
12.00000000000003
 20
-7.967935659343572
 30
0.0
 10
12.00000000000003
 20
-7.970405113189871
 30
0.0
 10
12.00000000000003
 20
-8.017318392192049
 30
0.0
 10
12.00000000000003
 20
-8.05939680571488
 30
0.0
 10
12.00000000000003
 20
-8.099260266407079
 30
0.0
  0
SPLINE
  5
AD
330
1F
100
AcDbEntity
  8
0
  6
Continuous
 62
     1
370
    15
100
AcDbSpline
210
0.0
220
0.0
230
1.0
 70
     8
 71
     3
 72
    50
 73
    46
 74
     0
 42
0.000000001
 43
0.00000001
 40
0.0
 40
0.0
 40
0.0
 40
0.0
 40
0.0625000000000001
 40
0.0625000000000001
 40
0.0937500000000002
 40
0.0937500000000002
 40
0.1250000000000002
 40
0.1250000000000002
 40
0.1875000000000004
 40
0.1875000000000004
 40
0.2500000000000006
 40
0.2500000000000006
 40
0.3125000000000007
 40
0.3125000000000007
 40
0.3437500000000008
 40
0.3437500000000008
 40
0.3750000000000007
 40
0.3750000000000007
 40
0.4062500000000008
 40
0.4062500000000008
 40
0.4375000000000008
 40
0.4375000000000008
 40
0.5000000000000006
 40
0.5000000000000006
 40
0.5625000000000004
 40
0.5625000000000004
 40
0.6250000000000002
 40
0.6250000000000002
 40
0.6562500000000002
 40
0.6562500000000002
 40
0.6875000000000002
 40
0.6875000000000002
 40
0.7500000000000002
 40
0.7500000000000002
 40
0.7812500000000003
 40
0.7812500000000003
 40
0.8125000000000004
 40
0.8125000000000004
 40
0.8750000000000007
 40
0.8750000000000007
 40
0.9062500000000007
 40
0.9062500000000007
 40
0.9375000000000006
 40
0.9375000000000006
 40
1.0
 40
1.0
 40
1.0
 40
1.0
 10
12.00000000000003
 20
6.16435653423274
 30
0.0
 10
12.78010299183285
 20
5.809382220320695
 30
0.0
 10
13.56565673228698
 20
5.434708500465702
 30
0.0
 10
14.73605289178401
 20
4.850827560122715
 30
0.0
 10
15.12454268005647
 20
4.652634383566745
 30
0.0
 10
15.90591455326317
 20
4.248711993919983
 30
0.0
 10
16.29760384359237
 20
4.043178517283782
 30
0.0
 10
17.4716500061422
 20
3.417961376888575
 30
0.0
 10
18.24863529767054
 20
2.990466919260915
 30
0.0
 10
19.81314602062771
 20
2.117942839700658
 30
0.0
 10
20.59594733308942
 20
1.673763370975144
 30
0.0
 10
22.15383387840427
 20
0.7793842262954014
 30
0.0
 10
22.9392686080036
 20
0.3272060964561418
 30
0.0
 10
24.11105536438855
 20
-0.3492790309689521
 30
0.0
 10
24.49946301943844
 20
-0.5742588394679702
 30
0.0
 10
25.27995330277126
 20
-1.02370714492679
 30
0.0
 10
25.67146204798606
 20
-1.248063833082361
 30
0.0
 10
26.45432301785023
 20
-1.694497730914431
 30
0.0
 10
26.8456731914408
 20
-1.916573772302048
 30
0.0
 10
27.62553280384451
 20
-2.356931565856059
 30
0.0
 10
28.01424477295009
 20
-2.575256103191262
 30
0.0
 10
29.18672480124016
 20
-3.225020302739962
 30
0.0
 10
29.97198768561104
 20
-3.650293805795526
 30
0.0
 10
31.52827798373266
 20
-4.473504462863581
 30
0.0
 10
32.31284178078251
 20
-4.873824045475676
 30
0.0
 10
33.87667342567486
 20
-5.641374040246538
 30
0.0
 10
34.65399387984145
 20
-6.008366883648032
 30
0.0
 10
35.8282248361425
 20
-6.530985340306572
 30
0.0
 10
36.21981722059639
 20
-6.700356762066875
 30
0.0
 10
37.0006804854533
 20
-7.02829309061978
 30
0.0
 10
37.38903334219402
 20
-7.186745886093534
 30
0.0
 10
38.56030613657366
 20
-7.646157010541762
 30
0.0
 10
39.34581260253807
 20
-7.930542496245686
 30
0.0
 10
40.51495183007186
 20
-8.318520372051239
 30
0.0
 10
40.90399101875649
 20
-8.4415412926929
 30
0.0
 10
41.68589665979346
 20
-8.674913528829507
 30
0.0
 10
42.07765478267797
 20
-8.785139664039367
 30
0.0
 10
43.25131093250365
 20
-9.095289443664576
 30
0.0
 10
44.02820155173695
 20
-9.274461865150982
 30
0.0
 10
45.2020662713096
 20
-9.500649756626942
 30
0.0
 10
45.59379879651285
 20
-9.568867497155182
 30
0.0
 10
46.37546358454771
 20
-9.690495170776213
 30
0.0
 10
46.76418744901117
 20
-9.743861754077592
 30
0.0
 10
47.93394983469184
 20
-9.881757492513302
 30
0.0
 10
48.68902480256757
 20
-9.971228982247833
 30
0.0
 10
49.50000000000003
 20
-10.0
 30
0.0
  0
SPLINE
  5
AF
330
1F
100
AcDbEntity
  8
0
  6
Continuous
 62
     1
370
    15
100
AcDbSpline
210
0.0
220
0.0
230
1.0
 70
     8
 71
     3
 72
    11
 73
     7
 74
     0
 42
0.000000001
 43
0.00000001
 40
0.0
 40
0.0
 40
0.0
 40
0.0
 40
0.1922624642080757
 40
0.4521368107797712
 40
0.7260906126271988
 40
1.0
 40
1.0
 40
1.0
 40
1.0
 10
25.16483217764117
 20
-0.9528039312697941
 30
0.0
 10
24.32113720352809
 20
-0.6140715867160902
 30
0.0
 10
22.33704968838228
 20
0.1825132412444851
 30
0.0
 10
19.15083263280192
 20
1.469556341609349
 30
0.0
 10
15.60614180570754
 20
2.849775905569924
 30
0.0
 10
13.20198230132713
 20
3.673171691133338
 30
0.0
 10
12.00000000000003
 20
4.08483620816363
 30
0.0
1001
PE_URL
1000

  0
SPLINE
  5
B0
330
1F
100
AcDbEntity
  8
0
  6
Continuous
 62
   131
370
    15
100
AcDbSpline
210
0.0
220
0.0
230
1.0
 70
    24
 71
     3
 72
    10
 73
     6
 74
     0
 42
0.000000001
 43
0.00000001
 40
0.0
 40
0.0
 40
0.0
 40
0.0
 40
0.5
 40
0.5
 40
1.0
 40
1.0
 40
1.0
 40
1.0
 10
12.00000000000003
 20
6.164356534232738
 30
0.0
 10
12.00000000000003
 20
5.976171270123049
 30
0.0
 10
12.00000000000003
 20
5.686449402071915
 30
0.0
 10
12.00000000000003
 20
4.962817386484933
 30
0.0
 10
12.00000000000003
 20
4.531394061185873
 30
0.0
 10
12.00000000000003
 20
4.084836208163631
 30
0.0
  0
SPLINE
  5
B1
330
1F
100
AcDbEntity
  8
0
  6
Continuous
 62
     1
370
    15
100
AcDbSpline
210
0.0
220
0.0
230
1.0
 70
     8
 71
     3
 72
    15
 73
    11
 74
     0
 42
0.000000001
 43
0.00000001
 40
0.0
 40
0.0
 40
0.0
 40
0.0
 40
0.131728976512835
 40
0.2634691296933139
 40
0.3952186932288342
 40
0.526975893431632
 40
0.6587389506202863
 40
0.7905060805112961
 40
0.9222754956183985
 40
1.0
 40
1.0
 40
1.0
 40
1.0
 10
50.00000000000003
 20
-7.889722643682154
 30
0.0
 10
48.86000553342992
 20
-7.651826506194753
 30
0.0
 10
46.5799198763979
 20
-7.176014046700698
 30
0.0
 10
43.1596051551625
 20
-6.101188126931361
 30
0.0
 10
39.73901347812203
 20
-4.811077780776637
 30
0.0
 10
36.31819318310834
 20
-3.328305338580249
 30
0.0
 10
32.89719850925078
 20
-1.716511135429478
 30
0.0
 10
29.47608242981524
 20
-0.0419171645535019
 30
0.0
 10
26.52263454925227
 20
1.419168450741641
 30
0.0
 10
24.70956657513074
 20
2.263362829471701
 30
0.0
 10
24.03689879535612
 20
2.576568052079921
 30
0.0
  0
SPLINE
  5
B2
330
1F
100
AcDbEntity
  8
0
  6
Continuous
 62
     1
370
    15
100
AcDbSpline
210
0.0
220
0.0
230
1.0
 70
    24
 71
     3
 72
     8
 73
     4
 74
     0
 42
0.000000001
 43
0.00000001
 40
0.0
 40
0.0
 40
0.0
 40
0.0
 40
1.0
 40
1.0
 40
1.0
 40
1.0
 10
50.00000000000004
 20
-8.94985308497046
 30
0.0
 10
50.00000000000004
 20
-8.595789301879236
 30
0.0
 10
50.00000000000003
 20
-8.241421910933632
 30
0.0
 10
50.00000000000003
 20
-7.889722643682154
 30
0.0
  0
SPLINE
  5
B3
330
1F
100
AcDbEntity
  8
0
  6
Continuous
 62
     1
370
    15
100
AcDbSpline
210
0.0
220
0.0
230
1.0
 70
     8
 71
     3
 72
    14
 73
    10
 74
     0
 42
0.000000001
 43
0.00000001
 40
0.0
 40
0.0
 40
0.0
 40
0.0
 40
0.25
 40
0.25
 40
0.5
 40
0.5
 40
0.75
 40
0.75
 40
1.0
 40
1.0
 40
1.0
 40
1.0
 10
50.00000000000003
 20
-8.949853084961905
 30
0.0
 10
50.00000000000004
 20
-9.018796414341146
 30
0.0
 10
49.98741529962327
 20
-9.087436646392153
 30
0.0
 10
49.93568859599615
 20
-9.211715137575645
 30
0.0
 10
49.89598662894323
 20
-9.267391220267719
 30
0.0
 10
49.79850713668526
 20
-9.35089870881199
 30
0.0
 10
49.74058614850088
 20
-9.3791593851074
 30
0.0
 10
49.62096086737589
 20
-9.406465098871582
 30
0.0
 10
49.55970973962139
 20
-9.40606340776052
 30
0.0
 10
49.49999999999997
 20
-9.394240380410203
 30
0.0
  0
SPLINE
  5
B4
330
1F
100
AcDbEntity
  8
0
  6
Continuous
 62
     1
370
    15
100
AcDbSpline
210
0.0
220
0.0
230
1.0
 70
     8
 71
     3
 72
    50
 73
    46
 74
     0
 42
0.000000001
 43
0.00000001
 40
0.0
 40
0.0
 40
0.0
 40
0.0
 40
0.0625000000000007
 40
0.0625000000000007
 40
0.0937500000000009
 40
0.0937500000000009
 40
0.1250000000000011
 40
0.1250000000000011
 40
0.1875000000000014
 40
0.1875000000000014
 40
0.2187500000000014
 40
0.2187500000000014
 40
0.2500000000000014
 40
0.2500000000000014
 40
0.3125000000000014
 40
0.3125000000000014
 40
0.3437500000000013
 40
0.3437500000000013
 40
0.3750000000000011
 40
0.3750000000000011
 40
0.4375000000000008
 40
0.4375000000000008
 40
0.5000000000000006
 40
0.5000000000000006
 40
0.5625000000000002
 40
0.5625000000000002
 40
0.5937500000000003
 40
0.5937500000000003
 40
0.6250000000000003
 40
0.6250000000000003
 40
0.6562500000000003
 40
0.6562500000000003
 40
0.6875000000000003
 40
0.6875000000000003
 40
0.7500000000000002
 40
0.7500000000000002
 40
0.8125000000000002
 40
0.8125000000000002
 40
0.8750000000000001
 40
0.8750000000000001
 40
0.9062500000000001
 40
0.9062500000000001
 40
0.9375000000000002
 40
0.9375000000000002
 40
1.0
 40
1.0
 40
1.0
 40
1.0
 10
49.50000000000006
 20
-9.394240380409876
 30
0.0
 10
48.71949373289376
 20
-9.239693617995691
 30
0.0
 10
47.93394983469197
 20
-9.056037419276258
 30
0.0
 10
46.76418744901139
 20
-8.740690871984228
 30
0.0
 10
46.37546358454794
 20
-8.628952623996813
 30
0.0
 10
45.59379879651311
 20
-8.392079861484394
 30
0.0
 10
45.20206627130991
 20
-8.267050452281605
 30
0.0
 10
44.02820155173733
 20
-7.873448400493324
 30
0.0
 10
43.25131093250407
 20
-7.58686939164292
 30
0.0
 10
42.07765478267848
 20
-7.12261548296637
 30
0.0
 10
41.68589665979402
 20
-6.962229517969677
 30
0.0
 10
40.90399101875709
 20
-6.631296661764524
 30
0.0
 10
40.51495183007247
 20
-6.460918164321535
 30
0.0
 10
39.3458126025388
 20
-5.935133421893058
 30
0.0
 10
38.5603061365744
 20
-5.564465329756649
 30
0.0
 10
37.38903334219484
 20
-4.985799574572417
 30
0.0
 10
37.00068048545414
 20
-4.78931038872253
 30
0.0
 10
36.21981722059729
 20
-4.388635864138647
 30
0.0
 10
35.82822483614343
 20
-4.184596557920328
 30
0.0
 10
34.65399387984244
 20
-3.5634482761404
 30
0.0
 10
33.87667342567591
 20
-3.138183104349117
 30
0.0
 10
32.31284178078366
 20
-2.26946408579802
 30
0.0
 10
31.52827798373386
 20
-1.826332993931779
 30
0.0
 10
29.97198768561235
 20
-0.9340785568911862
 30
0.0
 10
29.18672480124152
 20
-0.4823773155407186
 30
0.0
 10
28.01424477295152
 20
0.1942896776621158
 30
0.0
 10
27.62553280384595
 20
0.4194621192803072
 30
0.0
 10
26.84567319144232
 20
0.8692937039150219
 30
0.0
 10
26.45432301785177
 20
1.093990820359774
 30
0.0
 10
25.67146204798765
 20
1.541400943942628
 30
0.0
 10
25.27995330277287
 20
1.764112777610752
 30
0.0
 10
24.49946301944011
 20
2.206029611711733
 30
0.0
 10
24.11105536439024
 20
2.425131130472158
 30
0.0
 10
22.93926860800538
 20
3.07761770747653
 30
0.0
 10
22.1538338784061
 20
3.505288253602249
 30
0.0
 10
20.59594733309133
 20
4.334352998413604
 30
0.0
 10
19.81314602062968
 20
4.737596435772635
 30
0.0
 10
18.24863529767261
 20
5.512522869253581
 30
0.0
 10
17.47165000614432
 20
5.883488855339433
 30
0.0
 10
16.29760384359458
 20
6.412691218051051
 30
0.0
 10
15.90591455326541
 20
6.584374107896525
 30
0.0
 10
15.12454268005875
 20
6.917142434736464
 30
0.0
 10
14.73605289178631
 20
7.078073553928443
 30
0.0
 10
13.56565673228937
 20
7.545009588612302
 30
0.0
 10
12.78010299183529
 20
7.834842677049891
 30
0.0
 10
12.00000000000251
 20
8.099260266414944
 30
0.0
1001
PE_URL
1000

  0
LINE
  5
B5
330
1F
100
AcDbEntity
  8
0
  6
Continuous
 62
     1
370
    15
100
AcDbLine
 10
49.50000000000003
 20
-10.0
 30
0.0
 11
49.50000000000003
 21
-9.3942403804099
 31
0.0
  0
SPLINE
  5
B6
330
1F
100
AcDbEntity
  8
0
  6
Continuous
 62
     1
370
    15
100
AcDbSpline
210
0.0
220
0.0
230
1.0
 70
     8
 71
     3
 72
     8
 73
     4
 74
     0
 42
0.000000001
 43
0.00000001
 40
0.0
 40
0.0
 40
0.0
 40
0.0
 40
1.0
 40
1.0
 40
1.0
 40
1.0
 10
41.4893232797659
 20
3.774367713232434
 30
0.0
 10
41.27862317703782
 20
4.0080075006995
 30
0.0
 10
41.08831698107646
 20
4.233967345557009
 30
0.0
 10
40.92168964886365
 20
4.45101019786725
 30
0.0
  0
LINE
  5
B7
330
1F
100
AcDbEntity
  8
0
  6
Continuous
 62
     1
370
    15
100
AcDbLine
 10
40.92168964886364
 20
4.451010197867248
 30
0.0
 11
50.00000000000003
 21
0.0000000000000097
 31
0.0
  0
LINE
  5
B8
330
1F
100
AcDbEntity
  8
0
  6
Continuous
 62
     1
370
    15
100
AcDbLine
 10
50.00000000000003
 20
0.0000000000000097
 30
0.0
 11
50.00000000000003
 21
-2.672429460296438
 31
0.0
  0
SPLINE
  5
B9
330
1F
100
AcDbEntity
  8
0
  6
Continuous
 62
     1
370
    15
100
AcDbSpline
210
0.0
220
0.0
230
1.0
 70
     8
 71
     3
 72
    14
 73
    10
 74
     0
 42
0.000000001
 43
0.00000001
 40
0.0
 40
0.0
 40
0.0
 40
0.0
 40
0.25
 40
0.25
 40
0.5
 40
0.5
 40
0.75
 40
0.75
 40
1.0
 40
1.0
 40
1.0
 40
1.0
 10
50.00000000000004
 20
-2.672429460296443
 30
0.0
 10
49.257968873053
 20
-2.185296180429959
 30
0.0
 10
48.52278646831202
 20
-1.685731907907061
 30
0.0
 10
47.06596013978324
 20
-0.6620299092673082
 30
0.0
 10
46.34431844090573
 20
-0.1378881447557966
 30
0.0
 10
44.91577026810158
 20
0.9371410263948855
 30
0.0
 10
44.20876380730287
 20
1.488020862067347
 30
0.0
 10
42.81302473603984
 20
2.622252121697789
 30
0.0
 10
42.1373019991781
 20
3.194865999891643
 30
0.0
 10
41.48932327976588
 20
3.774367713232444
 30
0.0
  0
SPLINE
  5
BA
330
1F
100
AcDbEntity
  8
0
  6
Continuous
 62
     1
370
    15
100
AcDbSpline
210
0.0
220
0.0
230
1.0
 70
     8
 71
     3
 72
    14
 73
    10
 74
     0
 42
0.000000001
 43
0.00000001
 40
0.0
 40
0.0
 40
0.0
 40
0.0
 40
0.084552086618487
 40
0.2497487807851816
 40
0.4149529209548253
 40
0.5801622389263096
 40
0.7453744624154888
 40
0.9105873168458082
 40
0.9999999999999999
 40
0.9999999999999999
 40
0.9999999999999999
 40
0.9999999999999999
 10
41.48932327975484
 20
3.774367713236941
 30
0.0
 10
40.90595330137381
 20
4.008288615718252
 30
0.0
 10
39.18280315009789
 20
4.699240933175349
 30
0.0
 10
36.31809843317125
 20
5.718600297148514
 30
0.0
 10
32.89726340847837
 20
6.720283751727421
 30
0.0
 10
29.47611329132886
 20
7.462676651368946
 30
0.0
 10
26.05494734501421
 20
7.900419026694769
 30
0.0
 10
23.15696060620076
 20
8.058457448861635
 30
0.0
 10
21.39937921116343
 20
7.946876406798221
 30
0.0
 10
20.78219811502135
 20
7.907694318250959
 30
0.0
1001
PE_URL
1000

  0
SPLINE
  5
BB
330
1F
100
AcDbEntity
  8
0
  6
Continuous
 62
     1
370
    15
100
AcDbSpline
210
0.0
220
0.0
230
1.0
 70
    24
 71
     3
 72
    10
 73
     6
 74
     0
 42
0.000000001
 43
0.00000001
 40
0.0
 40
0.0
 40
0.0
 40
0.0
 40
0.5
 40
0.5
 40
1.0
 40
1.0
 40
1.0
 40
1.0
 10
50.00000000000003
 20
-7.889722643682152
 30
0.0
 10
50.00000000000002
 20
-7.284913890038041
 30
0.0
 10
50.00000000000003
 20
-6.52071483906468
 30
0.0
 10
50.00000000000004
 20
-4.744025591506794
 30
0.0
 10
50.00000000000004
 20
-3.733074430513093
 30
0.0
 10
50.00000000000003
 20
-2.672429460296763
 30
0.0
  0
SPLINE
  5
BC
330
1F
100
AcDbEntity
  8
0
  6
Continuous
 62
     1
370
    15
100
AcDbSpline
210
0.0
220
0.0
230
1.0
 70
     8
 71
     3
 72
     9
 73
     5
 74
     0
 42
0.000000001
 43
0.00000001
 40
0.0
 40
0.0
 40
0.0
 40
0.0
 40
0.9198253904787266
 40
1.0
 40
1.0
 40
1.0
 40
1.0
 10
50.00000000000003
 20
7.000000000000011
 30
0.0
 10
48.86000982186442
 20
6.995550383568844
 30
0.0
 10
47.62065484217388
 20
6.990712925854342
 30
0.0
 10
46.38128293054771
 20
6.840847561668213
 30
0.0
 10
46.28191677148145
 20
6.828832164613827
 30
0.0
  0
SPLINE
  5
BD
330
1F
100
AcDbEntity
  8
0
  6
Continuous
 62
     1
370
    15
100
AcDbSpline
210
0.0
220
0.0
230
1.0
 70
     8
 71
     3
 72
    10
 73
     6
 74
     0
 42
0.000000001
 43
0.00000001
 40
0.0
 40
0.0
 40
0.0
 40
0.0
 40
0.5
 40
0.5
 40
1.0
 40
1.0
 40
1.0
 40
1.0
 10
50.00000000000003
 20
7.000000000000011
 30
0.0
 10
48.4764032375539
 20
6.632997155091235
 30
0.0
 10
46.95723397411726
 20
6.239935637174226
 30
0.0
 10
43.92863395325675
 20
5.399295331728514
 30
0.0
 10
42.41903832253461
 20
4.953312484722954
 30
0.0
 10
40.92168964886347
 20
4.451010197867432
 30
0.0
  0
SPLINE
  5
BE
330
1F
100
AcDbEntity
  8
0
  6
Continuous
 62
     1
370
    15
100
AcDbSpline
210
0.0
220
0.0
230
1.0
 70
     8
 71
     3
 72
    12
 73
     8
 74
     0
 42
0.000000001
 43
0.00000001
 40
0.0
 40
0.0
 40
0.0
 40
0.0
 40
0.1646441625321911
 40
0.3679857830668697
 40
0.5713253800257331
 40
0.7856796132108701
 40
1.0
 40
1.0
 40
1.0
 40
1.0
 10
28.82507245348457
 20
-7.496897599136862
 30
0.0
 10
27.90169870324684
 20
-7.633025361417617
 30
0.0
 10
25.83792427408547
 20
-7.937275936898728
 30
0.0
 10
22.63374203386455
 20
-8.04726545694757
 30
0.0
 10
19.15083899380319
 20
-7.876052538547329
 30
0.0
 10
15.60612498888682
 20
-7.386663977509689
 30
0.0
 10
13.20197838909902
 20
-6.793291721589727
 30
0.0
 10
12.00000000000002
 20
-6.49662901875386
 30
0.0
1001
PE_URL
1000

  0
SPLINE
  5
BF
330
1F
100
AcDbEntity
  8
0
  6
Continuous
 62
   131
370
    15
100
AcDbSpline
210
0.0
220
0.0
230
1.0
 70
    24
 71
     3
 72
    14
 73
    10
 74
     0
 42
0.000000001
 43
0.00000001
 40
0.0
 40
0.0
 40
0.0
 40
0.0
 40
0.25
 40
0.25
 40
0.5
 40
0.5
 40
0.75
 40
0.75
 40
1.0
 40
1.0
 40
1.0
 40
1.0
 10
12.0
 20
4.084836208163639
 30
0.0
 10
12.0
 20
3.27189905493346
 30
0.0
 10
12.0
 20
2.389718700036211
 30
0.0
 10
12.0
 20
0.555152555806066
 30
0.0
 10
12.0
 20
-0.396477898220515
 30
0.0
 10
12.0
 20
-2.277109344432581
 30
0.0
 10
12.0
 20
-3.205108257557668
 30
0.0
 10
12.0
 20
-4.949630595449554
 30
0.0
 10
12.0
 20
-5.765525156294579
 30
0.0
 10
12.0
 20
-6.496629018753856
 30
0.0
  0
LINE
  5
C0
330
1F
100
AcDbEntity
  8
0
  6
Continuous
 62
     1
370
    15
100
AcDbLine
 10
50.00000000000003
 20
0.0000000000000097
 30
0.0
 11
50.00000000000003
 21
7.000000000000012
 31
0.0
  0
SPLINE
  5
C1
330
1F
100
AcDbEntity
  8
0
  6
Continuous
 62
   131
370
    15
100
AcDbSpline
210
0.0
220
0.0
230
1.0
 70
    24
 71
     3
 72
    11
 73
     7
 74
     0
 42
0.000000001
 43
0.00000001
 40
0.0
 40
0.0
 40
0.0
 40
0.0
 40
0.2224853215158473
 40
0.4478642606095929
 40
0.7755484462845608
 40
1.0
 40
1.0
 40
1.0
 40
1.0
 10
12.00000000000003
 20
-6.496629018753864
 30
0.0
 10
12.00000000000003
 20
-6.686105582496929
 30
0.0
 10
12.00000000000003
 20
-7.067523019591039
 30
0.0
 10
12.00000000000003
 20
-7.531723744755687
 30
0.0
 10
12.00000000000003
 20
-7.848193433121833
 30
0.0
 10
12.00000000000003
 20
-7.846586945669747
 30
0.0
 10
12.00000000000003
 20
-7.845933884150775
 30
0.0
  0
LINE
  5
C2
330
1F
100
AcDbEntity
  8
0
  6
Continuous
 62
     1
370
    15
100
AcDbLine
 10
50.00000000000004
 20
-8.94985308497046
 30
0.0
 11
50.00000000000003
 21
-9.486504053201852
 31
0.0
  0
SPLINE
  5
C3
330
1F
100
AcDbEntity
  8
0
  6
Continuous
 62
     1
370
    15
100
AcDbSpline
210
0.0
220
0.0
230
1.0
 70
     8
 71
     3
 72
    13
 73
     9
 74
     0
 42
0.000000001
 43
0.00000001
 40
0.0
 40
0.0
 40
0.0
 40
0.0
 40
0.1710644675300634
 40
0.389864226683892
 40
0.5411177711960903
 40
0.6928773065165379
 40
0.846175408393643
 40
0.9999999999999999
 40
0.9999999999999999
 40
0.9999999999999999
 40
0.9999999999999999
 10
36.26555727963105
 20
6.702592195495956
 30
0.0
 10
37.02022961996534
 20
7.020761507838042
 30
0.0
 10
38.74016452294247
 20
7.74588481779131
 30
0.0
 10
41.12737683253489
 20
8.534296802645443
 30
0.0
 10
43.42957301686486
 20
9.150199737471517
 30
0.0
 10
45.44246202307934
 20
9.560486883092903
 30
0.0
 10
47.46605035299998
 20
9.853807242288557
 30
0.0
 10
48.82124239816989
 20
9.953583169647773
 30
0.0
 10
49.50000000000003
 20
10.0
 30
0.0
  0
SPLINE
  5
C5
330
1F
100
AcDbEntity
  8
0
  6
Continuous
 62
     1
370
    15
100
AcDbSpline
210
0.0
220
0.0
230
1.0
 70
    24
 71
     3
 72
    10
 73
     6
 74
     0
 42
0.000000001
 43
0.00000001
 40
0.0
 40
0.0
 40
0.0
 40
0.0
 40
0.5
 40
0.5
 40
1.0
 40
1.0
 40
1.0
 40
1.0
 10
50.00000000000003
 20
7.000000000000011
 30
0.0
 10
50.00000000000002
 20
7.354436148611285
 30
0.0
 10
50.00000000000004
 20
7.756311195895266
 30
0.0
 10
50.00000000000003
 20
8.605940599025747
 30
0.0
 10
50.00000000000004
 20
9.052725087124607
 30
0.0
 10
50.00000000000004
 20
9.486504053200012
 30
0.0
  0
LINE
  5
C6
330
1F
100
AcDbEntity
  8
0
  6
Continuous
 62
     1
370
    15
100
AcDbLine
 10
12.62483289600987
 20
-7.861195002474757
 30
0.0
 11
12.00000000000251
 21
-8.099260266414937
 31
0.0
1001
PE_URL
1000

  0
SPLINE
  5
C7
330
1F
100
AcDbEntity
  8
0
  6
Continuous
 62
   131
370
    15
100
AcDbSpline
210
0.0
220
0.0
230
1.0
 70
    24
 71
     3
 72
     9
 73
     5
 74
     0
 42
0.000000001
 43
0.00000001
 40
0.0
 40
0.0
 40
0.0
 40
0.0
 40
0.0539304298367583
 40
1.0
 40
1.0
 40
1.0
 40
1.0
 10
12.00000000000003
 20
-7.967935659343574
 30
0.0
 10
12.00000000000003
 20
-7.970403617339898
 30
0.0
 10
12.00000000000003
 20
-8.016165499894761
 30
0.0
 10
12.00000000000003
 20
-8.058864264515673
 30
0.0
 10
12.00000000000003
 20
-8.099260266407079
 30
0.0
  0
LINE
  5
C8
330
1F
100
AcDbEntity
  8
중심선
100
AcDbLine
 10
-107.0
 20
0.000000000000001
 30
0.0
 11
57.00000000000003
 21
0.000000000000001
 31
0.0
  0
CIRCLE
  5
C9
330
1F
100
AcDbEntity
  8
외형선
100
AcDbCircle
 10
0.0
 20
0.0
 30
0.0
 40
3.000000000000001
  0
INSERT
  5
CA
330
1F
100
AcDbEntity
  8
0
  6
Continuous
 62
     7
100
AcDbBlockReference
 66
     1
  2
블럭10
 10
-38.94841866478047
 20
-52.04717430164393
 30
0.0
  0
ATTRIB
  5
CB
330
CA
100
AcDbEntity
  8
FORMAT
 62
     2
100
AcDbText
 10
-55.57724726298144
 20
-49.97180738881174
 30
0.0
 40
4.233333333333333
  1
SEMD9920005E [ 2 FLUTE ]
 41
0.75
  7
SLDTEXTSTYLE0
 11
-55.57724726298144
 21
-52.08847405547841
 31
0.0
100
AcDbAttribute
  2
AUTOATTR0
 70
     0
 74
     1
  0
SEQEND
  5
CC
330
CA
100
AcDbEntity
  8
0
  6
Continuous
 62
     7
  0
HATCH
  5
CD
330
1F
100
AcDbEntity
  8
중심선
100
AcDbHatch
 10
0.0
 20
0.0
 30
0.0
210
0.0
220
0.0
230
1.0
  2
SOLID
 70
     1
 71
     0
 91
        1
 92
        0
 93
        4
 72
     1
 10
-33.23350936039962
 20
-35.8
 11
-36.6797846042369
 21
-35.8
 72
     1
 10
-36.6797846042369
 20
-35.8
 11
-38.80801446344093
 21
-38.33632558057259
 72
     1
 10
-38.80801446344093
 20
-38.33632558057259
 11
-35.36170613449049
 21
-38.3362861512701
 72
     1
 10
-35.36170613449049
 20
-38.3362861512701
 11
-33.23350936039962
 21
-35.8
 97
        0
 75
     0
 76
     1
 98
        1
 10
-12.81314682091508
 20
0.0
  0
HATCH
  5
CE
330
1F
100
AcDbEntity
  8
중심선
100
AcDbHatch
 10
0.0
 20
0.0
 30
0.0
210
0.0
220
0.0
230
1.0
  2
SOLID
 70
     1
 71
     0
 91
        1
 92
        0
 93
        4
 72
     1
 10
-28.22074536936367
 20
-35.8
 11
-31.66702061320095
 21
-35.8
 72
     1
 10
-31.66702061320095
 20
-35.8
 11
-36.19815862155833
 21
-41.20000000000002
 72
     1
 10
-36.19815862155833
 20
-41.20000000000002
 11
-32.75188337772105
 21
-41.20000000000002
 72
     1
 10
-32.75188337772106
 20
-41.20000000000002
 11
-28.22074536936367
 21
-35.8
 97
        0
 75
     0
 76
     1
 98
        1
 10
-12.81314682091508
 20
0.0
  0
HATCH
  5
CF
330
1F
100
AcDbEntity
  8
중심선
100
AcDbHatch
 10
0.0
 20
0.0
 30
0.0
210
0.0
220
0.0
230
1.0
  2
SOLID
 70
     1
 71
     0
 91
        1
 92
        0
 93
        4
 72
     1
 10
-23.20798137832777
 20
-35.80000000000003
 11
-26.65425662216489
 21
-35.8
 72
     1
 10
-26.65425662216489
 20
-35.8
 11
-33.70269352405414
 21
-44.20000000000002
 72
     1
 10
-33.70269352405414
 20
-44.20000000000002
 11
-30.25641828021686
 21
-44.20000000000002
 72
     1
 10
-30.25641828021685
 20
-44.20000000000002
 11
-23.20798137832777
 21
-35.80000000000003
 97
        0
 75
     0
 76
     1
 98
        1
 10
-12.81314682091508
 20
0.0
  0
HATCH
  5
D0
330
1F
100
AcDbEntity
  8
중심선
100
AcDbHatch
 10
0.0
 20
0.0
 30
0.0
210
0.0
220
0.0
230
1.0
  2
SOLID
 70
     1
 71
     0
 91
        1
 92
        0
 93
        6
 72
     3
 10
-18.40809094731557
 20
-40.00000000005127
 11
3.960054785062283
 21
1.540882976769353E-10
 40
0.3939339440162628
 50
17.09539180608436
 51
320.0019657685081
 73
     0
 72
     1
 10
-16.72509129161498
 20
-38.5878940046383
 11
-14.41978941791394
 21
-36.65356729459038
 72
     3
 10
-18.40809094736842
 20
-40.00000000000015
 11
6.600054785286829
 21
-1.278976924368180E-13
 40
0.636358354079598
 50
39.99873849337411
 51
368.4976242363724
 73
     1
 72
     1
 10
-11.98275845546781
 20
-39.03999999993002
 11
-19.72802364053249
 21
-39.03999999992999
 72
     1
 10
-19.72802364053249
 20
-39.03999999992999
 11
-19.72804868497843
 21
-40.95999999992991
 72
     1
 10
-19.72804868497843
 20
-40.95999999992991
 11
-15.28666891550639
 21
-40.95999999992988
 97
        0
 75
     0
 76
     1
 98
        1
 10
-12.81314682091508
 20
0.0
  0
POINT
  5
D1
330
1F
100
AcDbEntity
  8
치수문자_일반주서
100
AcDbPoint
 10
7.267949192431177
 20
0.0000000000000008
 30
0.0
  0
DIMENSION
  5
D2
330
1F
100
AcDbEntity
  8
치수문자_일반주서
100
AcDbDimension
  2
_D
 10
65.00000000000001
 20
10.00000000000006
 30
0.0
 11
64.99999999999997
 21
22.62500000000016
 31
0.0
 70
   160
  1
%%c<>
 71
     2
 42
20.00000000000002
 52
-270.0
  3
SLDDIMSTYLE2
100
AcDbAlignedDimension
 13
50.00000000000003
 23
-10.00000000000002
 33
0.0
 14
50.00000000000003
 24
10.0
 34
0.0
 50
90.0000000000002
100
AcDbRotatedDimension
1001
PE_URL
1000

1001
ACAD
1000
DSTYLE
1002
{
1070
    41
1040
4.0
1070
   140
1040
4.0
1002
}
  0
DIMENSION
  5
E0
330
1F
100
AcDbEntity
  8
치수문자_일반주서
100
AcDbDimension
  2
_D_1
 10
12.00000000000003
 20
25.0
 30
0.0
 11
31.00000000000003
 21
25.0
 31
0.0
 70
   160
  1
<>
 71
     2
 42
38.0
  3
SLDDIMSTYLE2
100
AcDbAlignedDimension
 13
50.00000000000003
 23
10.0
 33
0.0
 14
12.00000000000003
 24
8.099260266415786
 34
0.0
100
AcDbRotatedDimension
1001
PE_URL
1000

1001
ACAD
1000
DSTYLE
1002
{
1070
    41
1040
4.0
1070
   140
1040
4.0
1002
}
  0
DIMENSION
  5
EB
330
1F
100
AcDbEntity
  8
치수문자_일반주서
100
AcDbDimension
  2
_D_2
 10
-99.99999999999997
 20
40.00000000000001
 30
0.0
 11
-24.99999999999997
 21
40.00000000000001
 31
0.0
 70
   160
  1
<>
 71
     2
 42
150.0
  3
SLDDIMSTYLE2
100
AcDbAlignedDimension
 13
50.00000000000003
 23
10.0
 33
0.0
 14
-99.99999999999997
 24
8.999999999999993
 34
0.0
 50
0.0000000000000054
100
AcDbRotatedDimension
1001
PE_URL
1000

1001
ACAD
1000
DSTYLE
1002
{
1070
    41
1040
4.0
1070
   140
1040
4.0
1002
}
  0
DIMENSION
  5
F5
330
1F
100
AcDbEntity
  8
치수문자_일반주서
100
AcDbDimension
  2
_D_3
 10
-115.0
 20
9.999999999999936
 30
0.0
 11
-115.0
 21
22.62499999999994
 31
0.0
 70
   160
  1
%%c<>
 71
     2
 42
20.0
 52
-270.0
  3
SLDDIMSTYLE2
100
AcDbAlignedDimension
 13
-98.99999999999996
 23
-10.0
 33
0.0
 14
-98.99999999999996
 24
9.999999999999996
 34
0.0
 50
90.0000000000002
100
AcDbRotatedDimension
1001
PE_URL
1000

1001
ACAD
1000
DSTYLE
1002
{
1070
    41
1040
4.0
1070
   140
1040
4.0
1002
}
  0
INSERT
  5
106
330
1F
100
AcDbEntity
  8
외형선
100
AcDbBlockReference
  2
SW_DOWELSYMBOL_0
 10
0.0
 20
0.0
 30
0.0
  0
ARC
  5
228
330
1F
100
AcDbEntity
  8
0
  6
Continuous
 62
     1
370
    15
100
AcDbCircle
 10
49.50000000000003
 20
9.500000000000002
 30
0.0
 40
0.4999999999999998
100
AcDbArc
 50
0.0
 51
90.0
1001
PE_URL
1000

  0
ARC
  5
229
102
{ACAD_REACTORS
102
}
330
1F
100
AcDbEntity
  8
0
  6
Continuous
 62
     1
370
    15
100
AcDbCircle
 10
49.50000000000003
 20
-9.5
 30
0.0
 40
0.4999999999999998
100
AcDbArc
 50
270.0
 51
0.0
1001
PE_URL
1000

  0
DIMENSION
  5
22A
102
{ACAD_REACTORS
102
}
102
{ACAD_XDICTIONARY
360
22B
102
}
330
1F
100
AcDbEntity
  8
치수문자_일반주서
100
AcDbDimension
  2
*D13
 10
49.50000000000003
 20
-9.5
 30
0.0
 11
68.02200353344843
 21
-38.69468823557002
 31
0.0
 70
   164
 71
     5
 42
0.5000000000000016
  3
SLDDIMSTYLE2
100
AcDbRadialDimension
 15
49.76785660007976
 25
-9.922200002124264
 35
0.0
 40
0.0
1001
ACAD
1000
DSTYLE
1002
{
1070
    78
1070
     8
1070
   271
1070
     2
1070
    41
1040
4.0
1070
   140
1040
4.0
1002
}
1001
ACAD_DSTYLE_DIMRADIAL_EXTENSION
1070
   387
1070
     1
1070
   388
1040
4.71238898038469
1070
   390
1040
0.0
1001
PE_URL
1000

  0
ENDSEC
  0
SECTION
  2
OBJECTS
  0
DICTIONARY
  5
C
330
0
100
AcDbDictionary
281
     1
  3
ACAD_DETAILVIEWSTYLE
350
23C
  3
ACAD_GROUP
350
D
  3
ACAD_LAYOUT
350
1A
  3
ACAD_MLINESTYLE
350
17
  3
ACAD_PLOTSETTINGS
350
19
  3
ACAD_PLOTSTYLENAME
350
E
  3
ACAD_SCALELIST
350
47
  3
ACAD_SECTIONVIEWSTYLE
350
23D
  3
AcDbVariableDictionary
350
237
  3
APPDATA
350
128
  3
DWGPROPS
350
23E
  0
DICTIONARY
  5
16B
330
2
100
AcDbDictionary
280
     1
281
     1
  3
ACAD_LAYERSTATES
360
16C
  0
DICTIONARY
  5
22B
330
22A
100
AcDbDictionary
280
     1
281
     1
  0
DICTIONARY
  5
23C
102
{ACAD_REACTORS
330
C
102
}
330
C
100
AcDbDictionary
281
     1
  0
DICTIONARY
  5
D
102
{ACAD_REACTORS
330
C
102
}
330
C
100
AcDbDictionary
281
     1
  0
DICTIONARY
  5
1A
102
{ACAD_REACTORS
330
C
102
}
330
C
100
AcDbDictionary
281
     1
  3
Layout1
350
1E
  3
Layout2
350
26
  3
Model
350
22
  0
DICTIONARY
  5
17
102
{ACAD_REACTORS
330
C
102
}
330
C
100
AcDbDictionary
281
     1
  3
Standard
350
18
  0
DICTIONARY
  5
19
102
{ACAD_REACTORS
330
C
102
}
330
C
100
AcDbDictionary
281
     1
  0
ACDBDICTIONARYWDFLT
  5
E
102
{ACAD_REACTORS
330
C
102
}
330
C
100
AcDbDictionary
281
     1
  3
Normal
350
F
100
AcDbDictionaryWithDefault
340
F
  0
DICTIONARY
  5
47
102
{ACAD_REACTORS
330
C
102
}
330
C
100
AcDbDictionary
281
     1
  3
A0
350
48
  3
A1
350
49
  3
A2
350
4A
  3
A3
350
4B
  3
A4
350
4C
  3
A5
350
4D
  3
A6
350
4E
  3
A7
350
4F
  3
A8
350
50
  3
A9
350
51
  3
B0
350
52
  3
B1
350
53
  3
B2
350
54
  3
B3
350
55
  3
B4
350
56
  3
B5
350
57
  3
B6
350
58
  3
B7
350
59
  3
B8
350
5A
  3
B9
350
5B
  3
C0
350
5C
  3
C1
350
5D
  3
C2
350
5E
  3
C3
350
5F
  3
C4
350
60
  3
C5
350
61
  3
C6
350
62
  3
C7
350
63
  3
C8
350
64
  3
C9
350
65
  3
D0
350
66
  3
D1
350
67
  3
D2
350
68
  0
DICTIONARY
  5
23D
102
{ACAD_REACTORS
330
C
102
}
330
C
100
AcDbDictionary
281
     1
  0
DICTIONARY
  5
237
102
{ACAD_REACTORS
330
C
102
}
330
C
100
AcDbDictionary
281
     1
  0
DICTIONARY
  5
128
102
{ACAD_REACTORS
330
C
102
}
330
C
100
AcDbDictionary
281
     1
  0
XRECORD
  5
23E
102
{ACAD_REACTORS
330
C
102
}
330
C
100
AcDbXrecord
280
     1
  1
DWGPROPS COOKIE
  2

  3

  4

  6

  7

  8
12017044
  9

300
=
301
=
302
=
303
=
304
=
305
=
306
=
307
=
308
=
309
=
 40
0.0
 41
2458260.21804
 42
2458268.225682246
  1

 90
        0
  0
DICTIONARY
  5
16C
102
{ACAD_REACTORS
330
16B
102
}
330
16B
100
AcDbDictionary
281
     1
  0
LAYOUT
  5
1E
102
{ACAD_REACTORS
330
1A
102
}
330
1A
100
AcDbPlotSettings
  1

  2
none_device
  4

  6

 40
0.0
 41
0.0
 42
0.0
 43
0.0
 44
0.0
 45
0.0
 46
0.0
 47
0.0
 48
0.0
 49
0.0
140
0.0
141
0.0
142
1.0
143
1.0
 70
   688
 72
     1
 73
     0
 74
     5
  7

 75
    16
147
1.0
148
0.0
149
0.0
100
AcDbLayout
  1
Layout1
 70
     1
 71
     1
 10
0.0
 20
0.0
 11
420.0
 21
297.0
 12
0.0
 22
0.0
 32
0.0
 14
1.000000000000000E+20
 24
1.000000000000000E+20
 34
1.000000000000000E+20
 15
-1.000000000000000E+20
 25
-1.000000000000000E+20
 35
-1.000000000000000E+20
146
0.0
 13
0.0
 23
0.0
 33
0.0
 16
1.0
 26
0.0
 36
0.0
 17
0.0
 27
1.0
 37
0.0
 76
     0
330
1B
  0
LAYOUT
  5
26
102
{ACAD_REACTORS
330
1A
102
}
330
1A
100
AcDbPlotSettings
  1

  2
none_device
  4

  6

 40
0.0
 41
0.0
 42
0.0
 43
0.0
 44
0.0
 45
0.0
 46
0.0
 47
0.0
 48
0.0
 49
0.0
140
0.0
141
0.0
142
1.0
143
1.0
 70
   688
 72
     1
 73
     0
 74
     5
  7

 75
    16
147
1.0
148
0.0
149
0.0
100
AcDbLayout
  1
Layout2
 70
     1
 71
     2
 10
0.0
 20
0.0
 11
0.0
 21
0.0
 12
0.0
 22
0.0
 32
0.0
 14
0.0
 24
0.0
 34
0.0
 15
0.0
 25
0.0
 35
0.0
146
0.0
 13
0.0
 23
0.0
 33
0.0
 16
1.0
 26
0.0
 36
0.0
 17
0.0
 27
1.0
 37
0.0
 76
     0
330
23
  0
LAYOUT
  5
22
102
{ACAD_REACTORS
330
1A
102
}
330
1A
100
AcDbPlotSettings
  1

  2
none_device
  4
ANSI_A_(11.00_x_8.50_Inches)
  6

 40
6.35
 41
19.05
 42
6.35000508
 43
19.05000254
 44
279.4
 45
215.9
 46
181.2189292867603
 47
82.97629431519978
 48
0.0
 49
0.0
140
0.0
141
0.0
142
0.0698076923076923
143
1.0
 70
  1696
 72
     0
 73
     0
 74
     0
  7

 75
     0
147
0.0235690232323232
148
0.0
149
0.0
100
AcDbLayout
  1
Model
 70
     1
 71
     0
 10
0.0
 20
0.0
 11
420.0
 21
297.0
 12
0.0
 22
0.0
 32
0.0
 14
-119.875
 24
-49.97180738881174
 34
0.0
 15
74.4152346548377
 25
44.87500000000001
 35
0.0
146
0.0
 13
0.0
 23
0.0
 33
0.0
 16
1.0
 26
0.0
 36
0.0
 17
0.0
 27
1.0
 37
0.0
 76
     0
330
1F
331
29
  0
MLINESTYLE
  5
18
102
{ACAD_REACTORS
330
17
102
}
330
17
100
AcDbMlineStyle
  2
Standard
 70
     0
  3

 62
   256
 51
90.0
 52
90.0
 71
     2
 49
0.5
 62
   256
  6
BYLAYER
 49
-0.5
 62
   256
  6
BYLAYER
  0
ACDBPLACEHOLDER
  5
F
102
{ACAD_REACTORS
330
E
102
}
330
E
  0
SCALE
  5
48
102
{ACAD_REACTORS
330
47
102
}
330
47
100
AcDbScale
 70
     0
300
1:1
140
1.0
141
1.0
290
     1
  0
SCALE
  5
49
102
{ACAD_REACTORS
330
47
102
}
330
47
100
AcDbScale
 70
     0
300
1:2
140
1.0
141
2.0
290
     0
  0
SCALE
  5
4A
102
{ACAD_REACTORS
330
47
102
}
330
47
100
AcDbScale
 70
     0
300
1:4
140
1.0
141
4.0
290
     0
  0
SCALE
  5
4B
102
{ACAD_REACTORS
330
47
102
}
330
47
100
AcDbScale
 70
     0
300
1:5
140
1.0
141
5.0
290
     0
  0
SCALE
  5
4C
102
{ACAD_REACTORS
330
47
102
}
330
47
100
AcDbScale
 70
     0
300
1:8
140
1.0
141
8.0
290
     0
  0
SCALE
  5
4D
102
{ACAD_REACTORS
330
47
102
}
330
47
100
AcDbScale
 70
     0
300
1:10
140
1.0
141
10.0
290
     0
  0
SCALE
  5
4E
102
{ACAD_REACTORS
330
47
102
}
330
47
100
AcDbScale
 70
     0
300
1:16
140
1.0
141
16.0
290
     0
  0
SCALE
  5
4F
102
{ACAD_REACTORS
330
47
102
}
330
47
100
AcDbScale
 70
     0
300
1:20
140
1.0
141
20.0
290
     0
  0
SCALE
  5
50
102
{ACAD_REACTORS
330
47
102
}
330
47
100
AcDbScale
 70
     0
300
1:30
140
1.0
141
30.0
290
     0
  0
SCALE
  5
51
102
{ACAD_REACTORS
330
47
102
}
330
47
100
AcDbScale
 70
     0
300
1:40
140
1.0
141
40.0
290
     0
  0
SCALE
  5
52
102
{ACAD_REACTORS
330
47
102
}
330
47
100
AcDbScale
 70
     0
300
1:50
140
1.0
141
50.0
290
     0
  0
SCALE
  5
53
102
{ACAD_REACTORS
330
47
102
}
330
47
100
AcDbScale
 70
     0
300
1:100
140
1.0
141
100.0
290
     0
  0
SCALE
  5
54
102
{ACAD_REACTORS
330
47
102
}
330
47
100
AcDbScale
 70
     0
300
2:1
140
2.0
141
1.0
290
     0
  0
SCALE
  5
55
102
{ACAD_REACTORS
330
47
102
}
330
47
100
AcDbScale
 70
     0
300
4:1
140
4.0
141
1.0
290
     0
  0
SCALE
  5
56
102
{ACAD_REACTORS
330
47
102
}
330
47
100
AcDbScale
 70
     0
300
8:1
140
8.0
141
1.0
290
     0
  0
SCALE
  5
57
102
{ACAD_REACTORS
330
47
102
}
330
47
100
AcDbScale
 70
     0
300
10:1
140
10.0
141
1.0
290
     0
  0
SCALE
  5
58
102
{ACAD_REACTORS
330
47
102
}
330
47
100
AcDbScale
 70
     0
300
100:1
140
100.0
141
1.0
290
     0
  0
SCALE
  5
59
102
{ACAD_REACTORS
330
47
102
}
330
47
100
AcDbScale
 70
     0
300
1/128" = 1'-0"
140
0.0078125
141
12.0
290
     0
  0
SCALE
  5
5A
102
{ACAD_REACTORS
330
47
102
}
330
47
100
AcDbScale
 70
     0
300
1/64" = 1'-0"
140
0.015625
141
12.0
290
     0
  0
SCALE
  5
5B
102
{ACAD_REACTORS
330
47
102
}
330
47
100
AcDbScale
 70
     0
300
1/32" = 1'-0"
140
0.03125
141
12.0
290
     0
  0
SCALE
  5
5C
102
{ACAD_REACTORS
330
47
102
}
330
47
100
AcDbScale
 70
     0
300
1/16" = 1'-0"
140
0.0625
141
12.0
290
     0
  0
SCALE
  5
5D
102
{ACAD_REACTORS
330
47
102
}
330
47
100
AcDbScale
 70
     0
300
3/32" = 1'-0"
140
0.09375
141
12.0
290
     0
  0
SCALE
  5
5E
102
{ACAD_REACTORS
330
47
102
}
330
47
100
AcDbScale
 70
     0
300
1/8" = 1'-0"
140
0.125
141
12.0
290
     0
  0
SCALE
  5
5F
102
{ACAD_REACTORS
330
47
102
}
330
47
100
AcDbScale
 70
     0
300
3/16" = 1'-0"
140
0.1875
141
12.0
290
     0
  0
SCALE
  5
60
102
{ACAD_REACTORS
330
47
102
}
330
47
100
AcDbScale
 70
     0
300
1/4" = 1'-0"
140
0.25
141
12.0
290
     0
  0
SCALE
  5
61
102
{ACAD_REACTORS
330
47
102
}
330
47
100
AcDbScale
 70
     0
300
3/8" = 1'-0"
140
0.375
141
12.0
290
     0
  0
SCALE
  5
62
102
{ACAD_REACTORS
330
47
102
}
330
47
100
AcDbScale
 70
     0
300
1/2" = 1'-0"
140
0.5
141
12.0
290
     0
  0
SCALE
  5
63
102
{ACAD_REACTORS
330
47
102
}
330
47
100
AcDbScale
 70
     0
300
3/4" = 1'-0"
140
0.75
141
12.0
290
     0
  0
SCALE
  5
64
102
{ACAD_REACTORS
330
47
102
}
330
47
100
AcDbScale
 70
     0
300
1" = 1'-0"
140
1.0
141
12.0
290
     0
  0
SCALE
  5
65
102
{ACAD_REACTORS
330
47
102
}
330
47
100
AcDbScale
 70
     0
300
1-1/2" = 1'-0"
140
1.5
141
12.0
290
     0
  0
SCALE
  5
66
102
{ACAD_REACTORS
330
47
102
}
330
47
100
AcDbScale
 70
     0
300
3" = 1'-0"
140
3.0
141
12.0
290
     0
  0
SCALE
  5
67
102
{ACAD_REACTORS
330
47
102
}
330
47
100
AcDbScale
 70
     0
300
6" = 1'-0"
140
6.0
141
12.0
290
     0
  0
SCALE
  5
68
102
{ACAD_REACTORS
330
47
102
}
330
47
100
AcDbScale
 70
     0
300
1'-0" = 1'-0"
140
12.0
141
12.0
290
     0
  0
ENDSEC
  0
EOF
