  0
SECTION
  2
HEADER
  9
$ACADVER
  1
AC1015
  9
$ACADMAINTVER
 70
     6
  9
$DWGCODEPAGE
  3
ANSI_949
  9
$INSBASE
 10
0.0
 20
0.0
 30
0.0
  9
$EXTMIN
 10
-45.97788568297006
 20
-49.97073246008785
 30
0.0
  9
$EXTMAX
 10
85.91059813237558
 20
22.3760749287239
 30
0.0
  9
$LIMMIN
 10
0.0
 20
0.0
  9
$LIMMAX
 10
420.0
 20
297.0
  9
$ORTHOMODE
 70
     1
  9
$REGENMODE
 70
     1
  9
$FILLMODE
 70
     1
  9
$QTEXTMODE
 70
     0
  9
$MIRRTEXT
 70
     1
  9
$LTSCALE
 40
1.0
  9
$ATTMODE
 70
     1
  9
$TEXTSIZE
 40
3.5
  9
$TRACEWID
 40
1.0
  9
$TEXTSTYLE
  7
Standard
  9
$CLAYER
  8
0
  9
$CELTYPE
  6
ByLayer
  9
$CECOLOR
 62
   256
  9
$CELTSCALE
 40
1.0
  9
$DISPSILH
 70
     0
  9
$DIMSCALE
 40
1.0
  9
$DIMASZ
 40
3.302
  9
$DIMEXO
 40
1.0
  9
$DIMDLI
 40
3.75
  9
$DIMRND
 40
0.0
  9
$DIMDLE
 40
0.0
  9
$DIMEXE
 40
1.0
  9
$DIMTP
 40
0.0
  9
$DIMTM
 40
0.0
  9
$DIMTXT
 40
3.5
  9
$DIMCEN
 40
2.5
  9
$DIMTSZ
 40
0.0
  9
$DIMTOL
 70
     0
  9
$DIMLIM
 70
     0
  9
$DIMTIH
 70
     1
  9
$DIMTOH
 70
     1
  9
$DIMSE1
 70
     0
  9
$DIMSE2
 70
     0
  9
$DIMTAD
 70
     1
  9
$DIMZIN
 70
     0
  9
$DIMBLK
  1

  9
$DIMASO
 70
     1
  9
$DIMSHO
 70
     1
  9
$DIMPOST
  1

  9
$DIMAPOST
  1

  9
$DIMALT
 70
     0
  9
$DIMALTD
 70
     3
  9
$DIMALTF
 40
0.0393700787401575
  9
$DIMLFAC
 40
1.0
  9
$DIMTOFL
 70
     1
  9
$DIMTVP
 40
0.0
  9
$DIMTIX
 70
     0
  9
$DIMSOXD
 70
     0
  9
$DIMSAH
 70
     0
  9
$DIMBLK1
  1

  9
$DIMBLK2
  1

  9
$DIMSTYLE
  2
ISO-25
  9
$DIMCLRD
 70
     0
  9
$DIMCLRE
 70
     0
  9
$DIMCLRT
 70
     0
  9
$DIMTFAC
 40
1.0
  9
$DIMGAP
 40
1.524
  9
$DIMJUST
 70
     0
  9
$DIMSD1
 70
     0
  9
$DIMSD2
 70
     0
  9
$DIMTOLJ
 70
     0
  9
$DIMTZIN
 70
     0
  9
$DIMALTZ
 70
     0
  9
$DIMALTTZ
 70
     0
  9
$DIMUPT
 70
     0
  9
$DIMDEC
 70
     2
  9
$DIMTDEC
 70
     2
  9
$DIMALTU
 70
     2
  9
$DIMALTTD
 70
     3
  9
$DIMTXSTY
  7
Standard
  9
$DIMAUNIT
 70
     0
  9
$DIMADEC
 70
     2
  9
$DIMALTRND
 40
0.0
  9
$DIMAZIN
 70
     0
  9
$DIMDSEP
 70
    44
  9
$DIMATFIT
 70
     3
  9
$DIMFRAC
 70
     0
  9
$DIMLDRBLK
  1

  9
$DIMLUNIT
 70
     2
  9
$DIMLWD
 70
    -2
  9
$DIMLWE
 70
    -2
  9
$DIMTMOVE
 70
     0
  9
$LUNITS
 70
     2
  9
$LUPREC
 70
     2
  9
$SKETCHINC
 40
1.0
  9
$FILLETRAD
 40
10.0
  9
$AUNITS
 70
     0
  9
$AUPREC
 70
     2
  9
$MENU
  1
.
  9
$ELEVATION
 40
0.0
  9
$PELEVATION
 40
0.0
  9
$THICKNESS
 40
0.0
  9
$LIMCHECK
 70
     0
  9
$CHAMFERA
 40
0.0
  9
$CHAMFERB
 40
0.0
  9
$CHAMFERC
 40
0.0
  9
$CHAMFERD
 40
0.0
  9
$SKPOLY
 70
     0
  9
$TDCREATE
 40
2458269.798300822
  9
$TDUCREATE
 40
2458269.423300822
  9
$TDUPDATE
 40
2458270.702136632
  9
$TDUUPDATE
 40
2458270.327136632
  9
$TDINDWG
 40
0.0018929977
  9
$TDUSRTIMER
 40
0.0018929861
  9
$USRTIMER
 70
     1
  9
$ANGBASE
 50
0.0
  9
$ANGDIR
 70
     0
  9
$PDMODE
 70
     0
  9
$PDSIZE
 40
-1.0
  9
$PLINEWID
 40
0.0
  9
$SPLFRAME
 70
     0
  9
$SPLINETYPE
 70
     6
  9
$SPLINESEGS
 70
     8
  9
$HANDSEED
  5
26A
  9
$SURFTAB1
 70
     6
  9
$SURFTAB2
 70
     6
  9
$SURFTYPE
 70
     6
  9
$SURFU
 70
     6
  9
$SURFV
 70
     6
  9
$UCSBASE
  2

  9
$UCSNAME
  2

  9
$UCSORG
 10
0.0
 20
0.0
 30
0.0
  9
$UCSXDIR
 10
1.0
 20
0.0
 30
0.0
  9
$UCSYDIR
 10
0.0
 20
1.0
 30
0.0
  9
$UCSORTHOREF
  2

  9
$UCSORTHOVIEW
 70
     0
  9
$UCSORGTOP
 10
0.0
 20
0.0
 30
0.0
  9
$UCSORGBOTTOM
 10
0.0
 20
0.0
 30
0.0
  9
$UCSORGLEFT
 10
0.0
 20
0.0
 30
0.0
  9
$UCSORGRIGHT
 10
0.0
 20
0.0
 30
0.0
  9
$UCSORGFRONT
 10
0.0
 20
0.0
 30
0.0
  9
$UCSORGBACK
 10
0.0
 20
0.0
 30
0.0
  9
$PUCSBASE
  2

  9
$PUCSNAME
  2

  9
$PUCSORG
 10
0.0
 20
0.0
 30
0.0
  9
$PUCSXDIR
 10
1.0
 20
0.0
 30
0.0
  9
$PUCSYDIR
 10
0.0
 20
1.0
 30
0.0
  9
$PUCSORTHOREF
  2

  9
$PUCSORTHOVIEW
 70
     0
  9
$PUCSORGTOP
 10
0.0
 20
0.0
 30
0.0
  9
$PUCSORGBOTTOM
 10
0.0
 20
0.0
 30
0.0
  9
$PUCSORGLEFT
 10
0.0
 20
0.0
 30
0.0
  9
$PUCSORGRIGHT
 10
0.0
 20
0.0
 30
0.0
  9
$PUCSORGFRONT
 10
0.0
 20
0.0
 30
0.0
  9
$PUCSORGBACK
 10
0.0
 20
0.0
 30
0.0
  9
$USERI1
 70
     0
  9
$USERI2
 70
     0
  9
$USERI3
 70
     0
  9
$USERI4
 70
     0
  9
$USERI5
 70
     0
  9
$USERR1
 40
0.0
  9
$USERR2
 40
0.0
  9
$USERR3
 40
0.0
  9
$USERR4
 40
0.0
  9
$USERR5
 40
0.0
  9
$WORLDVIEW
 70
     1
  9
$SHADEDGE
 70
     3
  9
$SHADEDIF
 70
    70
  9
$TILEMODE
 70
     1
  9
$MAXACTVP
 70
    64
  9
$PINSBASE
 10
0.0
 20
0.0
 30
0.0
  9
$PLIMCHECK
 70
     0
  9
$PEXTMIN
 10
1.000000000000000E+20
 20
1.000000000000000E+20
 30
1.000000000000000E+20
  9
$PEXTMAX
 10
-1.000000000000000E+20
 20
-1.000000000000000E+20
 30
-1.000000000000000E+20
  9
$PLIMMIN
 10
0.0
 20
0.0
  9
$PLIMMAX
 10
0.0
 20
0.0
  9
$UNITMODE
 70
     0
  9
$VISRETAIN
 70
     1
  9
$PLINEGEN
 70
     0
  9
$PSLTSCALE
 70
     1
  9
$TREEDEPTH
 70
  3020
  9
$CMLSTYLE
  2
Standard
  9
$CMLJUST
 70
     0
  9
$CMLSCALE
 40
20.0
  9
$PROXYGRAPHICS
 70
     1
  9
$MEASUREMENT
 70
     1
  9
$CELWEIGHT
370
    -1
  9
$ENDCAPS
280
     0
  9
$JOINSTYLE
280
     0
  9
$LWDISPLAY
290
     1
  9
$INSUNITS
 70
     4
  9
$HYPERLINKBASE
  1

  9
$STYLESHEET
  1

  9
$XEDIT
290
     1
  9
$CEPSNTYPE
380
     0
  9
$PSTYLEMODE
290
     1
  9
$FINGERPRINTGUID
  2
{E163B0FE-5B7D-49E7-A7A7-A8605D7E3710}
  9
$VERSIONGUID
  2
{FAEB1C32-E019-11D5-929B-00C0DF256EC4}
  9
$EXTNAMES
290
     1
  9
$PSVPSCALE
 40
0.0
  9
$OLESTARTUP
290
     0
  0
ENDSEC
  0
SECTION
  2
CLASSES
  0
CLASS
  1
ACDBDICTIONARYWDFLT
  2
AcDbDictionaryWithDefault
  3
ObjectDBX Classes
 90
        0
280
     0
281
     0
  0
CLASS
  1
VISUALSTYLE
  2
AcDbVisualStyle
  3
ObjectDBX Classes
 90
     4095
280
     0
281
     0
  0
CLASS
  1
MATERIAL
  2
AcDbMaterial
  3
ObjectDBX Classes
 90
     1153
280
     0
281
     0
  0
CLASS
  1
SCALE
  2
AcDbScale
  3
ObjectDBX Classes
 90
     1153
280
     0
281
     0
  0
CLASS
  1
SUN
  2
AcDbSun
  3
SCENEOE
 90
     1153
280
     0
281
     0
  0
CLASS
  1
ACDBPLACEHOLDER
  2
AcDbPlaceHolder
  3
ObjectDBX Classes
 90
        0
280
     0
281
     0
  0
CLASS
  1
LAYOUT
  2
AcDbLayout
  3
ObjectDBX Classes
 90
        0
280
     0
281
     0
  0
CLASS
  1
TABLESTYLE
  2
AcDbTableStyle
  3
ObjectDBX Classes
 90
     4095
280
     0
281
     0
  0
CLASS
  1
MLEADERSTYLE
  2
AcDbMLeaderStyle
  3
ACDB_MLEADERSTYLE_CLASS
 90
     4095
280
     0
281
     0
  0
CLASS
  1
DIMASSOC
  2
AcDbDimAssoc
  3
"AcDbDimAssoc|Product Desc:     AcDim ARX App For Dimension|Company:          Autodesk, Inc.|WEB Address:      www.autodesk.com"
 90
        0
280
     0
281
     0
  0
ENDSEC
  0
SECTION
  2
TABLES
  0
TABLE
  2
VPORT
  5
8
330
0
100
AcDbSymbolTable
 70
     1
  0
VPORT
  5
29
330
8
100
AcDbSymbolTableRecord
100
AcDbViewportTableRecord
  2
*Active
 70
     0
 10
0.0
 20
0.0
 11
1.0
 21
1.0
 12
19.96635622470276
 22
-13.79732876568197
 13
0.0
 23
0.0
 14
10.0
 24
10.0
 15
10.0
 25
10.0
 16
0.0
 26
0.0
 36
1.0
 17
0.0
 27
0.0
 37
0.0
 40
73.79374353658797
 41
2.003901170351105
 42
50.0
 43
0.0
 44
0.0
 50
0.0
 51
0.0
 71
    16
 72
  2000
 73
     1
 74
     3
 75
     0
 76
     0
 77
     0
 78
     0
281
     0
 65
     1
110
0.0
120
0.0
130
0.0
111
1.0
121
0.0
131
0.0
112
0.0
122
1.0
132
0.0
 79
     0
146
0.0
  0
ENDTAB
  0
TABLE
  2
LTYPE
  5
5
330
0
100
AcDbSymbolTable
 70
     6
  0
LTYPE
  5
14
330
5
100
AcDbSymbolTableRecord
100
AcDbLinetypeTableRecord
  2
ByBlock
 70
     0
  3

 72
    65
 73
     0
 40
0.0
  0
LTYPE
  5
15
330
5
100
AcDbSymbolTableRecord
100
AcDbLinetypeTableRecord
  2
ByLayer
 70
     0
  3

 72
    65
 73
     0
 40
0.0
  0
LTYPE
  5
16
330
5
100
AcDbSymbolTableRecord
100
AcDbLinetypeTableRecord
  2
Continuous
 70
     0
  3
Solid line
 72
    65
 73
     0
 40
0.0
  0
LTYPE
  5
6A
330
5
100
AcDbSymbolTableRecord
100
AcDbLinetypeTableRecord
  2
HIDDEN
 70
     0
  3
Hidden __ __ __ __ __ __ __ __ __ __ __ __ __ __
 72
    65
 73
     2
 40
1.905
 49
1.27
 74
     0
 49
-0.635
 74
     0
  0
LTYPE
  5
6B
330
5
100
AcDbSymbolTableRecord
100
AcDbLinetypeTableRecord
  2
PHANTOM
 70
     0
  3
Phantom ______  __  __  ______  __  __  ______
 72
    65
 73
     6
 40
12.7
 49
6.35
 74
     0
 49
-1.27
 74
     0
 49
1.27
 74
     0
 49
-1.27
 74
     0
 49
1.27
 74
     0
 49
-1.27
 74
     0
  0
LTYPE
  5
6C
330
5
100
AcDbSymbolTableRecord
100
AcDbLinetypeTableRecord
  2
CENTER
 70
     0
  3
Center ____ _ ____ _ ____ _ ____ _ ____ _ ____
 72
    65
 73
     4
 40
10.16
 49
6.35
 74
     0
 49
-1.27
 74
     0
 49
1.27
 74
     0
 49
-1.27
 74
     0
  0
LTYPE
  5
6D
330
5
100
AcDbSymbolTableRecord
100
AcDbLinetypeTableRecord
  2
CENTERX2
 70
     0
  3
Center (2x) ________  __  ________  __  _____
 72
    65
 73
     4
 40
20.32
 49
12.7
 74
     0
 49
-2.54
 74
     0
 49
2.54
 74
     0
 49
-2.54
 74
     0
  0
LTYPE
  5
6E
330
5
100
AcDbSymbolTableRecord
100
AcDbLinetypeTableRecord
  2
DOT2
 70
     0
  3
Dot (.5x) ........................................
 72
    65
 73
     2
 40
0.635
 49
0.0
 74
     0
 49
-0.635
 74
     0
  0
ENDTAB
  0
TABLE
  2
LAYER
  5
2
330
0
100
AcDbSymbolTable
 70
    18
  0
LAYER
  5
10
330
2
100
AcDbSymbolTableRecord
100
AcDbLayerTableRecord
  2
0
 70
     0
 62
     7
  6
Continuous
370
    -3
390
F
  0
LAYER
  5
6F
330
2
100
AcDbSymbolTableRecord
100
AcDbLayerTableRecord
  2
FORMAT
 70
     0
 62
     2
  6
Continuous
370
    -3
390
F
  0
LAYER
  5
70
330
2
100
AcDbSymbolTableRecord
100
AcDbLayerTableRecord
  2
외형선
 70
     0
 62
     4
  6
Continuous
370
    30
390
F
  0
LAYER
  5
71
330
2
100
AcDbSymbolTableRecord
100
AcDbLayerTableRecord
  2
숨은선
 70
     0
 62
     2
  6
HIDDEN
370
    15
390
F
  0
LAYER
  5
72
330
2
100
AcDbSymbolTableRecord
100
AcDbLayerTableRecord
  2
중심선
 70
     0
 62
     1
  6
CENTERX2
370
    -3
390
F
  0
LAYER
  5
73
330
2
100
AcDbSymbolTableRecord
100
AcDbLayerTableRecord
  2
파단선
 70
     0
 62
     4
  6
Continuous
370
    -3
390
F
  0
LAYER
  5
74
330
2
100
AcDbSymbolTableRecord
100
AcDbLayerTableRecord
  2
해칭선
 70
     0
 62
   100
  6
Continuous
370
    -3
390
F
  0
LAYER
  5
75
330
2
100
AcDbSymbolTableRecord
100
AcDbLayerTableRecord
  2
가는실선
 70
     0
 62
     4
  6
Continuous
370
    -3
390
F
  0
LAYER
  5
76
330
2
100
AcDbSymbolTableRecord
100
AcDbLayerTableRecord
  2
치수_보조선
 70
     0
 62
     4
  6
Continuous
370
    -3
390
F
  0
LAYER
  5
77
330
2
100
AcDbSymbolTableRecord
100
AcDbLayerTableRecord
  2
치수문자_일반주서
 70
     0
 62
     7
  6
Continuous
370
    15
390
F
  0
LAYER
  5
78
330
2
100
AcDbSymbolTableRecord
100
AcDbLayerTableRecord
  2
개별주서
 70
     0
 62
   100
  6
Continuous
370
    30
390
F
  0
LAYER
  5
79
330
2
100
AcDbSymbolTableRecord
100
AcDbLayerTableRecord
  2
중간선
 70
     0
 62
     2
  6
Continuous
370
    15
390
F
  0
LAYER
  5
7A
330
2
100
AcDbSymbolTableRecord
100
AcDbLayerTableRecord
  2
윤곽선
 70
     0
 62
     3
  6
Continuous
370
    40
390
F
  0
LAYER
  5
7B
330
2
100
AcDbSymbolTableRecord
100
AcDbLayerTableRecord
  2
중심마크
 70
     0
 62
   100
  6
Continuous
370
    30
390
F
  0
LAYER
  5
7C
330
2
100
AcDbSymbolTableRecord
100
AcDbLayerTableRecord
  2
가상선
 70
     0
 62
     4
  6
PHANTOM
370
    -3
390
F
  0
LAYER
  5
7D
330
2
100
AcDbSymbolTableRecord
100
AcDbLayerTableRecord
  2
특수지정선
 70
     0
 62
     5
  6
CENTERX2
370
    60
390
F
  0
LAYER
  5
7E
330
2
100
AcDbSymbolTableRecord
100
AcDbLayerTableRecord
  2
참조1
 70
     0
 62
    -4
  6
Continuous
370
    -3
390
F
  0
LAYER
  5
138
330
2
100
AcDbSymbolTableRecord
100
AcDbLayerTableRecord
  2
Defpoints
 70
     0
 62
     7
  6
Continuous
290
     0
370
    -3
390
F
  0
ENDTAB
  0
TABLE
  2
STYLE
  5
3
330
0
100
AcDbSymbolTable
 70
     2
  0
STYLE
  5
11
330
3
100
AcDbSymbolTableRecord
100
AcDbTextStyleTableRecord
  2
Standard
 70
     0
 40
0.0
 41
1.0
 50
0.0
 71
     0
 42
3.5
  3
txt
  4

  0
STYLE
  5
94
330
3
100
AcDbSymbolTableRecord
100
AcDbTextStyleTableRecord
  2
SLDTEXTSTYLE0
 70
     0
 40
0.0
 41
0.75
 50
0.0
 71
     0
 42
3.5
  3
TXT
  4

  0
ENDTAB
  0
TABLE
  2
VIEW
  5
6
330
0
100
AcDbSymbolTable
 70
     0
  0
ENDTAB
  0
TABLE
  2
UCS
  5
7
330
0
100
AcDbSymbolTable
 70
     0
  0
ENDTAB
  0
TABLE
  2
APPID
  5
9
330
0
100
AcDbSymbolTable
 70
     5
  0
APPID
  5
12
330
9
100
AcDbSymbolTableRecord
100
AcDbRegAppTableRecord
  2
ACAD
 70
     0
  0
APPID
  5
13F
330
9
100
AcDbSymbolTableRecord
100
AcDbRegAppTableRecord
  2
PE_URL
 70
     0
  0
APPID
  5
140
330
9
100
AcDbSymbolTableRecord
100
AcDbRegAppTableRecord
  2
ACAD_DSTYLE_DIMRADIAL_EXTENSION
 70
     0
  0
APPID
  5
268
330
9
100
AcDbSymbolTableRecord
100
AcDbRegAppTableRecord
  2
ACAD_DSTYLE_DIMFLIPARROW_SYMBOL
 70
     0
  0
APPID
  5
269
330
9
100
AcDbSymbolTableRecord
100
AcDbRegAppTableRecord
  2
ACAD_DSTYLE_DIMFLIPARROW_WHICH_SYMBOL
 70
     0
  0
ENDTAB
  0
TABLE
  2
DIMSTYLE
  5
A
330
0
100
AcDbSymbolTable
 70
     4
100
AcDbDimStyleTable
  0
DIMSTYLE
105
27
330
A
100
AcDbSymbolTableRecord
100
AcDbDimStyleTableRecord
  2
ISO-25
 70
     0
 41
2.5
 42
0.625
 43
3.75
 44
1.25
 73
     0
 74
     0
 77
     1
 78
     8
140
2.5
141
2.5
143
0.03937007874016
147
0.625
171
     3
172
     1
178
     0
271
     2
272
     2
274
     3
278
    44
283
     0
284
     8
340
11
  0
DIMSTYLE
105
D5
102
{ACAD_REACTORS
330
D4
330
15F
330
16F
330
17E
330
1FA
330
20A
330
219
330
F0
330
FC
330
E2
330
25A
102
}
330
A
100
AcDbSymbolTableRecord
100
AcDbDimStyleTableRecord
  2
SLDDIMSTYLE0
 70
     0
 41
3.302
 44
0.0
 45
0.000000001
 73
     0
 74
     0
 77
     1
 78
     4
 79
     1
140
3.5
147
0.875
172
     1
173
     1
178
     0
271
     2
272
     2
276
     2
284
    12
289
     0
340
94
  0
DIMSTYLE
105
E3
330
A
100
AcDbSymbolTableRecord
100
AcDbDimStyleTableRecord
  2
SLDDIMSTYLE1
 70
     0
 41
3.302
 44
0.0
 45
0.000000001
 73
     0
 74
     0
 77
     1
 78
    12
 79
     3
140
3.5
147
0.875
172
     1
173
     1
178
     0
271
     2
272
     2
276
     2
284
    12
289
     0
340
94
  0
DIMSTYLE
105
FD
330
A
100
AcDbSymbolTableRecord
100
AcDbDimStyleTableRecord
  2
SLDDIMSTYLE2
 70
     0
 41
3.302
 44
0.0
 45
0.000000001
 73
     0
 74
     0
 77
     1
 78
    12
 79
     3
140
3.5
147
0.875
173
     1
178
     0
271
     2
272
     2
276
     2
284
    12
340
94
  0
ENDTAB
  0
TABLE
  2
BLOCK_RECORD
  5
1
330
0
100
AcDbSymbolTable
 70
    19
  0
BLOCK_RECORD
  5
1F
330
1
100
AcDbSymbolTableRecord
100
AcDbBlockTableRecord
  2
*Model_Space
340
22
  0
BLOCK_RECORD
  5
1B
330
1
100
AcDbSymbolTableRecord
100
AcDbBlockTableRecord
  2
*Paper_Space
340
1E
  0
BLOCK_RECORD
  5
23
330
1
100
AcDbSymbolTableRecord
100
AcDbBlockTableRecord
  2
*Paper_Space0
340
26
  0
BLOCK_RECORD
  5
7F
330
1
100
AcDbSymbolTableRecord
100
AcDbBlockTableRecord
  2
블럭10
340
0
102
{BLKREFS
331
CD
102
}
  0
BLOCK_RECORD
  5
D6
330
1
100
AcDbSymbolTableRecord
100
AcDbBlockTableRecord
  2
_D
340
0
  0
BLOCK_RECORD
  5
E4
330
1
100
AcDbSymbolTableRecord
100
AcDbBlockTableRecord
  2
_D_1
340
0
  0
BLOCK_RECORD
  5
F1
330
1
100
AcDbSymbolTableRecord
100
AcDbBlockTableRecord
  2
_D_2
340
0
  0
BLOCK_RECORD
  5
FE
330
1
100
AcDbSymbolTableRecord
100
AcDbBlockTableRecord
  2
_D_3
340
0
  0
BLOCK_RECORD
  5
10E
330
1
100
AcDbSymbolTableRecord
100
AcDbBlockTableRecord
  2
SW_DOWELSYMBOL_0
340
0
102
{BLKREFS
331
114
102
}
  0
BLOCK_RECORD
  5
17F
330
1
100
AcDbSymbolTableRecord
100
AcDbBlockTableRecord
  2
*D8
340
0
  0
BLOCK_RECORD
  5
18B
330
1
100
AcDbSymbolTableRecord
100
AcDbBlockTableRecord
  2
*D9
340
0
  0
BLOCK_RECORD
  5
19A
330
1
100
AcDbSymbolTableRecord
100
AcDbBlockTableRecord
  2
*D10
340
0
  0
BLOCK_RECORD
  5
1AD
330
1
100
AcDbSymbolTableRecord
100
AcDbBlockTableRecord
  2
*D11
340
0
  0
BLOCK_RECORD
  5
1BC
330
1
100
AcDbSymbolTableRecord
100
AcDbBlockTableRecord
  2
*D12
340
0
  0
BLOCK_RECORD
  5
1CA
330
1
100
AcDbSymbolTableRecord
100
AcDbBlockTableRecord
  2
*D13
340
0
  0
BLOCK_RECORD
  5
21A
330
1
100
AcDbSymbolTableRecord
100
AcDbBlockTableRecord
  2
*D15
340
0
  0
BLOCK_RECORD
  5
226
330
1
100
AcDbSymbolTableRecord
100
AcDbBlockTableRecord
  2
*D16
340
0
  0
BLOCK_RECORD
  5
235
330
1
100
AcDbSymbolTableRecord
100
AcDbBlockTableRecord
  2
*D17
340
0
  0
BLOCK_RECORD
  5
25D
330
1
100
AcDbSymbolTableRecord
100
AcDbBlockTableRecord
  2
*D18
340
0
  0
ENDTAB
  0
ENDSEC
  0
SECTION
  2
BLOCKS
  0
BLOCK
  5
20
330
1F
100
AcDbEntity
  8
0
100
AcDbBlockBegin
  2
*Model_Space
 70
     0
 10
0.0
 20
0.0
 30
0.0
  3
*Model_Space
  1

  0
ENDBLK
  5
21
330
1F
100
AcDbEntity
  8
0
100
AcDbBlockEnd
  0
BLOCK
  5
1C
330
1B
100
AcDbEntity
 67
     1
  8
0
100
AcDbBlockBegin
  2
*Paper_Space
 70
     0
 10
0.0
 20
0.0
 30
0.0
  3
*Paper_Space
  1

  0
ENDBLK
  5
1D
330
1B
100
AcDbEntity
 67
     1
  8
0
100
AcDbBlockEnd
  0
BLOCK
  5
24
330
23
100
AcDbEntity
  8
0
100
AcDbBlockBegin
  2
*Paper_Space0
 70
     0
 10
0.0
 20
0.0
 30
0.0
  3
*Paper_Space0
  1

  0
ENDBLK
  5
25
330
23
100
AcDbEntity
  8
0
100
AcDbBlockEnd
  0
BLOCK
  5
80
330
7F
100
AcDbEntity
  8
0
100
AcDbBlockBegin
  2
블럭10
 70
     2
 10
0.0
 20
0.0
 30
0.0
  3
블럭10
  1

  0
ELLIPSE
  5
82
330
7F
100
AcDbEntity
  8
중심선
100
AcDbEllipse
 10
20.54032771741204
 20
12.0471743016438
 30
0.0
 11
6.600054785286829
 21
-1.261213355974178E-13
 31
0.0
210
0.0
220
0.0
230
1.0
 40
0.636358354079598
 41
0.9219305317359503
 42
6.513795318482858
  0
ELLIPSE
  5
83
330
7F
100
AcDbEntity
  8
중심선
100
AcDbEllipse
 10
20.54032771746488
 20
12.04717430159265
 30
0.0
 11
3.960054785062283
 21
1.540847449632565E-10
 31
0.0
210
0.0
220
0.0
230
1.0
 40
0.3939339440162632
 41
1.131841032648279
 42
5.62031148352944
  0
LINE
  5
84
330
7F
100
AcDbEntity
  8
중심선
100
AcDbLine
 10
2.268634060543552
 20
16.24717430164393
 30
0.0
 11
5.714909304380834
 21
16.24717430164393
 31
0.0
  0
LINE
  5
85
330
7F
100
AcDbEntity
  8
중심선
100
AcDbLine
 10
5.245725140726316
 20
7.84717430164391
 30
0.0
 11
8.692000384563599
 21
7.84717430164391
 31
0.0
  0
LINE
  5
86
330
7F
100
AcDbEntity
  8
중심선
100
AcDbLine
 10
15.74043728645272
 20
16.24717430164393
 30
0.0
 11
8.692000384563599
 21
7.84717430164391
 31
0.0
  0
LINE
  5
87
330
7F
100
AcDbEntity
  8
중심선
100
AcDbLine
 10
0.1404042013395286
 20
13.71084872107135
 30
0.0
 11
3.58671253028996
 21
13.71088815037384
 31
0.0
  0
LINE
  5
88
330
7F
100
AcDbEntity
  8
중심선
100
AcDbLine
 10
2.750260043222114
 20
10.84717430164391
 30
0.0
 11
6.196535287059397
 21
10.84717430164391
 31
0.0
  0
LINE
  5
89
330
7F
100
AcDbEntity
  8
중심선
100
AcDbLine
 10
12.29416204261559
 20
16.24717430164393
 30
0.0
 11
5.245725140726316
 21
7.84717430164391
 31
0.0
  0
LINE
  5
8A
330
7F
100
AcDbEntity
  8
중심선
100
AcDbLine
 10
10.72767329541681
 20
16.24717430164393
 30
0.0
 11
6.196535287059397
 21
10.84717430164391
 31
0.0
  0
LINE
  5
8B
330
7F
100
AcDbEntity
  8
중심선
100
AcDbLine
 10
7.28139805157953
 20
16.24717430164393
 30
0.0
 11
2.750260043222114
 21
10.84717430164391
 31
0.0
  0
LINE
  5
8C
330
7F
100
AcDbEntity
  8
중심선
100
AcDbLine
 10
5.714909304380834
 20
16.24717430164393
 30
0.0
 11
3.58671253028996
 21
13.71088815037384
 31
0.0
  0
LINE
  5
8D
330
7F
100
AcDbEntity
  8
중심선
100
AcDbLine
 10
2.268634060543552
 20
16.24717430164393
 30
0.0
 11
0.1404042013395286
 21
13.71084872107135
 31
0.0
  0
LINE
  5
8E
330
7F
100
AcDbEntity
  8
중심선
100
AcDbLine
 10
7.28139805157953
 20
16.24717430164393
 30
0.0
 11
10.72767329541681
 21
16.24717430164393
 31
0.0
  0
LINE
  5
8F
330
7F
100
AcDbEntity
  8
중심선
100
AcDbLine
 10
12.29416204261559
 20
16.24717430164393
 30
0.0
 11
15.74043728645272
 21
16.24717430164393
 31
0.0
  0
LINE
  5
90
330
7F
100
AcDbEntity
  8
중심선
100
AcDbLine
 10
19.22036997980202
 20
11.08717430171403
 30
0.0
 11
23.66174974927406
 21
11.08717430171406
 31
0.0
  0
LINE
  5
91
330
7F
100
AcDbEntity
  8
중심선
100
AcDbLine
 10
19.22039502424796
 20
13.00717430171391
 30
0.0
 11
19.22036997980202
 21
11.08717430171403
 31
0.0
  0
LINE
  5
92
330
7F
100
AcDbEntity
  8
중심선
100
AcDbLine
 10
19.22039502424796
 20
13.00717430171391
 30
0.0
 11
26.96566020931264
 21
13.00717430171391
 31
0.0
  0
LINE
  5
93
330
7F
100
AcDbEntity
  8
중심선
100
AcDbLine
 10
22.22332737316547
 20
13.45928029700563
 30
0.0
 11
24.52862924686651
 21
15.39360700705356
 31
0.0
  0
ATTDEF
  5
95
330
7F
100
AcDbEntity
  8
FORMAT
 62
     2
100
AcDbText
 10
-16.11926103943555
 20
2.075366912832191
 30
0.0
 40
4.233333333333333
  1
SEME0101502E [ 4 FLUTE ]
 41
0.75
  7
SLDTEXTSTYLE0
 11
-16.11926103943555
 21
-0.0412997538344756
 31
0.0
100
AcDbAttributeDefinition
  3

  2
AUTOATTR0
 70
     0
 74
     1
  0
ENDBLK
  5
81
330
7F
100
AcDbEntity
  8
0
100
AcDbBlockEnd
  0
BLOCK
  5
D7
330
D6
100
AcDbEntity
  8
0
100
AcDbBlockBegin
  2
_D
 70
     0
 10
0.0
 20
0.0
 30
0.0
  3
_D
  1

  0
LINE
  5
D9
330
D6
100
AcDbEntity
  8
치수문자_일반주서
 62
     0
370
    -2
100
AcDbLine
 10
15.45961431702997
 20
0.7510749287238897
 30
0.0
 11
23.39711431702995
 21
0.75107492872392
 31
0.0
  0
LINE
  5
DA
330
D6
100
AcDbEntity
  8
치수문자_일반주서
 62
     0
370
    -2
100
AcDbLine
 10
15.45961431702997
 20
-0.7489250712761103
 30
0.0
 11
23.39711431702996
 21
-0.74892507127608
 31
0.0
  0
LINE
  5
DB
330
D6
100
AcDbEntity
  8
치수문자_일반주서
 62
     0
370
    -2
100
AcDbLine
 10
23.39711431702995
 20
0.75107492872392
 30
0.0
 11
23.39711431702992
 21
12.50107492872393
 31
0.0
  0
LINE
  5
DC
330
D6
100
AcDbEntity
  8
치수문자_일반주서
 62
     0
370
    -2
100
AcDbLine
 10
23.39711431702995
 20
0.75107492872392
 30
0.0
 11
23.39711431702996
 21
-0.74892507127608
 31
0.0
  0
LINE
  5
DD
330
D6
100
AcDbEntity
  8
치수문자_일반주서
 62
     0
370
    -2
100
AcDbLine
 10
23.39711431702995
 20
3.25107492872392
 30
0.0
 11
23.39711431702994
 21
5.75107492872392
 31
0.0
  0
LINE
  5
DE
330
D6
100
AcDbEntity
  8
치수문자_일반주서
 62
     0
370
    -2
100
AcDbLine
 10
23.39711431702996
 20
-3.24892507127608
 30
0.0
 11
23.39711431702997
 21
-5.74892507127608
 31
0.0
  0
SOLID
  5
DF
330
D6
100
AcDbEntity
  8
치수문자_일반주서
 62
     0
100
AcDbTrace
 10
22.98044765036328
 20
3.251074928723919
 30
0.0
 11
23.81378098369661
 21
3.251074928723921
 31
0.0
 12
23.39711431702995
 22
0.75107492872392
 32
0.0
 13
23.39711431702995
 23
0.75107492872392
 33
0.0
  0
SOLID
  5
E0
330
D6
100
AcDbEntity
  8
치수문자_일반주서
 62
     0
100
AcDbTrace
 10
23.81378098369663
 20
-3.248925071276079
 30
0.0
 11
22.9804476503633
 21
-3.248925071276081
 31
0.0
 12
23.39711431702996
 22
-0.74892507127608
 32
0.0
 13
23.39711431702996
 23
-0.74892507127608
 33
0.0
  0
MTEXT
  5
E1
330
D6
100
AcDbEntity
  8
치수문자_일반주서
 62
     0
100
AcDbMText
 10
20.02211431702993
 20
9.126074928723916
 30
0.0
 40
2.5
 41
0.0
 71
     2
 72
     1
  1
\A1;%%c1.5
  7
SLDTEXTSTYLE0
 11
-2.368475785867000E-15
 21
1.0
 31
0.0
 73
     1
 44
1.0
  0
POINT
  5
252
330
D6
100
AcDbEntity
  8
Defpoints
 62
     0
100
AcDbPoint
 10
15.39711431702997
 20
0.7510749287238895
 30
0.0
  0
POINT
  5
253
330
D6
100
AcDbEntity
  8
Defpoints
 62
     0
100
AcDbPoint
 10
15.39711431702997
 20
-0.7489250712761105
 30
0.0
  0
POINT
  5
254
330
D6
100
AcDbEntity
  8
Defpoints
 62
     0
100
AcDbPoint
 10
23.39711431702996
 20
-0.7489250712760807
 30
0.0
  0
ENDBLK
  5
D8
330
D6
100
AcDbEntity
  8
0
100
AcDbBlockEnd
  0
BLOCK
  5
E5
330
E4
100
AcDbEntity
  8
0
100
AcDbBlockBegin
  2
_D_1
 70
     0
 10
0.0
 20
0.0
 30
0.0
  3
_D_1
  1

  0
LINE
  5
E7
330
E4
100
AcDbEntity
  8
치수문자_일반주서
 62
     0
370
    -2
100
AcDbLine
 10
-34.06538568297003
 20
3.001074928723896
 30
0.0
 11
-42.60288568297003
 21
3.001074928723864
 31
0.0
  0
LINE
  5
E8
330
E4
100
AcDbEntity
  8
치수문자_일반주서
 62
     0
370
    -2
100
AcDbLine
 10
-34.06538568297003
 20
-2.99892507127611
 30
0.0
 11
-42.60288568297
 21
-2.99892507127614
 31
0.0
  0
LINE
  5
E9
330
E4
100
AcDbEntity
  8
치수문자_일반주서
 62
     0
370
    -2
100
AcDbLine
 10
-42.60288568297003
 20
3.001074928723864
 30
0.0
 11
-42.60288568297006
 21
12.87607492872387
 31
0.0
  0
LINE
  5
EA
330
E4
100
AcDbEntity
  8
치수문자_일반주서
 62
     0
370
    -2
100
AcDbLine
 10
-42.60288568297003
 20
3.001074928723864
 30
0.0
 11
-42.60288568297
 21
-2.99892507127614
 31
0.0
  0
LINE
  5
EB
330
E4
100
AcDbEntity
  8
치수문자_일반주서
 62
     0
370
    -2
100
AcDbLine
 10
-42.60288568297003
 20
5.501074928723864
 30
0.0
 11
-42.60288568297004
 21
8.001074928723863
 31
0.0
  0
LINE
  5
EC
330
E4
100
AcDbEntity
  8
치수문자_일반주서
 62
     0
370
    -2
100
AcDbLine
 10
-42.60288568297
 20
-5.49892507127614
 30
0.0
 11
-42.60288568296999
 21
-7.99892507127614
 31
0.0
  0
SOLID
  5
ED
330
E4
100
AcDbEntity
  8
치수문자_일반주서
 62
     0
100
AcDbTrace
 10
-43.0195523496367
 20
5.501074928723862
 30
0.0
 11
-42.18621901630337
 21
5.501074928723866
 31
0.0
 12
-42.60288568297003
 22
3.001074928723864
 32
0.0
 13
-42.60288568297003
 23
3.001074928723864
 33
0.0
  0
SOLID
  5
EE
330
E4
100
AcDbEntity
  8
치수문자_일반주서
 62
     0
100
AcDbTrace
 10
-42.18621901630333
 20
-5.498925071276139
 30
0.0
 11
-43.01955234963666
 21
-5.498925071276142
 31
0.0
 12
-42.60288568297
 22
-2.99892507127614
 32
0.0
 13
-42.60288568297
 23
-2.99892507127614
 33
0.0
  0
MTEXT
  5
EF
330
E4
100
AcDbEntity
  8
치수문자_일반주서
 62
     0
100
AcDbMText
 10
-45.97788568297005
 20
10.43857492872386
 30
0.0
 40
2.5
 41
0.0
 71
     2
 72
     1
  1
\A1;%%c6
  7
SLDTEXTSTYLE0
 11
-3.552713678800498E-15
 21
1.0
 31
0.0
 73
     1
 44
1.0
  0
POINT
  5
24D
330
E4
100
AcDbEntity
  8
Defpoints
 62
     0
100
AcDbPoint
 10
-34.00288568297003
 20
3.001074928723896
 30
0.0
  0
POINT
  5
24E
330
E4
100
AcDbEntity
  8
Defpoints
 62
     0
100
AcDbPoint
 10
-34.00288568297003
 20
-2.998925071276109
 30
0.0
  0
POINT
  5
24F
330
E4
100
AcDbEntity
  8
Defpoints
 62
     0
100
AcDbPoint
 10
-42.60288568297
 20
-2.998925071276141
 30
0.0
  0
ENDBLK
  5
E6
330
E4
100
AcDbEntity
  8
0
100
AcDbBlockEnd
  0
BLOCK
  5
F2
330
F1
100
AcDbEntity
  8
0
100
AcDbBlockBegin
  2
_D_2
 70
     0
 10
0.0
 20
0.0
 30
0.0
  3
_D_2
  1

  0
LINE
  5
F4
330
F1
100
AcDbEntity
  8
치수문자_일반주서
 62
     0
370
    -2
100
AcDbLine
 10
15.39711431702997
 20
0.8135749287238895
 30
0.0
 11
15.39711431702997
 21
11.0010749287239
 31
0.0
  0
LINE
  5
F5
330
F1
100
AcDbEntity
  8
치수문자_일반주서
 62
     0
370
    -2
100
AcDbLine
 10
11.39711431702999
 20
0.8133810511635736
 30
0.0
 11
11.39711431702999
 21
11.0010749287239
 31
0.0
  0
LINE
  5
F6
330
F1
100
AcDbEntity
  8
치수문자_일반주서
 62
     0
370
    -2
100
AcDbLine
 10
15.39711431702997
 20
11.0010749287239
 30
0.0
 11
11.39711431702999
 21
11.0010749287239
 31
0.0
  0
LINE
  5
F7
330
F1
100
AcDbEntity
  8
치수문자_일반주서
 62
     0
370
    -2
100
AcDbLine
 10
17.89711431702997
 20
11.0010749287239
 30
0.0
 11
20.39711431702997
 21
11.0010749287239
 31
0.0
  0
LINE
  5
F8
330
F1
100
AcDbEntity
  8
치수문자_일반주서
 62
     0
370
    -2
100
AcDbLine
 10
8.897114317029992
 20
11.0010749287239
 30
0.0
 11
6.397114317029992
 21
11.0010749287239
 31
0.0
  0
SOLID
  5
F9
330
F1
100
AcDbEntity
  8
치수문자_일반주서
 62
     0
100
AcDbTrace
 10
17.89711431702997
 20
11.41774159539056
 30
0.0
 11
17.89711431702997
 21
10.58440826205723
 31
0.0
 12
15.39711431702997
 22
11.0010749287239
 32
0.0
 13
15.39711431702997
 23
11.0010749287239
 33
0.0
  0
SOLID
  5
FA
330
F1
100
AcDbEntity
  8
치수문자_일반주서
 62
     0
100
AcDbTrace
 10
8.897114317029992
 20
10.58440826205723
 30
0.0
 11
8.897114317029992
 21
11.41774159539056
 31
0.0
 12
11.39711431702999
 22
11.0010749287239
 32
0.0
 13
11.39711431702999
 23
11.0010749287239
 33
0.0
  0
MTEXT
  5
FB
330
F1
100
AcDbEntity
  8
치수문자_일반주서
 62
     0
100
AcDbMText
 10
13.39711431703006
 20
14.3760749287239
 30
0.0
 40
2.5
 41
0.0
 71
     2
 72
     1
  1
\A1;4
  7
SLDTEXTSTYLE0
 73
     1
 44
1.0
  0
POINT
  5
243
330
F1
100
AcDbEntity
  8
Defpoints
 62
     0
100
AcDbPoint
 10
15.39711431702997
 20
0.7510749287238895
 30
0.0
  0
POINT
  5
250
330
F1
100
AcDbEntity
  8
Defpoints
 62
     0
100
AcDbPoint
 10
11.39711431702999
 20
0.7508810511635736
 30
0.0
  0
POINT
  5
251
330
F1
100
AcDbEntity
  8
Defpoints
 62
     0
100
AcDbPoint
 10
11.39711431702999
 20
11.0010749287239
 30
0.0
  0
ENDBLK
  5
F3
330
F1
100
AcDbEntity
  8
0
100
AcDbBlockEnd
  0
BLOCK
  5
FF
330
FE
100
AcDbEntity
  8
0
100
AcDbBlockBegin
  2
_D_3
 70
     0
 10
0.0
 20
0.0
 30
0.0
  3
_D_3
  1

  0
LINE
  5
101
330
FE
100
AcDbEntity
  8
치수문자_일반주서
 62
     0
370
    -2
100
AcDbLine
 10
15.39711431702997
 20
0.8135749287238895
 30
0.0
 11
15.39711431702997
 21
19.0010749287239
 31
0.0
  0
LINE
  5
102
330
FE
100
AcDbEntity
  8
치수문자_일반주서
 62
     0
370
    -2
100
AcDbLine
 10
-34.60288568297003
 20
2.463574928723895
 30
0.0
 11
-34.60288568297003
 21
19.0010749287239
 31
0.0
  0
LINE
  5
103
330
FE
100
AcDbEntity
  8
치수문자_일반주서
 62
     0
370
    -2
100
AcDbLine
 10
12.89711431702997
 20
19.0010749287239
 30
0.0
 11
-32.10288568297003
 21
19.0010749287239
 31
0.0
  0
SOLID
  5
104
330
FE
100
AcDbEntity
  8
치수문자_일반주서
 62
     0
100
AcDbTrace
 10
12.89711431702997
 20
18.58440826205723
 30
0.0
 11
12.89711431702997
 21
19.41774159539056
 31
0.0
 12
15.39711431702997
 22
19.0010749287239
 32
0.0
 13
15.39711431702997
 23
19.0010749287239
 33
0.0
  0
SOLID
  5
105
330
FE
100
AcDbEntity
  8
치수문자_일반주서
 62
     0
100
AcDbTrace
 10
-32.10288568297003
 20
19.41774159539056
 30
0.0
 11
-32.10288568297003
 21
18.58440826205723
 31
0.0
 12
-34.60288568297003
 22
19.0010749287239
 32
0.0
 13
-34.60288568297003
 23
19.0010749287239
 33
0.0
  0
MTEXT
  5
106
330
FE
100
AcDbEntity
  8
치수문자_일반주서
 62
     0
100
AcDbMText
 10
-9.602885682970026
 20
22.3760749287239
 30
0.0
 40
2.5
 41
0.0
 71
     2
 72
     1
  1
\A1;50
  7
SLDTEXTSTYLE0
 73
     1
 44
1.0
  0
POINT
  5
244
330
FE
100
AcDbEntity
  8
Defpoints
 62
     0
100
AcDbPoint
 10
15.39711431702997
 20
0.7510749287238895
 30
0.0
  0
POINT
  5
245
330
FE
100
AcDbEntity
  8
Defpoints
 62
     0
100
AcDbPoint
 10
-34.60288568297003
 20
2.401074928723895
 30
0.0
  0
POINT
  5
246
330
FE
100
AcDbEntity
  8
Defpoints
 62
     0
100
AcDbPoint
 10
-34.60288568297003
 20
19.0010749287239
 30
0.0
  0
ENDBLK
  5
100
330
FE
100
AcDbEntity
  8
0
100
AcDbBlockEnd
  0
BLOCK
  5
10F
330
10E
100
AcDbEntity
  8
0
100
AcDbBlockBegin
  2
SW_DOWELSYMBOL_0
 70
     0
 10
0.0
 20
0.0
 30
0.0
  3
SW_DOWELSYMBOL_0
  1

  0
CIRCLE
  5
111
330
10E
100
AcDbEntity
  8
해칭선
 62
     0
100
AcDbCircle
 10
0.0
 20
0.0
 30
0.0
 40
3.000000000000001
  0
HATCH
  5
112
330
10E
100
AcDbEntity
  8
0
  6
Continuous
 62
     0
370
     0
100
AcDbHatch
 10
0.0
 20
0.0
 30
0.0
210
0.0
220
0.0
230
1.0
  2
SOLID
 70
     1
 71
     0
 91
        1
 92
        0
 93
        3
 72
     2
 10
0.0
 20
0.0
 40
3.000000000000001
 50
0.0
 51
90.0
 73
     1
 72
     1
 10
0.0
 20
3.000000000000001
 11
0.0
 21
0.0
 72
     1
 10
0.0
 20
0.0
 11
3.000000000000001
 21
0.0
 97
        0
 75
     0
 76
     1
 98
        1
 10
0.0
 20
0.0
  0
HATCH
  5
113
330
10E
100
AcDbEntity
  8
0
  6
Continuous
 62
     0
370
     0
100
AcDbHatch
 10
0.0
 20
0.0
 30
0.0
210
0.0
220
0.0
230
1.0
  2
SOLID
 70
     1
 71
     0
 91
        1
 92
        0
 93
        3
 72
     2
 10
0.0
 20
0.0
 40
3.000000000000001
 50
180.0
 51
270.0000000000008
 73
     1
 72
     1
 10
0.0
 20
-3.000000000000001
 11
0.0
 21
0.0
 72
     1
 10
0.0
 20
0.0
 11
-3.000000000000001
 21
0.0
 97
        0
 75
     0
 76
     1
 98
        1
 10
0.0
 20
0.0
  0
ENDBLK
  5
110
330
10E
100
AcDbEntity
  8
0
100
AcDbBlockEnd
  0
BLOCK
  5
180
330
17F
100
AcDbEntity
  8
0
100
AcDbBlockBegin
  2
*D8
 70
     1
 10
0.0
 20
0.0
 30
0.0
  3
*D8
  1

  0
LINE
  5
181
330
17F
100
AcDbEntity
  8
치수문자_일반주서
 62
     0
370
    -2
100
AcDbLine
 10
9.157089827360679
 20
13.96970345054478
 30
0.0
 11
16.8732305693942
 21
0.0000000000001306
 31
0.0
  0
MTEXT
  5
182
330
17F
100
AcDbEntity
  8
치수문자_일반주서
 62
     0
100
AcDbMText
 10
17.17708889698974
 20
3.844950803229067
 30
0.0
 40
2.5
 41
0.0
 71
     5
 72
     1
  1
\A1;R0.1
  7
SLDTEXTSTYLE0
 11
0.4834960874464161
 21
-0.8753465219123269
 31
0.0
 73
     1
 44
1.0
  0
LINE
  5
183
330
17F
100
AcDbEntity
  8
치수문자_일반주서
 62
     0
370
    -2
100
AcDbLine
 10
7.899999999999999
 20
16.24560440751683
 30
0.0
 11
7.948349608744639
 21
16.1580697553256
 31
0.0
  0
SOLID
  5
184
330
17F
100
AcDbEntity
  8
치수문자_일반주서
 62
     0
100
AcDbTrace
 10
9.521817544824149
 20
14.17116015364745
 30
0.0
 11
8.792362109897208
 21
13.76824674744211
 31
0.0
 12
7.948349608744639
 22
16.1580697553256
 32
0.0
 13
7.948349608744639
 23
16.1580697553256
 33
0.0
  0
POINT
  5
185
330
17F
100
AcDbEntity
  8
Defpoints
 62
     0
100
AcDbPoint
 10
7.948349608744639
 20
16.1580697553256
 30
0.0
  0
POINT
  5
186
330
17F
100
AcDbEntity
  8
Defpoints
 62
     0
100
AcDbPoint
 10
7.899999999999999
 20
16.24560440751683
 30
0.0
  0
ENDBLK
  5
187
330
17F
100
AcDbEntity
  8
0
100
AcDbBlockEnd
  0
BLOCK
  5
18C
330
18B
100
AcDbEntity
  8
0
100
AcDbBlockBegin
  2
*D9
 70
     1
 10
0.0
 20
0.0
 30
0.0
  3
*D9
  1

  0
LINE
  5
18E
330
18B
100
AcDbEntity
  8
치수문자_일반주서
 62
     0
370
    -2
100
AcDbLine
 10
8.0625
 20
17.34560440751683
 30
0.0
 11
16.0
 21
17.34560440751686
 31
0.0
  0
LINE
  5
18F
330
18B
100
AcDbEntity
  8
치수문자_일반주서
 62
     0
370
    -2
100
AcDbLine
 10
8.0625
 20
16.14560440751683
 30
0.0
 11
16.00000000000001
 21
16.14560440751686
 31
0.0
  0
LINE
  5
190
330
18B
100
AcDbEntity
  8
치수문자_일반주서
 62
     0
370
    -2
100
AcDbLine
 10
16.0
 20
17.34560440751686
 30
0.0
 11
15.99999999999997
 21
29.09560440751687
 31
0.0
  0
LINE
  5
191
330
18B
100
AcDbEntity
  8
치수문자_일반주서
 62
     0
370
    -2
100
AcDbLine
 10
16.0
 20
17.34560440751686
 30
0.0
 11
16.00000000000001
 21
16.14560440751686
 31
0.0
  0
LINE
  5
192
330
18B
100
AcDbEntity
  8
치수문자_일반주서
 62
     0
370
    -2
100
AcDbLine
 10
16.0
 20
19.84560440751686
 30
0.0
 11
15.99999999999999
 21
22.34560440751686
 31
0.0
  0
LINE
  5
193
330
18B
100
AcDbEntity
  8
치수문자_일반주서
 62
     0
370
    -2
100
AcDbLine
 10
16.00000000000001
 20
13.64560440751686
 30
0.0
 11
16.00000000000002
 21
11.14560440751686
 31
0.0
  0
SOLID
  5
194
330
18B
100
AcDbEntity
  8
치수문자_일반주서
 62
     0
100
AcDbTrace
 10
15.58333333333333
 20
19.84560440751686
 30
0.0
 11
16.41666666666666
 21
19.84560440751686
 31
0.0
 12
16.0
 22
17.34560440751686
 32
0.0
 13
16.0
 23
17.34560440751686
 33
0.0
  0
SOLID
  5
195
330
18B
100
AcDbEntity
  8
치수문자_일반주서
 62
     0
100
AcDbTrace
 10
16.41666666666668
 20
13.64560440751686
 30
0.0
 11
15.58333333333335
 21
13.64560440751686
 31
0.0
 12
16.00000000000001
 22
16.14560440751686
 32
0.0
 13
16.00000000000001
 23
16.14560440751686
 33
0.0
  0
MTEXT
  5
196
330
18B
100
AcDbEntity
  8
치수문자_일반주서
 62
     0
100
AcDbMText
 10
12.62499999999998
 20
25.72060440751686
 30
0.0
 40
2.5
 41
0.0
 71
     2
 72
     1
  1
\A1;%%c1.2
  7
SLDTEXTSTYLE0
 11
-2.960594732333752E-15
 21
1.0
 31
0.0
 73
     1
 44
1.0
  0
POINT
  5
197
330
18B
100
AcDbEntity
  8
Defpoints
 62
     0
100
AcDbPoint
 10
8.0
 20
17.34560440751683
 30
0.0
  0
POINT
  5
198
330
18B
100
AcDbEntity
  8
Defpoints
 62
     0
100
AcDbPoint
 10
8.0
 20
16.14560440751683
 30
0.0
  0
POINT
  5
199
330
18B
100
AcDbEntity
  8
Defpoints
 62
     0
100
AcDbPoint
 10
16.0
 20
16.14560440751686
 30
0.0
  0
ENDBLK
  5
18D
330
18B
100
AcDbEntity
  8
0
100
AcDbBlockEnd
  0
BLOCK
  5
19B
330
19A
100
AcDbEntity
  8
0
100
AcDbBlockBegin
  2
*D10
 70
     1
 10
0.0
 20
0.0
 30
0.0
  3
*D10
  1

  0
LINE
  5
19D
330
19A
100
AcDbEntity
  8
치수문자_일반주서
 62
     0
370
    -2
100
AcDbLine
 10
8.0
 20
17.40810440751683
 30
0.0
 11
8.0
 21
27.74560440751683
 31
0.0
  0
LINE
  5
19E
330
19A
100
AcDbEntity
  8
치수문자_일반주서
 62
     0
370
    -2
100
AcDbLine
 10
5.0
 20
17.39957619746455
 30
0.0
 11
5.0
 21
27.74560440751683
 31
0.0
  0
LINE
  5
19F
330
19A
100
AcDbEntity
  8
치수문자_일반주서
 62
     0
370
    -2
100
AcDbLine
 10
8.0
 20
27.74560440751683
 30
0.0
 11
5.0
 21
27.74560440751683
 31
0.0
  0
LINE
  5
1A0
330
19A
100
AcDbEntity
  8
치수문자_일반주서
 62
     0
370
    -2
100
AcDbLine
 10
10.5
 20
27.74560440751683
 30
0.0
 11
13.0
 21
27.74560440751683
 31
0.0
  0
LINE
  5
1A1
330
19A
100
AcDbEntity
  8
치수문자_일반주서
 62
     0
370
    -2
100
AcDbLine
 10
2.5
 20
27.74560440751683
 30
0.0
 11
0.0
 21
27.74560440751683
 31
0.0
  0
SOLID
  5
1A2
330
19A
100
AcDbEntity
  8
치수문자_일반주서
 62
     0
100
AcDbTrace
 10
10.5
 20
28.1622710741835
 30
0.0
 11
10.5
 21
27.32893774085016
 31
0.0
 12
8.0
 22
27.74560440751683
 32
0.0
 13
8.0
 23
27.74560440751683
 33
0.0
  0
SOLID
  5
1A3
330
19A
100
AcDbEntity
  8
치수문자_일반주서
 62
     0
100
AcDbTrace
 10
2.5
 20
27.32893774085016
 30
0.0
 11
2.5
 21
28.1622710741835
 31
0.0
 12
5.0
 22
27.74560440751683
 32
0.0
 13
5.0
 23
27.74560440751683
 33
0.0
  0
MTEXT
  5
1A4
330
19A
100
AcDbEntity
  8
치수문자_일반주서
 62
     0
100
AcDbMText
 10
6.499999999999899
 20
31.12060440751683
 30
0.0
 40
2.5
 41
0.0
 71
     2
 72
     1
  1
\A1;3
  7
SLDTEXTSTYLE0
 73
     1
 44
1.0
  0
POINT
  5
1A5
330
19A
100
AcDbEntity
  8
Defpoints
 62
     0
100
AcDbPoint
 10
8.0
 20
17.34560440751683
 30
0.0
  0
POINT
  5
1A6
330
19A
100
AcDbEntity
  8
Defpoints
 62
     0
100
AcDbPoint
 10
5.0
 20
17.33707619746455
 30
0.0
  0
POINT
  5
1A7
330
19A
100
AcDbEntity
  8
Defpoints
 62
     0
100
AcDbPoint
 10
5.0
 20
27.74560440751683
 30
0.0
  0
ENDBLK
  5
19C
330
19A
100
AcDbEntity
  8
0
100
AcDbBlockEnd
  0
BLOCK
  5
1AE
330
1AD
100
AcDbEntity
  8
0
100
AcDbBlockBegin
  2
*D11
 70
     1
 10
0.0
 20
0.0
 30
0.0
  3
*D11
  1

  0
LINE
  5
1B0
330
1AD
100
AcDbEntity
  8
치수문자_일반주서
 62
     0
370
    -2
100
AcDbLine
 10
31.2090389755171
 20
-0.0991750616017837
 30
0.0
 11
39.14653897551713
 21
-0.0991750616017537
 31
0.0
  0
LINE
  5
1B1
330
1AD
100
AcDbEntity
  8
치수문자_일반주서
 62
     0
370
    -2
100
AcDbLine
 10
31.2090389755171
 20
-1.299175061601783
 30
0.0
 11
39.14653897551714
 21
-1.299175061601753
 31
0.0
  0
LINE
  5
1B2
330
1AD
100
AcDbEntity
  8
치수문자_일반주서
 62
     0
370
    -2
100
AcDbLine
 10
39.14653897551713
 20
-0.0991750616017537
 30
0.0
 11
39.14653897551706
 21
11.65082493839825
 31
0.0
  0
LINE
  5
1B3
330
1AD
100
AcDbEntity
  8
치수문자_일반주서
 62
     0
370
    -2
100
AcDbLine
 10
39.14653897551713
 20
-0.0991750616017537
 30
0.0
 11
39.14653897551714
 21
-1.299175061601753
 31
0.0
  0
LINE
  5
1B4
330
1AD
100
AcDbEntity
  8
치수문자_일반주서
 62
     0
370
    -2
100
AcDbLine
 10
39.14653897551712
 20
2.400824938398246
 30
0.0
 11
39.1465389755171
 21
4.900824938398246
 31
0.0
  0
LINE
  5
1B5
330
1AD
100
AcDbEntity
  8
치수문자_일반주서
 62
     0
370
    -2
100
AcDbLine
 10
39.14653897551715
 20
-3.799175061601753
 30
0.0
 11
39.14653897551717
 21
-6.299175061601753
 31
0.0
  0
SOLID
  5
1B6
330
1AD
100
AcDbEntity
  8
치수문자_일반주서
 62
     0
100
AcDbTrace
 10
38.72987230885045
 20
2.400824938398244
 30
0.0
 11
39.56320564218378
 21
2.400824938398249
 31
0.0
 12
39.14653897551713
 22
-0.0991750616017537
 32
0.0
 13
39.14653897551713
 23
-0.0991750616017537
 33
0.0
  0
SOLID
  5
1B7
330
1AD
100
AcDbEntity
  8
치수문자_일반주서
 62
     0
100
AcDbTrace
 10
39.56320564218382
 20
-3.79917506160175
 30
0.0
 11
38.72987230885049
 21
-3.799175061601756
 31
0.0
 12
39.14653897551714
 22
-1.299175061601753
 32
0.0
 13
39.14653897551714
 23
-1.299175061601753
 33
0.0
  0
MTEXT
  5
1B8
330
1AD
100
AcDbEntity
  8
치수문자_일반주서
 62
     0
100
AcDbMText
 10
35.77153897551708
 20
8.275824938398232
 30
0.0
 40
2.5
 41
0.0
 71
     2
 72
     1
  1
\A1;%%c1.2
  7
SLDTEXTSTYLE0
 11
-5.921189464667505E-15
 21
1.0
 31
0.0
 73
     1
 44
1.0
  0
POINT
  5
1B9
330
1AD
100
AcDbEntity
  8
Defpoints
 62
     0
100
AcDbPoint
 10
31.1465389755171
 20
-0.0991750616017839
 30
0.0
  0
POINT
  5
1BA
330
1AD
100
AcDbEntity
  8
Defpoints
 62
     0
100
AcDbPoint
 10
31.1465389755171
 20
-1.299175061601783
 30
0.0
  0
POINT
  5
1BB
330
1AD
100
AcDbEntity
  8
Defpoints
 62
     0
100
AcDbPoint
 10
39.14653897551711
 20
-1.299175061601753
 30
0.0
  0
ENDBLK
  5
1AF
330
1AD
100
AcDbEntity
  8
0
100
AcDbBlockEnd
  0
BLOCK
  5
1BD
330
1BC
100
AcDbEntity
  8
0
100
AcDbBlockBegin
  2
*D12
 70
     1
 10
0.0
 20
0.0
 30
0.0
  3
*D12
  1

  0
LINE
  5
1BF
330
1BC
100
AcDbEntity
  8
치수문자_일반주서
 62
     0
370
    -2
100
AcDbLine
 10
31.1465389755171
 20
-0.0366750616017839
 30
0.0
 11
31.1465389755171
 21
10.30082493839821
 31
0.0
  0
LINE
  5
1C0
330
1BC
100
AcDbEntity
  8
치수문자_일반주서
 62
     0
370
    -2
100
AcDbLine
 10
28.1465389755171
 20
-0.0452032716540671
 30
0.0
 11
28.1465389755171
 21
10.30082493839821
 31
0.0
  0
LINE
  5
1C1
330
1BC
100
AcDbEntity
  8
치수문자_일반주서
 62
     0
370
    -2
100
AcDbLine
 10
31.1465389755171
 20
10.30082493839821
 30
0.0
 11
28.1465389755171
 21
10.30082493839821
 31
0.0
  0
LINE
  5
1C2
330
1BC
100
AcDbEntity
  8
치수문자_일반주서
 62
     0
370
    -2
100
AcDbLine
 10
33.6465389755171
 20
10.30082493839821
 30
0.0
 11
36.1465389755171
 21
10.30082493839821
 31
0.0
  0
LINE
  5
1C3
330
1BC
100
AcDbEntity
  8
치수문자_일반주서
 62
     0
370
    -2
100
AcDbLine
 10
25.6465389755171
 20
10.30082493839821
 30
0.0
 11
23.1465389755171
 21
10.30082493839821
 31
0.0
  0
SOLID
  5
1C4
330
1BC
100
AcDbEntity
  8
치수문자_일반주서
 62
     0
100
AcDbTrace
 10
33.6465389755171
 20
10.71749160506488
 30
0.0
 11
33.6465389755171
 21
9.884158271731549
 31
0.0
 12
31.1465389755171
 22
10.30082493839821
 32
0.0
 13
31.1465389755171
 23
10.30082493839821
 33
0.0
  0
SOLID
  5
1C5
330
1BC
100
AcDbEntity
  8
치수문자_일반주서
 62
     0
100
AcDbTrace
 10
25.6465389755171
 20
9.884158271731549
 30
0.0
 11
25.6465389755171
 21
10.71749160506488
 31
0.0
 12
28.1465389755171
 22
10.30082493839821
 32
0.0
 13
28.1465389755171
 23
10.30082493839821
 33
0.0
  0
MTEXT
  5
1C6
330
1BC
100
AcDbEntity
  8
치수문자_일반주서
 62
     0
100
AcDbMText
 10
29.646538975517
 20
13.67582493839821
 30
0.0
 40
2.5
 41
0.0
 71
     2
 72
     1
  1
\A1;3
  7
SLDTEXTSTYLE0
 73
     1
 44
1.0
  0
POINT
  5
1C7
330
1BC
100
AcDbEntity
  8
Defpoints
 62
     0
100
AcDbPoint
 10
31.1465389755171
 20
-0.0991750616017839
 30
0.0
  0
POINT
  5
1C8
330
1BC
100
AcDbEntity
  8
Defpoints
 62
     0
100
AcDbPoint
 10
28.1465389755171
 20
-0.1077032716540671
 30
0.0
  0
POINT
  5
1C9
330
1BC
100
AcDbEntity
  8
Defpoints
 62
     0
100
AcDbPoint
 10
28.1465389755171
 20
10.30082493839821
 30
0.0
  0
ENDBLK
  5
1BE
330
1BC
100
AcDbEntity
  8
0
100
AcDbBlockEnd
  0
BLOCK
  5
1CB
330
1CA
100
AcDbEntity
  8
0
100
AcDbBlockBegin
  2
*D13
 70
     1
 10
0.0
 20
0.0
 30
0.0
  3
*D13
  1

  0
LINE
  5
1CD
330
1CA
100
AcDbEntity
  8
치수문자_일반주서
 62
     0
370
    -2
100
AcDbLine
 10
32.30362880287778
 20
-3.475076018573833
 30
0.0
 11
40.0197695449113
 21
-17.44477946911848
 31
0.0
  0
MTEXT
  5
1CE
330
1CA
100
AcDbEntity
  8
치수문자_일반주서
 62
     0
100
AcDbMText
 10
40.32362787250684
 20
-13.59982866588955
 30
0.0
 40
2.5
 41
0.0
 71
     5
 72
     1
  1
\A1;R0.1
  7
SLDTEXTSTYLE0
 11
0.4834960874464161
 21
-0.8753465219123269
 31
0.0
 73
     1
 44
1.0
  0
LINE
  5
1CF
330
1CA
100
AcDbEntity
  8
치수문자_일반주서
 62
     0
370
    -2
100
AcDbLine
 10
31.0465389755171
 20
-1.199175061601785
 30
0.0
 11
31.09488858426174
 21
-1.286709713793016
 31
0.0
  0
SOLID
  5
1D0
330
1CA
100
AcDbEntity
  8
치수문자_일반주서
 62
     0
100
AcDbTrace
 10
32.66835652034125
 20
-3.27361931547116
 30
0.0
 11
31.93890108541431
 21
-3.676532721676506
 31
0.0
 12
31.09488858426174
 22
-1.286709713793016
 32
0.0
 13
31.09488858426174
 23
-1.286709713793016
 33
0.0
  0
POINT
  5
1D1
330
1CA
100
AcDbEntity
  8
Defpoints
 62
     0
100
AcDbPoint
 10
31.09488858426174
 20
-1.286709713793016
 30
0.0
  0
POINT
  5
1D2
330
1CA
100
AcDbEntity
  8
Defpoints
 62
     0
100
AcDbPoint
 10
31.0465389755171
 20
-1.199175061601785
 30
0.0
  0
ENDBLK
  5
1CC
330
1CA
100
AcDbEntity
  8
0
100
AcDbBlockEnd
  0
BLOCK
  5
21B
330
21A
100
AcDbEntity
  8
0
100
AcDbBlockBegin
  2
*D15
 70
     1
 10
0.0
 20
0.0
 30
0.0
  3
*D15
  1

  0
LINE
  5
21C
330
21A
100
AcDbEntity
  8
치수문자_일반주서
 62
     0
370
    -2
100
AcDbLine
 10
9.157089827360679
 20
13.96970345054478
 30
0.0
 11
16.8732305693942
 21
0.0000000000001306
 31
0.0
  0
MTEXT
  5
21D
330
21A
100
AcDbEntity
  8
치수문자_일반주서
 62
     0
100
AcDbMText
 10
17.17708889698974
 20
3.844950803229067
 30
0.0
 40
2.5
 41
0.0
 71
     5
 72
     1
  1
\A1;R0.1
  7
SLDTEXTSTYLE0
 11
0.4834960874464161
 21
-0.8753465219123269
 31
0.0
 73
     1
 44
1.0
  0
LINE
  5
21E
330
21A
100
AcDbEntity
  8
치수문자_일반주서
 62
     0
370
    -2
100
AcDbLine
 10
7.899999999999999
 20
16.24560440751683
 30
0.0
 11
7.948349608744639
 21
16.1580697553256
 31
0.0
  0
SOLID
  5
21F
330
21A
100
AcDbEntity
  8
치수문자_일반주서
 62
     0
100
AcDbTrace
 10
9.521817544824149
 20
14.17116015364745
 30
0.0
 11
8.792362109897208
 21
13.76824674744211
 31
0.0
 12
7.948349608744639
 22
16.1580697553256
 32
0.0
 13
7.948349608744639
 23
16.1580697553256
 33
0.0
  0
POINT
  5
220
330
21A
100
AcDbEntity
  8
Defpoints
 62
     0
100
AcDbPoint
 10
7.948349608744639
 20
16.1580697553256
 30
0.0
  0
POINT
  5
221
330
21A
100
AcDbEntity
  8
Defpoints
 62
     0
100
AcDbPoint
 10
7.899999999999999
 20
16.24560440751683
 30
0.0
  0
ENDBLK
  5
222
330
21A
100
AcDbEntity
  8
0
100
AcDbBlockEnd
  0
BLOCK
  5
227
330
226
100
AcDbEntity
  8
0
100
AcDbBlockBegin
  2
*D16
 70
     1
 10
0.0
 20
0.0
 30
0.0
  3
*D16
  1

  0
LINE
  5
229
330
226
100
AcDbEntity
  8
치수문자_일반주서
 62
     0
370
    -2
100
AcDbLine
 10
8.0625
 20
17.34560440751683
 30
0.0
 11
16.0
 21
17.34560440751686
 31
0.0
  0
LINE
  5
22A
330
226
100
AcDbEntity
  8
치수문자_일반주서
 62
     0
370
    -2
100
AcDbLine
 10
8.0625
 20
16.14560440751683
 30
0.0
 11
16.00000000000001
 21
16.14560440751686
 31
0.0
  0
LINE
  5
22B
330
226
100
AcDbEntity
  8
치수문자_일반주서
 62
     0
370
    -2
100
AcDbLine
 10
16.0
 20
17.34560440751686
 30
0.0
 11
15.99999999999997
 21
29.09560440751687
 31
0.0
  0
LINE
  5
22C
330
226
100
AcDbEntity
  8
치수문자_일반주서
 62
     0
370
    -2
100
AcDbLine
 10
16.0
 20
17.34560440751686
 30
0.0
 11
16.00000000000001
 21
16.14560440751686
 31
0.0
  0
LINE
  5
22D
330
226
100
AcDbEntity
  8
치수문자_일반주서
 62
     0
370
    -2
100
AcDbLine
 10
16.0
 20
19.84560440751686
 30
0.0
 11
15.99999999999999
 21
22.34560440751686
 31
0.0
  0
LINE
  5
22E
330
226
100
AcDbEntity
  8
치수문자_일반주서
 62
     0
370
    -2
100
AcDbLine
 10
16.00000000000001
 20
13.64560440751686
 30
0.0
 11
16.00000000000002
 21
11.14560440751686
 31
0.0
  0
SOLID
  5
22F
330
226
100
AcDbEntity
  8
치수문자_일반주서
 62
     0
100
AcDbTrace
 10
15.58333333333333
 20
19.84560440751686
 30
0.0
 11
16.41666666666666
 21
19.84560440751686
 31
0.0
 12
16.0
 22
17.34560440751686
 32
0.0
 13
16.0
 23
17.34560440751686
 33
0.0
  0
SOLID
  5
230
330
226
100
AcDbEntity
  8
치수문자_일반주서
 62
     0
100
AcDbTrace
 10
16.41666666666668
 20
13.64560440751686
 30
0.0
 11
15.58333333333335
 21
13.64560440751686
 31
0.0
 12
16.00000000000001
 22
16.14560440751686
 32
0.0
 13
16.00000000000001
 23
16.14560440751686
 33
0.0
  0
MTEXT
  5
231
330
226
100
AcDbEntity
  8
치수문자_일반주서
 62
     0
100
AcDbMText
 10
12.62499999999998
 20
25.72060440751686
 30
0.0
 40
2.5
 41
0.0
 71
     2
 72
     1
  1
\A1;%%c1.2
  7
SLDTEXTSTYLE0
 11
-2.960594732333752E-15
 21
1.0
 31
0.0
 73
     1
 44
1.0
  0
POINT
  5
232
330
226
100
AcDbEntity
  8
Defpoints
 62
     0
100
AcDbPoint
 10
8.0
 20
17.34560440751683
 30
0.0
  0
POINT
  5
233
330
226
100
AcDbEntity
  8
Defpoints
 62
     0
100
AcDbPoint
 10
8.0
 20
16.14560440751683
 30
0.0
  0
POINT
  5
234
330
226
100
AcDbEntity
  8
Defpoints
 62
     0
100
AcDbPoint
 10
16.0
 20
16.14560440751686
 30
0.0
  0
ENDBLK
  5
228
330
226
100
AcDbEntity
  8
0
100
AcDbBlockEnd
  0
BLOCK
  5
236
330
235
100
AcDbEntity
  8
0
100
AcDbBlockBegin
  2
*D17
 70
     1
 10
0.0
 20
0.0
 30
0.0
  3
*D17
  1

  0
LINE
  5
238
330
235
100
AcDbEntity
  8
치수문자_일반주서
 62
     0
370
    -2
100
AcDbLine
 10
8.0
 20
17.40810440751683
 30
0.0
 11
8.0
 21
27.74560440751683
 31
0.0
  0
LINE
  5
239
330
235
100
AcDbEntity
  8
치수문자_일반주서
 62
     0
370
    -2
100
AcDbLine
 10
5.0
 20
17.39957619746455
 30
0.0
 11
5.0
 21
27.74560440751683
 31
0.0
  0
LINE
  5
23A
330
235
100
AcDbEntity
  8
치수문자_일반주서
 62
     0
370
    -2
100
AcDbLine
 10
8.0
 20
27.74560440751683
 30
0.0
 11
5.0
 21
27.74560440751683
 31
0.0
  0
LINE
  5
23B
330
235
100
AcDbEntity
  8
치수문자_일반주서
 62
     0
370
    -2
100
AcDbLine
 10
10.5
 20
27.74560440751683
 30
0.0
 11
13.0
 21
27.74560440751683
 31
0.0
  0
LINE
  5
23C
330
235
100
AcDbEntity
  8
치수문자_일반주서
 62
     0
370
    -2
100
AcDbLine
 10
2.5
 20
27.74560440751683
 30
0.0
 11
0.0
 21
27.74560440751683
 31
0.0
  0
SOLID
  5
23D
330
235
100
AcDbEntity
  8
치수문자_일반주서
 62
     0
100
AcDbTrace
 10
10.5
 20
28.1622710741835
 30
0.0
 11
10.5
 21
27.32893774085016
 31
0.0
 12
8.0
 22
27.74560440751683
 32
0.0
 13
8.0
 23
27.74560440751683
 33
0.0
  0
SOLID
  5
23E
330
235
100
AcDbEntity
  8
치수문자_일반주서
 62
     0
100
AcDbTrace
 10
2.5
 20
27.32893774085016
 30
0.0
 11
2.5
 21
28.1622710741835
 31
0.0
 12
5.0
 22
27.74560440751683
 32
0.0
 13
5.0
 23
27.74560440751683
 33
0.0
  0
MTEXT
  5
23F
330
235
100
AcDbEntity
  8
치수문자_일반주서
 62
     0
100
AcDbMText
 10
6.499999999999899
 20
31.12060440751683
 30
0.0
 40
2.5
 41
0.0
 71
     2
 72
     1
  1
\A1;3
  7
SLDTEXTSTYLE0
 73
     1
 44
1.0
  0
POINT
  5
240
330
235
100
AcDbEntity
  8
Defpoints
 62
     0
100
AcDbPoint
 10
8.0
 20
17.34560440751683
 30
0.0
  0
POINT
  5
241
330
235
100
AcDbEntity
  8
Defpoints
 62
     0
100
AcDbPoint
 10
5.0
 20
17.33707619746455
 30
0.0
  0
POINT
  5
242
330
235
100
AcDbEntity
  8
Defpoints
 62
     0
100
AcDbPoint
 10
5.0
 20
27.74560440751683
 30
0.0
  0
ENDBLK
  5
237
330
235
100
AcDbEntity
  8
0
100
AcDbBlockEnd
  0
BLOCK
  5
25E
330
25D
100
AcDbEntity
  8
0
100
AcDbBlockBegin
  2
*D18
 70
     1
 10
0.0
 20
0.0
 30
0.0
  3
*D18
  1

  0
LINE
  5
260
330
25D
100
AcDbEntity
  8
치수문자_일반주서
 62
     0
370
    -2
100
AcDbLine
 10
16.68737021141625
 20
-2.800399559083367
 30
0.0
 11
25.04541951122008
 21
-15.4277173487528
 31
0.0
  0
MTEXT
  5
261
330
25D
100
AcDbEntity
  8
치수문자_일반주서
 62
     0
100
AcDbMText
 10
24.86835179253077
 20
-11.31019399296013
 30
0.0
 40
2.5
 41
0.0
 71
     5
 72
     1
  1
\A1;R0.2
  7
SLDTEXTSTYLE0
 11
0.5519466275504745
 21
-0.8338794399286131
 31
0.0
 73
     1
 44
1.0
  0
LINE
  5
262
330
25D
100
AcDbEntity
  8
치수문자_일반주서
 62
     0
370
    -2
100
AcDbLine
 10
15.19711431702997
 20
-0.5489250712761107
 30
0.0
 11
15.30750364254007
 21
-0.7157009592618334
 31
0.0
  0
SOLID
  5
263
330
25D
100
AcDbEntity
  8
치수문자_일반주서
 62
     0
100
AcDbTrace
 10
17.03481997805318
 20
-2.570421797604002
 30
0.0
 11
16.33992044477933
 21
-3.030377320562731
 31
0.0
 12
15.30750364254007
 22
-0.7157009592618334
 32
0.0
 13
15.30750364254007
 23
-0.7157009592618334
 33
0.0
  0
POINT
  5
264
330
25D
100
AcDbEntity
  8
Defpoints
 62
     0
100
AcDbPoint
 10
15.30750364254007
 20
-0.7157009592618334
 30
0.0
  0
POINT
  5
265
330
25D
100
AcDbEntity
  8
Defpoints
 62
     0
100
AcDbPoint
 10
15.19711431702997
 20
-0.5489250712761107
 30
0.0
  0
ENDBLK
  5
25F
330
25D
100
AcDbEntity
  8
0
100
AcDbBlockEnd
  0
ENDSEC
  0
SECTION
  2
ENTITIES
  0
LINE
  5
96
330
1F
100
AcDbEntity
  8
0
  6
Continuous
 62
     1
370
    15
100
AcDbLine
 10
11.88480659219887
 20
0.7510749287238915
 30
0.0
 11
11.42656756190167
 21
0.7510749287238915
 31
0.0
1001
PE_URL
1000

  0
LINE
  5
97
330
1F
100
AcDbEntity
  8
0
  6
Continuous
 62
     1
370
    15
100
AcDbLine
 10
13.46916890854076
 20
-0.7489250712761052
 30
0.0
 11
13.92552317452435
 21
-0.7489250712761052
 31
0.0
1001
PE_URL
1000

  0
LINE
  5
98
330
1F
100
AcDbEntity
  8
0
  6
Continuous
 62
     1
370
    15
100
AcDbLine
 10
13.92552317452435
 20
0.7510749287238915
 30
0.0
 11
13.46916890854076
 21
0.7510749287238915
 31
0.0
1001
PE_URL
1000

  0
LINE
  5
99
330
1F
100
AcDbEntity
  8
0
  6
Continuous
 62
     1
370
    15
100
AcDbLine
 10
11.42656756190166
 20
-0.7489250712761052
 30
0.0
 11
11.88480659219885
 21
-0.7489250712761052
 31
0.0
1001
PE_URL
1000

  0
LINE
  5
9A
330
1F
100
AcDbEntity
  8
외형선
  6
Continuous
370
    15
100
AcDbLine
 10
-34.00288568297002
 20
-2.998925071276109
 30
0.0
 11
1.999999999999996
 21
-2.998925071276109
 31
0.0
  0
LINE
  5
9B
330
1F
100
AcDbEntity
  8
외형선
  6
Continuous
370
    15
100
AcDbLine
 10
1.999999999999996
 20
3.001074928723896
 30
0.0
 11
-34.00288568297002
 21
3.001074928723896
 31
0.0
  0
LINE
  5
9C
330
1F
100
AcDbEntity
  8
외형선
  6
Continuous
370
    15
100
AcDbLine
 10
1.999999999999996
 20
-2.998925071276112
 30
0.0
 11
10.39908507118125
 21
-0.7483970092927905
 31
0.0
  0
LINE
  5
9D
330
1F
100
AcDbEntity
  8
외형선
  6
Continuous
370
    15
100
AcDbLine
 10
10.39908507118125
 20
0.7505468667405769
 30
0.0
 11
1.999999999999996
 21
3.001074928723899
 31
0.0
  0
LINE
  5
9E
330
1F
100
AcDbEntity
  8
외형선
  6
Continuous
370
    15
100
AcDbLine
 10
-34.00288568297002
 20
3.001074928723893
 30
0.0
 11
-34.60288568297003
 21
2.401074928723895
 31
0.0
  0
LINE
  5
9F
330
1F
100
AcDbEntity
  8
외형선
  6
Continuous
370
    15
100
AcDbLine
 10
-34.60288568297003
 20
-2.398925071276109
 30
0.0
 11
-34.00288568297002
 21
-2.998925071276107
 31
0.0
  0
LINE
  5
A0
330
1F
100
AcDbEntity
  8
0
  6
Continuous
 62
     1
370
    15
100
AcDbLine
 10
15.39711431702997
 20
-0.5036120934469568
 30
0.0
 11
15.39711431702997
 21
0.0640952842280828
 31
0.0
1001
PE_URL
1000

  0
SPLINE
  5
A1
330
1F
100
AcDbEntity
  8
0
  6
Continuous
 62
     1
370
    15
100
AcDbSpline
210
0.0
220
0.0
230
1.0
 70
     8
 71
     3
 72
    10
 73
     6
 74
     0
 42
0.000000001
 43
0.00000001
 40
0.0
 40
0.0
 40
0.0
 40
0.0
 40
0.5
 40
0.5
 40
1.0
 40
1.0
 40
1.0
 40
1.0
 10
15.19711431702998
 20
-0.6211670882567539
 30
0.0
 10
15.24767688738287
 20
-0.6373675622136451
 30
0.0
 10
15.29422174077493
 20
-0.6393356415424932
 30
0.0
 10
15.36982748157408
 20
-0.6026809158153882
 30
0.0
 10
15.39711431702996
 20
-0.5596789986268952
 30
0.0
 10
15.39711431702996
 20
-0.5036120934469567
 30
0.0
1001
PE_URL
1000

  0
SPLINE
  5
A2
330
1F
100
AcDbEntity
  8
0
  6
Continuous
 62
     1
370
    15
100
AcDbSpline
210
0.0
220
0.0
230
1.0
 70
     8
 71
     3
 72
    15
 73
    11
 74
     0
 42
0.000000001
 43
0.00000001
 40
0.0
 40
0.0
 40
0.0
 40
0.0
 40
0.0134601891385735
 40
0.1742170640475063
 40
0.3348779044674612
 40
0.4954095820428179
 40
0.6212344933888254
 40
0.7470393009130135
 40
0.87375400239722
 40
1.0
 40
1.0
 40
1.0
 40
1.0
 10
11.88480659219887
 20
0.7462998490044006
 30
0.0
 10
11.8996744489651
 20
0.7478631313813942
 30
0.0
 10
12.09211114712917
 20
0.7680969084251759
 30
0.0
 10
12.46213697275724
 20
0.6892261404734957
 30
0.0
 10
12.99443628100048
 20
0.5102078578455242
 30
0.0
 10
13.48836136624051
 20
0.2540589990118
 30
0.0
 10
13.94288076410693
 20
-0.0092426019943504
 30
0.0
 10
14.35998981601762
 20
-0.2496831018444866
 30
0.0
 10
14.77867938943971
 20
-0.4673446498128951
 30
0.0
 10
15.05780840464335
 20
-0.5699563175489666
 30
0.0
 10
15.19711431702996
 20
-0.6211670882567543
 30
0.0
1001
PE_URL
1000

  0
SPLINE
  5
A3
330
1F
100
AcDbEntity
  8
0
  6
Continuous
 62
     1
370
    15
100
AcDbSpline
210
0.0
220
0.0
230
1.0
 70
     8
 71
     3
 72
    12
 73
     8
 74
     0
 42
0.000000001
 43
0.00000001
 40
0.0
 40
0.0
 40
0.0
 40
0.0
 40
0.2094143064704153
 40
0.4189388463925985
 40
0.628612310597637
 40
0.8384707625223004
 40
0.9999999999999999
 40
0.9999999999999999
 40
0.9999999999999999
 40
0.9999999999999999
 10
15.19711431702996
 20
0.1795554044191608
 30
0.0
 10
15.0200045258412
 20
0.2759638018940926
 30
0.0
 10
14.66569171476332
 20
0.4688313451935422
 30
0.0
 10
14.1339727332494
 20
0.6733886309309136
 30
0.0
 10
13.60185151679271
 20
0.7672483026063202
 30
0.0
 10
13.11008186285085
 20
0.7425346733994976
 30
0.0
 10
12.79604806393747
 20
0.6501621073891966
 30
0.0
 10
12.6594639995536
 20
0.6099861118533372
 30
0.0
1001
PE_URL
1000

  0
SPLINE
  5
A4
330
1F
100
AcDbEntity
  8
0
  6
Continuous
 62
     1
370
    15
100
AcDbSpline
210
0.0
220
0.0
230
1.0
 70
     8
 71
     3
 72
    10
 73
     6
 74
     0
 42
0.000000001
 43
0.00000001
 40
0.0
 40
0.0
 40
0.0
 40
0.0
 40
0.5
 40
0.5
 40
1.0
 40
1.0
 40
1.0
 40
1.0
 10
15.39711431702998
 20
0.064095284228083
 30
0.0
 10
15.39711431702998
 20
0.0767934281975398
 30
0.0
 10
15.37302818688898
 20
0.0888730953146835
 30
0.0
 10
15.29609874483769
 20
0.1265438745713972
 30
0.0
 10
15.24511311785319
 20
0.1527993846520774
 30
0.0
 10
15.19711431702995
 20
0.1795554044191714
 30
0.0
1001
PE_URL
1000

  0
SPLINE
  5
A5
330
1F
100
AcDbEntity
  8
0
  6
Continuous
 62
     1
370
    15
100
AcDbSpline
210
0.0
220
0.0
230
1.0
 70
     8
 71
     3
 72
    14
 73
    10
 74
     0
 42
0.000000001
 43
0.00000001
 40
0.0
 40
0.0
 40
0.0
 40
0.0
 40
0.1601947865747698
 40
0.3205144594563374
 40
0.4807383590288816
 40
0.640833447034229
 40
0.7663161589790312
 40
0.8917788217773205
 40
1.0
 40
1.0
 40
1.0
 40
1.0
 10
11.39711431703006
 20
0.2756146073758631
 30
0.0
 10
11.57453689898241
 20
0.1758699585595815
 30
0.0
 10
11.92952037981659
 20
-0.0236970990368349
 30
0.0
 10
12.46212976009782
 20
-0.3308912619197135
 30
0.0
 10
12.99443771011722
 20
-0.5799279758359848
 30
0.0
 10
13.4883628484319
 20
-0.7231917000470441
 30
0.0
 10
13.94287548812046
 20
-0.7608359709133472
 30
0.0
 10
14.33994585783416
 20
-0.7251488446960006
 30
0.0
 10
14.59886177104419
 20
-0.6459731147249136
 30
0.0
 10
14.71876815851954
 20
-0.609306091679264
 30
0.0
1001
PE_URL
1000

  0
SPLINE
  5
A6
330
1F
100
AcDbEntity
  8
외형선
  6
Continuous
370
    15
100
AcDbSpline
210
0.0
220
0.0
230
1.0
 70
    24
 71
     3
 72
    14
 73
    10
 74
     0
 42
0.000000001
 43
0.00000001
 40
0.0
 40
0.0
 40
0.0
 40
0.0
 40
0.1450018208252317
 40
0.2944257031113189
 40
0.4360059065890253
 40
0.5816919455589088
 40
0.7232721490366179
 40
0.8689581880065046
 40
1.0
 40
1.0
 40
1.0
 40
1.0
 10
11.39711431702999
 20
0.7508810511635736
 30
0.0
 10
11.39711431703
 20
0.7259955857184741
 30
0.0
 10
11.39711431702998
 20
0.6754657329260954
 30
0.0
 10
11.39711431702997
 20
0.5981553759729272
 30
0.0
 10
11.39711431703
 20
0.5218696400209069
 30
0.0
 10
11.39711431702998
 20
0.4497223848618901
 30
0.0
 10
11.39711431702995
 20
0.3821796524542883
 30
0.0
 10
11.39711431702999
 20
0.3227768085847501
 30
0.0
 10
11.39711431703
 20
0.2907707625915538
 30
0.0
 10
11.39711431703
 20
0.2756146073758989
 30
0.0
  0
SPLINE
  5
A7
330
1F
100
AcDbEntity
  8
0
  6
Continuous
 62
     1
370
    15
100
AcDbSpline
210
0.0
220
0.0
230
1.0
 70
     8
 71
     3
 72
    28
 73
    24
 74
     0
 42
0.000000001
 43
0.00000001
 40
0.0
 40
0.0
 40
0.0
 40
0.0
 40
0.0624999999999972
 40
0.0624999999999972
 40
0.1249999999999944
 40
0.1249999999999944
 40
0.2499999999999928
 40
0.2499999999999928
 40
0.3749999999999913
 40
0.3749999999999913
 40
0.4374999999999906
 40
0.4374999999999906
 40
0.4999999999999898
 40
0.4999999999999898
 40
0.6249999999999922
 40
0.6249999999999922
 40
0.6874999999999936
 40
0.6874999999999936
 40
0.7499999999999948
 40
0.7499999999999948
 40
0.8749999999999974
 40
0.8749999999999974
 40
1.0
 40
1.0
 40
1.0
 40
1.0
 10
15.19711431702997
 20
-0.7489250712761106
 30
0.0
 10
15.11728479349669
 20
-0.7498850492066429
 30
0.0
 10
15.03668781999178
 20
-0.7014269035234786
 30
0.0
 10
14.87798352064422
 20
-0.6638361053009115
 30
0.0
 10
14.80142744109431
 20
-0.6414923070661114
 30
0.0
 10
14.5652736319765
 20
-0.5636101599759666
 30
0.0
 10
14.40117566816011
 20
-0.4968737279660183
 30
0.0
 10
14.09141828251395
 20
-0.3470668134371206
 30
0.0
 10
13.92876896835863
 20
-0.261408374422107
 30
0.0
 10
13.69140744054993
 20
-0.1280905832894605
 30
0.0
 10
13.61499554499365
 20
-0.0832028323758336
 30
0.0
 10
13.45700769266477
 20
0.0079867682100452
 30
0.0
 10
13.37651044795551
 20
0.0540856432951151
 30
0.0
 10
13.13652115608281
 20
0.1904378859037365
 30
0.0
 10
12.98320278806121
 20
0.2778807159828539
 30
0.0
 10
12.74309219946361
 20
0.3988194503190879
 30
0.0
 10
12.66264410960314
 20
0.437177550752875
 30
0.0
 10
12.50492572447734
 20
0.5081394456558802
 30
0.0
 10
12.42846557328421
 20
0.5406753663190099
 30
0.0
 10
12.19074437324765
 20
0.6299241710015212
 30
0.0
 10
12.02894159110425
 20
0.67679772794121
 30
0.0
 10
11.71840327336555
 20
0.7378923121753467
 30
0.0
 10
11.55425137753012
 20
0.75295341051186
 30
0.0
 10
11.39711431703008
 20
0.7508810511635202
 30
0.0
1001
PE_URL
1000

  0
SPLINE
  5
A9
330
1F
100
AcDbEntity
  8
0
  6
Continuous
 62
     1
370
    15
100
AcDbSpline
210
0.0
220
0.0
230
1.0
 70
     8
 71
     3
 72
    10
 73
     6
 74
     0
 42
0.000000001
 43
0.00000001
 40
0.0
 40
0.0
 40
0.0
 40
0.0
 40
0.4217008371604801
 40
0.8437304282164639
 40
1.0
 40
1.0
 40
1.0
 40
1.0
 10
11.39711431703006
 20
-0.6968706027079439
 30
0.0
 10
11.57453675659275
 20
-0.7216831273685173
 30
0.0
 10
11.92951995253661
 20
-0.7713275202939932
 30
0.0
 10
12.35038774520231
 20
-0.7218294604421384
 30
0.0
 10
12.59371220310568
 20
-0.6320867685561579
 30
0.0
 10
12.65946399955359
 20
-0.6078362544055508
 30
0.0
1001
PE_URL
1000

  0
SPLINE
  5
AA
330
1F
100
AcDbEntity
  8
외형선
  6
Continuous
370
    15
100
AcDbSpline
210
0.0
220
0.0
230
1.0
 70
    24
 71
     3
 72
    19
 73
    15
 74
     0
 42
0.000000001
 43
0.00000001
 40
0.0
 40
0.0
 40
0.0
 40
0.0
 40
0.0651018506815517
 40
0.1491711922289449
 40
0.2356785503764741
 40
0.3197478919239375
 40
0.406255250071389
 40
0.4903245916187254
 40
0.5768319497661937
 40
0.6609012913136364
 40
0.7474086494612195
 40
0.831477991008413
 40
0.9179853491561374
 40
1.0
 40
1.0
 40
1.0
 40
1.0
 10
11.39711431702999
 20
0.0181271647077927
 30
0.0
 10
11.39711431703
 20
0.0127066846892568
 30
0.0
 10
11.39711431703
 20
0.000286462247757
 30
0.0
 10
11.39711431702994
 20
-0.0334794922722192
 30
0.0
 10
11.39711431703
 20
-0.0792287222635178
 30
0.0
 10
11.39711431702998
 20
-0.1353561026351373
 30
0.0
 10
11.39711431702994
 20
-0.1987460807443031
 30
0.0
 10
11.39711431703002
 20
-0.2688830997692727
 30
0.0
 10
11.39711431702997
 20
-0.3424861859084197
 30
0.0
 10
11.39711431702995
 20
-0.4187928684266385
 30
0.0
 10
11.39711431702997
 20
-0.4943187536100945
 30
0.0
 10
11.39711431702995
 20
-0.5680935066271697
 30
0.0
 10
11.39711431703
 20
-0.6368590994363921
 30
0.0
 10
11.39711431703
 20
-0.6772254837434493
 30
0.0
 10
11.39711431702997
 20
-0.6968706027079266
 30
0.0
  0
SPLINE
  5
AB
330
1F
100
AcDbEntity
  8
0
  6
Continuous
 62
     1
370
    15
100
AcDbSpline
210
0.0
220
0.0
230
1.0
 70
     8
 71
     3
 72
    12
 73
     8
 74
     0
 42
0.000000001
 43
0.00000001
 40
0.0
 40
0.0
 40
0.0
 40
0.0
 40
0.1928618427470989
 40
0.3949985718283269
 40
0.5959359092032761
 40
0.7973017130964696
 40
1.0
 40
1.0
 40
1.0
 40
1.0
 10
13.46916890854076
 20
-0.737225539235741
 30
0.0
 10
13.33586255409469
 20
-0.7352667465311913
 30
0.0
 10
13.0628390318063
 20
-0.731254961152683
 30
0.0
 10
12.65105300871935
 20
-0.6146381281312587
 30
0.0
 10
12.23417222530882
 20
-0.4431445547320636
 30
0.0
 10
11.81662856944952
 20
-0.2231290357094258
 30
0.0
 10
11.53725949316862
 20
-0.062468172654415
 30
0.0
 10
11.39711431703009
 20
0.0181271647077376
 30
0.0
1001
PE_URL
1000

  0
LINE
  5
AC
330
1F
100
AcDbEntity
  8
외형선
  6
Continuous
370
    15
100
AcDbLine
 10
11.39711431702997
 20
0.0181271647078021
 30
0.0
 11
11.39711431702997
 21
0.2756146073759078
 31
0.0
  0
SPLINE
  5
AD
330
1F
100
AcDbEntity
  8
0
  6
Continuous
 62
     1
370
    15
100
AcDbSpline
210
0.0
220
0.0
230
1.0
 70
     8
 71
     3
 72
    10
 73
     6
 74
     0
 42
0.000000001
 43
0.00000001
 40
0.0
 40
0.0
 40
0.0
 40
0.0
 40
0.5
 40
0.5
 40
1.0
 40
1.0
 40
1.0
 40
1.0
 10
15.19711431702998
 20
0.4197811172425759
 30
0.0
 10
15.24767688738286
 20
0.3957054864843061
 30
0.0
 10
15.29422174077496
 20
0.357070066244592
 30
0.0
 10
15.3698274815741
 20
0.27665501513359
 30
0.0
 10
15.39711431702997
 20
0.2365605173116092
 30
0.0
 10
15.39711431702996
 20
0.2196864784012103
 30
0.0
1001
PE_URL
1000

  0
LINE
  5
AE
330
1F
100
AcDbEntity
  8
0
  6
Continuous
 62
     1
370
    15
100
AcDbLine
 10
15.39711431702997
 20
0.0640952842280828
 30
0.0
 11
15.39711431702997
 21
0.2196864784012104
 31
0.0
1001
PE_URL
1000

  0
SPLINE
  5
AF
330
1F
100
AcDbEntity
  8
0
  6
Continuous
 62
     1
370
    15
100
AcDbSpline
210
0.0
220
0.0
230
1.0
 70
     8
 71
     3
 72
    11
 73
     7
 74
     0
 42
0.000000001
 43
0.00000001
 40
0.0
 40
0.0
 40
0.0
 40
0.0
 40
0.0136614891887618
 40
0.3412682124527244
 40
0.671244379179346
 40
0.9999999999999999
 40
0.9999999999999999
 40
0.9999999999999999
 40
0.9999999999999999
 10
13.92552317452435
 20
0.7495404761479376
 30
0.0
 10
13.93130994902824
 20
0.7500488455498433
 30
0.0
 10
14.07586536048601
 20
0.762748069965048
 30
0.0
 10
14.35996655766533
 20
0.7153703637759201
 30
0.0
 10
14.77868519632261
 20
0.6089998646744761
 30
0.0
 10
15.05781033787855
 20
0.4827760741967047
 30
0.0
 10
15.19711431702999
 20
0.4197811172425774
 30
0.0
1001
PE_URL
1000

  0
LINE
  5
B0
330
1F
100
AcDbEntity
  8
0
  6
Continuous
 62
     1
370
    15
100
AcDbLine
 10
15.39711431702997
 20
0.2196864784012106
 30
0.0
 11
15.39711431702997
 21
0.5474524857228299
 31
0.0
1001
PE_URL
1000

  0
LINE
  5
B1
330
1F
100
AcDbEntity
  8
0
  6
Continuous
 62
     1
370
    15
100
AcDbLine
 10
15.19711431702997
 20
0.7510749287238896
 30
0.0
 11
14.71876815851953
 21
0.6114559491270504
 31
0.0
1001
PE_URL
1000

  0
LINE
  5
B2
330
1F
100
AcDbEntity
  8
외형선
  6
Continuous
370
    15
100
AcDbLine
 10
11.42656756190167
 20
-0.746405192992547
 30
0.0
 11
11.39711431703008
 21
-0.7487311937157339
 31
0.0
  0
LINE
  5
B4
330
1F
100
AcDbEntity
  8
0
  6
Continuous
 62
     1
370
    15
100
AcDbLine
 10
15.39711431702997
 20
-0.5453026282750436
 30
0.0
 11
15.39711431702997
 21
-0.5036120934469568
 31
0.0
1001
PE_URL
1000

  0
LINE
  5
B5
330
1F
100
AcDbEntity
  8
외형선
  6
Continuous
370
    15
100
AcDbLine
 10
11.39711431702997
 20
-0.7487311937157344
 30
0.0
 11
11.39711431702997
 21
-0.6968706027079266
 31
0.0
  0
LINE
  5
B6
330
1F
100
AcDbEntity
  8
외형선
  6
Continuous
370
    15
100
AcDbLine
 10
1.999999999999996
 20
0.0010749287238931
 30
0.0
 11
1.999999999999996
 21
3.001074928723896
 31
0.0
  0
LINE
  5
B7
330
1F
100
AcDbEntity
  8
외형선
  6
Continuous
370
    15
100
AcDbLine
 10
1.999999999999996
 20
-2.998925071276109
 30
0.0
 11
1.999999999999996
 21
0.0010749287238931
 31
0.0
  0
LINE
  5
B8
330
1F
100
AcDbEntity
  8
외형선
  6
Continuous
370
    15
100
AcDbLine
 10
-34.00288568297002
 20
0.0010749287238931
 30
0.0
 11
-34.00288568297002
 21
3.001074928723896
 31
0.0
  0
LINE
  5
B9
330
1F
100
AcDbEntity
  8
외형선
  6
Continuous
370
    15
100
AcDbLine
 10
-34.00288568297002
 20
-2.998925071276109
 30
0.0
 11
-34.00288568297002
 21
0.0010749287238931
 31
0.0
  0
SPLINE
  5
BA
330
1F
100
AcDbEntity
  8
외형선
  6
Continuous
370
    15
100
AcDbSpline
210
0.0
220
0.0
230
1.0
 70
    24
 71
     3
 72
    10
 73
     6
 74
     0
 42
0.000000001
 43
0.00000001
 40
0.0
 40
0.0
 40
0.0
 40
0.0
 40
0.2316834732510514
 40
0.6158417366255258
 40
1.0
 40
1.0
 40
1.0
 40
1.0
 10
10.39704117137105
 20
-0.7406272011105218
 30
0.0
 10
10.39704117137105
 20
-0.7413585676119147
 30
0.0
 10
10.39704117137104
 20
-0.7433026252091498
 30
0.0
 10
10.39704117137108
 20
-0.6720825889919502
 30
0.0
 10
10.39704117137105
 20
-0.5741555798313008
 30
0.0
 10
10.39704117137105
 20
-0.5251920752509762
 30
0.0
  0
SPLINE
  5
BB
330
1F
100
AcDbEntity
  8
외형선
  6
Continuous
370
    15
100
AcDbSpline
210
0.0
220
0.0
230
1.0
 70
    24
 71
     3
 72
     9
 73
     5
 74
     0
 42
0.000000001
 43
0.00000001
 40
0.0
 40
0.0
 40
0.0
 40
0.0
 40
0.715839375539789
 40
1.0
 40
1.0
 40
1.0
 40
1.0
 10
10.39711431702997
 20
0.6840944252058103
 30
0.0
 10
10.39711431702997
 20
0.7127726921969275
 30
0.0
 10
10.39711431702997
 20
0.7528351251547288
 30
0.0
 10
10.39711431702998
 20
0.744988203446315
 30
0.0
 10
10.39711431702997
 20
0.7427584172735616
 30
0.0
  0
LINE
  5
BC
330
1F
100
AcDbEntity
  8
외형선
  6
Continuous
370
    15
100
AcDbLine
 10
10.39711431702997
 20
0.5354130934320289
 30
0.0
 11
10.39711431702997
 21
0.6840944252058103
 31
0.0
  0
SPLINE
  5
BD
330
1F
100
AcDbEntity
  8
외형선
  6
Continuous
370
    15
100
AcDbSpline
210
0.0
220
0.0
230
1.0
 70
    24
 71
     3
 72
    10
 73
     6
 74
     0
 42
0.000000001
 43
0.00000001
 40
0.0
 40
0.0
 40
0.0
 40
0.0
 40
0.5
 40
0.5
 40
1.0
 40
1.0
 40
1.0
 40
1.0
 10
10.39711431702997
 20
-0.3087385109871475
 30
0.0
 10
10.39711431702997
 20
-0.1699918352168027
 30
0.0
 10
10.39711431702998
 20
-0.0118102684684598
 30
0.0
 10
10.39711431702996
 20
0.2877757977633099
 30
0.0
 10
10.39711431702997
 20
0.4285037091240467
 30
0.0
 10
10.39711431702997
 20
0.5354130934320288
 30
0.0
  0
LINE
  5
BE
330
1F
100
AcDbEntity
  8
외형선
  6
Continuous
370
    15
100
AcDbLine
 10
10.39711431702997
 20
-0.5252158550790058
 30
0.0
 11
10.39711431702997
 21
-0.3087385109871476
 31
0.0
  0
LINE
  5
BF
330
1F
100
AcDbEntity
  8
외형선
  6
Continuous
370
    15
100
AcDbLine
 10
-34.60288568297003
 20
0.0010749287238931
 30
0.0
 11
-34.60288568297003
 21
2.401074928723895
 31
0.0
  0
LINE
  5
C0
330
1F
100
AcDbEntity
  8
외형선
  6
Continuous
370
    15
100
AcDbLine
 10
-34.60288568297003
 20
-2.398925071276111
 30
0.0
 11
-34.60288568297003
 21
0.0010749287238931
 31
0.0
  0
SPLINE
  5
C1
330
1F
100
AcDbEntity
  8
외형선
  6
Continuous
370
    15
100
AcDbSpline
210
0.0
220
0.0
230
1.0
 70
    24
 71
     3
 72
    14
 73
    10
 74
     0
 42
0.000000001
 43
0.00000001
 40
0.0
 40
0.0
 40
0.0
 40
0.0
 40
0.0877780069322778
 40
0.254483429341867
 40
0.4211888517550083
 40
0.5878942741669438
 40
0.7545996965784985
 40
0.9213051189900455
 40
0.9999999999999999
 40
0.9999999999999999
 40
0.9999999999999999
 40
0.9999999999999999
 10
11.39711431702998
 20
-0.6968706027079293
 30
0.0
 10
11.39711431702997
 20
-0.6753388235741985
 30
0.0
 10
11.39711431702995
 20
-0.6129145195226038
 30
0.0
 10
11.39711431703003
 20
-0.4891176488564465
 30
0.0
 10
11.39711431702993
 20
-0.3356744543128662
 30
0.0
 10
11.39711431702997
 20
-0.189865903182658
 30
0.0
 10
11.39711431702998
 20
-0.0721597697358362
 30
0.0
 10
11.39711431702997
 20
0.0013691491533818
 30
0.0
 10
11.39711431702999
 20
0.014058082217935
 30
0.0
 10
11.39711431702999
 20
0.018127164707793
 30
0.0
  0
SPLINE
  5
C2
330
1F
100
AcDbEntity
  8
외형선
  6
Continuous
370
    15
100
AcDbSpline
210
0.0
220
0.0
230
1.0
 70
     8
 71
     3
 72
    14
 73
    10
 74
     0
 42
0.000000001
 43
0.00000001
 40
0.0
 40
0.0
 40
0.0
 40
0.0
 40
0.25
 40
0.25
 40
0.5
 40
0.5
 40
0.75
 40
0.75
 40
1.0
 40
1.0
 40
1.0
 40
1.0
 10
11.39711431703006
 20
-0.6968706027079483
 30
0.0
 10
11.31429332295118
 20
-0.6792852669164605
 30
0.0
 10
11.23335950567182
 20
-0.6575783733383286
 30
0.0
 10
11.06559344745487
 20
-0.6057773693019689
 30
0.0
 10
10.98054489351618
 20
-0.5757946684436166
 30
0.0
 10
10.81283413309155
 20
-0.5093303167861906
 30
0.0
 10
10.73195412830082
 20
-0.4731532264099492
 30
0.0
 10
10.56622157333261
 20
-0.3948782614400854
 30
0.0
 10
10.48142744424391
 20
-0.3527355929564709
 30
0.0
 10
10.39704117137105
 20
-0.3087114686927708
 30
0.0
  0
SPLINE
  5
C3
330
1F
100
AcDbEntity
  8
외형선
  6
Continuous
370
    15
100
AcDbSpline
210
0.0
220
0.0
230
1.0
 70
     8
 71
     3
 72
    14
 73
    10
 74
     0
 42
0.000000001
 43
0.00000001
 40
0.0
 40
0.0
 40
0.0
 40
0.0
 40
0.25
 40
0.25
 40
0.5
 40
0.5
 40
0.75
 40
0.75
 40
1.0
 40
1.0
 40
1.0
 40
1.0
 10
11.39711431703009
 20
0.0181271647077345
 30
0.0
 10
11.3142933229512
 20
0.0661551674589499
 30
0.0
 10
11.23335950567185
 20
0.1137193240191191
 30
0.0
 10
11.06559344745489
 20
0.2079928323437621
 30
0.0
 10
10.98054489351617
 20
0.2543438348972996
 30
0.0
 10
10.81283413309154
 20
0.34290430746254
 30
0.0
 10
10.7319541283008
 20
0.3848313091164134
 30
0.0
 10
10.56622157333261
 20
0.4641504161562029
 30
0.0
 10
10.4814274442439
 20
0.5014841828869936
 30
0.0
 10
10.39704117137105
 20
0.5354062201533458
 30
0.0
  0
SPLINE
  5
C4
330
1F
100
AcDbEntity
  8
외형선
  6
Continuous
370
    15
100
AcDbSpline
210
0.0
220
0.0
230
1.0
 70
     8
 71
     3
 72
    14
 73
    10
 74
     0
 42
0.000000001
 43
0.00000001
 40
0.0
 40
0.0
 40
0.0
 40
0.0
 40
0.25
 40
0.25
 40
0.5
 40
0.5
 40
0.75
 40
0.75
 40
1.0
 40
1.0
 40
1.0
 40
1.0
 10
11.39711431703006
 20
0.2756146073758566
 30
0.0
 10
11.31429332295118
 20
0.3203207372681279
 30
0.0
 10
11.23335950567182
 20
0.363018763228818
 30
0.0
 10
11.06559344745487
 20
0.4444233244967058
 30
0.0
 10
10.98054489351618
 20
0.4827890232196851
 30
0.0
 10
10.81283413309155
 20
0.5527210891636237
 30
0.0
 10
10.73195412830082
 20
0.5840984072439787
 30
0.0
 10
10.56622157333261
 20
0.6398470248789121
 30
0.0
 10
10.48142744424391
 20
0.6641397205545135
 30
0.0
 10
10.39704117137105
 20
0.6841066907786336
 30
0.0
  0
SPLINE
  5
C5
330
1F
100
AcDbEntity
  8
외형선
  6
Continuous
370
    15
100
AcDbSpline
210
0.0
220
0.0
230
1.0
 70
     8
 71
     3
 72
    10
 73
     6
 74
     0
 42
0.000000001
 43
0.00000001
 40
0.0
 40
0.0
 40
0.0
 40
0.0
 40
0.3708110747661278
 40
0.7469519690634318
 40
1.0
 40
1.0
 40
1.0
 40
1.0
 10
11.39711431703009
 20
0.7508810511635218
 30
0.0
 10
11.30456591915667
 20
0.7458266246460917
 30
0.0
 10
11.11813888736205
 20
0.7356451222676583
 30
0.0
 10
10.86726921598368
 20
0.6907305968231655
 30
0.0
 10
10.70987803518168
 20
0.634017863870395
 30
0.0
 10
10.64657824271645
 20
0.6112090622097561
 30
0.0
  0
SPLINE
  5
C6
330
1F
100
AcDbEntity
  8
외형선
  6
Continuous
370
    15
100
AcDbSpline
210
0.0
220
0.0
230
1.0
 70
    24
 71
     3
 72
    18
 73
    14
 74
     0
 42
0.000000001
 43
0.00000001
 40
0.0
 40
0.0
 40
0.0
 40
0.0
 40
0.0698145747688612
 40
0.1430130513899712
 40
0.2136401099401493
 40
0.3572938196071267
 40
0.4304922962268413
 40
0.5011193547758876
 40
0.6447730644396815
 40
0.7179715410636162
 40
0.7873052033354825
 40
0.9282391065173423
 40
1.0
 40
1.0
 40
1.0
 40
1.0
 10
11.39711431702997
 20
0.2756146073759144
 30
0.0
 10
11.39711431702996
 20
0.2835389586064005
 30
0.0
 10
11.39711431702994
 20
0.2997717531698528
 30
0.0
 10
11.39711431703
 20
0.3270290572218939
 30
0.0
 10
11.39711431702996
 20
0.3662559477458045
 30
0.0
 10
11.39711431703
 20
0.4094560199671405
 30
0.0
 10
11.39711431702995
 20
0.4554798558886213
 30
0.0
 10
11.39711431703001
 20
0.5031122444791996
 30
0.0
 10
11.39711431702995
 20
0.5527458574018707
 30
0.0
 10
11.39711431703
 20
0.6029290533934616
 30
0.0
 10
11.39711431703001
 20
0.6528176605429353
 30
0.0
 10
11.39711431702995
 20
0.7024638281535192
 30
0.0
 10
11.39711431702995
 20
0.7386666244408792
 30
0.0
 10
11.39711431702995
 20
0.7508810511635475
 30
0.0
  0
SPLINE
  5
C7
330
1F
100
AcDbEntity
  8
외형선
  6
Continuous
370
    15
100
AcDbSpline
210
0.0
220
0.0
230
1.0
 70
     8
 71
     3
 72
    14
 73
    10
 74
     0
 42
0.000000001
 43
0.00000001
 40
0.0
 40
0.0
 40
0.0
 40
0.0
 40
0.25
 40
0.25
 40
0.5
 40
0.5
 40
0.75
 40
0.75
 40
1.0
 40
1.0
 40
1.0
 40
1.0
 10
11.39711431703009
 20
-0.7487311937157355
 30
0.0
 10
11.3142933229512
 20
-0.7476389315799163
 30
0.0
 10
11.23335950567185
 20
-0.7419854671135996
 30
0.0
 10
11.06559344745489
 20
-0.7214293915504963
 30
0.0
 10
10.98054489351617
 20
-0.7065138375364505
 30
0.0
 10
10.81283413309154
 20
-0.6682379105398252
 30
0.0
 10
10.7319541283008
 20
-0.6450982370260807
 30
0.0
 10
10.56622157333261
 20
-0.5908455157335021
 30
0.0
 10
10.4814274442439
 20
-0.5596633183799119
 30
0.0
 10
10.39704117137105
 20
-0.5252235331770848
 30
0.0
  0
LINE
  5
C8
330
1F
100
AcDbEntity
  8
외형선
  6
Continuous
370
    15
100
AcDbLine
 10
10.39704117137105
 20
-0.6819568333308473
 30
0.0
 11
10.64657824271645
 21
-0.6090592047619698
 31
0.0
  0
LINE
  5
C9
330
1F
100
AcDbEntity
  8
중심선
100
AcDbLine
 10
-36.10288568297003
 20
0.001074928723893
 30
0.0
 11
16.89711431702997
 21
0.0010749287238893
 31
0.0
  0
LINE
  5
CA
330
1F
100
AcDbEntity
  8
참조1
100
AcDbLine
 10
-9.603399050526257
 20
-2.498925071276081
 30
0.0
 11
-9.60339905052625
 21
-39.9989250712761
 31
0.0
  0
LINE
  5
CB
330
1F
100
AcDbEntity
  8
참조1
100
AcDbLine
 10
-9.60339905052625
 20
-39.9989250712761
 30
0.0
 11
-24.7617424972787
 21
-39.9989250712761
 31
0.0
  0
CIRCLE
  5
CC
330
1F
100
AcDbEntity
  8
해칭선
100
AcDbCircle
 10
0.0
 20
0.0
 30
0.0
 40
3.000000000000001
  0
INSERT
  5
CD
330
1F
100
AcDbEntity
  8
0
  6
Continuous
 62
     7
100
AcDbBlockReference
 66
     1
  2
블럭10
 10
-23.54367198265146
 20
-52.04609937292004
 30
0.0
  0
ATTRIB
  5
CE
330
CD
100
AcDbEntity
  8
FORMAT
 62
     2
100
AcDbText
 10
-39.66293302208702
 20
-49.97073246008785
 30
0.0
 40
4.233333333333333
  1
SEME0101502E [ 4 FLUTE ]
 41
0.75
  7
SLDTEXTSTYLE0
 11
-39.66293302208702
 21
-52.08739912675451
 31
0.0
100
AcDbAttribute
  2
AUTOATTR0
 70
     0
 74
     1
  0
SEQEND
  5
CF
330
CD
100
AcDbEntity
  8
0
  6
Continuous
 62
     7
  0
HATCH
  5
D0
330
1F
100
AcDbEntity
  8
중심선
100
AcDbHatch
 10
0.0
 20
0.0
 30
0.0
210
0.0
220
0.0
230
1.0
  2
SOLID
 70
     1
 71
     0
 91
        1
 92
        0
 93
        4
 72
     1
 10
-17.82876267827061
 20
-35.7989250712761
 11
-21.2750379221079
 21
-35.7989250712761
 72
     1
 10
-21.2750379221079
 20
-35.7989250712761
 11
-23.40326778131192
 21
-38.3352506518487
 72
     1
 10
-23.40326778131192
 20
-38.3352506518487
 11
-19.95695945236149
 21
-38.33521122254621
 72
     1
 10
-19.95695945236149
 20
-38.33521122254621
 11
-17.82876267827061
 21
-35.7989250712761
 97
        0
 75
     0
 76
     1
 98
        1
 10
6.172243186433549
 20
0.0010749287238931
  0
HATCH
  5
D1
330
1F
100
AcDbEntity
  8
중심선
100
AcDbHatch
 10
0.0
 20
0.0
 30
0.0
210
0.0
220
0.0
230
1.0
  2
SOLID
 70
     1
 71
     0
 91
        1
 92
        0
 93
        4
 72
     1
 10
-12.81599868723466
 20
-35.7989250712761
 11
-16.26227393107195
 21
-35.7989250712761
 72
     1
 10
-16.26227393107195
 20
-35.7989250712761
 11
-20.79341193942933
 21
-41.19892507127612
 72
     1
 10
-20.79341193942933
 20
-41.19892507127612
 11
-17.34713669559205
 21
-41.19892507127612
 72
     1
 10
-17.34713669559205
 20
-41.19892507127612
 11
-12.81599868723466
 21
-35.7989250712761
 97
        0
 75
     0
 76
     1
 98
        1
 10
6.172243186433549
 20
0.0010749287238931
  0
HATCH
  5
D2
330
1F
100
AcDbEntity
  8
중심선
100
AcDbHatch
 10
0.0
 20
0.0
 30
0.0
210
0.0
220
0.0
230
1.0
  2
SOLID
 70
     1
 71
     0
 91
        1
 92
        0
 93
        4
 72
     1
 10
-7.803234696198767
 20
-35.79892507127613
 11
-11.24950994003588
 21
-35.7989250712761
 72
     1
 10
-11.24950994003588
 20
-35.7989250712761
 11
-18.29794684192513
 21
-44.19892507127612
 72
     1
 10
-18.29794684192513
 20
-44.19892507127612
 11
-14.85167159808785
 21
-44.19892507127612
 72
     1
 10
-14.85167159808785
 20
-44.19892507127612
 11
-7.803234696198768
 21
-35.79892507127613
 97
        0
 75
     0
 76
     1
 98
        1
 10
6.172243186433549
 20
0.0010749287238931
  0
HATCH
  5
D3
330
1F
100
AcDbEntity
  8
중심선
100
AcDbHatch
 10
0.0
 20
0.0
 30
0.0
210
0.0
220
0.0
230
1.0
  2
SOLID
 70
     1
 71
     0
 91
        1
 92
        0
 93
        6
 72
     3
 10
-3.003344265186567
 20
-39.99892507132738
 11
3.960054785062283
 21
1.540882976769353E-10
 40
0.3939339440162628
 50
17.09539180608437
 51
320.0019657685081
 73
     0
 72
     1
 10
-1.320344609485971
 20
-38.58681907591441
 11
0.9849572642150664
 21
-36.65249236586649
 72
     3
 10
-3.003344265239414
 20
-39.99892507127625
 11
6.600054785286829
 21
-1.278976924368180E-13
 40
0.636358354079598
 50
39.9987384933741
 51
368.4976242363725
 73
     1
 72
     1
 10
3.421988226661196
 20
-39.03892507120612
 11
-4.323276958403491
 21
-39.03892507120609
 72
     1
 10
-4.323276958403491
 20
-39.03892507120609
 11
-4.323302002849425
 21
-40.95892507120602
 72
     1
 10
-4.323302002849425
 20
-40.95892507120602
 11
0.118077766622612
 21
-40.95892507120599
 97
        0
 75
     0
 76
     1
 98
        1
 10
6.172243186433549
 20
0.0010749287238931
  0
DIMENSION
  5
D4
330
1F
100
AcDbEntity
  8
치수문자_일반주서
100
AcDbDimension
  2
_D
 10
23.39711431702996
 20
-0.74892507127608
 30
0.0
 11
23.39711431702993
 21
9.126074928723925
 31
0.0
 70
   160
  1
%%c<>
 71
     2
 42
1.5
 52
-270.0
  3
SLDDIMSTYLE0
100
AcDbAlignedDimension
 13
15.39711431702997
 23
0.7510749287238895
 33
0.0
 14
15.39711431702997
 24
-0.7489250712761105
 34
0.0
 50
90.0000000000002
100
AcDbRotatedDimension
1001
PE_URL
1000

1001
ACAD
1000
DSTYLE
1002
{
1070
    41
1040
2.5
1070
   271
1070
     1
1070
   140
1040
2.5
1002
}
  0
DIMENSION
  5
E2
330
1F
100
AcDbEntity
  8
치수문자_일반주서
100
AcDbDimension
  2
_D_1
 10
-42.60288568297
 20
-2.99892507127614
 30
0.0
 11
-42.60288568297005
 21
10.43857492872387
 31
0.0
 70
   160
  1
%%c<>
 71
     2
 42
6.000000000000005
 52
-270.0
  3
SLDDIMSTYLE0
100
AcDbAlignedDimension
 13
-34.00288568297003
 23
3.001074928723896
 33
0.0
 14
-34.00288568297003
 24
-2.998925071276109
 34
0.0
 50
90.0000000000002
100
AcDbRotatedDimension
1001
PE_URL
1000

1001
ACAD
1000
DSTYLE
1002
{
1070
    41
1040
2.5
1070
   271
1070
     0
1070
   140
1040
2.5
1002
}
  0
DIMENSION
  5
F0
330
1F
100
AcDbEntity
  8
치수문자_일반주서
100
AcDbDimension
  2
_D_2
 10
11.39711431702999
 20
11.0010749287239
 30
0.0
 11
13.39711431703006
 21
11.0010749287239
 31
0.0
 70
   160
  1
<>
 71
     2
 42
3.999999999999979
  3
SLDDIMSTYLE0
100
AcDbAlignedDimension
 13
15.39711431702997
 23
0.7510749287238895
 33
0.0
 14
11.39711431702999
 24
0.7508810511635736
 34
0.0
 50
-0.0000000000003053
100
AcDbRotatedDimension
1001
PE_URL
1000

1001
ACAD
1000
DSTYLE
1002
{
1070
    41
1040
2.5
1070
   271
1070
     0
1070
   140
1040
2.5
1002
}
1001
ACAD_DSTYLE_DIMFLIPARROW_SYMBOL
1070
   385
1070
     0
1001
ACAD_DSTYLE_DIMFLIPARROW_WHICH_SYMBOL
1070
   386
1070
     3
  0
DIMENSION
  5
FC
330
1F
100
AcDbEntity
  8
치수문자_일반주서
100
AcDbDimension
  2
_D_3
 10
-34.60288568297003
 20
19.0010749287239
 30
0.0
 11
-9.602885682970026
 21
19.0010749287239
 31
0.0
 70
   160
  1
<>
 71
     2
 42
50.0
  3
SLDDIMSTYLE0
100
AcDbAlignedDimension
 13
15.39711431702997
 23
0.7510749287238895
 33
0.0
 14
-34.60288568297003
 24
2.401074928723895
 34
0.0
100
AcDbRotatedDimension
1001
PE_URL
1000

1001
ACAD
1000
DSTYLE
1002
{
1070
    41
1040
2.5
1070
   271
1070
     0
1070
   140
1040
2.5
1002
}
  0
LINE
  5
107
330
1F
100
AcDbEntity
  8
참조1
100
AcDbLine
 10
73.21059813237557
 20
7.441074928723896
 30
0.0
 11
73.21059813237557
 21
-7.438925071276109
 31
0.0
  0
LINE
  5
108
330
1F
100
AcDbEntity
  8
참조1
100
AcDbLine
 10
85.91059813237557
 20
5.441074928723896
 30
0.0
 11
73.21059813237557
 21
5.441074928723896
 31
0.0
  0
SOLID
  5
109
330
1F
100
AcDbEntity
  8
참조1
100
AcDbTrace
 10
73.21059813237557
 20
5.441074928723896
 30
0.0
 11
79.56059813237556
 21
4.425074928723896
 31
0.0
 12
79.56059813237556
 22
6.457074928723896
 32
0.0
 13
79.56059813237556
 23
6.457074928723896
 33
0.0
  0
LINE
  5
10A
330
1F
100
AcDbEntity
  8
참조1
100
AcDbLine
 10
85.91059813237557
 20
-5.438925071276109
 30
0.0
 11
73.21059813237557
 21
-5.438925071276109
 31
0.0
  0
SOLID
  5
10B
330
1F
100
AcDbEntity
  8
참조1
100
AcDbTrace
 10
73.21059813237557
 20
-5.438925071276109
 30
0.0
 11
79.56059813237556
 21
-6.454925071276109
 31
0.0
 12
79.56059813237556
 22
-4.422925071276109
 32
0.0
 13
79.56059813237556
 23
-4.422925071276109
 33
0.0
  0
MTEXT
  5
10C
330
1F
100
AcDbEntity
  8
참조1
100
AcDbMText
 10
82.60808822484584
 20
10.98929157337383
 30
0.0
 40
3.5
 41
0.0
 71
     1
 72
     1
  1
A
  7
SLDTEXTSTYLE0
 73
     1
 44
1.0
  0
MTEXT
  5
10D
330
1F
100
AcDbEntity
  8
참조1
100
AcDbMText
 10
82.60808822484584
 20
0.1092915733738259
 30
0.0
 40
3.5
 41
0.0
 71
     1
 72
     1
  1
A
  7
SLDTEXTSTYLE0
 73
     1
 44
1.0
  0
INSERT
  5
114
330
1F
100
AcDbEntity
  8
해칭선
100
AcDbBlockReference
  2
SW_DOWELSYMBOL_0
 10
0.0
 20
0.0
 30
0.0
  0
ARC
  5
258
330
1F
100
AcDbEntity
  8
0
  6
Continuous
 62
     1
370
    15
100
AcDbCircle
 10
15.19711431702997
 20
0.5510749287238896
 30
0.0
 40
0.2
100
AcDbArc
 50
0.0000000000001908
 51
90.0
1001
PE_URL
1000

  0
ARC
  5
259
102
{ACAD_REACTORS
102
}
330
1F
100
AcDbEntity
  8
0
  6
Continuous
 62
     1
370
    15
100
AcDbCircle
 10
15.19711431702997
 20
-0.5489250712761107
 30
0.0
 40
0.2
100
AcDbArc
 50
270.0
 51
359.9999999999998
1001
PE_URL
1000

  0
DIMENSION
  5
25A
102
{ACAD_REACTORS
102
}
102
{ACAD_XDICTIONARY
360
25B
102
}
330
1F
100
AcDbEntity
  8
치수문자_일반주서
100
AcDbDimension
  2
*D18
 10
15.19711431702997
 20
-0.5489250712761107
 30
0.0
 11
23.09635798268247
 21
-12.48308057650489
 31
0.0
 70
   164
 71
     5
 42
0.2000000000000001
  3
SLDDIMSTYLE0
100
AcDbRadialDimension
 15
15.30750364254007
 25
-0.7157009592618334
 35
0.0
 40
0.0
1001
ACAD
1000
DSTYLE
1002
{
1070
    41
1040
2.5
1070
   271
1070
     1
1070
   140
1040
2.5
1070
    78
1070
     0
1002
}
1001
ACAD_DSTYLE_DIMRADIAL_EXTENSION
1070
   387
1070
     1
1070
   388
1040
4.71238898038469
1070
   390
1040
6.283185307179583
1001
PE_URL
1000

  0
ENDSEC
  0
SECTION
  2
OBJECTS
  0
DICTIONARY
  5
C
330
0
100
AcDbDictionary
281
     1
  3
ACAD_GROUP
350
D
  3
ACAD_LAYOUT
350
1A
  3
ACAD_MLINESTYLE
350
17
  3
ACAD_PLOTSETTINGS
350
19
  3
ACAD_PLOTSTYLENAME
350
E
  3
ACAD_SCALELIST
350
47
  3
APPDATA
350
136
  3
DWGPROPS
350
267
  0
DICTIONARY
  5
25B
330
25A
100
AcDbDictionary
280
     1
281
     1
  0
DICTIONARY
  5
D
102
{ACAD_REACTORS
330
C
102
}
330
C
100
AcDbDictionary
281
     1
  0
DICTIONARY
  5
1A
102
{ACAD_REACTORS
330
C
102
}
330
C
100
AcDbDictionary
281
     1
  3
Layout1
350
1E
  3
Layout2
350
26
  3
Model
350
22
  0
DICTIONARY
  5
17
102
{ACAD_REACTORS
330
C
102
}
330
C
100
AcDbDictionary
281
     1
  3
Standard
350
18
  0
DICTIONARY
  5
19
102
{ACAD_REACTORS
330
C
102
}
330
C
100
AcDbDictionary
281
     1
  0
ACDBDICTIONARYWDFLT
  5
E
102
{ACAD_REACTORS
330
C
102
}
330
C
100
AcDbDictionary
281
     1
  3
Normal
350
F
100
AcDbDictionaryWithDefault
340
F
  0
DICTIONARY
  5
47
102
{ACAD_REACTORS
330
C
102
}
330
C
100
AcDbDictionary
281
     1
  3
A0
350
48
  3
A1
350
49
  3
A2
350
4A
  3
A3
350
4B
  3
A4
350
4C
  3
A5
350
4D
  3
A6
350
4E
  3
A7
350
4F
  3
A8
350
50
  3
A9
350
51
  3
B0
350
52
  3
B1
350
53
  3
B2
350
54
  3
B3
350
55
  3
B4
350
56
  3
B5
350
57
  3
B6
350
58
  3
B7
350
59
  3
B8
350
5A
  3
B9
350
5B
  3
C0
350
5C
  3
C1
350
5D
  3
C2
350
5E
  3
C3
350
5F
  3
C4
350
60
  3
C5
350
61
  3
C6
350
62
  3
C7
350
63
  3
C8
350
64
  3
C9
350
65
  3
D0
350
66
  3
D1
350
67
  3
D2
350
68
  0
DICTIONARY
  5
136
102
{ACAD_REACTORS
330
C
102
}
330
C
100
AcDbDictionary
281
     1
  0
XRECORD
  5
267
102
{ACAD_REACTORS
330
C
102
}
330
C
100
AcDbXrecord
280
     1
  1
DWGPROPS COOKIE
  2

  3

  4

  6

  7

  8
12017044
  9

300
=
301
=
302
=
303
=
304
=
305
=
306
=
307
=
308
=
309
=
 40
0.0
 41
2458269.423300822
 42
2458270.327136632
  1

 90
        0
  0
LAYOUT
  5
1E
102
{ACAD_REACTORS
330
1A
102
}
330
1A
100
AcDbPlotSettings
  1

  2
none_device
  4

  6

 40
0.0
 41
0.0
 42
0.0
 43
0.0
 44
0.0
 45
0.0
 46
0.0
 47
0.0
 48
0.0
 49
0.0
140
0.0
141
0.0
142
1.0
143
1.0
 70
   688
 72
     1
 73
     0
 74
     5
  7

 75
    16
147
1.0
148
0.0
149
0.0
100
AcDbLayout
  1
Layout1
 70
     1
 71
     1
 10
0.0
 20
0.0
 11
420.0
 21
297.0
 12
0.0
 22
0.0
 32
0.0
 14
1.000000000000000E+20
 24
1.000000000000000E+20
 34
1.000000000000000E+20
 15
-1.000000000000000E+20
 25
-1.000000000000000E+20
 35
-1.000000000000000E+20
146
0.0
 13
0.0
 23
0.0
 33
0.0
 16
1.0
 26
0.0
 36
0.0
 17
0.0
 27
1.0
 37
0.0
 76
     0
330
1B
  0
LAYOUT
  5
26
102
{ACAD_REACTORS
330
1A
102
}
330
1A
100
AcDbPlotSettings
  1

  2
none_device
  4

  6

 40
0.0
 41
0.0
 42
0.0
 43
0.0
 44
0.0
 45
0.0
 46
0.0
 47
0.0
 48
0.0
 49
0.0
140
0.0
141
0.0
142
1.0
143
1.0
 70
   688
 72
     1
 73
     0
 74
     5
  7

 75
    16
147
1.0
148
0.0
149
0.0
100
AcDbLayout
  1
Layout2
 70
     1
 71
     2
 10
0.0
 20
0.0
 11
0.0
 21
0.0
 12
0.0
 22
0.0
 32
0.0
 14
0.0
 24
0.0
 34
0.0
 15
0.0
 25
0.0
 35
0.0
146
0.0
 13
0.0
 23
0.0
 33
0.0
 16
1.0
 26
0.0
 36
0.0
 17
0.0
 27
1.0
 37
0.0
 76
     0
330
23
  0
LAYOUT
  5
22
102
{ACAD_REACTORS
330
1A
102
}
330
1A
100
AcDbPlotSettings
  1

  2
none_device
  4
ANSI_A_(11.00_x_8.50_Inches)
  6

 40
6.35
 41
19.05
 42
6.35000508
 43
19.05000254
 44
279.4
 45
215.9
 46
111.6855150645388
 47
109.7520974715009
 48
0.0
 49
0.0
140
0.0
141
0.0
142
0.0789824718862547
143
1.0
 70
  1696
 72
     0
 73
     0
 74
     0
  7

 75
     0
147
0.0235690232323232
148
0.0
149
0.0
100
AcDbLayout
  1
Model
 70
     1
 71
     0
 10
0.0
 20
0.0
 11
420.0
 21
297.0
 12
0.0
 22
0.0
 32
0.0
 14
-45.97788568297006
 24
-49.97073246008785
 34
0.0
 15
85.91059813237558
 25
22.3760749287239
 35
0.0
146
0.0
 13
0.0
 23
0.0
 33
0.0
 16
1.0
 26
0.0
 36
0.0
 17
0.0
 27
1.0
 37
0.0
 76
     0
330
1F
331
29
  0
MLINESTYLE
  5
18
102
{ACAD_REACTORS
330
17
102
}
330
17
100
AcDbMlineStyle
  2
Standard
 70
     0
  3

 62
   256
 51
90.0
 52
90.0
 71
     2
 49
0.5
 62
   256
  6
BYLAYER
 49
-0.5
 62
   256
  6
BYLAYER
  0
ACDBPLACEHOLDER
  5
F
102
{ACAD_REACTORS
330
E
102
}
330
E
  0
SCALE
  5
48
102
{ACAD_REACTORS
330
47
102
}
330
47
100
AcDbScale
 70
     0
300
1:1
140
1.0
141
1.0
290
     1
  0
SCALE
  5
49
102
{ACAD_REACTORS
330
47
102
}
330
47
100
AcDbScale
 70
     0
300
1:2
140
1.0
141
2.0
290
     0
  0
SCALE
  5
4A
102
{ACAD_REACTORS
330
47
102
}
330
47
100
AcDbScale
 70
     0
300
1:4
140
1.0
141
4.0
290
     0
  0
SCALE
  5
4B
102
{ACAD_REACTORS
330
47
102
}
330
47
100
AcDbScale
 70
     0
300
1:5
140
1.0
141
5.0
290
     0
  0
SCALE
  5
4C
102
{ACAD_REACTORS
330
47
102
}
330
47
100
AcDbScale
 70
     0
300
1:8
140
1.0
141
8.0
290
     0
  0
SCALE
  5
4D
102
{ACAD_REACTORS
330
47
102
}
330
47
100
AcDbScale
 70
     0
300
1:10
140
1.0
141
10.0
290
     0
  0
SCALE
  5
4E
102
{ACAD_REACTORS
330
47
102
}
330
47
100
AcDbScale
 70
     0
300
1:16
140
1.0
141
16.0
290
     0
  0
SCALE
  5
4F
102
{ACAD_REACTORS
330
47
102
}
330
47
100
AcDbScale
 70
     0
300
1:20
140
1.0
141
20.0
290
     0
  0
SCALE
  5
50
102
{ACAD_REACTORS
330
47
102
}
330
47
100
AcDbScale
 70
     0
300
1:30
140
1.0
141
30.0
290
     0
  0
SCALE
  5
51
102
{ACAD_REACTORS
330
47
102
}
330
47
100
AcDbScale
 70
     0
300
1:40
140
1.0
141
40.0
290
     0
  0
SCALE
  5
52
102
{ACAD_REACTORS
330
47
102
}
330
47
100
AcDbScale
 70
     0
300
1:50
140
1.0
141
50.0
290
     0
  0
SCALE
  5
53
102
{ACAD_REACTORS
330
47
102
}
330
47
100
AcDbScale
 70
     0
300
1:100
140
1.0
141
100.0
290
     0
  0
SCALE
  5
54
102
{ACAD_REACTORS
330
47
102
}
330
47
100
AcDbScale
 70
     0
300
2:1
140
2.0
141
1.0
290
     0
  0
SCALE
  5
55
102
{ACAD_REACTORS
330
47
102
}
330
47
100
AcDbScale
 70
     0
300
4:1
140
4.0
141
1.0
290
     0
  0
SCALE
  5
56
102
{ACAD_REACTORS
330
47
102
}
330
47
100
AcDbScale
 70
     0
300
8:1
140
8.0
141
1.0
290
     0
  0
SCALE
  5
57
102
{ACAD_REACTORS
330
47
102
}
330
47
100
AcDbScale
 70
     0
300
10:1
140
10.0
141
1.0
290
     0
  0
SCALE
  5
58
102
{ACAD_REACTORS
330
47
102
}
330
47
100
AcDbScale
 70
     0
300
100:1
140
100.0
141
1.0
290
     0
  0
SCALE
  5
59
102
{ACAD_REACTORS
330
47
102
}
330
47
100
AcDbScale
 70
     0
300
1/128" = 1'-0"
140
0.0078125
141
12.0
290
     0
  0
SCALE
  5
5A
102
{ACAD_REACTORS
330
47
102
}
330
47
100
AcDbScale
 70
     0
300
1/64" = 1'-0"
140
0.015625
141
12.0
290
     0
  0
SCALE
  5
5B
102
{ACAD_REACTORS
330
47
102
}
330
47
100
AcDbScale
 70
     0
300
1/32" = 1'-0"
140
0.03125
141
12.0
290
     0
  0
SCALE
  5
5C
102
{ACAD_REACTORS
330
47
102
}
330
47
100
AcDbScale
 70
     0
300
1/16" = 1'-0"
140
0.0625
141
12.0
290
     0
  0
SCALE
  5
5D
102
{ACAD_REACTORS
330
47
102
}
330
47
100
AcDbScale
 70
     0
300
3/32" = 1'-0"
140
0.09375
141
12.0
290
     0
  0
SCALE
  5
5E
102
{ACAD_REACTORS
330
47
102
}
330
47
100
AcDbScale
 70
     0
300
1/8" = 1'-0"
140
0.125
141
12.0
290
     0
  0
SCALE
  5
5F
102
{ACAD_REACTORS
330
47
102
}
330
47
100
AcDbScale
 70
     0
300
3/16" = 1'-0"
140
0.1875
141
12.0
290
     0
  0
SCALE
  5
60
102
{ACAD_REACTORS
330
47
102
}
330
47
100
AcDbScale
 70
     0
300
1/4" = 1'-0"
140
0.25
141
12.0
290
     0
  0
SCALE
  5
61
102
{ACAD_REACTORS
330
47
102
}
330
47
100
AcDbScale
 70
     0
300
3/8" = 1'-0"
140
0.375
141
12.0
290
     0
  0
SCALE
  5
62
102
{ACAD_REACTORS
330
47
102
}
330
47
100
AcDbScale
 70
     0
300
1/2" = 1'-0"
140
0.5
141
12.0
290
     0
  0
SCALE
  5
63
102
{ACAD_REACTORS
330
47
102
}
330
47
100
AcDbScale
 70
     0
300
3/4" = 1'-0"
140
0.75
141
12.0
290
     0
  0
SCALE
  5
64
102
{ACAD_REACTORS
330
47
102
}
330
47
100
AcDbScale
 70
     0
300
1" = 1'-0"
140
1.0
141
12.0
290
     0
  0
SCALE
  5
65
102
{ACAD_REACTORS
330
47
102
}
330
47
100
AcDbScale
 70
     0
300
1-1/2" = 1'-0"
140
1.5
141
12.0
290
     0
  0
SCALE
  5
66
102
{ACAD_REACTORS
330
47
102
}
330
47
100
AcDbScale
 70
     0
300
3" = 1'-0"
140
3.0
141
12.0
290
     0
  0
SCALE
  5
67
102
{ACAD_REACTORS
330
47
102
}
330
47
100
AcDbScale
 70
     0
300
6" = 1'-0"
140
6.0
141
12.0
290
     0
  0
SCALE
  5
68
102
{ACAD_REACTORS
330
47
102
}
330
47
100
AcDbScale
 70
     0
300
1'-0" = 1'-0"
140
12.0
141
12.0
290
     0
  0
ENDSEC
  0
EOF
