  0
SECTION
  2
HEADER
  9
$ACADVER
  1
AC1015
  9
$ACADMAINTVER
 70
     6
  9
$DWGCODEPAGE
  3
ANSI_949
  9
$INSBASE
 10
0.0
 20
0.0
 30
0.0
  9
$EXTMIN
 10
-57.77692378864673
 20
-49.97073246008785
 30
0.0
  9
$EXTMAX
 10
77.11156002669892
 20
27.3760749287239
 30
0.0
  9
$LIMMIN
 10
0.0
 20
0.0
  9
$LIMMAX
 10
420.0
 20
297.0
  9
$ORTHOMODE
 70
     1
  9
$REGENMODE
 70
     1
  9
$FILLMODE
 70
     1
  9
$QTEXTMODE
 70
     0
  9
$MIRRTEXT
 70
     1
  9
$LTSCALE
 40
1.0
  9
$ATTMODE
 70
     1
  9
$TEXTSIZE
 40
3.5
  9
$TRACEWID
 40
1.0
  9
$TEXTSTYLE
  7
Standard
  9
$CLAYER
  8
0
  9
$CELTYPE
  6
ByLayer
  9
$CECOLOR
 62
   256
  9
$CELTSCALE
 40
1.0
  9
$DISPSILH
 70
     0
  9
$DIMSCALE
 40
1.0
  9
$DIMASZ
 40
3.302
  9
$DIMEXO
 40
1.0
  9
$DIMDLI
 40
3.75
  9
$DIMRND
 40
0.0
  9
$DIMDLE
 40
0.0
  9
$DIMEXE
 40
1.0
  9
$DIMTP
 40
0.0
  9
$DIMTM
 40
0.0
  9
$DIMTXT
 40
3.5
  9
$DIMCEN
 40
2.5
  9
$DIMTSZ
 40
0.0
  9
$DIMTOL
 70
     0
  9
$DIMLIM
 70
     0
  9
$DIMTIH
 70
     1
  9
$DIMTOH
 70
     1
  9
$DIMSE1
 70
     0
  9
$DIMSE2
 70
     0
  9
$DIMTAD
 70
     1
  9
$DIMZIN
 70
     0
  9
$DIMBLK
  1

  9
$DIMASO
 70
     1
  9
$DIMSHO
 70
     1
  9
$DIMPOST
  1

  9
$DIMAPOST
  1

  9
$DIMALT
 70
     0
  9
$DIMALTD
 70
     3
  9
$DIMALTF
 40
0.0393700787401575
  9
$DIMLFAC
 40
1.0
  9
$DIMTOFL
 70
     1
  9
$DIMTVP
 40
0.0
  9
$DIMTIX
 70
     0
  9
$DIMSOXD
 70
     0
  9
$DIMSAH
 70
     0
  9
$DIMBLK1
  1

  9
$DIMBLK2
  1

  9
$DIMSTYLE
  2
ISO-25
  9
$DIMCLRD
 70
     0
  9
$DIMCLRE
 70
     0
  9
$DIMCLRT
 70
     0
  9
$DIMTFAC
 40
1.0
  9
$DIMGAP
 40
1.524
  9
$DIMJUST
 70
     0
  9
$DIMSD1
 70
     0
  9
$DIMSD2
 70
     0
  9
$DIMTOLJ
 70
     0
  9
$DIMTZIN
 70
     0
  9
$DIMALTZ
 70
     0
  9
$DIMALTTZ
 70
     0
  9
$DIMUPT
 70
     0
  9
$DIMDEC
 70
     2
  9
$DIMTDEC
 70
     2
  9
$DIMALTU
 70
     2
  9
$DIMALTTD
 70
     3
  9
$DIMTXSTY
  7
Standard
  9
$DIMAUNIT
 70
     0
  9
$DIMADEC
 70
     2
  9
$DIMALTRND
 40
0.0
  9
$DIMAZIN
 70
     0
  9
$DIMDSEP
 70
    44
  9
$DIMATFIT
 70
     3
  9
$DIMFRAC
 70
     0
  9
$DIMLDRBLK
  1

  9
$DIMLUNIT
 70
     2
  9
$DIMLWD
 70
    -2
  9
$DIMLWE
 70
    -2
  9
$DIMTMOVE
 70
     0
  9
$LUNITS
 70
     2
  9
$LUPREC
 70
     2
  9
$SKETCHINC
 40
1.0
  9
$FILLETRAD
 40
10.0
  9
$AUNITS
 70
     0
  9
$AUPREC
 70
     2
  9
$MENU
  1
.
  9
$ELEVATION
 40
0.0
  9
$PELEVATION
 40
0.0
  9
$THICKNESS
 40
0.0
  9
$LIMCHECK
 70
     0
  9
$CHAMFERA
 40
0.0
  9
$CHAMFERB
 40
0.0
  9
$CHAMFERC
 40
0.0
  9
$CHAMFERD
 40
0.0
  9
$SKPOLY
 70
     0
  9
$TDCREATE
 40
2458269.802271065
  9
$TDUCREATE
 40
2458269.427271065
  9
$TDUPDATE
 40
2458270.727303206
  9
$TDUUPDATE
 40
2458270.352303206
  9
$TDINDWG
 40
0.0019394444
  9
$TDUSRTIMER
 40
0.0019394329
  9
$USRTIMER
 70
     1
  9
$ANGBASE
 50
0.0
  9
$ANGDIR
 70
     0
  9
$PDMODE
 70
     0
  9
$PDSIZE
 40
-1.0
  9
$PLINEWID
 40
0.0
  9
$SPLFRAME
 70
     0
  9
$SPLINETYPE
 70
     6
  9
$SPLINESEGS
 70
     8
  9
$HANDSEED
  5
1D1
  9
$SURFTAB1
 70
     6
  9
$SURFTAB2
 70
     6
  9
$SURFTYPE
 70
     6
  9
$SURFU
 70
     6
  9
$SURFV
 70
     6
  9
$UCSBASE
  2

  9
$UCSNAME
  2

  9
$UCSORG
 10
0.0
 20
0.0
 30
0.0
  9
$UCSXDIR
 10
1.0
 20
0.0
 30
0.0
  9
$UCSYDIR
 10
0.0
 20
1.0
 30
0.0
  9
$UCSORTHOREF
  2

  9
$UCSORTHOVIEW
 70
     0
  9
$UCSORGTOP
 10
0.0
 20
0.0
 30
0.0
  9
$UCSORGBOTTOM
 10
0.0
 20
0.0
 30
0.0
  9
$UCSORGLEFT
 10
0.0
 20
0.0
 30
0.0
  9
$UCSORGRIGHT
 10
0.0
 20
0.0
 30
0.0
  9
$UCSORGFRONT
 10
0.0
 20
0.0
 30
0.0
  9
$UCSORGBACK
 10
0.0
 20
0.0
 30
0.0
  9
$PUCSBASE
  2

  9
$PUCSNAME
  2

  9
$PUCSORG
 10
0.0
 20
0.0
 30
0.0
  9
$PUCSXDIR
 10
1.0
 20
0.0
 30
0.0
  9
$PUCSYDIR
 10
0.0
 20
1.0
 30
0.0
  9
$PUCSORTHOREF
  2

  9
$PUCSORTHOVIEW
 70
     0
  9
$PUCSORGTOP
 10
0.0
 20
0.0
 30
0.0
  9
$PUCSORGBOTTOM
 10
0.0
 20
0.0
 30
0.0
  9
$PUCSORGLEFT
 10
0.0
 20
0.0
 30
0.0
  9
$PUCSORGRIGHT
 10
0.0
 20
0.0
 30
0.0
  9
$PUCSORGFRONT
 10
0.0
 20
0.0
 30
0.0
  9
$PUCSORGBACK
 10
0.0
 20
0.0
 30
0.0
  9
$USERI1
 70
     0
  9
$USERI2
 70
     0
  9
$USERI3
 70
     0
  9
$USERI4
 70
     0
  9
$USERI5
 70
     0
  9
$USERR1
 40
0.0
  9
$USERR2
 40
0.0
  9
$USERR3
 40
0.0
  9
$USERR4
 40
0.0
  9
$USERR5
 40
0.0
  9
$WORLDVIEW
 70
     1
  9
$SHADEDGE
 70
     3
  9
$SHADEDIF
 70
    70
  9
$TILEMODE
 70
     1
  9
$MAXACTVP
 70
    64
  9
$PINSBASE
 10
0.0
 20
0.0
 30
0.0
  9
$PLIMCHECK
 70
     0
  9
$PEXTMIN
 10
1.000000000000000E+20
 20
1.000000000000000E+20
 30
1.000000000000000E+20
  9
$PEXTMAX
 10
-1.000000000000000E+20
 20
-1.000000000000000E+20
 30
-1.000000000000000E+20
  9
$PLIMMIN
 10
0.0
 20
0.0
  9
$PLIMMAX
 10
0.0
 20
0.0
  9
$UNITMODE
 70
     0
  9
$VISRETAIN
 70
     1
  9
$PLINEGEN
 70
     0
  9
$PSLTSCALE
 70
     1
  9
$TREEDEPTH
 70
  3020
  9
$CMLSTYLE
  2
Standard
  9
$CMLJUST
 70
     0
  9
$CMLSCALE
 40
20.0
  9
$PROXYGRAPHICS
 70
     1
  9
$MEASUREMENT
 70
     1
  9
$CELWEIGHT
370
    -1
  9
$ENDCAPS
280
     0
  9
$JOINSTYLE
280
     0
  9
$LWDISPLAY
290
     1
  9
$INSUNITS
 70
     4
  9
$HYPERLINKBASE
  1

  9
$STYLESHEET
  1

  9
$XEDIT
290
     1
  9
$CEPSNTYPE
380
     0
  9
$PSTYLEMODE
290
     1
  9
$FINGERPRINTGUID
  2
{F5870C58-F787-4735-AF0D-709B3820E779}
  9
$VERSIONGUID
  2
{FAEB1C32-E019-11D5-929B-00C0DF256EC4}
  9
$EXTNAMES
290
     1
  9
$PSVPSCALE
 40
0.0
  9
$OLESTARTUP
290
     0
  0
ENDSEC
  0
SECTION
  2
CLASSES
  0
CLASS
  1
ACDBDICTIONARYWDFLT
  2
AcDbDictionaryWithDefault
  3
ObjectDBX Classes
 90
        0
280
     0
281
     0
  0
CLASS
  1
VISUALSTYLE
  2
AcDbVisualStyle
  3
ObjectDBX Classes
 90
     4095
280
     0
281
     0
  0
CLASS
  1
MATERIAL
  2
AcDbMaterial
  3
ObjectDBX Classes
 90
     1153
280
     0
281
     0
  0
CLASS
  1
SCALE
  2
AcDbScale
  3
ObjectDBX Classes
 90
     1153
280
     0
281
     0
  0
CLASS
  1
SUN
  2
AcDbSun
  3
SCENEOE
 90
     1153
280
     0
281
     0
  0
CLASS
  1
ACDBPLACEHOLDER
  2
AcDbPlaceHolder
  3
ObjectDBX Classes
 90
        0
280
     0
281
     0
  0
CLASS
  1
LAYOUT
  2
AcDbLayout
  3
ObjectDBX Classes
 90
        0
280
     0
281
     0
  0
CLASS
  1
TABLESTYLE
  2
AcDbTableStyle
  3
ObjectDBX Classes
 90
     4095
280
     0
281
     0
  0
CLASS
  1
MLEADERSTYLE
  2
AcDbMLeaderStyle
  3
ACDB_MLEADERSTYLE_CLASS
 90
     4095
280
     0
281
     0
  0
CLASS
  1
DIMASSOC
  2
AcDbDimAssoc
  3
"AcDbDimAssoc|Product Desc:     AcDim ARX App For Dimension|Company:          Autodesk, Inc.|WEB Address:      www.autodesk.com"
 90
        0
280
     0
281
     0
  0
ENDSEC
  0
SECTION
  2
TABLES
  0
TABLE
  2
VPORT
  5
8
330
0
100
AcDbSymbolTable
 70
     1
  0
VPORT
  5
29
330
8
100
AcDbSymbolTableRecord
100
AcDbViewportTableRecord
  2
*Active
 70
     0
 10
0.0
 20
0.0
 11
1.0
 21
1.0
 12
9.667318119026092
 22
-11.29732876568197
 13
0.0
 23
0.0
 14
10.0
 24
10.0
 15
10.0
 25
10.0
 16
0.0
 26
0.0
 36
1.0
 17
0.0
 27
0.0
 37
0.0
 40
78.89374353658798
 41
2.003901170351105
 42
50.0
 43
0.0
 44
0.0
 50
0.0
 51
0.0
 71
    16
 72
  2000
 73
     1
 74
     3
 75
     0
 76
     0
 77
     0
 78
     0
281
     0
 65
     1
110
0.0
120
0.0
130
0.0
111
1.0
121
0.0
131
0.0
112
0.0
122
1.0
132
0.0
 79
     0
146
0.0
  0
ENDTAB
  0
TABLE
  2
LTYPE
  5
5
330
0
100
AcDbSymbolTable
 70
     6
  0
LTYPE
  5
14
330
5
100
AcDbSymbolTableRecord
100
AcDbLinetypeTableRecord
  2
ByBlock
 70
     0
  3

 72
    65
 73
     0
 40
0.0
  0
LTYPE
  5
15
330
5
100
AcDbSymbolTableRecord
100
AcDbLinetypeTableRecord
  2
ByLayer
 70
     0
  3

 72
    65
 73
     0
 40
0.0
  0
LTYPE
  5
16
330
5
100
AcDbSymbolTableRecord
100
AcDbLinetypeTableRecord
  2
Continuous
 70
     0
  3
Solid line
 72
    65
 73
     0
 40
0.0
  0
LTYPE
  5
6A
330
5
100
AcDbSymbolTableRecord
100
AcDbLinetypeTableRecord
  2
HIDDEN
 70
     0
  3
Hidden __ __ __ __ __ __ __ __ __ __ __ __ __ __
 72
    65
 73
     2
 40
1.905
 49
1.27
 74
     0
 49
-0.635
 74
     0
  0
LTYPE
  5
6B
330
5
100
AcDbSymbolTableRecord
100
AcDbLinetypeTableRecord
  2
PHANTOM
 70
     0
  3
Phantom ______  __  __  ______  __  __  ______
 72
    65
 73
     6
 40
12.7
 49
6.35
 74
     0
 49
-1.27
 74
     0
 49
1.27
 74
     0
 49
-1.27
 74
     0
 49
1.27
 74
     0
 49
-1.27
 74
     0
  0
LTYPE
  5
6C
330
5
100
AcDbSymbolTableRecord
100
AcDbLinetypeTableRecord
  2
CENTER
 70
     0
  3
Center ____ _ ____ _ ____ _ ____ _ ____ _ ____
 72
    65
 73
     4
 40
10.16
 49
6.35
 74
     0
 49
-1.27
 74
     0
 49
1.27
 74
     0
 49
-1.27
 74
     0
  0
LTYPE
  5
6D
330
5
100
AcDbSymbolTableRecord
100
AcDbLinetypeTableRecord
  2
CENTERX2
 70
     0
  3
Center (2x) ________  __  ________  __  _____
 72
    65
 73
     4
 40
20.32
 49
12.7
 74
     0
 49
-2.54
 74
     0
 49
2.54
 74
     0
 49
-2.54
 74
     0
  0
LTYPE
  5
6E
330
5
100
AcDbSymbolTableRecord
100
AcDbLinetypeTableRecord
  2
DOT2
 70
     0
  3
Dot (.5x) ........................................
 72
    65
 73
     2
 40
0.635
 49
0.0
 74
     0
 49
-0.635
 74
     0
  0
ENDTAB
  0
TABLE
  2
LAYER
  5
2
102
{ACAD_XDICTIONARY
360
17C
102
}
330
0
100
AcDbSymbolTable
 70
    18
  0
LAYER
  5
10
330
2
100
AcDbSymbolTableRecord
100
AcDbLayerTableRecord
  2
0
 70
     0
 62
     7
  6
Continuous
370
    -3
390
F
  0
LAYER
  5
6F
330
2
100
AcDbSymbolTableRecord
100
AcDbLayerTableRecord
  2
FORMAT
 70
     0
 62
     2
  6
Continuous
370
    -3
390
F
  0
LAYER
  5
70
330
2
100
AcDbSymbolTableRecord
100
AcDbLayerTableRecord
  2
외형선
 70
     0
 62
     4
  6
Continuous
370
    30
390
F
  0
LAYER
  5
71
330
2
100
AcDbSymbolTableRecord
100
AcDbLayerTableRecord
  2
숨은선
 70
     0
 62
     2
  6
HIDDEN
370
    15
390
F
  0
LAYER
  5
72
330
2
100
AcDbSymbolTableRecord
100
AcDbLayerTableRecord
  2
중심선
 70
     0
 62
     1
  6
CENTERX2
370
    -3
390
F
  0
LAYER
  5
73
330
2
100
AcDbSymbolTableRecord
100
AcDbLayerTableRecord
  2
파단선
 70
     0
 62
     4
  6
Continuous
370
    -3
390
F
  0
LAYER
  5
74
330
2
100
AcDbSymbolTableRecord
100
AcDbLayerTableRecord
  2
해칭선
 70
     0
 62
   100
  6
Continuous
370
    -3
390
F
  0
LAYER
  5
75
330
2
100
AcDbSymbolTableRecord
100
AcDbLayerTableRecord
  2
가는실선
 70
     0
 62
     4
  6
Continuous
370
    -3
390
F
  0
LAYER
  5
76
330
2
100
AcDbSymbolTableRecord
100
AcDbLayerTableRecord
  2
치수_보조선
 70
     0
 62
     4
  6
Continuous
370
    -3
390
F
  0
LAYER
  5
77
330
2
100
AcDbSymbolTableRecord
100
AcDbLayerTableRecord
  2
치수문자_일반주서
 70
     0
 62
     7
  6
Continuous
370
    15
390
F
  0
LAYER
  5
78
330
2
100
AcDbSymbolTableRecord
100
AcDbLayerTableRecord
  2
개별주서
 70
     0
 62
   100
  6
Continuous
370
    30
390
F
  0
LAYER
  5
79
330
2
100
AcDbSymbolTableRecord
100
AcDbLayerTableRecord
  2
중간선
 70
     0
 62
     2
  6
Continuous
370
    15
390
F
  0
LAYER
  5
7A
330
2
100
AcDbSymbolTableRecord
100
AcDbLayerTableRecord
  2
윤곽선
 70
     0
 62
     3
  6
Continuous
370
    40
390
F
  0
LAYER
  5
7B
330
2
100
AcDbSymbolTableRecord
100
AcDbLayerTableRecord
  2
중심마크
 70
     0
 62
   100
  6
Continuous
370
    30
390
F
  0
LAYER
  5
7C
330
2
100
AcDbSymbolTableRecord
100
AcDbLayerTableRecord
  2
가상선
 70
     0
 62
     4
  6
PHANTOM
370
    -3
390
F
  0
LAYER
  5
7D
330
2
100
AcDbSymbolTableRecord
100
AcDbLayerTableRecord
  2
특수지정선
 70
     0
 62
     5
  6
CENTERX2
370
    60
390
F
  0
LAYER
  5
7E
330
2
100
AcDbSymbolTableRecord
100
AcDbLayerTableRecord
  2
참조1
 70
     0
 62
    -4
  6
Continuous
370
    -3
390
F
  0
LAYER
  5
137
330
2
100
AcDbSymbolTableRecord
100
AcDbLayerTableRecord
  2
Defpoints
 70
     0
 62
     7
  6
Continuous
290
     0
370
    -3
390
F
  0
ENDTAB
  0
TABLE
  2
STYLE
  5
3
330
0
100
AcDbSymbolTable
 70
     2
  0
STYLE
  5
11
330
3
100
AcDbSymbolTableRecord
100
AcDbTextStyleTableRecord
  2
Standard
 70
     0
 40
0.0
 41
1.0
 50
0.0
 71
     0
 42
3.5
  3
txt
  4

  0
STYLE
  5
94
330
3
100
AcDbSymbolTableRecord
100
AcDbTextStyleTableRecord
  2
SLDTEXTSTYLE0
 70
     0
 40
0.0
 41
0.75
 50
0.0
 71
     0
 42
3.5
  3
TXT
  4

  0
ENDTAB
  0
TABLE
  2
VIEW
  5
6
330
0
100
AcDbSymbolTable
 70
     0
  0
ENDTAB
  0
TABLE
  2
UCS
  5
7
330
0
100
AcDbSymbolTable
 70
     0
  0
ENDTAB
  0
TABLE
  2
APPID
  5
9
330
0
100
AcDbSymbolTable
 70
     3
  0
APPID
  5
12
330
9
100
AcDbSymbolTableRecord
100
AcDbRegAppTableRecord
  2
ACAD
 70
     0
  0
APPID
  5
140
330
9
100
AcDbSymbolTableRecord
100
AcDbRegAppTableRecord
  2
PE_URL
 70
     0
  0
APPID
  5
141
330
9
100
AcDbSymbolTableRecord
100
AcDbRegAppTableRecord
  2
ACAD_DSTYLE_DIMRADIAL_EXTENSION
 70
     0
  0
ENDTAB
  0
TABLE
  2
DIMSTYLE
  5
A
330
0
100
AcDbSymbolTable
 70
     3
100
AcDbDimStyleTable
  0
DIMSTYLE
105
27
330
A
100
AcDbSymbolTableRecord
100
AcDbDimStyleTableRecord
  2
ISO-25
 70
     0
 41
2.5
 42
0.625
 43
3.75
 44
1.25
 73
     0
 74
     0
 77
     1
 78
     8
140
2.5
141
2.5
143
0.03937007874016
147
0.625
171
     3
172
     1
178
     0
271
     2
272
     2
274
     3
278
    44
283
     0
284
     8
340
11
  0
DIMSTYLE
105
D6
102
{ACAD_REACTORS
330
D5
330
E3
330
F0
330
160
330
FC
102
}
330
A
100
AcDbSymbolTableRecord
100
AcDbDimStyleTableRecord
  2
SLDDIMSTYLE0
 70
     0
 41
3.302
 44
0.0
 45
0.000000001
 73
     0
 74
     0
 77
     1
 78
    12
 79
     3
140
3.5
147
0.875
172
     1
173
     1
178
     0
271
     2
272
     2
276
     2
284
    12
289
     0
340
94
  0
DIMSTYLE
105
FD
102
{ACAD_REACTORS
330
170
330
1C3
102
}
330
A
100
AcDbSymbolTableRecord
100
AcDbDimStyleTableRecord
  2
SLDDIMSTYLE1
 70
     0
 41
3.302
 44
0.0
 45
0.000000001
 73
     0
 74
     0
 77
     1
 78
    12
 79
     3
140
3.5
147
0.875
173
     1
178
     0
271
     2
272
     2
276
     2
284
    12
340
94
  0
ENDTAB
  0
TABLE
  2
BLOCK_RECORD
  5
1
330
0
100
AcDbSymbolTable
 70
    13
  0
BLOCK_RECORD
  5
1F
330
1
100
AcDbSymbolTableRecord
100
AcDbBlockTableRecord
  2
*Model_Space
340
22
  0
BLOCK_RECORD
  5
1B
330
1
100
AcDbSymbolTableRecord
100
AcDbBlockTableRecord
  2
*Paper_Space
340
1E
  0
BLOCK_RECORD
  5
23
330
1
100
AcDbSymbolTableRecord
100
AcDbBlockTableRecord
  2
*Paper_Space0
340
26
  0
BLOCK_RECORD
  5
7F
330
1
100
AcDbSymbolTableRecord
100
AcDbBlockTableRecord
  2
블럭10
340
0
102
{BLKREFS
331
CE
102
}
  0
BLOCK_RECORD
  5
D7
330
1
100
AcDbSymbolTableRecord
100
AcDbBlockTableRecord
  2
_D
340
0
  0
BLOCK_RECORD
  5
E4
330
1
100
AcDbSymbolTableRecord
100
AcDbBlockTableRecord
  2
_D_1
340
0
  0
BLOCK_RECORD
  5
F1
330
1
100
AcDbSymbolTableRecord
100
AcDbBlockTableRecord
  2
_D_2
340
0
  0
BLOCK_RECORD
  5
FE
330
1
100
AcDbSymbolTableRecord
100
AcDbBlockTableRecord
  2
_D_3
340
0
  0
BLOCK_RECORD
  5
10E
330
1
100
AcDbSymbolTableRecord
100
AcDbBlockTableRecord
  2
SW_DOWELSYMBOL_0
340
0
102
{BLKREFS
331
114
102
}
  0
BLOCK_RECORD
  5
171
330
1
100
AcDbSymbolTableRecord
100
AcDbBlockTableRecord
  2
*D8
340
0
  0
BLOCK_RECORD
  5
180
330
1
100
AcDbSymbolTableRecord
100
AcDbBlockTableRecord
  2
*D9
340
0
  0
BLOCK_RECORD
  5
193
330
1
100
AcDbSymbolTableRecord
100
AcDbBlockTableRecord
  2
*D10
340
0
  0
BLOCK_RECORD
  5
1A2
330
1
100
AcDbSymbolTableRecord
100
AcDbBlockTableRecord
  2
*D11
340
0
  0
BLOCK_RECORD
  5
1C6
330
1
100
AcDbSymbolTableRecord
100
AcDbBlockTableRecord
  2
*D12
340
0
  0
ENDTAB
  0
ENDSEC
  0
SECTION
  2
BLOCKS
  0
BLOCK
  5
20
330
1F
100
AcDbEntity
  8
0
100
AcDbBlockBegin
  2
*Model_Space
 70
     0
 10
0.0
 20
0.0
 30
0.0
  3
*Model_Space
  1

  0
ENDBLK
  5
21
330
1F
100
AcDbEntity
  8
0
100
AcDbBlockEnd
  0
BLOCK
  5
1C
330
1B
100
AcDbEntity
 67
     1
  8
0
100
AcDbBlockBegin
  2
*Paper_Space
 70
     0
 10
0.0
 20
0.0
 30
0.0
  3
*Paper_Space
  1

  0
ENDBLK
  5
1D
330
1B
100
AcDbEntity
 67
     1
  8
0
100
AcDbBlockEnd
  0
BLOCK
  5
24
330
23
100
AcDbEntity
  8
0
100
AcDbBlockBegin
  2
*Paper_Space0
 70
     0
 10
0.0
 20
0.0
 30
0.0
  3
*Paper_Space0
  1

  0
ENDBLK
  5
25
330
23
100
AcDbEntity
  8
0
100
AcDbBlockEnd
  0
BLOCK
  5
80
330
7F
100
AcDbEntity
  8
0
100
AcDbBlockBegin
  2
블럭10
 70
     2
 10
0.0
 20
0.0
 30
0.0
  3
블럭10
  1

  0
ELLIPSE
  5
82
330
7F
100
AcDbEntity
  8
중심선
100
AcDbEllipse
 10
20.54032771741204
 20
12.0471743016438
 30
0.0
 11
6.600054785286829
 21
-1.261213355974178E-13
 31
0.0
210
0.0
220
0.0
230
1.0
 40
0.636358354079598
 41
0.9219305317359503
 42
6.513795318482858
  0
ELLIPSE
  5
83
330
7F
100
AcDbEntity
  8
중심선
100
AcDbEllipse
 10
20.54032771746488
 20
12.04717430159265
 30
0.0
 11
3.960054785062283
 21
1.540847449632565E-10
 31
0.0
210
0.0
220
0.0
230
1.0
 40
0.3939339440162632
 41
1.131841032648279
 42
5.62031148352944
  0
LINE
  5
84
330
7F
100
AcDbEntity
  8
중심선
100
AcDbLine
 10
2.268634060543552
 20
16.24717430164393
 30
0.0
 11
5.714909304380834
 21
16.24717430164393
 31
0.0
  0
LINE
  5
85
330
7F
100
AcDbEntity
  8
중심선
100
AcDbLine
 10
5.245725140726316
 20
7.84717430164391
 30
0.0
 11
8.692000384563599
 21
7.84717430164391
 31
0.0
  0
LINE
  5
86
330
7F
100
AcDbEntity
  8
중심선
100
AcDbLine
 10
15.74043728645272
 20
16.24717430164393
 30
0.0
 11
8.692000384563599
 21
7.84717430164391
 31
0.0
  0
LINE
  5
87
330
7F
100
AcDbEntity
  8
중심선
100
AcDbLine
 10
0.1404042013395286
 20
13.71084872107135
 30
0.0
 11
3.58671253028996
 21
13.71088815037384
 31
0.0
  0
LINE
  5
88
330
7F
100
AcDbEntity
  8
중심선
100
AcDbLine
 10
2.750260043222114
 20
10.84717430164391
 30
0.0
 11
6.196535287059397
 21
10.84717430164391
 31
0.0
  0
LINE
  5
89
330
7F
100
AcDbEntity
  8
중심선
100
AcDbLine
 10
12.29416204261559
 20
16.24717430164393
 30
0.0
 11
5.245725140726316
 21
7.84717430164391
 31
0.0
  0
LINE
  5
8A
330
7F
100
AcDbEntity
  8
중심선
100
AcDbLine
 10
10.72767329541681
 20
16.24717430164393
 30
0.0
 11
6.196535287059397
 21
10.84717430164391
 31
0.0
  0
LINE
  5
8B
330
7F
100
AcDbEntity
  8
중심선
100
AcDbLine
 10
7.28139805157953
 20
16.24717430164393
 30
0.0
 11
2.750260043222114
 21
10.84717430164391
 31
0.0
  0
LINE
  5
8C
330
7F
100
AcDbEntity
  8
중심선
100
AcDbLine
 10
5.714909304380834
 20
16.24717430164393
 30
0.0
 11
3.58671253028996
 21
13.71088815037384
 31
0.0
  0
LINE
  5
8D
330
7F
100
AcDbEntity
  8
중심선
100
AcDbLine
 10
2.268634060543552
 20
16.24717430164393
 30
0.0
 11
0.1404042013395286
 21
13.71084872107135
 31
0.0
  0
LINE
  5
8E
330
7F
100
AcDbEntity
  8
중심선
100
AcDbLine
 10
7.28139805157953
 20
16.24717430164393
 30
0.0
 11
10.72767329541681
 21
16.24717430164393
 31
0.0
  0
LINE
  5
8F
330
7F
100
AcDbEntity
  8
중심선
100
AcDbLine
 10
12.29416204261559
 20
16.24717430164393
 30
0.0
 11
15.74043728645272
 21
16.24717430164393
 31
0.0
  0
LINE
  5
90
330
7F
100
AcDbEntity
  8
중심선
100
AcDbLine
 10
19.22036997980202
 20
11.08717430171403
 30
0.0
 11
23.66174974927406
 21
11.08717430171406
 31
0.0
  0
LINE
  5
91
330
7F
100
AcDbEntity
  8
중심선
100
AcDbLine
 10
19.22039502424796
 20
13.00717430171391
 30
0.0
 11
19.22036997980202
 21
11.08717430171403
 31
0.0
  0
LINE
  5
92
330
7F
100
AcDbEntity
  8
중심선
100
AcDbLine
 10
19.22039502424796
 20
13.00717430171391
 30
0.0
 11
26.96566020931264
 21
13.00717430171391
 31
0.0
  0
LINE
  5
93
330
7F
100
AcDbEntity
  8
중심선
100
AcDbLine
 10
22.22332737316547
 20
13.45928029700563
 30
0.0
 11
24.52862924686651
 21
15.39360700705356
 31
0.0
  0
ATTDEF
  5
95
330
7F
100
AcDbEntity
  8
FORMAT
 62
     2
100
AcDbText
 10
-16.11926103943555
 20
2.075366912832191
 30
0.0
 40
4.233333333333333
  1
SEME0103001E [ 4 FLUTE ]
 41
0.75
  7
SLDTEXTSTYLE0
 11
-16.11926103943555
 21
-0.0412997538344756
 31
0.0
100
AcDbAttributeDefinition
  3

  2
AUTOATTR0
 70
     0
 74
     1
  0
ENDBLK
  5
81
330
7F
100
AcDbEntity
  8
0
100
AcDbBlockEnd
  0
BLOCK
  5
D8
330
D7
100
AcDbEntity
  8
0
100
AcDbBlockBegin
  2
_D
 70
     0
 10
0.0
 20
0.0
 30
0.0
  3
_D
  1

  0
LINE
  5
DA
330
D7
100
AcDbEntity
  8
치수문자_일반주서
 62
     0
370
    -2
100
AcDbLine
 10
16.66057621135332
 20
1.50107492872389
 30
0.0
 11
26.59807621135332
 21
1.501074928723927
 31
0.0
  0
LINE
  5
DB
330
D7
100
AcDbEntity
  8
치수문자_일반주서
 62
     0
370
    -2
100
AcDbLine
 10
16.66057621135332
 20
-1.49892507127611
 30
0.0
 11
26.59807621135333
 21
-1.498925071276073
 31
0.0
  0
LINE
  5
DC
330
D7
100
AcDbEntity
  8
치수문자_일반주서
 62
     0
370
    -2
100
AcDbLine
 10
26.59807621135332
 20
1.501074928723927
 30
0.0
 11
26.59807621135328
 21
14.23007492872394
 31
0.0
  0
LINE
  5
DD
330
D7
100
AcDbEntity
  8
치수문자_일반주서
 62
     0
370
    -2
100
AcDbLine
 10
26.59807621135332
 20
1.501074928723927
 30
0.0
 11
26.59807621135333
 21
-1.498925071276073
 31
0.0
  0
LINE
  5
DE
330
D7
100
AcDbEntity
  8
치수문자_일반주서
 62
     0
370
    -2
100
AcDbLine
 10
26.59807621135331
 20
4.803074928723927
 30
0.0
 11
26.5980762113533
 21
8.105074928723926
 31
0.0
  0
LINE
  5
DF
330
D7
100
AcDbEntity
  8
치수문자_일반주서
 62
     0
370
    -2
100
AcDbLine
 10
26.59807621135334
 20
-4.800925071276072
 30
0.0
 11
26.59807621135336
 21
-8.102925071276072
 31
0.0
  0
SOLID
  5
E0
330
D7
100
AcDbEntity
  8
치수문자_일반주서
 62
     0
100
AcDbTrace
 10
26.04774287801998
 20
4.803074928723925
 30
0.0
 11
27.14840954468665
 21
4.803074928723928
 31
0.0
 12
26.59807621135332
 22
1.501074928723927
 32
0.0
 13
26.59807621135332
 23
1.501074928723927
 33
0.0
  0
SOLID
  5
E1
330
D7
100
AcDbEntity
  8
치수문자_일반주서
 62
     0
100
AcDbTrace
 10
27.14840954468668
 20
-4.800925071276071
 30
0.0
 11
26.04774287802001
 21
-4.800925071276074
 31
0.0
 12
26.59807621135333
 22
-1.498925071276073
 32
0.0
 13
26.59807621135333
 23
-1.498925071276073
 33
0.0
  0
MTEXT
  5
E2
330
D7
100
AcDbEntity
  8
치수문자_일반주서
 62
     0
100
AcDbMText
 10
22.22307621135329
 20
11.16757492872393
 30
0.0
 40
3.5
 41
0.0
 71
     2
 72
     1
  1
\A1;%%c3
  7
SLDTEXTSTYLE0
 11
-3.552713678800501E-15
 21
1.0
 31
0.0
 73
     1
 44
1.0
  0
POINT
  5
1BB
330
D7
100
AcDbEntity
  8
Defpoints
 62
     0
100
AcDbPoint
 10
16.59807621135332
 20
1.501074928723889
 30
0.0
  0
POINT
  5
1BC
330
D7
100
AcDbEntity
  8
Defpoints
 62
     0
100
AcDbPoint
 10
16.59807621135332
 20
-1.498925071276111
 30
0.0
  0
POINT
  5
1BD
330
D7
100
AcDbEntity
  8
Defpoints
 62
     0
100
AcDbPoint
 10
26.59807621135334
 20
-1.498925071276073
 30
0.0
  0
ENDBLK
  5
D9
330
D7
100
AcDbEntity
  8
0
100
AcDbBlockEnd
  0
BLOCK
  5
E5
330
E4
100
AcDbEntity
  8
0
100
AcDbBlockBegin
  2
_D_1
 70
     0
 10
0.0
 20
0.0
 30
0.0
  3
_D_1
  1

  0
LINE
  5
E7
330
E4
100
AcDbEntity
  8
치수문자_일반주서
 62
     0
370
    -2
100
AcDbLine
 10
-42.86442378864668
 20
3.001074928723896
 30
0.0
 11
-53.40192378864668
 21
3.001074928723854
 31
0.0
  0
LINE
  5
E8
330
E4
100
AcDbEntity
  8
치수문자_일반주서
 62
     0
370
    -2
100
AcDbLine
 10
-42.86442378864668
 20
-2.99892507127611
 30
0.0
 11
-53.40192378864666
 21
-2.998925071276149
 31
0.0
  0
LINE
  5
E9
330
E4
100
AcDbEntity
  8
치수문자_일반주서
 62
     0
370
    -2
100
AcDbLine
 10
-53.40192378864668
 20
3.001074928723854
 30
0.0
 11
-53.40192378864673
 21
15.73007492872386
 31
0.0
  0
LINE
  5
EA
330
E4
100
AcDbEntity
  8
치수문자_일반주서
 62
     0
370
    -2
100
AcDbLine
 10
-53.40192378864668
 20
3.001074928723854
 30
0.0
 11
-53.40192378864666
 21
-2.998925071276149
 31
0.0
  0
LINE
  5
EB
330
E4
100
AcDbEntity
  8
치수문자_일반주서
 62
     0
370
    -2
100
AcDbLine
 10
-53.40192378864669
 20
6.303074928723854
 30
0.0
 11
-53.40192378864671
 21
9.605074928723853
 31
0.0
  0
LINE
  5
EC
330
E4
100
AcDbEntity
  8
치수문자_일반주서
 62
     0
370
    -2
100
AcDbLine
 10
-53.40192378864664
 20
-6.300925071276149
 30
0.0
 11
-53.40192378864663
 21
-9.602925071276148
 31
0.0
  0
SOLID
  5
ED
330
E4
100
AcDbEntity
  8
치수문자_일반주서
 62
     0
100
AcDbTrace
 10
-53.95225712198003
 20
6.303074928723852
 30
0.0
 11
-52.85159045531336
 21
6.303074928723856
 31
0.0
 12
-53.40192378864668
 22
3.001074928723854
 32
0.0
 13
-53.40192378864668
 23
3.001074928723854
 33
0.0
  0
SOLID
  5
EE
330
E4
100
AcDbEntity
  8
치수문자_일반주서
 62
     0
100
AcDbTrace
 10
-52.85159045531331
 20
-6.300925071276147
 30
0.0
 11
-53.95225712197998
 21
-6.300925071276151
 31
0.0
 12
-53.40192378864666
 22
-2.998925071276149
 32
0.0
 13
-53.40192378864666
 23
-2.998925071276149
 33
0.0
  0
MTEXT
  5
EF
330
E4
100
AcDbEntity
  8
치수문자_일반주서
 62
     0
100
AcDbMText
 10
-57.77692378864671
 20
12.66757492872384
 30
0.0
 40
3.5
 41
0.0
 71
     2
 72
     1
  1
\A1;%%c6
  7
SLDTEXTSTYLE0
 11
-3.552713678800498E-15
 21
1.0
 31
0.0
 73
     1
 44
1.0
  0
POINT
  5
1B7
330
E4
100
AcDbEntity
  8
Defpoints
 62
     0
100
AcDbPoint
 10
-42.80192378864668
 20
3.001074928723896
 30
0.0
  0
POINT
  5
1B8
330
E4
100
AcDbEntity
  8
Defpoints
 62
     0
100
AcDbPoint
 10
-42.80192378864668
 20
-2.998925071276109
 30
0.0
  0
POINT
  5
1B9
330
E4
100
AcDbEntity
  8
Defpoints
 62
     0
100
AcDbPoint
 10
-53.40192378864666
 20
-2.998925071276149
 30
0.0
  0
ENDBLK
  5
E6
330
E4
100
AcDbEntity
  8
0
100
AcDbBlockEnd
  0
BLOCK
  5
F2
330
F1
100
AcDbEntity
  8
0
100
AcDbBlockBegin
  2
_D_2
 70
     0
 10
0.0
 20
0.0
 30
0.0
  3
_D_2
  1

  0
LINE
  5
F4
330
F1
100
AcDbEntity
  8
치수문자_일반주서
 62
     0
370
    -2
100
AcDbLine
 10
16.59807621135332
 20
1.563574928723889
 30
0.0
 11
16.59807621135332
 21
13.0010749287239
 31
0.0
  0
LINE
  5
F5
330
F1
100
AcDbEntity
  8
치수문자_일반주서
 62
     0
370
    -2
100
AcDbLine
 10
8.598076211353332
 20
1.563176136249873
 30
0.0
 11
8.598076211353332
 21
13.0010749287239
 31
0.0
  0
LINE
  5
F6
330
F1
100
AcDbEntity
  8
치수문자_일반주서
 62
     0
370
    -2
100
AcDbLine
 10
13.29607621135332
 20
13.0010749287239
 30
0.0
 11
11.90007621135333
 21
13.0010749287239
 31
0.0
  0
SOLID
  5
F7
330
F1
100
AcDbEntity
  8
치수문자_일반주서
 62
     0
100
AcDbTrace
 10
13.29607621135332
 20
12.45074159539056
 30
0.0
 11
13.29607621135332
 21
13.55140826205723
 31
0.0
 12
16.59807621135332
 22
13.0010749287239
 32
0.0
 13
16.59807621135332
 23
13.0010749287239
 33
0.0
  0
SOLID
  5
F8
330
F1
100
AcDbEntity
  8
치수문자_일반주서
 62
     0
100
AcDbTrace
 10
11.90007621135333
 20
13.55140826205723
 30
0.0
 11
11.90007621135333
 21
12.45074159539056
 31
0.0
 12
8.598076211353332
 22
13.0010749287239
 32
0.0
 13
8.598076211353332
 23
13.0010749287239
 33
0.0
  0
MTEXT
  5
F9
330
F1
100
AcDbEntity
  8
치수문자_일반주서
 62
     0
100
AcDbMText
 10
12.59807621135333
 20
17.3760749287239
 30
0.0
 40
3.5
 41
0.0
 71
     2
 72
     1
  1
\A1;8
  7
SLDTEXTSTYLE0
 73
     1
 44
1.0
  0
POINT
  5
FA
330
F1
100
AcDbEntity
  8
Defpoints
 62
     0
100
AcDbPoint
 10
16.59807621135332
 20
1.501074928723889
 30
0.0
  0
POINT
  5
FB
330
F1
100
AcDbEntity
  8
Defpoints
 62
     0
100
AcDbPoint
 10
8.598076211353332
 20
1.500676136249873
 30
0.0
  0
POINT
  5
1AC
330
F1
100
AcDbEntity
  8
Defpoints
 62
     0
100
AcDbPoint
 10
8.598076211353332
 20
13.0010749287239
 30
0.0
  0
ENDBLK
  5
F3
330
F1
100
AcDbEntity
  8
0
100
AcDbBlockEnd
  0
BLOCK
  5
FF
330
FE
100
AcDbEntity
  8
0
100
AcDbBlockBegin
  2
_D_3
 70
     0
 10
0.0
 20
0.0
 30
0.0
  3
_D_3
  1

  0
LINE
  5
101
330
FE
100
AcDbEntity
  8
치수문자_일반주서
 62
     0
370
    -2
100
AcDbLine
 10
16.59807621135332
 20
1.563574928723889
 30
0.0
 11
16.59807621135332
 21
23.0010749287239
 31
0.0
  0
LINE
  5
102
330
FE
100
AcDbEntity
  8
치수문자_일반주서
 62
     0
370
    -2
100
AcDbLine
 10
-43.40192378864668
 20
2.463574928723895
 30
0.0
 11
-43.40192378864668
 21
23.0010749287239
 31
0.0
  0
LINE
  5
103
330
FE
100
AcDbEntity
  8
치수문자_일반주서
 62
     0
370
    -2
100
AcDbLine
 10
13.29607621135332
 20
23.0010749287239
 30
0.0
 11
-40.09992378864668
 21
23.0010749287239
 31
0.0
  0
SOLID
  5
104
330
FE
100
AcDbEntity
  8
치수문자_일반주서
 62
     0
100
AcDbTrace
 10
13.29607621135332
 20
22.45074159539056
 30
0.0
 11
13.29607621135332
 21
23.55140826205723
 31
0.0
 12
16.59807621135332
 22
23.0010749287239
 32
0.0
 13
16.59807621135332
 23
23.0010749287239
 33
0.0
  0
SOLID
  5
105
330
FE
100
AcDbEntity
  8
치수문자_일반주서
 62
     0
100
AcDbTrace
 10
-40.09992378864668
 20
23.55140826205723
 30
0.0
 11
-40.09992378864668
 21
22.45074159539056
 31
0.0
 12
-43.40192378864668
 22
23.0010749287239
 32
0.0
 13
-43.40192378864668
 23
23.0010749287239
 33
0.0
  0
MTEXT
  5
106
330
FE
100
AcDbEntity
  8
치수문자_일반주서
 62
     0
100
AcDbMText
 10
-13.40192378864668
 20
27.3760749287239
 30
0.0
 40
3.5
 41
0.0
 71
     2
 72
     1
  1
\A1;60
  7
SLDTEXTSTYLE0
 73
     1
 44
1.0
  0
POINT
  5
1AD
330
FE
100
AcDbEntity
  8
Defpoints
 62
     0
100
AcDbPoint
 10
16.59807621135332
 20
1.501074928723889
 30
0.0
  0
POINT
  5
1AE
330
FE
100
AcDbEntity
  8
Defpoints
 62
     0
100
AcDbPoint
 10
-43.40192378864668
 20
2.401074928723895
 30
0.0
  0
POINT
  5
1AF
330
FE
100
AcDbEntity
  8
Defpoints
 62
     0
100
AcDbPoint
 10
-43.40192378864668
 20
23.0010749287239
 30
0.0
  0
ENDBLK
  5
100
330
FE
100
AcDbEntity
  8
0
100
AcDbBlockEnd
  0
BLOCK
  5
10F
330
10E
100
AcDbEntity
  8
0
100
AcDbBlockBegin
  2
SW_DOWELSYMBOL_0
 70
     0
 10
0.0
 20
0.0
 30
0.0
  3
SW_DOWELSYMBOL_0
  1

  0
CIRCLE
  5
111
330
10E
100
AcDbEntity
  8
해칭선
 62
     0
100
AcDbCircle
 10
0.0
 20
0.0
 30
0.0
 40
3.000000000000001
  0
HATCH
  5
112
330
10E
100
AcDbEntity
  8
0
  6
Continuous
 62
     0
370
     0
100
AcDbHatch
 10
0.0
 20
0.0
 30
0.0
210
0.0
220
0.0
230
1.0
  2
SOLID
 70
     1
 71
     0
 91
        1
 92
        0
 93
        3
 72
     2
 10
0.0
 20
0.0
 40
3.000000000000001
 50
0.0
 51
90.0
 73
     1
 72
     1
 10
0.0
 20
3.000000000000001
 11
0.0
 21
0.0
 72
     1
 10
0.0
 20
0.0
 11
3.000000000000001
 21
0.0
 97
        0
 75
     0
 76
     1
 98
        1
 10
0.0
 20
0.0
  0
HATCH
  5
113
330
10E
100
AcDbEntity
  8
0
  6
Continuous
 62
     0
370
     0
100
AcDbHatch
 10
0.0
 20
0.0
 30
0.0
210
0.0
220
0.0
230
1.0
  2
SOLID
 70
     1
 71
     0
 91
        1
 92
        0
 93
        3
 72
     2
 10
0.0
 20
0.0
 40
3.000000000000001
 50
180.0
 51
270.0000000000008
 73
     1
 72
     1
 10
0.0
 20
-3.000000000000001
 11
0.0
 21
0.0
 72
     1
 10
0.0
 20
0.0
 11
-3.000000000000001
 21
0.0
 97
        0
 75
     0
 76
     1
 98
        1
 10
0.0
 20
0.0
  0
ENDBLK
  5
110
330
10E
100
AcDbEntity
  8
0
100
AcDbBlockEnd
  0
BLOCK
  5
172
330
171
100
AcDbEntity
  8
0
100
AcDbBlockBegin
  2
*D8
 70
     1
 10
0.0
 20
0.0
 30
0.0
  3
*D8
  1

  0
LINE
  5
173
330
171
100
AcDbEntity
  8
치수문자_일반주서
 62
     0
370
    -2
100
AcDbLine
 10
9.59045634051827
 20
15.79812178104114
 30
0.0
 11
18.63635603707892
 21
0.0000000000000298
 31
0.0
  0
MTEXT
  5
174
330
171
100
AcDbEntity
  8
치수문자_일반주서
 62
     0
100
AcDbMText
 10
18.84910667940886
 20
4.911188881186355
 30
0.0
 40
3.5
 41
0.0
 71
     5
 72
     1
  1
\A1;R0.1
  7
SLDTEXTSTYLE0
 11
0.4969007467719784
 21
-0.8678073794670393
 31
0.0
 73
     1
 44
1.0
  0
SOLID
  5
175
330
171
100
AcDbEntity
  8
치수문자_일반주서
 62
     0
100
AcDbTrace
 10
10.06803966835163
 20
16.07158282534798
 30
0.0
 11
9.112873012684908
 21
15.52466073673429
 31
0.0
 12
7.949690074677196
 22
18.6636217480413
 32
0.0
 13
7.949690074677196
 23
18.6636217480413
 33
0.0
  0
LINE
  5
176
330
171
100
AcDbEntity
  8
치수문자_일반주서
 62
     0
100
AcDbLine
 10
7.854999999999999
 20
18.750402485988
 30
0.0
 11
7.944999999999999
 21
18.750402485988
 31
0.0
  0
LINE
  5
177
330
171
100
AcDbEntity
  8
치수문자_일반주서
 62
     0
100
AcDbLine
 10
7.899999999999999
 20
18.705402485988
 30
0.0
 11
7.899999999999999
 21
18.79540248598801
 31
0.0
  0
POINT
  5
178
330
171
100
AcDbEntity
  8
Defpoints
 62
     0
100
AcDbPoint
 10
7.949690074677196
 20
18.6636217480413
 30
0.0
  0
POINT
  5
179
330
171
100
AcDbEntity
  8
Defpoints
 62
     0
100
AcDbPoint
 10
7.899999999999999
 20
18.750402485988
 30
0.0
  0
ENDBLK
  5
17A
330
171
100
AcDbEntity
  8
0
100
AcDbBlockEnd
  0
BLOCK
  5
181
330
180
100
AcDbEntity
  8
0
100
AcDbBlockBegin
  2
*D9
 70
     1
 10
0.0
 20
0.0
 30
0.0
  3
*D9
  1

  0
LINE
  5
183
330
180
100
AcDbEntity
  8
치수문자_일반주서
 62
     0
370
    -2
100
AcDbLine
 10
8.060877557620817
 20
18.64857400819226
 30
0.0
 11
18.0
 21
18.64857400819229
 31
0.0
  0
LINE
  5
184
330
180
100
AcDbEntity
  8
치수문자_일반주서
 62
     0
370
    -2
100
AcDbLine
 10
8.060877557620817
 20
21.64857400819227
 30
0.0
 11
17.99999999999999
 21
21.6485740081923
 31
0.0
  0
LINE
  5
185
330
180
100
AcDbEntity
  8
치수문자_일반주서
 62
     0
370
    -2
100
AcDbLine
 10
17.99999999999999
 20
21.6485740081923
 30
0.0
 11
17.99999999999995
 21
34.3775740081923
 31
0.0
  0
LINE
  5
186
330
180
100
AcDbEntity
  8
치수문자_일반주서
 62
     0
370
    -2
100
AcDbLine
 10
18.0
 20
18.64857400819229
 30
0.0
 11
17.99999999999999
 21
21.6485740081923
 31
0.0
  0
LINE
  5
187
330
180
100
AcDbEntity
  8
치수문자_일반주서
 62
     0
370
    -2
100
AcDbLine
 10
18.00000000000001
 20
15.34657400819229
 30
0.0
 11
18.00000000000002
 21
12.04457400819229
 31
0.0
  0
LINE
  5
188
330
180
100
AcDbEntity
  8
치수문자_일반주서
 62
     0
370
    -2
100
AcDbLine
 10
17.99999999999998
 20
24.9505740081923
 30
0.0
 11
17.99999999999997
 21
28.2525740081923
 31
0.0
  0
SOLID
  5
189
330
180
100
AcDbEntity
  8
치수문자_일반주서
 62
     0
100
AcDbTrace
 10
18.55033333333335
 20
15.34657400819229
 30
0.0
 11
17.44966666666668
 21
15.34657400819229
 31
0.0
 12
18.0
 22
18.64857400819229
 32
0.0
 13
18.0
 23
18.64857400819229
 33
0.0
  0
SOLID
  5
18A
330
180
100
AcDbEntity
  8
치수문자_일반주서
 62
     0
100
AcDbTrace
 10
17.44966666666665
 20
24.9505740081923
 30
0.0
 11
18.55033333333332
 21
24.95057400819231
 31
0.0
 12
17.99999999999999
 22
21.6485740081923
 32
0.0
 13
17.99999999999999
 23
21.6485740081923
 33
0.0
  0
MTEXT
  5
18B
330
180
100
AcDbEntity
  8
치수문자_일반주서
 62
     0
100
AcDbMText
 10
13.62499999999996
 20
31.31507400819228
 30
0.0
 40
3.5
 41
0.0
 71
     2
 72
     1
  1
\A1;%%c3
  7
SLDTEXTSTYLE0
 11
-3.552713678800484E-15
 21
1.0
 31
0.0
 73
     1
 44
1.0
  0
POINT
  5
18C
330
180
100
AcDbEntity
  8
Defpoints
 62
     0
100
AcDbPoint
 10
7.998377557620817
 20
18.64857400819226
 30
0.0
  0
POINT
  5
18D
330
180
100
AcDbEntity
  8
Defpoints
 62
     0
100
AcDbPoint
 10
7.998377557620817
 20
21.64857400819227
 30
0.0
  0
POINT
  5
18E
330
180
100
AcDbEntity
  8
Defpoints
 62
     0
100
AcDbPoint
 10
18.0
 20
21.64857400819231
 30
0.0
  0
ENDBLK
  5
182
330
180
100
AcDbEntity
  8
0
100
AcDbBlockEnd
  0
BLOCK
  5
194
330
193
100
AcDbEntity
  8
0
100
AcDbBlockBegin
  2
*D10
 70
     1
 10
0.0
 20
0.0
 30
0.0
  3
*D10
  1

  0
LINE
  5
196
330
193
100
AcDbEntity
  8
치수문자_일반주서
 62
     0
370
    -2
100
AcDbLine
 10
42.98493701777751
 20
2.770160553042694
 30
0.0
 11
52.92405946015668
 21
2.77016055304273
 31
0.0
  0
LINE
  5
197
330
193
100
AcDbEntity
  8
치수문자_일반주서
 62
     0
370
    -2
100
AcDbLine
 10
42.98493701777751
 20
5.770160553042704
 30
0.0
 11
52.92405946015668
 21
5.770160553042741
 31
0.0
  0
LINE
  5
198
330
193
100
AcDbEntity
  8
치수문자_일반주서
 62
     0
370
    -2
100
AcDbLine
 10
52.92405946015668
 20
5.770160553042741
 30
0.0
 11
52.92405946015665
 21
18.49916055304274
 31
0.0
  0
LINE
  5
199
330
193
100
AcDbEntity
  8
치수문자_일반주서
 62
     0
370
    -2
100
AcDbLine
 10
52.92405946015668
 20
2.77016055304273
 30
0.0
 11
52.92405946015668
 21
5.770160553042741
 31
0.0
  0
LINE
  5
19A
330
193
100
AcDbEntity
  8
치수문자_일반주서
 62
     0
370
    -2
100
AcDbLine
 10
52.92405946015669
 20
-0.5318394469572691
 30
0.0
 11
52.9240594601567
 21
-3.833839446957269
 31
0.0
  0
LINE
  5
19B
330
193
100
AcDbEntity
  8
치수문자_일반주서
 62
     0
370
    -2
100
AcDbLine
 10
52.92405946015667
 20
9.07216055304274
 30
0.0
 11
52.92405946015666
 21
12.37416055304274
 31
0.0
  0
SOLID
  5
19C
330
193
100
AcDbEntity
  8
치수문자_일반주서
 62
     0
100
AcDbTrace
 10
53.47439279349003
 20
-0.5318394469572678
 30
0.0
 11
52.37372612682336
 21
-0.5318394469572705
 31
0.0
 12
52.92405946015668
 22
2.77016055304273
 32
0.0
 13
52.92405946015668
 23
2.77016055304273
 33
0.0
  0
SOLID
  5
19D
330
193
100
AcDbEntity
  8
치수문자_일반주서
 62
     0
100
AcDbTrace
 10
52.37372612682334
 20
9.072160553042739
 30
0.0
 11
53.47439279349
 21
9.072160553042742
 31
0.0
 12
52.92405946015668
 22
5.770160553042741
 32
0.0
 13
52.92405946015668
 23
5.770160553042741
 33
0.0
  0
MTEXT
  5
19E
330
193
100
AcDbEntity
  8
치수문자_일반주서
 62
     0
100
AcDbMText
 10
48.54905946015666
 20
15.43666055304273
 30
0.0
 40
3.5
 41
0.0
 71
     2
 72
     1
  1
\A1;%%c3
  7
SLDTEXTSTYLE0
 11
-2.368475785866992E-15
 21
1.0
 31
0.0
 73
     1
 44
1.0
  0
POINT
  5
19F
330
193
100
AcDbEntity
  8
Defpoints
 62
     0
100
AcDbPoint
 10
42.92243701777751
 20
2.770160553042693
 30
0.0
  0
POINT
  5
1A0
330
193
100
AcDbEntity
  8
Defpoints
 62
     0
100
AcDbPoint
 10
42.92243701777751
 20
5.770160553042704
 30
0.0
  0
POINT
  5
1A1
330
193
100
AcDbEntity
  8
Defpoints
 62
     0
100
AcDbPoint
 10
52.92405946015669
 20
5.770160553042741
 30
0.0
  0
ENDBLK
  5
195
330
193
100
AcDbEntity
  8
0
100
AcDbBlockEnd
  0
BLOCK
  5
1A3
330
1A2
100
AcDbEntity
  8
0
100
AcDbBlockBegin
  2
*D11
 70
     1
 10
0.0
 20
0.0
 30
0.0
  3
*D11
  1

  0
LINE
  5
1A5
330
1A2
100
AcDbEntity
  8
치수문자_일반주서
 62
     0
370
    -2
100
AcDbLine
 10
44.51451580067487
 20
-0.080291674108476
 30
0.0
 11
53.56041549723503
 21
-15.87841345514986
 31
0.0
  0
MTEXT
  5
1A6
330
1A2
100
AcDbEntity
  8
치수문자_일반주서
 62
     0
100
AcDbMText
 10
53.77316613956513
 20
-10.96722457396354
 30
0.0
 40
3.5
 41
0.0
 71
     5
 72
     1
  1
\A1;R0.1
  7
SLDTEXTSTYLE0
 11
0.4969007467719517
 21
-0.8678073794670548
 31
0.0
 73
     1
 44
1.0
  0
SOLID
  5
1A7
330
1A2
100
AcDbEntity
  8
치수문자_일반주서
 62
     0
100
AcDbTrace
 10
44.99209912850825
 20
0.1931693701983547
 30
0.0
 11
44.03693247284151
 21
-0.3537527184153068
 31
0.0
 12
42.87374953483389
 22
2.785208292891738
 32
0.0
 13
42.87374953483389
 23
2.785208292891738
 33
0.0
  0
LINE
  5
1A8
330
1A2
100
AcDbEntity
  8
치수문자_일반주서
 62
     0
100
AcDbLine
 10
42.7790594601567
 20
2.871989030838442
 30
0.0
 11
42.8690594601567
 21
2.871989030838442
 31
0.0
  0
LINE
  5
1A9
330
1A2
100
AcDbEntity
  8
치수문자_일반주서
 62
     0
100
AcDbLine
 10
42.8240594601567
 20
2.826989030838442
 30
0.0
 11
42.8240594601567
 21
2.916989030838442
 31
0.0
  0
POINT
  5
1AA
330
1A2
100
AcDbEntity
  8
Defpoints
 62
     0
100
AcDbPoint
 10
42.87374953483389
 20
2.785208292891738
 30
0.0
  0
POINT
  5
1AB
330
1A2
100
AcDbEntity
  8
Defpoints
 62
     0
100
AcDbPoint
 10
42.8240594601567
 20
2.871989030838442
 30
0.0
  0
ENDBLK
  5
1A4
330
1A2
100
AcDbEntity
  8
0
100
AcDbBlockEnd
  0
BLOCK
  5
1C7
330
1C6
100
AcDbEntity
  8
0
100
AcDbBlockBegin
  2
*D12
 70
     1
 10
0.0
 20
0.0
 30
0.0
  3
*D12
  1

  0
LINE
  5
1C9
330
1C6
100
AcDbEntity
  8
치수문자_일반주서
 62
     0
370
    -2
100
AcDbLine
 10
18.65729686207693
 20
-4.027873564778544
 30
0.0
 11
29.4901665726852
 21
-17.21738085133944
 31
0.0
  0
MTEXT
  5
1CA
330
1C6
100
AcDbEntity
  8
치수문자_일반주서
 62
     0
100
AcDbMText
 10
28.88073946094914
 20
-12.3395086043468
 30
0.0
 40
3.5
 41
0.0
 71
     5
 72
     1
  1
\A1;R0.1
  7
SLDTEXTSTYLE0
 11
0.634691549301472
 21
-0.7727655771612094
 31
0.0
 73
     1
 44
1.0
  0
SOLID
  5
1CB
330
1C6
100
AcDbEntity
  8
치수문자_일반주서
 62
     0
100
AcDbTrace
 10
19.08257551804132
 20
-3.678581648812967
 30
0.0
 11
18.23201820611254
 21
-4.37716548074412
 31
0.0
 12
16.56154536628347
 22
-1.476201628992231
 32
0.0
 13
16.56154536628347
 23
-1.476201628992231
 33
0.0
  0
LINE
  5
1CC
330
1C6
100
AcDbEntity
  8
치수문자_일반주서
 62
     0
100
AcDbLine
 10
16.45307621135332
 20
-1.398925071276111
 30
0.0
 11
16.54307621135332
 21
-1.398925071276111
 31
0.0
  0
LINE
  5
1CD
330
1C6
100
AcDbEntity
  8
치수문자_일반주서
 62
     0
100
AcDbLine
 10
16.49807621135332
 20
-1.443925071276111
 30
0.0
 11
16.49807621135332
 21
-1.353925071276111
 31
0.0
  0
POINT
  5
1CE
330
1C6
100
AcDbEntity
  8
Defpoints
 62
     0
100
AcDbPoint
 10
16.56154536628347
 20
-1.476201628992231
 30
0.0
  0
POINT
  5
1CF
330
1C6
100
AcDbEntity
  8
Defpoints
 62
     0
100
AcDbPoint
 10
16.49807621135332
 20
-1.398925071276111
 30
0.0
  0
ENDBLK
  5
1C8
330
1C6
100
AcDbEntity
  8
0
100
AcDbBlockEnd
  0
ENDSEC
  0
SECTION
  2
ENTITIES
  0
LINE
  5
96
330
1F
100
AcDbEntity
  8
0
  6
Continuous
 62
     1
370
    15
100
AcDbLine
 10
14.42684446646236
 20
-0.4383829974315114
 30
0.0
 11
14.44683654330177
 21
-0.4490211844667513
 31
0.0
1001
PE_URL
1000

  0
LINE
  5
97
330
1F
100
AcDbEntity
  8
0
  6
Continuous
 62
     1
370
    15
100
AcDbLine
 10
16.06529057026851
 20
0.4312499976911386
 30
0.0
 11
16.03881266571165
 21
0.4455757265137806
 31
0.0
1001
PE_URL
1000

  0
LINE
  5
98
330
1F
100
AcDbEntity
  8
0
  6
Continuous
 62
     1
370
    15
100
AcDbLine
 10
9.573388099465724
 20
1.501074928723896
 30
0.0
 11
8.657826172274454
 21
1.501074928723896
 31
0.0
1001
PE_URL
1000

  0
LINE
  5
99
330
1F
100
AcDbEntity
  8
0
  6
Continuous
 62
     1
370
    15
100
AcDbLine
 10
12.74103149078193
 20
-1.49892507127611
 30
0.0
 11
13.65552848598798
 21
-1.49892507127611
 31
0.0
1001
PE_URL
1000

  0
LINE
  5
9A
330
1F
100
AcDbEntity
  8
0
  6
Continuous
 62
     1
370
    15
100
AcDbLine
 10
13.65552848598798
 20
1.501074928723896
 30
0.0
 11
12.74103149078194
 21
1.501074928723896
 31
0.0
1001
PE_URL
1000

  0
LINE
  5
9B
330
1F
100
AcDbEntity
  8
0
  6
Continuous
 62
     1
370
    15
100
AcDbLine
 10
8.657826172274447
 20
-1.49892507127611
 30
0.0
 11
9.57338809946571
 21
-1.49892507127611
 31
0.0
1001
PE_URL
1000

  0
LINE
  5
9C
330
1F
100
AcDbEntity
  8
외형선
  6
Continuous
370
    15
100
AcDbLine
 10
-42.80192378864668
 20
-2.998925071276109
 30
0.0
 11
1.999999999999996
 21
-2.998925071276109
 31
0.0
  0
LINE
  5
9D
330
1F
100
AcDbEntity
  8
외형선
  6
Continuous
370
    15
100
AcDbLine
 10
1.999999999999996
 20
3.001074928723896
 30
0.0
 11
-42.80192378864668
 21
3.001074928723896
 31
0.0
  0
LINE
  5
9E
330
1F
100
AcDbEntity
  8
외형선
  6
Continuous
370
    15
100
AcDbLine
 10
1.999999999999996
 20
-2.998925071276112
 30
0.0
 11
7.600574685228382
 21
-1.498255607218974
 31
0.0
  0
LINE
  5
9F
330
1F
100
AcDbEntity
  8
외형선
  6
Continuous
370
    15
100
AcDbLine
 10
7.600574685228382
 20
1.50040546466676
 30
0.0
 11
1.999999999999996
 21
3.001074928723899
 31
0.0
  0
LINE
  5
A0
330
1F
100
AcDbEntity
  8
외형선
  6
Continuous
370
    15
100
AcDbLine
 10
-42.80192378864668
 20
3.001074928723893
 30
0.0
 11
-43.40192378864668
 21
2.401074928723895
 31
0.0
  0
LINE
  5
A1
330
1F
100
AcDbEntity
  8
외형선
  6
Continuous
370
    15
100
AcDbLine
 10
-43.40192378864668
 20
-2.398925071276109
 30
0.0
 11
-42.80192378864668
 21
-2.998925071276107
 31
0.0
  0
SPLINE
  5
A2
330
1F
100
AcDbEntity
  8
0
  6
Continuous
 62
     1
370
    15
100
AcDbSpline
210
0.0
220
0.0
230
1.0
 70
     8
 71
     3
 72
    17
 73
    13
 74
     0
 42
0.000000001
 43
0.00000001
 40
0.0
 40
0.0
 40
0.0
 40
0.0
 40
0.1111006282309012
 40
0.2221795987963164
 40
0.3330354246109005
 40
0.4438040855382686
 40
0.5546233073018192
 40
0.665629801948851
 40
0.7704712809901723
 40
0.8749792345003922
 40
0.9793846422585814
 40
1.0
 40
1.0
 40
1.0
 40
1.0
 10
8.598076211353309
 20
0.550602845509102
 30
0.0
 10
8.844244003450605
 20
0.4142325019549995
 30
0.0
 10
9.336531600340525
 20
0.1415183985244022
 30
0.0
 10
10.07451213769973
 20
-0.2901647145608357
 30
0.0
 10
10.81131610243286
 20
-0.6957321373601081
 30
0.0
 10
11.54746710237217
 20
-1.046195031400887
 30
0.0
 10
12.28400639774786
 20
-1.312939097200425
 30
0.0
 10
13.00767884011343
 20
-1.470979138302358
 30
0.0
 10
13.71772732346514
 20
-1.517715840786596
 30
0.0
 10
14.41244447871601
 20
-1.448275041438918
 30
0.0
 10
14.920530662293
 20
-1.341834561671781
 30
0.0
 10
15.19742735251526
 20
-1.237479073943478
 30
0.0
 10
15.24308636206888
 20
-1.220271326868805
 30
0.0
1001
PE_URL
1000

  0
SPLINE
  5
A3
330
1F
100
AcDbEntity
  8
외형선
  6
Continuous
370
    15
100
AcDbSpline
210
0.0
220
0.0
230
1.0
 70
    24
 71
     3
 72
    14
 73
    10
 74
     0
 42
0.000000001
 43
0.00000001
 40
0.0
 40
0.0
 40
0.0
 40
0.0
 40
0.1546840032500439
 40
0.3141337128568962
 40
0.4644393044916164
 40
0.6191037684661673
 40
0.7694093601008906
 40
0.9240738240754447
 40
1.0
 40
1.0
 40
1.0
 40
1.0
 10
8.598076211353328
 20
1.500676136249873
 30
0.0
 10
8.598076211353321
 20
1.450656803568567
 30
0.0
 10
8.598076211353309
 20
1.349077077419357
 30
0.0
 10
8.598076211353336
 20
1.193909512937734
 30
0.0
 10
8.598076211353314
 20
1.041145987991001
 30
0.0
 10
8.598076211353357
 20
0.8968388517019041
 30
0.0
 10
8.598076211353343
 20
0.7623039959915789
 30
0.0
 10
8.598076211353314
 20
0.6592862753476104
 30
0.0
 10
8.598076211353336
 20
0.6086373884620376
 30
0.0
 10
8.598076211353343
 20
0.5919603182316957
 30
0.0
  0
SPLINE
  5
A4
330
1F
100
AcDbEntity
  8
0
  6
Continuous
 62
     1
370
    15
100
AcDbSpline
210
0.0
220
0.0
230
1.0
 70
     8
 71
     3
 72
    38
 73
    34
 74
     0
 42
0.000000001
 43
0.00000001
 40
0.0
 40
0.0
 40
0.0
 40
0.0
 40
0.0625
 40
0.0625
 40
0.125
 40
0.125
 40
0.1875
 40
0.1875
 40
0.25
 40
0.25
 40
0.3125
 40
0.3125
 40
0.375
 40
0.375
 40
0.4375
 40
0.4375
 40
0.5
 40
0.5
 40
0.5625
 40
0.5625
 40
0.625
 40
0.625
 40
0.6875
 40
0.6875
 40
0.75
 40
0.75
 40
0.8125
 40
0.8125
 40
0.875
 40
0.875
 40
0.9375
 40
0.9375
 40
1.0
 40
1.0
 40
1.0
 40
1.0
 10
16.49807621135332
 20
-1.498925071276111
 30
0.0
 10
16.33456446255982
 20
-1.475529220584826
 30
0.0
 10
16.16786019406033
 20
-1.454678798000419
 30
0.0
 10
15.8370110969797
 20
-1.395747984012507
 30
0.0
 10
15.67556722765474
 20
-1.357963170935476
 30
0.0
 10
15.34670939044037
 20
-1.266149786927906
 30
0.0
 10
15.17980632637042
 20
-1.212047646779469
 30
0.0
 10
14.85003129547423
 20
-1.090322358252721
 30
0.0
 10
14.68892316770487
 20
-1.023033510946789
 30
0.0
 10
14.35869537800809
 20
-0.8758890536792185
 30
0.0
 10
14.1918375153585
 20
-0.7962794997112439
 30
0.0
 10
13.86360530093332
 20
-0.6293283579564674
 30
0.0
 10
13.70176668609582
 20
-0.5419693309745173
 30
0.0
 10
13.37063985348043
 20
-0.3604468016130226
 30
0.0
 10
13.20407096731489
 20
-0.2667528076552245
 30
0.0
 10
12.87784298890869
 20
-0.0785865042824284
 30
0.0
 10
12.7142111220606
 20
0.0166392083943086
 30
0.0
 10
12.38266045449999
 20
0.2065856380486985
 30
0.0
 10
12.21690892133144
 20
0.3008716875517569
 30
0.0
 10
11.8925490503513
 20
0.4834133202568019
 30
0.0
 10
11.72637172135067
 20
0.5730779582768171
 30
0.0
 10
11.39487445816474
 20
0.7442547846796899
 30
0.0
 10
11.23173562542625
 20
0.8254162684854718
 30
0.0
 10
10.90501972668529
 20
0.9770305849701274
 30
0.0
 10
10.73836509024484
 20
1.04790542392732
 30
0.0
 10
10.40739821462362
 20
1.175827215830106
 30
0.0
 10
10.2458154723599
 20
1.232615539747347
 30
0.0
 10
9.917197801561489
 20
1.331427311813465
 30
0.0
 10
9.750308635883652
 20
1.373320169302155
 30
0.0
 10
9.420346589986835
 20
1.439760347192293
 30
0.0
 10
9.259255960474668
 20
1.464313213001109
 30
0.0
 10
8.929199764733777
 20
1.495973232596732
 30
0.0
 10
8.762319998563898
 20
1.502865184357922
 30
0.0
 10
8.598076211353336
 20
1.500676136249774
 30
0.0
1001
PE_URL
1000

  0
LINE
  5
A6
330
1F
100
AcDbEntity
  8
0
  6
Continuous
 62
     1
370
    15
100
AcDbLine
 10
16.59807621135332
 20
-1.277396954744856
 30
0.0
 11
16.59807621135332
 21
0.1478342040932873
 31
0.0
1001
PE_URL
1000

  0
SPLINE
  5
A7
330
1F
100
AcDbEntity
  8
0
  6
Continuous
 62
     1
370
    15
100
AcDbSpline
210
0.0
220
0.0
230
1.0
 70
     8
 71
     3
 72
    17
 73
    13
 74
     0
 42
0.000000001
 43
0.00000001
 40
0.0
 40
0.0
 40
0.0
 40
0.0
 40
0.0000509544440415
 40
0.0000509544440415
 40
0.0000509544440415
 40
0.0000958427511756
 40
0.0000958427511756
 40
0.0000958427511756
 40
0.0001414351340134
 40
0.0001414351340134
 40
0.0001414351340134
 40
0.0001775161077701
 40
0.0001775161077701
 40
0.0001775161077701
 40
0.0001775161077701
 10
16.49807621135331
 20
-1.331781928260528
 30
0.0
 10
16.51277014350827
 20
-1.33568989397375
 30
0.0
 10
16.52723679529961
 20
-1.337024211302487
 30
0.0
 10
16.54014353097319
 20
-1.335762630526191
 30
0.0
 10
16.55155929035906
 20
-1.33464678660157
 30
0.0
 10
16.56212621755368
 20
-1.331474040658517
 30
0.0
 10
16.57096340853121
 20
-1.326258070077084
 30
0.0
 10
16.57990454986844
 20
-1.320980744929541
 30
0.0
 10
16.58736683876932
 20
-1.313381349024773
 30
0.0
 10
16.59212714500348
 20
-1.303833866267699
 30
0.0
 10
16.59590791095656
 20
-1.296250993240177
 30
0.0
 10
16.59807621135335
 20
-1.287168472057538
 30
0.0
 10
16.59807621135335
 20
-1.277396954744858
 30
0.0
1001
PE_URL
1000

  0
SPLINE
  5
A8
330
1F
100
AcDbEntity
  8
0
  6
Continuous
 62
     1
370
    15
100
AcDbSpline
210
0.0
220
0.0
230
1.0
 70
     8
 71
     3
 72
    17
 73
    13
 74
     0
 42
0.000000001
 43
0.00000001
 40
0.0
 40
0.0
 40
0.0
 40
0.0
 40
0.0724060466110193
 40
0.178783446267514
 40
0.2850772023809202
 40
0.3914194767407788
 40
0.4979414584116802
 40
0.5985474828096283
 40
0.6988334556590291
 40
0.7990210254667597
 40
0.8993667668602888
 40
1.0
 40
1.0
 40
1.0
 40
1.0
 10
9.573388099465731
 20
1.487938704150433
 30
0.0
 10
9.740582833376068
 20
1.487776117339364
 30
0.0
 10
10.15341645881698
 20
1.487374661497469
 30
0.0
 10
10.81131302138737
 20
1.349323605637953
 30
0.0
 10
11.54746783140424
 20
1.103831538734709
 30
0.0
 10
12.28400656307713
 20
0.7656274068088375
 30
0.0
 10
13.00767747439119
 20
0.3748678367329181
 30
0.0
 10
13.71773228225482
 20
-0.0350036245959149
 30
0.0
 10
14.41242595962244
 20
-0.4355624399293237
 30
0.0
 10
15.10644281712641
 20
-0.8030242570262213
 30
0.0
 10
15.80147448894366
 20
-1.120096552150419
 30
0.0
 10
16.26565430748668
 20
-1.261152877895781
 30
0.0
 10
16.49807621135335
 20
-1.331781928260532
 30
0.0
1001
PE_URL
1000

  0
SPLINE
  5
A9
330
1F
100
AcDbEntity
  8
0
  6
Continuous
 62
     1
370
    15
100
AcDbSpline
210
0.0
220
0.0
230
1.0
 70
     8
 71
     3
 72
    15
 73
    11
 74
     0
 42
0.000000001
 43
0.00000001
 40
0.0
 40
0.0
 40
0.0
 40
0.0
 40
0.1381836878084699
 40
0.2761441650531734
 40
0.4138888506696188
 40
0.5515879732719022
 40
0.6894126751613185
 40
0.8275297861209843
 40
0.9577314020441174
 40
1.0
 40
1.0
 40
1.0
 40
1.0
 10
16.49807621135331
 20
0.1874164550703495
 30
0.0
 10
16.25172813536818
 20
0.3268106972112561
 30
0.0
 10
15.75942991381789
 20
0.6053740154994013
 30
0.0
 10
15.0218555155366
 20
0.9710140247541047
 30
0.0
 10
14.28541059852865
 20
1.260227498382553
 30
0.0
 10
13.54923831329945
 20
1.447972538758357
 30
0.0
 10
12.81230689213003
 20
1.521887835808939
 30
0.0
 10
12.08828507016367
 20
1.468582079282458
 30
0.0
 10
11.53464585553586
 20
1.360422618489448
 30
0.0
 10
11.22745829592376
 20
1.247943157706537
 30
0.0
 10
11.15217348492794
 20
1.220376953669344
 30
0.0
1001
PE_URL
1000

  0
SPLINE
  5
AA
330
1F
100
AcDbEntity
  8
0
  6
Continuous
 62
     1
370
    15
100
AcDbSpline
210
0.0
220
0.0
230
1.0
 70
     8
 71
     3
 72
    23
 73
    19
 74
     0
 42
0.000000001
 43
0.00000001
 40
0.0
 40
0.0
 40
0.0
 40
0.0
 40
0.0000304343936962
 40
0.0000304343936962
 40
0.0000304343936962
 40
0.0000609557247774
 40
0.0000609557247774
 40
0.0000609557247774
 40
0.0000904786173675
 40
0.0000904786173675
 40
0.0000904786173675
 40
0.0001205888543561
 40
0.0001205888543561
 40
0.0001205888543561
 40
0.0001536603784038
 40
0.0001536603784038
 40
0.0001536603784038
 40
0.0001634866611068
 40
0.0001634866611068
 40
0.0001634866611068
 40
0.0001634866611068
 10
16.59807621135332
 20
0.1462134788593281
 30
0.0
 10
16.59807621135332
 20
0.1451604681635394
 30
0.0
 10
16.59655096144544
 20
0.1447213093817806
 30
0.0
 10
16.59353483891569
 20
0.1450397003592695
 30
0.0
 10
16.59051333882609
 20
0.1453586590081705
 30
0.0
 10
16.58590319754896
 20
0.1464563329668139
 30
0.0
 10
16.58012326331907
 20
0.1483219806974991
 30
0.0
 10
16.57452455367571
 20
0.1501291327385878
 30
0.0
 10
16.56768830648346
 20
0.1527043967521634
 30
0.0
 10
16.56023964560052
 20
0.1558555493300988
 30
0.0
 10
16.55263421904522
 20
0.1590730215539875
 30
0.0
 10
16.54421407704699
 20
0.1629638039203623
 30
0.0
 10
16.5356269265642
 20
0.167223958182168
 30
0.0
 10
16.52619546225571
 20
0.1719029833080694
 30
0.0
 10
16.51634890689738
 20
0.1771299613699773
 30
0.0
 10
16.50671427046972
 20
0.1825164872474255
 30
0.0
 10
16.50382447644187
 20
0.1841321112959712
 30
0.0
 10
16.50094082648035
 20
0.1857685340211449
 30
0.0
 10
16.49807621135331
 20
0.1874164550703464
 30
0.0
1001
PE_URL
1000

  0
SPLINE
  5
AB
330
1F
100
AcDbEntity
  8
0
  6
Continuous
 62
     1
370
    15
100
AcDbSpline
210
0.0
220
0.0
230
1.0
 70
     8
 71
     3
 72
    11
 73
     7
 74
     0
 42
0.000000001
 43
0.00000001
 40
0.0
 40
0.0
 40
0.0
 40
0.0
 40
0.2890860128003913
 40
0.5781156719305924
 40
0.8665647040443424
 40
1.0
 40
1.0
 40
1.0
 40
1.0
 10
8.598076211353309
 20
-1.394639608233329
 30
0.0
 10
8.844244043759312
 20
-1.436028008548122
 30
0.0
 10
9.336531721258813
 20
-1.518796741031351
 30
0.0
 10
10.07451165454122
 20
-1.486329627896786
 30
0.0
 10
10.67957728556182
 20
-1.385284139463949
 30
0.0
 10
11.0386154347498
 20
-1.258368494151914
 30
0.0
 10
11.15217348492793
 20
-1.218227096221558
 30
0.0
1001
PE_URL
1000

  0
SPLINE
  5
AC
330
1F
100
AcDbEntity
  8
외형선
  6
Continuous
370
    15
100
AcDbSpline
210
0.0
220
0.0
230
1.0
 70
    24
 71
     3
 72
    19
 73
    15
 74
     0
 42
0.000000001
 43
0.00000001
 40
0.0
 40
0.0
 40
0.0
 40
0.0
 40
0.0661322042249627
 40
0.150187531216781
 40
0.2366804683856744
 40
0.3207357953775606
 40
0.4072287325463786
 40
0.491284059538148
 40
0.5777769967069887
 40
0.6618323236988514
 40
0.7483252608677934
 40
0.8323805878594076
 40
0.9188735250285008
 40
1.0
 40
1.0
 40
1.0
 40
1.0
 10
8.598076211353336
 20
0.0356613189219161
 30
0.0
 10
8.598076211353343
 20
0.0245791727460296
 30
0.0
 10
8.598076211353357
 20
-0.0005885983005559
 30
0.0
 10
8.598076211353343
 20
-0.0686232092573402
 30
0.0
 10
8.598076211353295
 20
-0.1603842577646993
 30
0.0
 10
8.598076211353378
 20
-0.2728489036870243
 30
0.0
 10
8.598076211353357
 20
-0.3998005763608805
 30
0.0
 10
8.598076211353302
 20
-0.5401998882945196
 30
0.0
 10
8.598076211353336
 20
-0.6874808049177465
 30
0.0
 10
8.598076211353309
 20
-0.8401172498710079
 30
0.0
 10
8.598076211353302
 20
-0.9911391087613335
 30
0.0
 10
8.598076211353309
 20
-1.138607420036717
 30
0.0
 10
8.598076211353364
 20
-1.275529868789526
 30
0.0
 10
8.598076211353336
 20
-1.355792922533175
 30
0.0
 10
8.598076211353314
 20
-1.394639608233329
 30
0.0
  0
SPLINE
  5
AD
330
1F
100
AcDbEntity
  8
0
  6
Continuous
 62
     1
370
    15
100
AcDbSpline
210
0.0
220
0.0
230
1.0
 70
     8
 71
     3
 72
    13
 73
     9
 74
     0
 42
0.000000001
 43
0.00000001
 40
0.0
 40
0.0
 40
0.0
 40
0.0
 40
0.1609102291846107
 40
0.3289129835216246
 40
0.4964508352723801
 40
0.663950440136509
 40
0.8318396366583202
 40
1.0
 40
1.0
 40
1.0
 40
1.0
 10
12.74103149078193
 20
-1.493651077604079
 30
0.0
 10
12.51874810204055
 20
-1.486316109308905
 30
0.0
 10
12.06438362223891
 20
-1.471322865447232
 30
0.0
 10
11.37858962953779
 20
-1.311966190961472
 30
0.0
 10
10.68426440362046
 20
-1.066534625663456
 30
0.0
 10
9.990108579176935
 20
-0.7425051958919108
 30
0.0
 10
9.294662355918355
 20
-0.3663132902051177
 30
0.0
 10
8.830396468805251
 20
-0.0984022788256934
 30
0.0
 10
8.598076211353336
 20
0.035661318921918
 30
0.0
1001
PE_URL
1000

  0
LINE
  5
AE
330
1F
100
AcDbEntity
  8
외형선
  6
Continuous
370
    15
100
AcDbLine
 10
8.598076211353328
 20
0.0356613189219012
 30
0.0
 11
8.598076211353314
 21
0.550602845509103
 31
0.0
  0
SPLINE
  5
AF
330
1F
100
AcDbEntity
  8
0
  6
Continuous
 62
     1
370
    15
100
AcDbSpline
210
0.0
220
0.0
230
1.0
 70
     8
 71
     3
 72
    17
 73
    13
 74
     0
 42
0.000000001
 43
0.00000001
 40
0.0
 40
0.0
 40
0.0
 40
0.0
 40
0.0000509544440415
 40
0.0000509544440415
 40
0.0000509544440415
 40
0.0000958427511756
 40
0.0000958427511756
 40
0.0000958427511756
 40
0.0001414351340134
 40
0.0001414351340134
 40
0.0001414351340134
 40
0.0001775161077701
 40
0.0001775161077701
 40
0.0001775161077701
 40
0.0001775161077701
 10
16.49807621135331
 20
0.6891829135559314
 30
0.0
 10
16.51277014350827
 20
0.6816132311622618
 30
0.0
 10
16.52723679529961
 20
0.6716760095669583
 30
0.0
 10
16.54014353097319
 20
0.6607074856038845
 30
0.0
 10
16.55155929035906
 20
0.6510060371859849
 30
0.0
 10
16.56212621755368
 20
0.6402000355569722
 30
0.0
 10
16.57096340853121
 20
0.6292282317879662
 30
0.0
 10
16.57990454986844
 20
0.6181273685756241
 30
0.0
 10
16.58736683876932
 20
0.6064619355392247
 30
0.0
 10
16.59212714500348
 20
0.5956356531327449
 30
0.0
 10
16.59590791095656
 20
0.5870371223013999
 30
0.0
 10
16.59807621135335
 20
0.5786979178398869
 30
0.0
 10
16.59807621135335
 20
0.571609452814992
 30
0.0
1001
PE_URL
1000

  0
LINE
  5
B0
330
1F
100
AcDbEntity
  8
0
  6
Continuous
 62
     1
370
    15
100
AcDbLine
 10
16.59807621135332
 20
0.1462134788593261
 30
0.0
 11
16.59807621135332
 21
0.5716094528149912
 31
0.0
1001
PE_URL
1000

  0
SPLINE
  5
B1
330
1F
100
AcDbEntity
  8
0
  6
Continuous
 62
     1
370
    15
100
AcDbSpline
210
0.0
220
0.0
230
1.0
 70
     8
 71
     3
 72
    12
 73
     8
 74
     0
 42
0.000000001
 43
0.00000001
 40
0.0
 40
0.0
 40
0.0
 40
0.0
 40
0.0220897848962206
 40
0.266379390968219
 40
0.5104292941226255
 40
0.7548644921820786
 40
1.0
 40
1.0
 40
1.0
 40
1.0
 10
13.655528485988
 20
1.496684999365438
 30
0.0
 10
13.67646933775347
 20
1.498121582406948
 30
0.0
 10
13.92899381301876
 20
1.515445251128501
 30
0.0
 10
14.4124030588674
 20
1.448168343141725
 30
0.0
 10
15.10644893164345
 20
1.289177086179114
 30
0.0
 10
15.80147295419618
 20
1.030861511062134
 30
0.0
 10
16.26565379541655
 20
0.8031843401791333
 30
0.0
 10
16.49807621135335
 20
0.6891829135559244
 30
0.0
1001
PE_URL
1000

  0
SPLINE
  5
B2
330
1F
100
AcDbEntity
  8
0
  6
Continuous
 62
     1
370
    15
100
AcDbSpline
210
0.0
220
0.0
230
1.0
 70
     8
 71
     3
 72
     9
 73
     5
 74
     0
 42
0.000000001
 43
0.00000001
 40
0.0
 40
0.0
 40
0.0
 40
0.0
 40
0.5887682503145735
 40
1.0
 40
1.0
 40
1.0
 40
1.0
 10
16.49807621135332
 20
1.50107492872389
 30
0.0
 10
16.25172092563044
 20
1.463023046512682
 30
0.0
 10
15.83329604352913
 20
1.418128488034163
 30
0.0
 10
15.4150729688344
 20
1.279450128678092
 30
0.0
 10
15.24308636206888
 20
1.222421184316591
 30
0.0
1001
PE_URL
1000

  0
LINE
  5
B3
330
1F
100
AcDbEntity
  8
0
  6
Continuous
 62
     1
370
    15
100
AcDbLine
 10
8.657826172274447
 20
-1.494729752739497
 30
0.0
 11
8.598076211353336
 21
-1.498526278801987
 31
0.0
1001
PE_URL
1000

  0
LINE
  5
B5
330
1F
100
AcDbEntity
  8
0
  6
Continuous
 62
     1
370
    15
100
AcDbLine
 10
16.59807621135332
 20
0.5664109168000461
 30
0.0
 11
16.59807621135332
 21
1.393531319877523
 31
0.0
1001
PE_URL
1000

  0
LINE
  5
B6
330
1F
100
AcDbEntity
  8
0
  6
Continuous
 62
     1
370
    15
100
AcDbLine
 10
16.59807621135332
 20
-1.391381462429736
 30
0.0
 11
16.59807621135332
 21
-1.277396954744856
 31
0.0
1001
PE_URL
1000

  0
LINE
  5
B7
330
1F
100
AcDbEntity
  8
외형선
  6
Continuous
370
    15
100
AcDbLine
 10
8.598076211353328
 20
-1.498526278802087
 30
0.0
 11
8.598076211353314
 21
-1.394639608233329
 31
0.0
  0
LINE
  5
B8
330
1F
100
AcDbEntity
  8
외형선
  6
Continuous
370
    15
100
AcDbLine
 10
1.999999999999996
 20
0.0010749287238931
 30
0.0
 11
1.999999999999996
 21
3.001074928723896
 31
0.0
  0
LINE
  5
B9
330
1F
100
AcDbEntity
  8
외형선
  6
Continuous
370
    15
100
AcDbLine
 10
1.999999999999996
 20
-2.998925071276109
 30
0.0
 11
1.999999999999996
 21
0.0010749287238931
 31
0.0
  0
LINE
  5
BA
330
1F
100
AcDbEntity
  8
외형선
  6
Continuous
370
    15
100
AcDbLine
 10
-42.80192378864668
 20
0.0010749287238931
 30
0.0
 11
-42.80192378864668
 21
3.001074928723896
 31
0.0
  0
LINE
  5
BB
330
1F
100
AcDbEntity
  8
외형선
  6
Continuous
370
    15
100
AcDbLine
 10
-42.80192378864668
 20
-2.998925071276109
 30
0.0
 11
-42.80192378864668
 21
0.0010749287238931
 31
0.0
  0
SPLINE
  5
BC
330
1F
100
AcDbEntity
  8
외형선
  6
Continuous
370
    15
100
AcDbSpline
210
0.0
220
0.0
230
1.0
 70
    24
 71
     3
 72
     9
 73
     5
 74
     0
 42
0.000000001
 43
0.00000001
 40
0.0
 40
0.0
 40
0.0
 40
0.0
 40
0.2530631905752496
 40
1.0
 40
1.0
 40
1.0
 40
1.0
 10
7.597963962497257
 20
-1.483396384686875
 30
0.0
 10
7.597963962497257
 20
-1.487874488853915
 30
0.0
 10
7.597963962497222
 20
-1.505570085581599
 30
0.0
 10
7.59796396249725
 20
-1.431258317850644
 30
0.0
 10
7.597963962497257
 20
-1.375752123158971
 30
0.0
  0
SPLINE
  5
BD
330
1F
100
AcDbEntity
  8
외형선
  6
Continuous
370
    15
100
AcDbSpline
210
0.0
220
0.0
230
1.0
 70
    24
 71
     3
 72
    10
 73
     6
 74
     0
 42
0.000000001
 43
0.00000001
 40
0.0
 40
0.0
 40
0.0
 40
0.0
 40
0.3757608824456329
 40
0.7515217648912658
 40
1.0
 40
1.0
 40
1.0
 40
1.0
 10
7.598076211353321
 20
1.034595272662873
 30
0.0
 10
7.598076211353321
 20
1.134659414354626
 30
0.0
 10
7.598076211353314
 20
1.334787697738133
 30
0.0
 10
7.598076211353314
 20
1.485801385214676
 30
0.0
 10
7.598076211353328
 20
1.485598667955863
 30
0.0
 10
7.598076211353328
 20
1.485517976398286
 30
0.0
  0
LINE
  5
BE
330
1F
100
AcDbEntity
  8
외형선
  6
Continuous
370
    15
100
AcDbLine
 10
7.598076211353321
 20
0.5963823482153269
 30
0.0
 11
7.598076211353321
 21
1.034595272662873
 31
0.0
  0
SPLINE
  5
BF
330
1F
100
AcDbEntity
  8
외형선
  6
Continuous
370
    15
100
AcDbSpline
210
0.0
220
0.0
230
1.0
 70
    24
 71
     3
 72
    10
 73
     6
 74
     0
 42
0.000000001
 43
0.00000001
 40
0.0
 40
0.0
 40
0.0
 40
0.0
 40
0.5
 40
0.5
 40
1.0
 40
1.0
 40
1.0
 40
1.0
 10
7.598076211353321
 20
-1.086047740832879
 30
0.0
 10
7.598076211353336
 20
-0.8761095698845078
 30
0.0
 10
7.598076211353328
 20
-0.5973553045747968
 30
0.0
 10
7.598076211353314
 20
-0.0002705052213758
 30
0.0
 10
7.598076211353328
 20
0.3167117771925589
 30
0.0
 10
7.598076211353321
 20
0.596382348215327
 30
0.0
  0
LINE
  5
C0
330
1F
100
AcDbEntity
  8
외형선
  6
Continuous
370
    15
100
AcDbLine
 10
7.598076211353321
 20
-1.375737399381164
 30
0.0
 11
7.598076211353321
 21
-1.086047740832879
 31
0.0
  0
LINE
  5
C1
330
1F
100
AcDbEntity
  8
외형선
  6
Continuous
370
    15
100
AcDbLine
 10
-43.40192378864668
 20
0.0010749287238931
 30
0.0
 11
-43.40192378864668
 21
2.401074928723895
 31
0.0
  0
LINE
  5
C2
330
1F
100
AcDbEntity
  8
외형선
  6
Continuous
370
    15
100
AcDbLine
 10
-43.40192378864668
 20
-2.398925071276109
 30
0.0
 11
-43.40192378864668
 21
0.0010749287238931
 31
0.0
  0
SPLINE
  5
C3
330
1F
100
AcDbEntity
  8
외형선
  6
Continuous
370
    15
100
AcDbSpline
210
0.0
220
0.0
230
1.0
 70
    24
 71
     3
 72
    14
 73
    10
 74
     0
 42
0.000000001
 43
0.00000001
 40
0.0
 40
0.0
 40
0.0
 40
0.0
 40
0.0884267263351393
 40
0.255074291155506
 40
0.4217218559754723
 40
0.5883694207962313
 40
0.7550169856165967
 40
0.9216645504369598
 40
1.0
 40
1.0
 40
1.0
 40
1.0
 10
8.598076211353321
 20
-1.394639608233326
 30
0.0
 10
8.598076211353314
 20
-1.351238772233334
 30
0.0
 10
8.598076211353314
 20
-1.226045429258077
 30
0.0
 10
8.598076211353321
 20
-0.9779539674902125
 30
0.0
 10
8.598076211353288
 20
-0.6710727865633416
 30
0.0
 10
8.598076211353371
 20
-0.3795593420916869
 30
0.0
 10
8.598076211353252
 20
-0.1443663967606177
 30
0.0
 10
8.598076211353378
 20
0.0023938945027371
 30
0.0
 10
8.598076211353314
 20
0.0276010967624102
 30
0.0
 10
8.598076211353321
 20
0.0356613189219255
 30
0.0
  0
SPLINE
  5
C4
330
1F
100
AcDbEntity
  8
외형선
  6
Continuous
370
    15
100
AcDbSpline
210
0.0
220
0.0
230
1.0
 70
     8
 71
     3
 72
    10
 73
     6
 74
     0
 42
0.000000001
 43
0.00000001
 40
0.0
 40
0.0
 40
0.0
 40
0.0
 40
0.5
 40
0.5
 40
1.0
 40
1.0
 40
1.0
 40
1.0
 10
8.598076211353309
 20
-1.394639608233327
 30
0.0
 10
8.431605171389295
 20
-1.359387136639203
 30
0.0
 10
8.267708147234218
 20
-1.315746465795988
 30
0.0
 10
7.932134467305794
 20
-1.212047771132214
 30
0.0
 10
7.763267175365534
 20
-1.152169916582785
 30
0.0
 10
7.59796396249725
 20
-1.086022351820501
 30
0.0
  0
SPLINE
  5
C5
330
1F
100
AcDbEntity
  8
외형선
  6
Continuous
370
    15
100
AcDbSpline
210
0.0
220
0.0
230
1.0
 70
     8
 71
     3
 72
    10
 73
     6
 74
     0
 42
0.000000001
 43
0.00000001
 40
0.0
 40
0.0
 40
0.0
 40
0.0
 40
0.5
 40
0.5
 40
1.0
 40
1.0
 40
1.0
 40
1.0
 10
8.598076211353328
 20
0.0356613189219262
 30
0.0
 10
8.431605171389323
 20
0.1318614342501571
 30
0.0
 10
8.267708147234218
 20
0.2273578924457749
 30
0.0
 10
7.932134467305787
 20
0.4158574563020809
 30
0.0
 10
7.763267175365527
 20
0.5082938810902393
 30
0.0
 10
7.597963962497243
 20
0.5964097762592171
 30
0.0
  0
SPLINE
  5
C6
330
1F
100
AcDbEntity
  8
외형선
  6
Continuous
370
    15
100
AcDbSpline
210
0.0
220
0.0
230
1.0
 70
     8
 71
     3
 72
    10
 73
     6
 74
     0
 42
0.000000001
 43
0.00000001
 40
0.0
 40
0.0
 40
0.0
 40
0.0
 40
0.5
 40
0.5
 40
1.0
 40
1.0
 40
1.0
 40
1.0
 10
8.598076211353309
 20
0.5506028455090997
 30
0.0
 10
8.431605171389295
 20
0.6401385825748848
 30
0.0
 10
8.267708147234218
 20
0.7258434902955162
 30
0.0
 10
7.932134467305794
 20
0.8885665444599026
 30
0.0
 10
7.763267175365534
 20
0.9650471695286459
 30
0.0
 10
7.59796396249725
 20
1.034621977789864
 30
0.0
  0
SPLINE
  5
C7
330
1F
100
AcDbEntity
  8
외형선
  6
Continuous
370
    15
100
AcDbSpline
210
0.0
220
0.0
230
1.0
 70
     8
 71
     3
 72
    10
 73
     6
 74
     0
 42
0.000000001
 43
0.00000001
 40
0.0
 40
0.0
 40
0.0
 40
0.0
 40
0.5
 40
0.5
 40
1.0
 40
1.0
 40
1.0
 40
1.0
 10
8.598076211353328
 20
1.500676136249771
 30
0.0
 10
8.431605171389323
 20
1.49845740322319
 30
0.0
 10
8.267708147234218
 20
1.487043997458883
 30
0.0
 10
7.932134467305787
 20
1.445811412558832
 30
0.0
 10
7.763267175365527
 20
1.415976016655116
 30
0.0
 10
7.597963962497243
 20
1.377874267520254
 30
0.0
  0
SPLINE
  5
C8
330
1F
100
AcDbEntity
  8
외형선
  6
Continuous
370
    15
100
AcDbSpline
210
0.0
220
0.0
230
1.0
 70
    24
 71
     3
 72
    14
 73
    10
 74
     0
 42
0.000000001
 43
0.00000001
 40
0.0
 40
0.0
 40
0.0
 40
0.0
 40
0.0921547257067383
 40
0.242452315997834
 40
0.3971085465892524
 40
0.5474061368802711
 40
0.7020623674716062
 40
0.8489994837151401
 40
1.0
 40
1.0
 40
1.0
 40
1.0
 10
8.598076211353321
 20
0.5919703182316937
 30
0.0
 10
8.598076211353309
 20
0.6124905036246326
 30
0.0
 10
8.598076211353295
 20
0.6664776045038138
 30
0.0
 10
8.598076211353371
 20
0.7746963557889858
 30
0.0
 10
8.598076211353328
 20
0.9091818648751793
 30
0.0
 10
8.598076211353314
 20
1.055502583384257
 30
0.0
 10
8.598076211353328
 20
1.204552722067639
 30
0.0
 10
8.598076211353273
 20
1.355553091125662
 30
0.0
 10
8.598076211353314
 20
1.451863945090508
 30
0.0
 10
8.598076211353328
 20
1.500676136249816
 30
0.0
  0
SPLINE
  5
C9
330
1F
100
AcDbEntity
  8
외형선
  6
Continuous
370
    15
100
AcDbSpline
210
0.0
220
0.0
230
1.0
 70
     8
 71
     3
 72
    10
 73
     6
 74
     0
 42
0.000000001
 43
0.00000001
 40
0.0
 40
0.0
 40
0.0
 40
0.0
 40
0.5
 40
0.5
 40
1.0
 40
1.0
 40
1.0
 40
1.0
 10
8.598076211353328
 20
-1.498526278801984
 30
0.0
 10
8.431605171389323
 20
-1.496307545775404
 30
0.0
 10
8.267708147234218
 20
-1.484894140011097
 30
0.0
 10
7.932134467305787
 20
-1.443661555111046
 30
0.0
 10
7.763267175365527
 20
-1.41382615920733
 30
0.0
 10
7.597963962497243
 20
-1.375724410072468
 30
0.0
  0
LINE
  5
CA
330
1F
100
AcDbEntity
  8
중심선
100
AcDbLine
 10
-46.40192378864668
 20
0.0010749287238931
 30
0.0
 11
19.59807621135333
 21
0.0010749287238892
 31
0.0
  0
LINE
  5
CB
330
1F
100
AcDbEntity
  8
참조1
100
AcDbLine
 10
-18.40243715620291
 20
-2.498925071276081
 30
0.0
 11
-18.4024371562029
 21
-39.9989250712761
 31
0.0
  0
LINE
  5
CC
330
1F
100
AcDbEntity
  8
참조1
100
AcDbLine
 10
-18.4024371562029
 20
-39.9989250712761
 30
0.0
 11
-33.56078060295535
 21
-39.9989250712761
 31
0.0
  0
CIRCLE
  5
CD
330
1F
100
AcDbEntity
  8
해칭선
100
AcDbCircle
 10
0.0
 20
0.0
 30
0.0
 40
3.000000000000002
  0
INSERT
  5
CE
330
1F
100
AcDbEntity
  8
0
  6
Continuous
 62
     7
100
AcDbBlockReference
 66
     1
  2
블럭10
 10
-32.34271008832811
 20
-52.04609937292004
 30
0.0
  0
ATTRIB
  5
CF
330
CE
100
AcDbEntity
  8
FORMAT
 62
     2
100
AcDbText
 10
-48.46197112776367
 20
-49.97073246008785
 30
0.0
 40
4.233333333333333
  1
SEME0103001E [ 4 FLUTE ]
 41
0.75
  7
SLDTEXTSTYLE0
 11
-48.46197112776367
 21
-52.08739912675451
 31
0.0
100
AcDbAttribute
  2
AUTOATTR0
 70
     0
 74
     1
  0
SEQEND
  5
D0
330
CE
100
AcDbEntity
  8
0
  6
Continuous
 62
     7
  0
HATCH
  5
D1
330
1F
100
AcDbEntity
  8
중심선
100
AcDbHatch
 10
0.0
 20
0.0
 30
0.0
210
0.0
220
0.0
230
1.0
  2
SOLID
 70
     1
 71
     0
 91
        1
 92
        0
 93
        4
 72
     1
 10
-26.62780078394727
 20
-35.7989250712761
 11
-30.07407602778455
 21
-35.7989250712761
 72
     1
 10
-30.07407602778454
 20
-35.7989250712761
 11
-32.20230588698857
 21
-38.3352506518487
 72
     1
 10
-32.20230588698857
 20
-38.3352506518487
 11
-28.75599755803814
 21
-38.33521122254621
 72
     1
 10
-28.75599755803814
 20
-38.33521122254621
 11
-26.62780078394727
 21
-35.7989250712761
 97
        0
 75
     0
 76
     1
 98
        1
 10
-2.626794919243101
 20
0.0010749287238931
  0
HATCH
  5
D2
330
1F
100
AcDbEntity
  8
중심선
100
AcDbHatch
 10
0.0
 20
0.0
 30
0.0
210
0.0
220
0.0
230
1.0
  2
SOLID
 70
     1
 71
     0
 91
        1
 92
        0
 93
        4
 72
     1
 10
-21.61503679291131
 20
-35.7989250712761
 11
-25.0613120367486
 21
-35.7989250712761
 72
     1
 10
-25.0613120367486
 20
-35.7989250712761
 11
-29.59245004510598
 21
-41.19892507127612
 72
     1
 10
-29.59245004510598
 20
-41.19892507127612
 11
-26.1461748012687
 21
-41.19892507127612
 72
     1
 10
-26.1461748012687
 20
-41.19892507127612
 11
-21.61503679291131
 21
-35.7989250712761
 97
        0
 75
     0
 76
     1
 98
        1
 10
-2.626794919243101
 20
0.0010749287238931
  0
HATCH
  5
D3
330
1F
100
AcDbEntity
  8
중심선
100
AcDbHatch
 10
0.0
 20
0.0
 30
0.0
210
0.0
220
0.0
230
1.0
  2
SOLID
 70
     1
 71
     0
 91
        1
 92
        0
 93
        4
 72
     1
 10
-16.60227280187542
 20
-35.79892507127613
 11
-20.04854804571253
 21
-35.7989250712761
 72
     1
 10
-20.04854804571253
 20
-35.7989250712761
 11
-27.09698494760178
 21
-44.19892507127612
 72
     1
 10
-27.09698494760178
 20
-44.19892507127612
 11
-23.6507097037645
 21
-44.19892507127612
 72
     1
 10
-23.6507097037645
 20
-44.19892507127612
 11
-16.60227280187542
 21
-35.79892507127613
 97
        0
 75
     0
 76
     1
 98
        1
 10
-2.626794919243101
 20
0.0010749287238931
  0
HATCH
  5
D4
330
1F
100
AcDbEntity
  8
중심선
100
AcDbHatch
 10
0.0
 20
0.0
 30
0.0
210
0.0
220
0.0
230
1.0
  2
SOLID
 70
     1
 71
     0
 91
        1
 92
        0
 93
        6
 72
     3
 10
-11.80238237086322
 20
-39.99892507132738
 11
3.960054785062283
 21
1.540882976769353E-10
 40
0.3939339440162628
 50
17.09539180608437
 51
320.0019657685081
 73
     0
 72
     1
 10
-10.11938271516262
 20
-38.58681907591441
 11
-7.814080841461585
 21
-36.65249236586649
 72
     3
 10
-11.80238237091606
 20
-39.99892507127625
 11
6.600054785286829
 21
-1.278976924368180E-13
 40
0.636358354079598
 50
39.9987384933741
 51
368.4976242363725
 73
     1
 72
     1
 10
-5.377049879015454
 20
-39.03892507120612
 11
-13.12231506408014
 21
-39.03892507120609
 72
     1
 10
-13.12231506408014
 20
-39.03892507120609
 11
-13.12234010852607
 21
-40.95892507120602
 72
     1
 10
-13.12234010852607
 20
-40.95892507120602
 11
-8.680960339054039
 21
-40.95892507120599
 97
        0
 75
     0
 76
     1
 98
        1
 10
-2.626794919243101
 20
0.0010749287238931
  0
DIMENSION
  5
D5
330
1F
100
AcDbEntity
  8
치수문자_일반주서
100
AcDbDimension
  2
_D
 10
26.59807621135333
 20
-1.498925071276073
 30
0.0
 11
26.59807621135329
 21
11.16757492872394
 31
0.0
 70
   160
  1
%%c<>
 71
     2
 42
3.0
 52
-270.0
  3
SLDDIMSTYLE0
100
AcDbAlignedDimension
 13
16.59807621135332
 23
1.501074928723889
 33
0.0
 14
16.59807621135332
 24
-1.498925071276111
 34
0.0
 50
90.0000000000002
100
AcDbRotatedDimension
1001
PE_URL
1000

  0
DIMENSION
  5
E3
330
1F
100
AcDbEntity
  8
치수문자_일반주서
100
AcDbDimension
  2
_D_1
 10
-53.40192378864666
 20
-2.998925071276149
 30
0.0
 11
-53.40192378864671
 21
12.66757492872386
 31
0.0
 70
   160
  1
%%c<>
 71
     2
 42
6.000000000000005
 52
-270.0
  3
SLDDIMSTYLE0
100
AcDbAlignedDimension
 13
-42.80192378864668
 23
3.001074928723896
 33
0.0
 14
-42.80192378864668
 24
-2.998925071276109
 34
0.0
 50
90.0000000000002
100
AcDbRotatedDimension
1001
PE_URL
1000

  0
DIMENSION
  5
F0
330
1F
100
AcDbEntity
  8
치수문자_일반주서
100
AcDbDimension
  2
_D_2
 10
8.598076211353332
 20
13.0010749287239
 30
0.0
 11
12.59807621135333
 21
13.0010749287239
 31
0.0
 70
   160
  1
<>
 71
     2
 42
7.999999999999991
  3
SLDDIMSTYLE0
100
AcDbAlignedDimension
 13
16.59807621135332
 23
1.501074928723889
 33
0.0
 14
8.598076211353332
 24
1.500676136249873
 34
0.0
100
AcDbRotatedDimension
1001
PE_URL
1000

  0
DIMENSION
  5
FC
330
1F
100
AcDbEntity
  8
치수문자_일반주서
100
AcDbDimension
  2
_D_3
 10
-43.40192378864668
 20
23.0010749287239
 30
0.0
 11
-13.40192378864668
 21
23.0010749287239
 31
0.0
 70
   160
  1
<>
 71
     2
 42
60.0
  3
SLDDIMSTYLE0
100
AcDbAlignedDimension
 13
16.59807621135332
 23
1.501074928723889
 33
0.0
 14
-43.40192378864668
 24
2.401074928723895
 34
0.0
 50
0.0000000000000068
100
AcDbRotatedDimension
1001
PE_URL
1000

  0
LINE
  5
107
330
1F
100
AcDbEntity
  8
참조1
100
AcDbLine
 10
64.41156002669892
 20
7.441074928723896
 30
0.0
 11
64.41156002669892
 21
-7.438925071276109
 31
0.0
  0
LINE
  5
108
330
1F
100
AcDbEntity
  8
참조1
100
AcDbLine
 10
77.11156002669892
 20
5.441074928723896
 30
0.0
 11
64.41156002669892
 21
5.441074928723896
 31
0.0
  0
SOLID
  5
109
330
1F
100
AcDbEntity
  8
참조1
100
AcDbTrace
 10
64.41156002669892
 20
5.441074928723896
 30
0.0
 11
70.76156002669892
 21
4.425074928723896
 31
0.0
 12
70.76156002669892
 22
6.457074928723896
 32
0.0
 13
70.76156002669892
 23
6.457074928723896
 33
0.0
  0
LINE
  5
10A
330
1F
100
AcDbEntity
  8
참조1
100
AcDbLine
 10
77.11156002669892
 20
-5.438925071276109
 30
0.0
 11
64.41156002669892
 21
-5.438925071276109
 31
0.0
  0
SOLID
  5
10B
330
1F
100
AcDbEntity
  8
참조1
100
AcDbTrace
 10
64.41156002669892
 20
-5.438925071276109
 30
0.0
 11
70.76156002669892
 21
-6.454925071276109
 31
0.0
 12
70.76156002669892
 22
-4.422925071276109
 32
0.0
 13
70.76156002669892
 23
-4.422925071276109
 33
0.0
  0
MTEXT
  5
10C
330
1F
100
AcDbEntity
  8
참조1
100
AcDbMText
 10
73.8090501191692
 20
10.98929157337383
 30
0.0
 40
3.5
 41
0.0
 71
     1
 72
     1
  1
A
  7
SLDTEXTSTYLE0
 73
     1
 44
1.0
  0
MTEXT
  5
10D
330
1F
100
AcDbEntity
  8
참조1
100
AcDbMText
 10
73.8090501191692
 20
0.1092915733738259
 30
0.0
 40
3.5
 41
0.0
 71
     1
 72
     1
  1
A
  7
SLDTEXTSTYLE0
 73
     1
 44
1.0
  0
INSERT
  5
114
330
1F
100
AcDbEntity
  8
해칭선
100
AcDbBlockReference
  2
SW_DOWELSYMBOL_0
 10
0.0
 20
0.0
 30
0.0
  0
ARC
  5
1C1
330
1F
100
AcDbEntity
  8
0
  6
Continuous
 62
     1
370
    15
100
AcDbCircle
 10
16.49807621135332
 20
1.40107492872389
 30
0.0
 40
0.1
100
AcDbArc
 50
0.0
 51
90.0
1001
PE_URL
1000

  0
ARC
  5
1C2
102
{ACAD_REACTORS
102
}
330
1F
100
AcDbEntity
  8
0
  6
Continuous
 62
     1
370
    15
100
AcDbCircle
 10
16.49807621135332
 20
-1.398925071276111
 30
0.0
 40
0.1
100
AcDbArc
 50
270.0
 51
0.0
1001
PE_URL
1000

  0
DIMENSION
  5
1C3
102
{ACAD_REACTORS
102
}
102
{ACAD_XDICTIONARY
360
1C4
102
}
330
1F
100
AcDbEntity
  8
치수문자_일반주서
100
AcDbDimension
  2
*D12
 10
16.49807621135332
 20
-1.398925071276111
 30
0.0
 11
26.85222982090096
 21
-14.00557392126317
 31
0.0
 70
   164
 71
     5
 42
0.0999999999999989
  3
SLDDIMSTYLE1
100
AcDbRadialDimension
 15
16.56154536628347
 25
-1.476201628992231
 35
0.0
 40
0.0
1001
ACAD
1000
DSTYLE
1002
{
1070
    78
1070
     8
1002
}
1001
ACAD_DSTYLE_DIMRADIAL_EXTENSION
1070
   387
1070
     1
1070
   388
1040
4.71238898038469
1070
   390
1040
0.0
1001
PE_URL
1000

  0
ENDSEC
  0
SECTION
  2
OBJECTS
  0
DICTIONARY
  5
C
330
0
100
AcDbDictionary
281
     1
  3
ACAD_GROUP
350
D
  3
ACAD_LAYOUT
350
1A
  3
ACAD_MLINESTYLE
350
17
  3
ACAD_PLOTSETTINGS
350
19
  3
ACAD_PLOTSTYLENAME
350
E
  3
ACAD_SCALELIST
350
47
  3
APPDATA
350
136
  3
DWGPROPS
350
1D0
  0
DICTIONARY
  5
17C
330
2
100
AcDbDictionary
280
     1
281
     1
  3
ACAD_LAYERSTATES
360
17D
  0
DICTIONARY
  5
1C4
330
1C3
100
AcDbDictionary
280
     1
281
     1
  0
DICTIONARY
  5
D
102
{ACAD_REACTORS
330
C
102
}
330
C
100
AcDbDictionary
281
     1
  0
DICTIONARY
  5
1A
102
{ACAD_REACTORS
330
C
102
}
330
C
100
AcDbDictionary
281
     1
  3
Layout1
350
1E
  3
Layout2
350
26
  3
Model
350
22
  0
DICTIONARY
  5
17
102
{ACAD_REACTORS
330
C
102
}
330
C
100
AcDbDictionary
281
     1
  3
Standard
350
18
  0
DICTIONARY
  5
19
102
{ACAD_REACTORS
330
C
102
}
330
C
100
AcDbDictionary
281
     1
  0
ACDBDICTIONARYWDFLT
  5
E
102
{ACAD_REACTORS
330
C
102
}
330
C
100
AcDbDictionary
281
     1
  3
Normal
350
F
100
AcDbDictionaryWithDefault
340
F
  0
DICTIONARY
  5
47
102
{ACAD_REACTORS
330
C
102
}
330
C
100
AcDbDictionary
281
     1
  3
A0
350
48
  3
A1
350
49
  3
A2
350
4A
  3
A3
350
4B
  3
A4
350
4C
  3
A5
350
4D
  3
A6
350
4E
  3
A7
350
4F
  3
A8
350
50
  3
A9
350
51
  3
B0
350
52
  3
B1
350
53
  3
B2
350
54
  3
B3
350
55
  3
B4
350
56
  3
B5
350
57
  3
B6
350
58
  3
B7
350
59
  3
B8
350
5A
  3
B9
350
5B
  3
C0
350
5C
  3
C1
350
5D
  3
C2
350
5E
  3
C3
350
5F
  3
C4
350
60
  3
C5
350
61
  3
C6
350
62
  3
C7
350
63
  3
C8
350
64
  3
C9
350
65
  3
D0
350
66
  3
D1
350
67
  3
D2
350
68
  0
DICTIONARY
  5
136
102
{ACAD_REACTORS
330
C
102
}
330
C
100
AcDbDictionary
281
     1
  0
XRECORD
  5
1D0
102
{ACAD_REACTORS
330
C
102
}
330
C
100
AcDbXrecord
280
     1
  1
DWGPROPS COOKIE
  2

  3

  4

  6

  7

  8
12017044
  9

300
=
301
=
302
=
303
=
304
=
305
=
306
=
307
=
308
=
309
=
 40
0.0
 41
2458269.427271065
 42
2458270.352303206
  1

 90
        0
  0
DICTIONARY
  5
17D
102
{ACAD_REACTORS
330
17C
102
}
330
17C
100
AcDbDictionary
281
     1
  0
LAYOUT
  5
1E
102
{ACAD_REACTORS
330
1A
102
}
330
1A
100
AcDbPlotSettings
  1

  2
none_device
  4

  6

 40
0.0
 41
0.0
 42
0.0
 43
0.0
 44
0.0
 45
0.0
 46
0.0
 47
0.0
 48
0.0
 49
0.0
140
0.0
141
0.0
142
1.0
143
1.0
 70
   688
 72
     1
 73
     0
 74
     5
  7

 75
    16
147
1.0
148
0.0
149
0.0
100
AcDbLayout
  1
Layout1
 70
     1
 71
     1
 10
0.0
 20
0.0
 11
420.0
 21
297.0
 12
0.0
 22
0.0
 32
0.0
 14
1.000000000000000E+20
 24
1.000000000000000E+20
 34
1.000000000000000E+20
 15
-1.000000000000000E+20
 25
-1.000000000000000E+20
 35
-1.000000000000000E+20
146
0.0
 13
0.0
 23
0.0
 33
0.0
 16
1.0
 26
0.0
 36
0.0
 17
0.0
 27
1.0
 37
0.0
 76
     0
330
1B
  0
LAYOUT
  5
26
102
{ACAD_REACTORS
330
1A
102
}
330
1A
100
AcDbPlotSettings
  1

  2
none_device
  4

  6

 40
0.0
 41
0.0
 42
0.0
 43
0.0
 44
0.0
 45
0.0
 46
0.0
 47
0.0
 48
0.0
 49
0.0
140
0.0
141
0.0
142
1.0
143
1.0
 70
   688
 72
     1
 73
     0
 74
     5
  7

 75
    16
147
1.0
148
0.0
149
0.0
100
AcDbLayout
  1
Layout2
 70
     1
 71
     2
 10
0.0
 20
0.0
 11
0.0
 21
0.0
 12
0.0
 22
0.0
 32
0.0
 14
0.0
 24
0.0
 34
0.0
 15
0.0
 25
0.0
 35
0.0
146
0.0
 13
0.0
 23
0.0
 33
0.0
 16
1.0
 26
0.0
 36
0.0
 17
0.0
 27
1.0
 37
0.0
 76
     0
330
23
  0
LAYOUT
  5
22
102
{ACAD_REACTORS
330
1A
102
}
330
1A
100
AcDbPlotSettings
  1

  2
none_device
  4
ANSI_A_(11.00_x_8.50_Inches)
  6

 40
6.35
 41
19.05
 42
6.35000508
 43
19.05000254
 44
279.4
 45
215.9
 46
111.6855150645388
 47
108.9034149203022
 48
0.0
 49
0.0
140
0.0
141
0.0
142
0.0789824718862547
143
1.0
 70
  1696
 72
     0
 73
     0
 74
     0
  7

 75
     0
147
0.0235690232323232
148
0.0
149
0.0
100
AcDbLayout
  1
Model
 70
     1
 71
     0
 10
0.0
 20
0.0
 11
420.0
 21
297.0
 12
0.0
 22
0.0
 32
0.0
 14
-57.77692378864673
 24
-49.97073246008785
 34
0.0
 15
77.11156002669892
 25
27.3760749287239
 35
0.0
146
0.0
 13
0.0
 23
0.0
 33
0.0
 16
1.0
 26
0.0
 36
0.0
 17
0.0
 27
1.0
 37
0.0
 76
     0
330
1F
331
29
  0
MLINESTYLE
  5
18
102
{ACAD_REACTORS
330
17
102
}
330
17
100
AcDbMlineStyle
  2
Standard
 70
     0
  3

 62
   256
 51
90.0
 52
90.0
 71
     2
 49
0.5
 62
   256
  6
BYLAYER
 49
-0.5
 62
   256
  6
BYLAYER
  0
ACDBPLACEHOLDER
  5
F
102
{ACAD_REACTORS
330
E
102
}
330
E
  0
SCALE
  5
48
102
{ACAD_REACTORS
330
47
102
}
330
47
100
AcDbScale
 70
     0
300
1:1
140
1.0
141
1.0
290
     1
  0
SCALE
  5
49
102
{ACAD_REACTORS
330
47
102
}
330
47
100
AcDbScale
 70
     0
300
1:2
140
1.0
141
2.0
290
     0
  0
SCALE
  5
4A
102
{ACAD_REACTORS
330
47
102
}
330
47
100
AcDbScale
 70
     0
300
1:4
140
1.0
141
4.0
290
     0
  0
SCALE
  5
4B
102
{ACAD_REACTORS
330
47
102
}
330
47
100
AcDbScale
 70
     0
300
1:5
140
1.0
141
5.0
290
     0
  0
SCALE
  5
4C
102
{ACAD_REACTORS
330
47
102
}
330
47
100
AcDbScale
 70
     0
300
1:8
140
1.0
141
8.0
290
     0
  0
SCALE
  5
4D
102
{ACAD_REACTORS
330
47
102
}
330
47
100
AcDbScale
 70
     0
300
1:10
140
1.0
141
10.0
290
     0
  0
SCALE
  5
4E
102
{ACAD_REACTORS
330
47
102
}
330
47
100
AcDbScale
 70
     0
300
1:16
140
1.0
141
16.0
290
     0
  0
SCALE
  5
4F
102
{ACAD_REACTORS
330
47
102
}
330
47
100
AcDbScale
 70
     0
300
1:20
140
1.0
141
20.0
290
     0
  0
SCALE
  5
50
102
{ACAD_REACTORS
330
47
102
}
330
47
100
AcDbScale
 70
     0
300
1:30
140
1.0
141
30.0
290
     0
  0
SCALE
  5
51
102
{ACAD_REACTORS
330
47
102
}
330
47
100
AcDbScale
 70
     0
300
1:40
140
1.0
141
40.0
290
     0
  0
SCALE
  5
52
102
{ACAD_REACTORS
330
47
102
}
330
47
100
AcDbScale
 70
     0
300
1:50
140
1.0
141
50.0
290
     0
  0
SCALE
  5
53
102
{ACAD_REACTORS
330
47
102
}
330
47
100
AcDbScale
 70
     0
300
1:100
140
1.0
141
100.0
290
     0
  0
SCALE
  5
54
102
{ACAD_REACTORS
330
47
102
}
330
47
100
AcDbScale
 70
     0
300
2:1
140
2.0
141
1.0
290
     0
  0
SCALE
  5
55
102
{ACAD_REACTORS
330
47
102
}
330
47
100
AcDbScale
 70
     0
300
4:1
140
4.0
141
1.0
290
     0
  0
SCALE
  5
56
102
{ACAD_REACTORS
330
47
102
}
330
47
100
AcDbScale
 70
     0
300
8:1
140
8.0
141
1.0
290
     0
  0
SCALE
  5
57
102
{ACAD_REACTORS
330
47
102
}
330
47
100
AcDbScale
 70
     0
300
10:1
140
10.0
141
1.0
290
     0
  0
SCALE
  5
58
102
{ACAD_REACTORS
330
47
102
}
330
47
100
AcDbScale
 70
     0
300
100:1
140
100.0
141
1.0
290
     0
  0
SCALE
  5
59
102
{ACAD_REACTORS
330
47
102
}
330
47
100
AcDbScale
 70
     0
300
1/128" = 1'-0"
140
0.0078125
141
12.0
290
     0
  0
SCALE
  5
5A
102
{ACAD_REACTORS
330
47
102
}
330
47
100
AcDbScale
 70
     0
300
1/64" = 1'-0"
140
0.015625
141
12.0
290
     0
  0
SCALE
  5
5B
102
{ACAD_REACTORS
330
47
102
}
330
47
100
AcDbScale
 70
     0
300
1/32" = 1'-0"
140
0.03125
141
12.0
290
     0
  0
SCALE
  5
5C
102
{ACAD_REACTORS
330
47
102
}
330
47
100
AcDbScale
 70
     0
300
1/16" = 1'-0"
140
0.0625
141
12.0
290
     0
  0
SCALE
  5
5D
102
{ACAD_REACTORS
330
47
102
}
330
47
100
AcDbScale
 70
     0
300
3/32" = 1'-0"
140
0.09375
141
12.0
290
     0
  0
SCALE
  5
5E
102
{ACAD_REACTORS
330
47
102
}
330
47
100
AcDbScale
 70
     0
300
1/8" = 1'-0"
140
0.125
141
12.0
290
     0
  0
SCALE
  5
5F
102
{ACAD_REACTORS
330
47
102
}
330
47
100
AcDbScale
 70
     0
300
3/16" = 1'-0"
140
0.1875
141
12.0
290
     0
  0
SCALE
  5
60
102
{ACAD_REACTORS
330
47
102
}
330
47
100
AcDbScale
 70
     0
300
1/4" = 1'-0"
140
0.25
141
12.0
290
     0
  0
SCALE
  5
61
102
{ACAD_REACTORS
330
47
102
}
330
47
100
AcDbScale
 70
     0
300
3/8" = 1'-0"
140
0.375
141
12.0
290
     0
  0
SCALE
  5
62
102
{ACAD_REACTORS
330
47
102
}
330
47
100
AcDbScale
 70
     0
300
1/2" = 1'-0"
140
0.5
141
12.0
290
     0
  0
SCALE
  5
63
102
{ACAD_REACTORS
330
47
102
}
330
47
100
AcDbScale
 70
     0
300
3/4" = 1'-0"
140
0.75
141
12.0
290
     0
  0
SCALE
  5
64
102
{ACAD_REACTORS
330
47
102
}
330
47
100
AcDbScale
 70
     0
300
1" = 1'-0"
140
1.0
141
12.0
290
     0
  0
SCALE
  5
65
102
{ACAD_REACTORS
330
47
102
}
330
47
100
AcDbScale
 70
     0
300
1-1/2" = 1'-0"
140
1.5
141
12.0
290
     0
  0
SCALE
  5
66
102
{ACAD_REACTORS
330
47
102
}
330
47
100
AcDbScale
 70
     0
300
3" = 1'-0"
140
3.0
141
12.0
290
     0
  0
SCALE
  5
67
102
{ACAD_REACTORS
330
47
102
}
330
47
100
AcDbScale
 70
     0
300
6" = 1'-0"
140
6.0
141
12.0
290
     0
  0
SCALE
  5
68
102
{ACAD_REACTORS
330
47
102
}
330
47
100
AcDbScale
 70
     0
300
1'-0" = 1'-0"
140
12.0
141
12.0
290
     0
  0
ENDSEC
  0
EOF
