  0
SECTION
  2
HEADER
  9
$ACADVER
  1
AC1015
  9
$ACADMAINTVER
 70
     6
  9
$DWGCODEPAGE
  3
ANSI_949
  9
$INSBASE
 10
0.0
 20
0.0
 30
0.0
  9
$EXTMIN
 10
-86.50897459621557
 20
-49.97073246008784
 30
0.0
  9
$EXTMAX
 10
48.37950921913006
 20
27.3760749287239
 30
0.0
  9
$LIMMIN
 10
0.0
 20
0.0
  9
$LIMMAX
 10
420.0
 20
297.0
  9
$ORTHOMODE
 70
     1
  9
$REGENMODE
 70
     1
  9
$FILLMODE
 70
     1
  9
$QTEXTMODE
 70
     0
  9
$MIRRTEXT
 70
     1
  9
$LTSCALE
 40
1.0
  9
$ATTMODE
 70
     1
  9
$TEXTSIZE
 40
3.5
  9
$TRACEWID
 40
1.0
  9
$TEXTSTYLE
  7
Standard
  9
$CLAYER
  8
0
  9
$CELTYPE
  6
ByLayer
  9
$CECOLOR
 62
   256
  9
$CELTSCALE
 40
1.0
  9
$DISPSILH
 70
     0
  9
$DIMSCALE
 40
1.0
  9
$DIMASZ
 40
3.302
  9
$DIMEXO
 40
1.0
  9
$DIMDLI
 40
3.75
  9
$DIMRND
 40
0.0
  9
$DIMDLE
 40
0.0
  9
$DIMEXE
 40
1.0
  9
$DIMTP
 40
0.0
  9
$DIMTM
 40
0.0
  9
$DIMTXT
 40
3.5
  9
$DIMCEN
 40
2.5
  9
$DIMTSZ
 40
0.0
  9
$DIMTOL
 70
     0
  9
$DIMLIM
 70
     0
  9
$DIMTIH
 70
     1
  9
$DIMTOH
 70
     1
  9
$DIMSE1
 70
     0
  9
$DIMSE2
 70
     0
  9
$DIMTAD
 70
     1
  9
$DIMZIN
 70
     0
  9
$DIMBLK
  1

  9
$DIMASO
 70
     1
  9
$DIMSHO
 70
     1
  9
$DIMPOST
  1

  9
$DIMAPOST
  1

  9
$DIMALT
 70
     0
  9
$DIMALTD
 70
     3
  9
$DIMALTF
 40
0.0393700787401575
  9
$DIMLFAC
 40
1.0
  9
$DIMTOFL
 70
     1
  9
$DIMTVP
 40
0.0
  9
$DIMTIX
 70
     0
  9
$DIMSOXD
 70
     0
  9
$DIMSAH
 70
     0
  9
$DIMBLK1
  1

  9
$DIMBLK2
  1

  9
$DIMSTYLE
  2
ISO-25
  9
$DIMCLRD
 70
     0
  9
$DIMCLRE
 70
     0
  9
$DIMCLRT
 70
     0
  9
$DIMTFAC
 40
1.0
  9
$DIMGAP
 40
1.524
  9
$DIMJUST
 70
     0
  9
$DIMSD1
 70
     0
  9
$DIMSD2
 70
     0
  9
$DIMTOLJ
 70
     0
  9
$DIMTZIN
 70
     0
  9
$DIMALTZ
 70
     0
  9
$DIMALTTZ
 70
     0
  9
$DIMUPT
 70
     0
  9
$DIMDEC
 70
     2
  9
$DIMTDEC
 70
     2
  9
$DIMALTU
 70
     2
  9
$DIMALTTD
 70
     3
  9
$DIMTXSTY
  7
Standard
  9
$DIMAUNIT
 70
     0
  9
$DIMADEC
 70
     2
  9
$DIMALTRND
 40
0.0
  9
$DIMAZIN
 70
     0
  9
$DIMDSEP
 70
    44
  9
$DIMATFIT
 70
     3
  9
$DIMFRAC
 70
     0
  9
$DIMLDRBLK
  1

  9
$DIMLUNIT
 70
     2
  9
$DIMLWD
 70
    -2
  9
$DIMLWE
 70
    -2
  9
$DIMTMOVE
 70
     0
  9
$LUNITS
 70
     2
  9
$LUPREC
 70
     2
  9
$SKETCHINC
 40
1.0
  9
$FILLETRAD
 40
10.0
  9
$AUNITS
 70
     0
  9
$AUPREC
 70
     2
  9
$MENU
  1
.
  9
$ELEVATION
 40
0.0
  9
$PELEVATION
 40
0.0
  9
$THICKNESS
 40
0.0
  9
$LIMCHECK
 70
     0
  9
$CHAMFERA
 40
0.0
  9
$CHAMFERB
 40
0.0
  9
$CHAMFERC
 40
0.0
  9
$CHAMFERD
 40
0.0
  9
$SKPOLY
 70
     0
  9
$TDCREATE
 40
2458269.808131551
  9
$TDUCREATE
 40
2458269.433131551
  9
$TDUPDATE
 40
2458270.7705614
  9
$TDUUPDATE
 40
2458270.3955614
  9
$TDINDWG
 40
0.002095787
  9
$TDUSRTIMER
 40
0.0020957755
  9
$USRTIMER
 70
     1
  9
$ANGBASE
 50
0.0
  9
$ANGDIR
 70
     0
  9
$PDMODE
 70
     0
  9
$PDSIZE
 40
-1.0
  9
$PLINEWID
 40
0.0
  9
$SPLFRAME
 70
     0
  9
$SPLINETYPE
 70
     6
  9
$SPLINESEGS
 70
     8
  9
$HANDSEED
  5
1CB
  9
$SURFTAB1
 70
     6
  9
$SURFTAB2
 70
     6
  9
$SURFTYPE
 70
     6
  9
$SURFU
 70
     6
  9
$SURFV
 70
     6
  9
$UCSBASE
  2

  9
$UCSNAME
  2

  9
$UCSORG
 10
0.0
 20
0.0
 30
0.0
  9
$UCSXDIR
 10
1.0
 20
0.0
 30
0.0
  9
$UCSYDIR
 10
0.0
 20
1.0
 30
0.0
  9
$UCSORTHOREF
  2

  9
$UCSORTHOVIEW
 70
     0
  9
$UCSORGTOP
 10
0.0
 20
0.0
 30
0.0
  9
$UCSORGBOTTOM
 10
0.0
 20
0.0
 30
0.0
  9
$UCSORGLEFT
 10
0.0
 20
0.0
 30
0.0
  9
$UCSORGRIGHT
 10
0.0
 20
0.0
 30
0.0
  9
$UCSORGFRONT
 10
0.0
 20
0.0
 30
0.0
  9
$UCSORGBACK
 10
0.0
 20
0.0
 30
0.0
  9
$PUCSBASE
  2

  9
$PUCSNAME
  2

  9
$PUCSORG
 10
0.0
 20
0.0
 30
0.0
  9
$PUCSXDIR
 10
1.0
 20
0.0
 30
0.0
  9
$PUCSYDIR
 10
0.0
 20
1.0
 30
0.0
  9
$PUCSORTHOREF
  2

  9
$PUCSORTHOVIEW
 70
     0
  9
$PUCSORGTOP
 10
0.0
 20
0.0
 30
0.0
  9
$PUCSORGBOTTOM
 10
0.0
 20
0.0
 30
0.0
  9
$PUCSORGLEFT
 10
0.0
 20
0.0
 30
0.0
  9
$PUCSORGRIGHT
 10
0.0
 20
0.0
 30
0.0
  9
$PUCSORGFRONT
 10
0.0
 20
0.0
 30
0.0
  9
$PUCSORGBACK
 10
0.0
 20
0.0
 30
0.0
  9
$USERI1
 70
     0
  9
$USERI2
 70
     0
  9
$USERI3
 70
     0
  9
$USERI4
 70
     0
  9
$USERI5
 70
     0
  9
$USERR1
 40
0.0
  9
$USERR2
 40
0.0
  9
$USERR3
 40
0.0
  9
$USERR4
 40
0.0
  9
$USERR5
 40
0.0
  9
$WORLDVIEW
 70
     1
  9
$SHADEDGE
 70
     3
  9
$SHADEDIF
 70
    70
  9
$TILEMODE
 70
     1
  9
$MAXACTVP
 70
    64
  9
$PINSBASE
 10
0.0
 20
0.0
 30
0.0
  9
$PLIMCHECK
 70
     0
  9
$PEXTMIN
 10
1.000000000000000E+20
 20
1.000000000000000E+20
 30
1.000000000000000E+20
  9
$PEXTMAX
 10
-1.000000000000000E+20
 20
-1.000000000000000E+20
 30
-1.000000000000000E+20
  9
$PLIMMIN
 10
0.0
 20
0.0
  9
$PLIMMAX
 10
0.0
 20
0.0
  9
$UNITMODE
 70
     0
  9
$VISRETAIN
 70
     1
  9
$PLINEGEN
 70
     0
  9
$PSLTSCALE
 70
     1
  9
$TREEDEPTH
 70
  3020
  9
$CMLSTYLE
  2
Standard
  9
$CMLJUST
 70
     0
  9
$CMLSCALE
 40
20.0
  9
$PROXYGRAPHICS
 70
     1
  9
$MEASUREMENT
 70
     1
  9
$CELWEIGHT
370
    -1
  9
$ENDCAPS
280
     0
  9
$JOINSTYLE
280
     0
  9
$LWDISPLAY
290
     1
  9
$INSUNITS
 70
     4
  9
$HYPERLINKBASE
  1

  9
$STYLESHEET
  1

  9
$XEDIT
290
     1
  9
$CEPSNTYPE
380
     0
  9
$PSTYLEMODE
290
     1
  9
$FINGERPRINTGUID
  2
{754B07BC-5754-4BCA-B90F-69244405C51D}
  9
$VERSIONGUID
  2
{FAEB1C32-E019-11D5-929B-00C0DF256EC4}
  9
$EXTNAMES
290
     1
  9
$PSVPSCALE
 40
0.0
  9
$OLESTARTUP
290
     0
  0
ENDSEC
  0
SECTION
  2
CLASSES
  0
CLASS
  1
ACDBDICTIONARYWDFLT
  2
AcDbDictionaryWithDefault
  3
ObjectDBX Classes
 90
        0
280
     0
281
     0
  0
CLASS
  1
VISUALSTYLE
  2
AcDbVisualStyle
  3
ObjectDBX Classes
 90
     4095
280
     0
281
     0
  0
CLASS
  1
MATERIAL
  2
AcDbMaterial
  3
ObjectDBX Classes
 90
     1153
280
     0
281
     0
  0
CLASS
  1
SCALE
  2
AcDbScale
  3
ObjectDBX Classes
 90
     1153
280
     0
281
     0
  0
CLASS
  1
SUN
  2
AcDbSun
  3
SCENEOE
 90
     1153
280
     0
281
     0
  0
CLASS
  1
ACDBPLACEHOLDER
  2
AcDbPlaceHolder
  3
ObjectDBX Classes
 90
        0
280
     0
281
     0
  0
CLASS
  1
LAYOUT
  2
AcDbLayout
  3
ObjectDBX Classes
 90
        0
280
     0
281
     0
  0
CLASS
  1
TABLESTYLE
  2
AcDbTableStyle
  3
ObjectDBX Classes
 90
     4095
280
     0
281
     0
  0
CLASS
  1
MLEADERSTYLE
  2
AcDbMLeaderStyle
  3
ACDB_MLEADERSTYLE_CLASS
 90
     4095
280
     0
281
     0
  0
CLASS
  1
DICTIONARYVAR
  2
AcDbDictionaryVar
  3
ObjectDBX Classes
 90
        0
280
     0
281
     0
  0
CLASS
  1
DIMASSOC
  2
AcDbDimAssoc
  3
"AcDbDimAssoc|Product Desc:     AcDim ARX App For Dimension|Company:          Autodesk, Inc.|WEB Address:      www.autodesk.com"
 90
        0
280
     0
281
     0
  0
ENDSEC
  0
SECTION
  2
TABLES
  0
TABLE
  2
VPORT
  5
8
330
0
100
AcDbSymbolTable
 70
     1
  0
VPORT
  5
29
330
8
100
AcDbSymbolTableRecord
100
AcDbViewportTableRecord
  2
*Active
 70
     0
 10
0.0
 20
0.0
 11
1.0
 21
1.0
 12
-19.06473268854275
 22
-11.29732876568197
 13
0.0
 23
0.0
 14
10.0
 24
10.0
 15
10.0
 25
10.0
 16
0.0
 26
0.0
 36
1.0
 17
0.0
 27
0.0
 37
0.0
 40
78.89374353658796
 41
2.003901170351105
 42
50.0
 43
0.0
 44
0.0
 50
0.0
 51
0.0
 71
    16
 72
  2000
 73
     1
 74
     3
 75
     0
 76
     0
 77
     0
 78
     0
281
     0
 65
     1
110
0.0
120
0.0
130
0.0
111
1.0
121
0.0
131
0.0
112
0.0
122
1.0
132
0.0
 79
     0
146
0.0
  0
ENDTAB
  0
TABLE
  2
LTYPE
  5
5
330
0
100
AcDbSymbolTable
 70
     6
  0
LTYPE
  5
14
330
5
100
AcDbSymbolTableRecord
100
AcDbLinetypeTableRecord
  2
ByBlock
 70
     0
  3

 72
    65
 73
     0
 40
0.0
  0
LTYPE
  5
15
330
5
100
AcDbSymbolTableRecord
100
AcDbLinetypeTableRecord
  2
ByLayer
 70
     0
  3

 72
    65
 73
     0
 40
0.0
  0
LTYPE
  5
16
330
5
100
AcDbSymbolTableRecord
100
AcDbLinetypeTableRecord
  2
Continuous
 70
     0
  3
Solid line
 72
    65
 73
     0
 40
0.0
  0
LTYPE
  5
6A
330
5
100
AcDbSymbolTableRecord
100
AcDbLinetypeTableRecord
  2
HIDDEN
 70
     0
  3
Hidden __ __ __ __ __ __ __ __ __ __ __ __ __ __
 72
    65
 73
     2
 40
1.905
 49
1.27
 74
     0
 49
-0.635
 74
     0
  0
LTYPE
  5
6B
330
5
100
AcDbSymbolTableRecord
100
AcDbLinetypeTableRecord
  2
PHANTOM
 70
     0
  3
Phantom ______  __  __  ______  __  __  ______
 72
    65
 73
     6
 40
12.7
 49
6.35
 74
     0
 49
-1.27
 74
     0
 49
1.27
 74
     0
 49
-1.27
 74
     0
 49
1.27
 74
     0
 49
-1.27
 74
     0
  0
LTYPE
  5
6C
330
5
100
AcDbSymbolTableRecord
100
AcDbLinetypeTableRecord
  2
CENTER
 70
     0
  3
Center ____ _ ____ _ ____ _ ____ _ ____ _ ____
 72
    65
 73
     4
 40
10.16
 49
6.35
 74
     0
 49
-1.27
 74
     0
 49
1.27
 74
     0
 49
-1.27
 74
     0
  0
LTYPE
  5
6D
330
5
100
AcDbSymbolTableRecord
100
AcDbLinetypeTableRecord
  2
CENTERX2
 70
     0
  3
Center (2x) ________  __  ________  __  _____
 72
    65
 73
     4
 40
20.32
 49
12.7
 74
     0
 49
-2.54
 74
     0
 49
2.54
 74
     0
 49
-2.54
 74
     0
  0
LTYPE
  5
6E
330
5
100
AcDbSymbolTableRecord
100
AcDbLinetypeTableRecord
  2
DOT2
 70
     0
  3
Dot (.5x) ........................................
 72
    65
 73
     2
 40
0.635
 49
0.0
 74
     0
 49
-0.635
 74
     0
  0
ENDTAB
  0
TABLE
  2
LAYER
  5
2
102
{ACAD_XDICTIONARY
360
177
102
}
330
0
100
AcDbSymbolTable
 70
    18
  0
LAYER
  5
10
330
2
100
AcDbSymbolTableRecord
100
AcDbLayerTableRecord
  2
0
 70
     0
 62
     7
  6
Continuous
370
    -3
390
F
  0
LAYER
  5
6F
330
2
100
AcDbSymbolTableRecord
100
AcDbLayerTableRecord
  2
FORMAT
 70
     0
 62
     2
  6
Continuous
370
    -3
390
F
  0
LAYER
  5
70
330
2
100
AcDbSymbolTableRecord
100
AcDbLayerTableRecord
  2
외형선
 70
     0
 62
     4
  6
Continuous
370
    30
390
F
  0
LAYER
  5
71
330
2
100
AcDbSymbolTableRecord
100
AcDbLayerTableRecord
  2
숨은선
 70
     0
 62
     2
  6
HIDDEN
370
    15
390
F
  0
LAYER
  5
72
330
2
100
AcDbSymbolTableRecord
100
AcDbLayerTableRecord
  2
중심선
 70
     0
 62
     1
  6
CENTERX2
370
    -3
390
F
  0
LAYER
  5
73
330
2
100
AcDbSymbolTableRecord
100
AcDbLayerTableRecord
  2
파단선
 70
     0
 62
     4
  6
Continuous
370
    -3
390
F
  0
LAYER
  5
74
330
2
100
AcDbSymbolTableRecord
100
AcDbLayerTableRecord
  2
해칭선
 70
     0
 62
   100
  6
Continuous
370
    -3
390
F
  0
LAYER
  5
75
330
2
100
AcDbSymbolTableRecord
100
AcDbLayerTableRecord
  2
가는실선
 70
     0
 62
     4
  6
Continuous
370
    -3
390
F
  0
LAYER
  5
76
330
2
100
AcDbSymbolTableRecord
100
AcDbLayerTableRecord
  2
치수_보조선
 70
     0
 62
     4
  6
Continuous
370
    -3
390
F
  0
LAYER
  5
77
330
2
100
AcDbSymbolTableRecord
100
AcDbLayerTableRecord
  2
치수문자_일반주서
 70
     0
 62
     7
  6
Continuous
370
    15
390
F
  0
LAYER
  5
78
330
2
100
AcDbSymbolTableRecord
100
AcDbLayerTableRecord
  2
개별주서
 70
     0
 62
   100
  6
Continuous
370
    30
390
F
  0
LAYER
  5
79
330
2
100
AcDbSymbolTableRecord
100
AcDbLayerTableRecord
  2
중간선
 70
     0
 62
     2
  6
Continuous
370
    15
390
F
  0
LAYER
  5
7A
330
2
100
AcDbSymbolTableRecord
100
AcDbLayerTableRecord
  2
윤곽선
 70
     0
 62
     3
  6
Continuous
370
    40
390
F
  0
LAYER
  5
7B
330
2
100
AcDbSymbolTableRecord
100
AcDbLayerTableRecord
  2
중심마크
 70
     0
 62
   100
  6
Continuous
370
    30
390
F
  0
LAYER
  5
7C
330
2
100
AcDbSymbolTableRecord
100
AcDbLayerTableRecord
  2
가상선
 70
     0
 62
     4
  6
PHANTOM
370
    -3
390
F
  0
LAYER
  5
7D
330
2
100
AcDbSymbolTableRecord
100
AcDbLayerTableRecord
  2
특수지정선
 70
     0
 62
     5
  6
CENTERX2
370
    60
390
F
  0
LAYER
  5
7E
330
2
100
AcDbSymbolTableRecord
100
AcDbLayerTableRecord
  2
참조1
 70
     0
 62
    -4
  6
Continuous
370
    -3
390
F
  0
LAYER
  5
138
330
2
100
AcDbSymbolTableRecord
100
AcDbLayerTableRecord
  2
Defpoints
 70
     0
 62
     7
  6
Continuous
290
     0
370
    -3
390
F
  0
ENDTAB
  0
TABLE
  2
STYLE
  5
3
330
0
100
AcDbSymbolTable
 70
     2
  0
STYLE
  5
11
330
3
100
AcDbSymbolTableRecord
100
AcDbTextStyleTableRecord
  2
Standard
 70
     0
 40
0.0
 41
1.0
 50
0.0
 71
     0
 42
3.5
  3
txt
  4

  0
STYLE
  5
94
330
3
100
AcDbSymbolTableRecord
100
AcDbTextStyleTableRecord
  2
SLDTEXTSTYLE0
 70
     0
 40
0.0
 41
0.75
 50
0.0
 71
     0
 42
3.5
  3
TXT
  4

  0
ENDTAB
  0
TABLE
  2
VIEW
  5
6
330
0
100
AcDbSymbolTable
 70
     0
  0
ENDTAB
  0
TABLE
  2
UCS
  5
7
330
0
100
AcDbSymbolTable
 70
     0
  0
ENDTAB
  0
TABLE
  2
APPID
  5
9
330
0
100
AcDbSymbolTable
 70
     3
  0
APPID
  5
12
330
9
100
AcDbSymbolTableRecord
100
AcDbRegAppTableRecord
  2
ACAD
 70
     0
  0
APPID
  5
13F
330
9
100
AcDbSymbolTableRecord
100
AcDbRegAppTableRecord
  2
PE_URL
 70
     0
  0
APPID
  5
140
330
9
100
AcDbSymbolTableRecord
100
AcDbRegAppTableRecord
  2
ACAD_DSTYLE_DIMRADIAL_EXTENSION
 70
     0
  0
ENDTAB
  0
TABLE
  2
DIMSTYLE
  5
A
330
0
100
AcDbSymbolTable
 70
     3
100
AcDbDimStyleTable
  0
DIMSTYLE
105
27
330
A
100
AcDbSymbolTableRecord
100
AcDbDimStyleTableRecord
  2
ISO-25
 70
     0
 41
2.5
 42
0.625
 43
3.75
 44
1.25
 73
     0
 74
     0
 77
     1
 78
     8
140
2.5
141
2.5
143
0.03937007874016
147
0.625
171
     3
172
     1
178
     0
271
     2
272
     2
274
     3
278
    44
283
     0
284
     8
340
11
  0
DIMSTYLE
105
D6
102
{ACAD_REACTORS
330
D5
330
E3
330
F0
102
}
330
A
100
AcDbSymbolTableRecord
100
AcDbDimStyleTableRecord
  2
SLDDIMSTYLE0
 70
     0
 41
3.302
 44
0.0
 45
0.000000001
 73
     0
 74
     0
 77
     1
 78
    12
 79
     3
140
3.5
147
0.875
172
     1
173
     1
178
     0
271
     2
272
     2
276
     2
284
    12
289
     0
340
94
  0
DIMSTYLE
105
FD
102
{ACAD_REACTORS
330
FC
330
15F
330
16C
330
1BC
102
}
330
A
100
AcDbSymbolTableRecord
100
AcDbDimStyleTableRecord
  2
SLDDIMSTYLE1
 70
     0
 41
3.302
 44
0.0
 45
0.000000001
 73
     0
 74
     0
 77
     1
 78
    12
 79
     3
140
3.5
147
0.875
173
     1
178
     0
271
     2
272
     2
276
     2
284
    12
340
94
  0
ENDTAB
  0
TABLE
  2
BLOCK_RECORD
  5
1
330
0
100
AcDbSymbolTable
 70
    13
  0
BLOCK_RECORD
  5
1F
330
1
100
AcDbSymbolTableRecord
100
AcDbBlockTableRecord
  2
*Model_Space
340
22
  0
BLOCK_RECORD
  5
1B
330
1
100
AcDbSymbolTableRecord
100
AcDbBlockTableRecord
  2
*Paper_Space
340
1E
  0
BLOCK_RECORD
  5
23
330
1
100
AcDbSymbolTableRecord
100
AcDbBlockTableRecord
  2
*Paper_Space0
340
26
  0
BLOCK_RECORD
  5
7F
330
1
100
AcDbSymbolTableRecord
100
AcDbBlockTableRecord
  2
블럭10
340
0
102
{BLKREFS
331
CE
102
}
  0
BLOCK_RECORD
  5
D7
330
1
100
AcDbSymbolTableRecord
100
AcDbBlockTableRecord
  2
_D
340
0
  0
BLOCK_RECORD
  5
E4
330
1
100
AcDbSymbolTableRecord
100
AcDbBlockTableRecord
  2
_D_1
340
0
  0
BLOCK_RECORD
  5
F1
330
1
100
AcDbSymbolTableRecord
100
AcDbBlockTableRecord
  2
_D_2
340
0
  0
BLOCK_RECORD
  5
FE
330
1
100
AcDbSymbolTableRecord
100
AcDbBlockTableRecord
  2
_D_3
340
0
  0
BLOCK_RECORD
  5
10E
330
1
100
AcDbSymbolTableRecord
100
AcDbBlockTableRecord
  2
SW_DOWELSYMBOL_0
340
0
102
{BLKREFS
331
114
102
}
  0
BLOCK_RECORD
  5
16D
330
1
100
AcDbSymbolTableRecord
100
AcDbBlockTableRecord
  2
*D8
340
0
  0
BLOCK_RECORD
  5
17B
330
1
100
AcDbSymbolTableRecord
100
AcDbBlockTableRecord
  2
*D9
340
0
  0
BLOCK_RECORD
  5
18C
330
1
100
AcDbSymbolTableRecord
100
AcDbBlockTableRecord
  2
*D10
340
0
  0
BLOCK_RECORD
  5
198
330
1
100
AcDbSymbolTableRecord
100
AcDbBlockTableRecord
  2
*D11
340
0
  0
BLOCK_RECORD
  5
1BF
330
1
100
AcDbSymbolTableRecord
100
AcDbBlockTableRecord
  2
*D12
340
0
  0
ENDTAB
  0
ENDSEC
  0
SECTION
  2
BLOCKS
  0
BLOCK
  5
20
330
1F
100
AcDbEntity
  8
0
100
AcDbBlockBegin
  2
*Model_Space
 70
     0
 10
0.0
 20
0.0
 30
0.0
  3
*Model_Space
  1

  0
ENDBLK
  5
21
330
1F
100
AcDbEntity
  8
0
100
AcDbBlockEnd
  0
BLOCK
  5
1C
330
1B
100
AcDbEntity
 67
     1
  8
0
100
AcDbBlockBegin
  2
*Paper_Space
 70
     0
 10
0.0
 20
0.0
 30
0.0
  3
*Paper_Space
  1

  0
ENDBLK
  5
1D
330
1B
100
AcDbEntity
 67
     1
  8
0
100
AcDbBlockEnd
  0
BLOCK
  5
24
330
23
100
AcDbEntity
  8
0
100
AcDbBlockBegin
  2
*Paper_Space0
 70
     0
 10
0.0
 20
0.0
 30
0.0
  3
*Paper_Space0
  1

  0
ENDBLK
  5
25
330
23
100
AcDbEntity
  8
0
100
AcDbBlockEnd
  0
BLOCK
  5
80
330
7F
100
AcDbEntity
  8
0
100
AcDbBlockBegin
  2
블럭10
 70
     2
 10
0.0
 20
0.0
 30
0.0
  3
블럭10
  1

  0
ELLIPSE
  5
82
330
7F
100
AcDbEntity
  8
중심선
100
AcDbEllipse
 10
20.54032771741204
 20
12.0471743016438
 30
0.0
 11
6.600054785286829
 21
-1.261213355974178E-13
 31
0.0
210
0.0
220
0.0
230
1.0
 40
0.636358354079598
 41
0.9219305317359503
 42
6.513795318482858
  0
ELLIPSE
  5
83
330
7F
100
AcDbEntity
  8
중심선
100
AcDbEllipse
 10
20.54032771746488
 20
12.04717430159265
 30
0.0
 11
3.960054785062283
 21
1.540847449632565E-10
 31
0.0
210
0.0
220
0.0
230
1.0
 40
0.3939339440162632
 41
1.131841032648279
 42
5.62031148352944
  0
LINE
  5
84
330
7F
100
AcDbEntity
  8
중심선
100
AcDbLine
 10
2.268634060543552
 20
16.24717430164393
 30
0.0
 11
5.714909304380834
 21
16.24717430164393
 31
0.0
  0
LINE
  5
85
330
7F
100
AcDbEntity
  8
중심선
100
AcDbLine
 10
5.245725140726316
 20
7.84717430164391
 30
0.0
 11
8.692000384563599
 21
7.84717430164391
 31
0.0
  0
LINE
  5
86
330
7F
100
AcDbEntity
  8
중심선
100
AcDbLine
 10
15.74043728645272
 20
16.24717430164393
 30
0.0
 11
8.692000384563599
 21
7.84717430164391
 31
0.0
  0
LINE
  5
87
330
7F
100
AcDbEntity
  8
중심선
100
AcDbLine
 10
0.1404042013395286
 20
13.71084872107135
 30
0.0
 11
3.58671253028996
 21
13.71088815037384
 31
0.0
  0
LINE
  5
88
330
7F
100
AcDbEntity
  8
중심선
100
AcDbLine
 10
2.750260043222114
 20
10.84717430164391
 30
0.0
 11
6.196535287059397
 21
10.84717430164391
 31
0.0
  0
LINE
  5
89
330
7F
100
AcDbEntity
  8
중심선
100
AcDbLine
 10
12.29416204261559
 20
16.24717430164393
 30
0.0
 11
5.245725140726316
 21
7.84717430164391
 31
0.0
  0
LINE
  5
8A
330
7F
100
AcDbEntity
  8
중심선
100
AcDbLine
 10
10.72767329541681
 20
16.24717430164393
 30
0.0
 11
6.196535287059397
 21
10.84717430164391
 31
0.0
  0
LINE
  5
8B
330
7F
100
AcDbEntity
  8
중심선
100
AcDbLine
 10
7.28139805157953
 20
16.24717430164393
 30
0.0
 11
2.750260043222114
 21
10.84717430164391
 31
0.0
  0
LINE
  5
8C
330
7F
100
AcDbEntity
  8
중심선
100
AcDbLine
 10
5.714909304380834
 20
16.24717430164393
 30
0.0
 11
3.58671253028996
 21
13.71088815037384
 31
0.0
  0
LINE
  5
8D
330
7F
100
AcDbEntity
  8
중심선
100
AcDbLine
 10
2.268634060543552
 20
16.24717430164393
 30
0.0
 11
0.1404042013395286
 21
13.71084872107135
 31
0.0
  0
LINE
  5
8E
330
7F
100
AcDbEntity
  8
중심선
100
AcDbLine
 10
7.28139805157953
 20
16.24717430164393
 30
0.0
 11
10.72767329541681
 21
16.24717430164393
 31
0.0
  0
LINE
  5
8F
330
7F
100
AcDbEntity
  8
중심선
100
AcDbLine
 10
12.29416204261559
 20
16.24717430164393
 30
0.0
 11
15.74043728645272
 21
16.24717430164393
 31
0.0
  0
LINE
  5
90
330
7F
100
AcDbEntity
  8
중심선
100
AcDbLine
 10
19.22036997980202
 20
11.08717430171403
 30
0.0
 11
23.66174974927406
 21
11.08717430171406
 31
0.0
  0
LINE
  5
91
330
7F
100
AcDbEntity
  8
중심선
100
AcDbLine
 10
19.22039502424796
 20
13.00717430171391
 30
0.0
 11
19.22036997980202
 21
11.08717430171403
 31
0.0
  0
LINE
  5
92
330
7F
100
AcDbEntity
  8
중심선
100
AcDbLine
 10
19.22039502424796
 20
13.00717430171391
 30
0.0
 11
26.96566020931264
 21
13.00717430171391
 31
0.0
  0
LINE
  5
93
330
7F
100
AcDbEntity
  8
중심선
100
AcDbLine
 10
22.22332737316547
 20
13.45928029700563
 30
0.0
 11
24.52862924686651
 21
15.39360700705356
 31
0.0
  0
ATTDEF
  5
95
330
7F
100
AcDbEntity
  8
FORMAT
 62
     2
100
AcDbText
 10
-16.11926103943555
 20
2.075366912832191
 30
0.0
 40
4.233333333333333
  1
SEME0105005E [ 4 FLUTE ]
 41
0.75
  7
SLDTEXTSTYLE0
 11
-16.11926103943555
 21
-0.0412997538344756
 31
0.0
100
AcDbAttributeDefinition
  3

  2
AUTOATTR0
 70
     0
 74
     1
  0
ENDBLK
  5
81
330
7F
100
AcDbEntity
  8
0
100
AcDbBlockEnd
  0
BLOCK
  5
D8
330
D7
100
AcDbEntity
  8
0
100
AcDbBlockBegin
  2
_D
 70
     0
 10
0.0
 20
0.0
 30
0.0
  3
_D
  1

  0
LINE
  5
DA
330
D7
100
AcDbEntity
  8
치수문자_일반주서
 62
     0
370
    -2
100
AcDbLine
 10
17.92852540378447
 20
2.501074928723889
 30
0.0
 11
27.86602540378446
 21
2.501074928723925
 31
0.0
  0
LINE
  5
DB
330
D7
100
AcDbEntity
  8
치수문자_일반주서
 62
     0
370
    -2
100
AcDbLine
 10
17.92852540378447
 20
-2.498925071276111
 30
0.0
 11
27.86602540378448
 21
-2.498925071276075
 31
0.0
  0
LINE
  5
DC
330
D7
100
AcDbEntity
  8
치수문자_일반주서
 62
     0
370
    -2
100
AcDbLine
 10
27.86602540378446
 20
2.501074928723925
 30
0.0
 11
27.86602540378442
 21
15.23007492872395
 31
0.0
  0
LINE
  5
DD
330
D7
100
AcDbEntity
  8
치수문자_일반주서
 62
     0
370
    -2
100
AcDbLine
 10
27.86602540378446
 20
2.501074928723925
 30
0.0
 11
27.86602540378448
 21
-2.498925071276075
 31
0.0
  0
LINE
  5
DE
330
D7
100
AcDbEntity
  8
치수문자_일반주서
 62
     0
370
    -2
100
AcDbLine
 10
27.86602540378445
 20
5.803074928723925
 30
0.0
 11
27.86602540378444
 21
9.105074928723925
 31
0.0
  0
LINE
  5
DF
330
D7
100
AcDbEntity
  8
치수문자_일반주서
 62
     0
370
    -2
100
AcDbLine
 10
27.86602540378449
 20
-5.800925071276074
 30
0.0
 11
27.8660254037845
 21
-9.102925071276074
 31
0.0
  0
SOLID
  5
E0
330
D7
100
AcDbEntity
  8
치수문자_일반주서
 62
     0
100
AcDbTrace
 10
27.31569207045112
 20
5.803074928723923
 30
0.0
 11
28.41635873711779
 21
5.803074928723927
 31
0.0
 12
27.86602540378446
 22
2.501074928723925
 32
0.0
 13
27.86602540378446
 23
2.501074928723925
 33
0.0
  0
SOLID
  5
E1
330
D7
100
AcDbEntity
  8
치수문자_일반주서
 62
     0
100
AcDbTrace
 10
28.41635873711783
 20
-5.800925071276072
 30
0.0
 11
27.31569207045116
 21
-5.800925071276076
 31
0.0
 12
27.86602540378448
 22
-2.498925071276075
 32
0.0
 13
27.86602540378448
 23
-2.498925071276075
 33
0.0
  0
MTEXT
  5
E2
330
D7
100
AcDbEntity
  8
치수문자_일반주서
 62
     0
100
AcDbMText
 10
23.49102540378443
 20
12.16757492872394
 30
0.0
 40
3.5
 41
0.0
 71
     2
 72
     1
  1
\A1;%%c5
  7
SLDTEXTSTYLE0
 11
-3.552713678800501E-15
 21
1.0
 31
0.0
 73
     1
 44
1.0
  0
POINT
  5
1B4
330
D7
100
AcDbEntity
  8
Defpoints
 62
     0
100
AcDbPoint
 10
17.86602540378447
 20
2.501074928723889
 30
0.0
  0
POINT
  5
1B5
330
D7
100
AcDbEntity
  8
Defpoints
 62
     0
100
AcDbPoint
 10
17.86602540378447
 20
-2.498925071276111
 30
0.0
  0
POINT
  5
1B6
330
D7
100
AcDbEntity
  8
Defpoints
 62
     0
100
AcDbPoint
 10
27.86602540378447
 20
-2.498925071276074
 30
0.0
  0
ENDBLK
  5
D9
330
D7
100
AcDbEntity
  8
0
100
AcDbBlockEnd
  0
BLOCK
  5
E5
330
E4
100
AcDbEntity
  8
0
100
AcDbBlockBegin
  2
_D_1
 70
     0
 10
0.0
 20
0.0
 30
0.0
  3
_D_1
  1

  0
LINE
  5
E7
330
E4
100
AcDbEntity
  8
치수문자_일반주서
 62
     0
370
    -2
100
AcDbLine
 10
-71.59647459621553
 20
3.001074928723896
 30
0.0
 11
-82.13397459621554
 21
3.001074928723854
 31
0.0
  0
LINE
  5
E8
330
E4
100
AcDbEntity
  8
치수문자_일반주서
 62
     0
370
    -2
100
AcDbLine
 10
-71.59647459621553
 20
-2.99892507127611
 30
0.0
 11
-82.13397459621552
 21
-2.998925071276149
 31
0.0
  0
LINE
  5
E9
330
E4
100
AcDbEntity
  8
치수문자_일반주서
 62
     0
370
    -2
100
AcDbLine
 10
-82.13397459621554
 20
3.001074928723854
 30
0.0
 11
-82.13397459621558
 21
15.73007492872386
 31
0.0
  0
LINE
  5
EA
330
E4
100
AcDbEntity
  8
치수문자_일반주서
 62
     0
370
    -2
100
AcDbLine
 10
-82.13397459621554
 20
3.001074928723854
 30
0.0
 11
-82.13397459621552
 21
-2.998925071276149
 31
0.0
  0
LINE
  5
EB
330
E4
100
AcDbEntity
  8
치수문자_일반주서
 62
     0
370
    -2
100
AcDbLine
 10
-82.13397459621555
 20
6.303074928723854
 30
0.0
 11
-82.13397459621557
 21
9.605074928723853
 31
0.0
  0
LINE
  5
EC
330
E4
100
AcDbEntity
  8
치수문자_일반주서
 62
     0
370
    -2
100
AcDbLine
 10
-82.13397459621551
 20
-6.300925071276149
 30
0.0
 11
-82.1339745962155
 21
-9.602925071276148
 31
0.0
  0
SOLID
  5
ED
330
E4
100
AcDbEntity
  8
치수문자_일반주서
 62
     0
100
AcDbTrace
 10
-82.68430792954888
 20
6.303074928723853
 30
0.0
 11
-81.58364126288222
 21
6.303074928723855
 31
0.0
 12
-82.13397459621554
 22
3.001074928723854
 32
0.0
 13
-82.13397459621554
 23
3.001074928723854
 33
0.0
  0
SOLID
  5
EE
330
E4
100
AcDbEntity
  8
치수문자_일반주서
 62
     0
100
AcDbTrace
 10
-81.58364126288218
 20
-6.300925071276148
 30
0.0
 11
-82.68430792954884
 21
-6.30092507127615
 31
0.0
 12
-82.13397459621552
 22
-2.998925071276149
 32
0.0
 13
-82.13397459621552
 23
-2.998925071276149
 33
0.0
  0
MTEXT
  5
EF
330
E4
100
AcDbEntity
  8
치수문자_일반주서
 62
     0
100
AcDbMText
 10
-86.50897459621557
 20
12.66757492872385
 30
0.0
 40
3.5
 41
0.0
 71
     2
 72
     1
  1
\A1;%%c6
  7
SLDTEXTSTYLE0
 11
-2.368475785866999E-15
 21
1.0
 31
0.0
 73
     1
 44
1.0
  0
POINT
  5
1AD
330
E4
100
AcDbEntity
  8
Defpoints
 62
     0
100
AcDbPoint
 10
-71.53397459621553
 20
3.001074928723896
 30
0.0
  0
POINT
  5
1AE
330
E4
100
AcDbEntity
  8
Defpoints
 62
     0
100
AcDbPoint
 10
-71.53397459621553
 20
-2.998925071276109
 30
0.0
  0
POINT
  5
1AF
330
E4
100
AcDbEntity
  8
Defpoints
 62
     0
100
AcDbPoint
 10
-82.13397459621551
 20
-2.998925071276149
 30
0.0
  0
ENDBLK
  5
E6
330
E4
100
AcDbEntity
  8
0
100
AcDbBlockEnd
  0
BLOCK
  5
F2
330
F1
100
AcDbEntity
  8
0
100
AcDbBlockBegin
  2
_D_2
 70
     0
 10
0.0
 20
0.0
 30
0.0
  3
_D_2
  1

  0
LINE
  5
F4
330
F1
100
AcDbEntity
  8
치수문자_일반주서
 62
     0
370
    -2
100
AcDbLine
 10
17.86602540378447
 20
2.563574928723889
 30
0.0
 11
17.86602540378447
 21
13.00107492872389
 31
0.0
  0
LINE
  5
F5
330
F1
100
AcDbEntity
  8
치수문자_일반주서
 62
     0
370
    -2
100
AcDbLine
 10
4.866025403784427
 20
2.559985076622637
 30
0.0
 11
4.866025403784427
 21
13.00107492872389
 31
0.0
  0
LINE
  5
F6
330
F1
100
AcDbEntity
  8
치수문자_일반주서
 62
     0
370
    -2
100
AcDbLine
 10
14.56402540378447
 20
13.00107492872389
 30
0.0
 11
8.168025403784426
 21
13.00107492872389
 31
0.0
  0
SOLID
  5
F7
330
F1
100
AcDbEntity
  8
치수문자_일반주서
 62
     0
100
AcDbTrace
 10
14.56402540378447
 20
12.45074159539056
 30
0.0
 11
14.56402540378447
 21
13.55140826205723
 31
0.0
 12
17.86602540378447
 22
13.00107492872389
 32
0.0
 13
17.86602540378447
 23
13.00107492872389
 33
0.0
  0
SOLID
  5
F8
330
F1
100
AcDbEntity
  8
치수문자_일반주서
 62
     0
100
AcDbTrace
 10
8.168025403784426
 20
13.55140826205723
 30
0.0
 11
8.168025403784426
 21
12.45074159539056
 31
0.0
 12
4.866025403784427
 22
13.00107492872389
 32
0.0
 13
4.866025403784427
 23
13.00107492872389
 33
0.0
  0
MTEXT
  5
F9
330
F1
100
AcDbEntity
  8
치수문자_일반주서
 62
     0
100
AcDbMText
 10
11.36602540378423
 20
17.3760749287239
 30
0.0
 40
3.5
 41
0.0
 71
     2
 72
     1
  1
\A1;13
  7
SLDTEXTSTYLE0
 73
     1
 44
1.0
  0
POINT
  5
FA
330
F1
100
AcDbEntity
  8
Defpoints
 62
     0
100
AcDbPoint
 10
17.86602540378447
 20
2.501074928723889
 30
0.0
  0
POINT
  5
FB
330
F1
100
AcDbEntity
  8
Defpoints
 62
     0
100
AcDbPoint
 10
4.866025403784427
 20
2.497485076622637
 30
0.0
  0
POINT
  5
1B0
330
F1
100
AcDbEntity
  8
Defpoints
 62
     0
100
AcDbPoint
 10
4.866025403784427
 20
13.00107492872389
 30
0.0
  0
ENDBLK
  5
F3
330
F1
100
AcDbEntity
  8
0
100
AcDbBlockEnd
  0
BLOCK
  5
FF
330
FE
100
AcDbEntity
  8
0
100
AcDbBlockBegin
  2
_D_3
 70
     0
 10
0.0
 20
0.0
 30
0.0
  3
_D_3
  1

  0
LINE
  5
101
330
FE
100
AcDbEntity
  8
치수문자_일반주서
 62
     0
370
    -2
100
AcDbLine
 10
17.86602540378447
 20
2.563574928723889
 30
0.0
 11
17.86602540378448
 21
23.00107492872389
 31
0.0
  0
LINE
  5
102
330
FE
100
AcDbEntity
  8
치수문자_일반주서
 62
     0
370
    -2
100
AcDbLine
 10
-72.13397459621552
 20
2.463574928723895
 30
0.0
 11
-72.13397459621552
 21
23.00107492872389
 31
0.0
  0
LINE
  5
103
330
FE
100
AcDbEntity
  8
치수문자_일반주서
 62
     0
370
    -2
100
AcDbLine
 10
14.56402540378448
 20
23.00107492872389
 30
0.0
 11
-68.83197459621553
 21
23.00107492872389
 31
0.0
  0
SOLID
  5
104
330
FE
100
AcDbEntity
  8
치수문자_일반주서
 62
     0
100
AcDbTrace
 10
14.56402540378448
 20
22.45074159539056
 30
0.0
 11
14.56402540378448
 21
23.55140826205723
 31
0.0
 12
17.86602540378448
 22
23.00107492872389
 32
0.0
 13
17.86602540378448
 23
23.00107492872389
 33
0.0
  0
SOLID
  5
105
330
FE
100
AcDbEntity
  8
치수문자_일반주서
 62
     0
100
AcDbTrace
 10
-68.83197459621553
 20
23.55140826205723
 30
0.0
 11
-68.83197459621553
 21
22.45074159539056
 31
0.0
 12
-72.13397459621552
 22
23.00107492872389
 32
0.0
 13
-72.13397459621552
 23
23.00107492872389
 33
0.0
  0
MTEXT
  5
106
330
FE
100
AcDbEntity
  8
치수문자_일반주서
 62
     0
100
AcDbMText
 10
-27.13397459621553
 20
27.37607492872389
 30
0.0
 40
3.5
 41
0.0
 71
     2
 72
     1
  1
\A1;90
  7
SLDTEXTSTYLE0
 73
     1
 44
1.0
  0
POINT
  5
1B1
330
FE
100
AcDbEntity
  8
Defpoints
 62
     0
100
AcDbPoint
 10
17.86602540378447
 20
2.501074928723889
 30
0.0
  0
POINT
  5
1B2
330
FE
100
AcDbEntity
  8
Defpoints
 62
     0
100
AcDbPoint
 10
-72.13397459621552
 20
2.401074928723895
 30
0.0
  0
POINT
  5
1B3
330
FE
100
AcDbEntity
  8
Defpoints
 62
     0
100
AcDbPoint
 10
-72.13397459621552
 20
23.00107492872389
 30
0.0
  0
ENDBLK
  5
100
330
FE
100
AcDbEntity
  8
0
100
AcDbBlockEnd
  0
BLOCK
  5
10F
330
10E
100
AcDbEntity
  8
0
100
AcDbBlockBegin
  2
SW_DOWELSYMBOL_0
 70
     0
 10
0.0
 20
0.0
 30
0.0
  3
SW_DOWELSYMBOL_0
  1

  0
CIRCLE
  5
111
330
10E
100
AcDbEntity
  8
해칭선
 62
     0
100
AcDbCircle
 10
0.0
 20
0.0
 30
0.0
 40
3.000000000000001
  0
HATCH
  5
112
330
10E
100
AcDbEntity
  8
0
  6
Continuous
 62
     0
370
     0
100
AcDbHatch
 10
0.0
 20
0.0
 30
0.0
210
0.0
220
0.0
230
1.0
  2
SOLID
 70
     1
 71
     0
 91
        1
 92
        0
 93
        3
 72
     2
 10
0.0
 20
0.0
 40
3.000000000000001
 50
0.0
 51
90.0
 73
     1
 72
     1
 10
0.0
 20
3.000000000000001
 11
0.0
 21
0.0
 72
     1
 10
0.0
 20
0.0
 11
3.000000000000003
 21
0.0
 97
        0
 75
     0
 76
     1
 98
        1
 10
0.0
 20
0.0
  0
HATCH
  5
113
330
10E
100
AcDbEntity
  8
0
  6
Continuous
 62
     0
370
     0
100
AcDbHatch
 10
0.0
 20
0.0
 30
0.0
210
0.0
220
0.0
230
1.0
  2
SOLID
 70
     1
 71
     0
 91
        1
 92
        0
 93
        3
 72
     2
 10
0.0
 20
0.0
 40
3.000000000000001
 50
180.0
 51
270.0000000000008
 73
     1
 72
     1
 10
0.0
 20
-3.000000000000001
 11
0.0
 21
0.0
 72
     1
 10
0.0
 20
0.0
 11
-3.000000000000003
 21
0.0
 97
        0
 75
     0
 76
     1
 98
        1
 10
0.0
 20
0.0
  0
ENDBLK
  5
110
330
10E
100
AcDbEntity
  8
0
100
AcDbBlockEnd
  0
BLOCK
  5
16E
330
16D
100
AcDbEntity
  8
0
100
AcDbBlockBegin
  2
*D8
 70
     1
 10
0.0
 20
0.0
 30
0.0
  3
*D8
  1

  0
LINE
  5
16F
330
16D
100
AcDbEntity
  8
치수문자_일반주서
 62
     0
370
    -2
100
AcDbLine
 10
11.77456662019984
 20
16.49151495257678
 30
0.0
 11
22.66398241076589
 21
-0.0000000000001465
 31
0.0
  0
MTEXT
  5
170
330
16D
100
AcDbEntity
  8
치수문자_일반주서
 62
     0
100
AcDbMText
 10
22.5643530529196
 20
4.914785148259656
 30
0.0
 40
3.5
 41
0.0
 71
     5
 72
     1
  1
\A1;R0.1
  7
SLDTEXTSTYLE0
 11
0.5510189947672727
 21
-0.8344927006305473
 31
0.0
 73
     1
 44
1.0
  0
SOLID
  5
171
330
16D
100
AcDbEntity
  8
치수문자_일반주서
 62
     0
100
AcDbTrace
 10
12.23381576978019
 20
16.79475907269703
 30
0.0
 11
11.3153174706195
 21
16.18827083245652
 31
0.0
 12
9.955101899478308
 22
19.24700985005884
 32
0.0
 13
9.955101899478308
 23
19.24700985005884
 33
0.0
  0
LINE
  5
172
330
16D
100
AcDbEntity
  8
치수문자_일반주서
 62
     0
100
AcDbLine
 10
9.85500000000158
 20
19.3304591201219
 30
0.0
 11
9.94500000000158
 21
19.3304591201219
 31
0.0
  0
LINE
  5
173
330
16D
100
AcDbEntity
  8
치수문자_일반주서
 62
     0
100
AcDbLine
 10
9.90000000000158
 20
19.2854591201219
 30
0.0
 11
9.90000000000158
 21
19.3754591201219
 31
0.0
  0
POINT
  5
174
330
16D
100
AcDbEntity
  8
Defpoints
 62
     0
100
AcDbPoint
 10
9.955101899478308
 20
19.24700985005884
 30
0.0
  0
POINT
  5
187
330
16D
100
AcDbEntity
  8
Defpoints
 62
     0
100
AcDbPoint
 10
9.90000000000158
 20
19.3304591201219
 30
0.0
  0
ENDBLK
  5
175
330
16D
100
AcDbEntity
  8
0
100
AcDbBlockEnd
  0
BLOCK
  5
17C
330
17B
100
AcDbEntity
  8
0
100
AcDbBlockBegin
  2
*D9
 70
     1
 10
0.0
 20
0.0
 30
0.0
  3
*D9
  1

  0
LINE
  5
17E
330
17B
100
AcDbEntity
  8
치수문자_일반주서
 62
     0
370
    -2
100
AcDbLine
 10
10.00000000000158
 20
22.7929591201219
 30
0.0
 11
10.00000000000158
 21
33.98045912012191
 31
0.0
  0
LINE
  5
17F
330
17B
100
AcDbEntity
  8
치수문자_일반주서
 62
     0
370
    -2
100
AcDbLine
 10
0.0000000000016094
 20
22.74140327075447
 30
0.0
 11
0.0000000000016094
 21
33.98045912012191
 31
0.0
  0
LINE
  5
180
330
17B
100
AcDbEntity
  8
치수문자_일반주서
 62
     0
370
    -2
100
AcDbLine
 10
6.698000000001578
 20
33.98045912012191
 30
0.0
 11
3.302000000001609
 21
33.98045912012191
 31
0.0
  0
SOLID
  5
181
330
17B
100
AcDbEntity
  8
치수문자_일반주서
 62
     0
100
AcDbTrace
 10
6.698000000001578
 20
33.43012578678858
 30
0.0
 11
6.698000000001578
 21
34.53079245345525
 31
0.0
 12
10.00000000000158
 22
33.98045912012191
 32
0.0
 13
10.00000000000158
 23
33.98045912012191
 33
0.0
  0
SOLID
  5
182
330
17B
100
AcDbEntity
  8
치수문자_일반주서
 62
     0
100
AcDbTrace
 10
3.302000000001609
 20
34.53079245345525
 30
0.0
 11
3.302000000001609
 21
33.43012578678858
 31
0.0
 12
0.0000000000016094
 22
33.98045912012191
 32
0.0
 13
0.0000000000016094
 23
33.98045912012191
 33
0.0
  0
MTEXT
  5
183
330
17B
100
AcDbEntity
  8
치수문자_일반주서
 62
     0
100
AcDbMText
 10
5.000000000001599
 20
38.35545912012191
 30
0.0
 40
3.5
 41
0.0
 71
     2
 72
     1
  1
\A1;10
  7
SLDTEXTSTYLE0
 73
     1
 44
1.0
  0
POINT
  5
184
330
17B
100
AcDbEntity
  8
Defpoints
 62
     0
100
AcDbPoint
 10
10.00000000000158
 20
22.7304591201219
 30
0.0
  0
POINT
  5
185
330
17B
100
AcDbEntity
  8
Defpoints
 62
     0
100
AcDbPoint
 10
0.0000000000016094
 20
22.67890327075447
 30
0.0
  0
POINT
  5
186
330
17B
100
AcDbEntity
  8
Defpoints
 62
     0
100
AcDbPoint
 10
0.0000000000016094
 20
33.98045912012191
 30
0.0
  0
ENDBLK
  5
17D
330
17B
100
AcDbEntity
  8
0
100
AcDbBlockEnd
  0
BLOCK
  5
18D
330
18C
100
AcDbEntity
  8
0
100
AcDbBlockBegin
  2
*D10
 70
     1
 10
0.0
 20
0.0
 30
0.0
  3
*D10
  1

  0
LINE
  5
18F
330
18C
100
AcDbEntity
  8
치수문자_일반주서
 62
     0
370
    -2
100
AcDbLine
 10
69.2280191252228
 20
6.952377187455916
 30
0.0
 11
69.2280191252228
 21
18.13987718745593
 31
0.0
  0
LINE
  5
190
330
18C
100
AcDbEntity
  8
치수문자_일반주서
 62
     0
370
    -2
100
AcDbLine
 10
59.22801912522283
 20
6.900821338088484
 30
0.0
 11
59.22801912522283
 21
18.13987718745593
 31
0.0
  0
LINE
  5
191
330
18C
100
AcDbEntity
  8
치수문자_일반주서
 62
     0
370
    -2
100
AcDbLine
 10
65.92601912522281
 20
18.13987718745593
 30
0.0
 11
62.53001912522283
 21
18.13987718745593
 31
0.0
  0
SOLID
  5
192
330
18C
100
AcDbEntity
  8
치수문자_일반주서
 62
     0
100
AcDbTrace
 10
65.92601912522281
 20
17.5895438541226
 30
0.0
 11
65.92601912522281
 21
18.69021052078926
 31
0.0
 12
69.2280191252228
 22
18.13987718745593
 32
0.0
 13
69.2280191252228
 23
18.13987718745593
 33
0.0
  0
SOLID
  5
193
330
18C
100
AcDbEntity
  8
치수문자_일반주서
 62
     0
100
AcDbTrace
 10
62.53001912522283
 20
18.69021052078926
 30
0.0
 11
62.53001912522283
 21
17.5895438541226
 31
0.0
 12
59.22801912522283
 22
18.13987718745593
 32
0.0
 13
59.22801912522283
 23
18.13987718745593
 33
0.0
  0
MTEXT
  5
194
330
18C
100
AcDbEntity
  8
치수문자_일반주서
 62
     0
100
AcDbMText
 10
64.22801912522283
 20
22.51487718745593
 30
0.0
 40
3.5
 41
0.0
 71
     2
 72
     1
  1
\A1;10
  7
SLDTEXTSTYLE0
 73
     1
 44
1.0
  0
POINT
  5
195
330
18C
100
AcDbEntity
  8
Defpoints
 62
     0
100
AcDbPoint
 10
69.2280191252228
 20
6.889877187455916
 30
0.0
  0
POINT
  5
196
330
18C
100
AcDbEntity
  8
Defpoints
 62
     0
100
AcDbPoint
 10
59.22801912522283
 20
6.838321338088484
 30
0.0
  0
POINT
  5
197
330
18C
100
AcDbEntity
  8
Defpoints
 62
     0
100
AcDbPoint
 10
59.22801912522283
 20
18.13987718745593
 30
0.0
  0
ENDBLK
  5
18E
330
18C
100
AcDbEntity
  8
0
100
AcDbBlockEnd
  0
BLOCK
  5
199
330
198
100
AcDbEntity
  8
0
100
AcDbBlockBegin
  2
*D11
 70
     1
 10
0.0
 20
0.0
 30
0.0
  3
*D11
  1

  0
LINE
  5
19B
330
198
100
AcDbEntity
  8
치수문자_일반주서
 62
     0
370
    -2
100
AcDbLine
 10
71.00258574542099
 20
0.6509330199107404
 30
0.0
 11
81.89200153598654
 21
-15.84058193266651
 31
0.0
  0
MTEXT
  5
19C
330
198
100
AcDbEntity
  8
치수문자_일반주서
 62
     0
100
AcDbMText
 10
81.79237217814038
 20
-10.9257967844067
 30
0.0
 40
3.5
 41
0.0
 71
     5
 72
     1
  1
\A1;R0.1
  7
SLDTEXTSTYLE0
 11
0.551018994767248
 21
-0.8344927006305635
 31
0.0
 73
     1
 44
1.0
  0
SOLID
  5
19D
330
198
100
AcDbEntity
  8
치수문자_일반주서
 62
     0
100
AcDbTrace
 10
71.46183489500135
 20
0.954177140030982
 30
0.0
 11
70.54333659584063
 21
0.3476888997904978
 31
0.0
 12
69.18312102469953
 22
3.406427917392861
 32
0.0
 13
69.18312102469953
 23
3.406427917392861
 33
0.0
  0
LINE
  5
19E
330
198
100
AcDbEntity
  8
치수문자_일반주서
 62
     0
100
AcDbLine
 10
69.0830191252228
 20
3.489877187455917
 30
0.0
 11
69.17301912522281
 21
3.489877187455917
 31
0.0
  0
LINE
  5
19F
330
198
100
AcDbEntity
  8
치수문자_일반주서
 62
     0
100
AcDbLine
 10
69.1280191252228
 20
3.444877187455917
 30
0.0
 11
69.1280191252228
 21
3.534877187455917
 31
0.0
  0
POINT
  5
1A0
330
198
100
AcDbEntity
  8
Defpoints
 62
     0
100
AcDbPoint
 10
69.18312102469953
 20
3.406427917392861
 30
0.0
  0
POINT
  5
1A1
330
198
100
AcDbEntity
  8
Defpoints
 62
     0
100
AcDbPoint
 10
69.1280191252228
 20
3.489877187455917
 30
0.0
  0
ENDBLK
  5
19A
330
198
100
AcDbEntity
  8
0
100
AcDbBlockEnd
  0
BLOCK
  5
1C0
330
1BF
100
AcDbEntity
  8
0
100
AcDbBlockBegin
  2
*D12
 70
     1
 10
0.0
 20
0.0
 30
0.0
  3
*D12
  1

  0
LINE
  5
1C2
330
1BF
100
AcDbEntity
  8
치수문자_일반주서
 62
     0
370
    -2
100
AcDbLine
 10
19.83959490044057
 20
-4.886252199471406
 30
0.0
 11
31.7336290070874
 21
-18.7698189988788
 31
0.0
  0
MTEXT
  5
1C3
330
1BF
100
AcDbEntity
  8
치수문자_일반주서
 62
     0
100
AcDbMText
 10
30.73843538169253
 20
-13.57340160701415
 30
0.0
 40
3.5
 41
0.0
 71
     5
 72
     1
  1
\A1;R0.5
  7
SLDTEXTSTYLE0
 11
0.650596921792767
 21
-0.7594232320345332
 31
0.0
 73
     1
 44
1.0
  0
SOLID
  5
1C4
330
1BF
100
AcDbEntity
  8
치수문자_일반주서
 62
     0
100
AcDbTrace
 10
20.25753081913691
 20
-4.528207026844787
 30
0.0
 11
19.42165898174423
 21
-5.244297372098026
 31
0.0
 12
17.69132386468085
 22
-2.378636687293378
 32
0.0
 13
17.69132386468085
 23
-2.378636687293378
 33
0.0
  0
LINE
  5
1C5
330
1BF
100
AcDbEntity
  8
치수문자_일반주서
 62
     0
100
AcDbLine
 10
17.32102540378447
 20
-1.99892507127611
 30
0.0
 11
17.41102540378447
 21
-1.99892507127611
 31
0.0
  0
LINE
  5
1C6
330
1BF
100
AcDbEntity
  8
치수문자_일반주서
 62
     0
100
AcDbLine
 10
17.36602540378447
 20
-2.043925071276111
 30
0.0
 11
17.36602540378447
 21
-1.95392507127611
 31
0.0
  0
POINT
  5
1C7
330
1BF
100
AcDbEntity
  8
Defpoints
 62
     0
100
AcDbPoint
 10
17.69132386468085
 20
-2.378636687293378
 30
0.0
  0
POINT
  5
1C8
330
1BF
100
AcDbEntity
  8
Defpoints
 62
     0
100
AcDbPoint
 10
17.36602540378447
 20
-1.99892507127611
 30
0.0
  0
ENDBLK
  5
1C1
330
1BF
100
AcDbEntity
  8
0
100
AcDbBlockEnd
  0
ENDSEC
  0
SECTION
  2
ENTITIES
  0
LINE
  5
96
330
1F
100
AcDbEntity
  8
0
  6
Continuous
 62
     1
370
    15
100
AcDbLine
 10
11.43685356958157
 20
-2.498925071276108
 30
0.0
 11
12.95980682024772
 21
-2.498925071276108
 31
0.0
1001
PE_URL
1000

  0
LINE
  5
97
330
1F
100
AcDbEntity
  8
0
  6
Continuous
 62
     1
370
    15
100
AcDbLine
 10
6.157473016796878
 20
2.501074928723894
 30
0.0
 11
4.866025403784469
 21
2.501074928723894
 31
0.0
1001
PE_URL
1000

  0
LINE
  5
98
330
1F
100
AcDbEntity
  8
0
  6
Continuous
 62
     1
370
    15
100
AcDbLine
 10
12.95980682024774
 20
2.501074928723894
 30
0.0
 11
11.43685356958163
 21
2.501074928723894
 31
0.0
1001
PE_URL
1000

  0
LINE
  5
99
330
1F
100
AcDbEntity
  8
0
  6
Continuous
 62
     1
370
    15
100
AcDbLine
 10
4.866025403784469
 20
-2.498925071276108
 30
0.0
 11
6.15747301679685
 21
-2.498925071276108
 31
0.0
1001
PE_URL
1000

  0
LINE
  5
9A
330
1F
100
AcDbEntity
  8
외형선
  6
Continuous
370
    15
100
AcDbLine
 10
-71.53397459621553
 20
-2.998925071276111
 30
0.0
 11
2.0
 21
-2.998925071276111
 31
0.0
  0
LINE
  5
9B
330
1F
100
AcDbEntity
  8
외형선
  6
Continuous
370
    15
100
AcDbLine
 10
2.0
 20
3.001074928723898
 30
0.0
 11
-71.53397459621553
 21
3.001074928723898
 31
0.0
  0
LINE
  5
9C
330
1F
100
AcDbEntity
  8
외형선
  6
Continuous
370
    15
100
AcDbLine
 10
2.0
 20
-2.998925071276116
 30
0.0
 11
3.868788340255556
 21
-2.498184744679942
 31
0.0
  0
LINE
  5
9D
330
1F
100
AcDbEntity
  8
외형선
  6
Continuous
370
    15
100
AcDbLine
 10
3.868788340255556
 20
2.500334602127729
 30
0.0
 11
2.0
 21
3.001074928723902
 31
0.0
  0
LINE
  5
9E
330
1F
100
AcDbEntity
  8
외형선
  6
Continuous
370
    15
100
AcDbLine
 10
-71.53397459621553
 20
3.001074928723893
 30
0.0
 11
-72.13397459621552
 21
2.401074928723895
 31
0.0
  0
LINE
  5
9F
330
1F
100
AcDbEntity
  8
외형선
  6
Continuous
370
    15
100
AcDbLine
 10
-72.13397459621552
 20
-2.398925071276109
 30
0.0
 11
-71.53397459621553
 21
-2.998925071276107
 31
0.0
  0
LINE
  5
A0
330
1F
100
AcDbEntity
  8
외형선
  6
Continuous
370
    15
100
AcDbLine
 10
4.633891305094792
 20
-2.498925071276108
 30
0.0
 11
4.866025403784469
 21
-2.498925071276108
 31
0.0
  0
LINE
  5
A1
330
1F
100
AcDbEntity
  8
외형선
  6
Continuous
370
    15
100
AcDbLine
 10
4.866025403784469
 20
2.501074928723893
 30
0.0
 11
4.633891305094792
 21
2.501074928723893
 31
0.0
  0
SPLINE
  5
A2
330
1F
100
AcDbEntity
  8
0
  6
Continuous
 62
     1
370
    15
100
AcDbSpline
210
0.0
220
0.0
230
1.0
 70
     8
 71
     3
 72
    17
 73
    13
 74
     0
 42
0.000000001
 43
0.00000001
 40
0.0
 40
0.0
 40
0.0
 40
0.0
 40
0.1086146089845033
 40
0.2172318255509804
 40
0.3258537999490175
 40
0.43448267646619
 40
0.5431205907521891
 40
0.6517696671659953
 40
0.7542662699943625
 40
0.8567977858937562
 40
0.9592764327750628
 40
0.9999999999999999
 40
0.9999999999999999
 40
0.9999999999999999
 40
0.9999999999999999
 10
4.866025403784498
 20
0.736123301826245
 30
0.0
 10
5.254776791412141
 20
0.5163965807566586
 30
0.0
 10
6.032288899676367
 20
0.0769378634943476
 30
0.0
 10
7.198584711445328
 20
-0.6019293172175435
 30
0.0
 10
8.36494139331932
 20
-1.233514981856682
 30
0.0
 10
9.53138831561202
 20
-1.777027875314403
 30
0.0
 10
10.69794673923549
 20
-2.192175118330337
 30
0.0
 10
11.84259722549145
 20
-2.443684734889582
 30
0.0
 10
12.96535286947611
 20
-2.527316974369644
 30
0.0
 10
14.06618686794599
 20
-2.438958103256482
 30
0.0
 10
14.94574244556203
 20
-2.267257628299271
 30
0.0
 10
15.4582587088673
 20
-2.083961738038776
 30
0.0
 10
15.60400708736026
 20
-2.031836409141697
 30
0.0
1001
PE_URL
1000

  0
SPLINE
  5
A3
330
1F
100
AcDbEntity
  8
외형선
  6
Continuous
370
    15
100
AcDbSpline
210
0.0
220
0.0
230
1.0
 70
    24
 71
     3
 72
    11
 73
     7
 74
     0
 42
0.000000001
 43
0.00000001
 40
0.0
 40
0.0
 40
0.0
 40
0.0
 40
0.272143171079092
 40
0.5377573347282018
 40
0.8033714983773224
 40
0.9999999999999999
 40
0.9999999999999999
 40
0.9999999999999999
 40
0.9999999999999999
 10
4.866025403784427
 20
2.497485076622637
 30
0.0
 10
4.866025403784427
 20
2.329253857585005
 30
0.0
 10
4.866025403784455
 20
1.996827467427816
 30
0.0
 10
4.866025403784498
 20
1.485631320713714
 30
0.0
 10
4.866025403784484
 20
1.061570904984484
 30
0.0
 10
4.866025403784441
 20
0.8765323043569273
 30
0.0
 10
4.866025403784427
 20
0.797820697840987
 30
0.0
  0
SPLINE
  5
A4
330
1F
100
AcDbEntity
  8
0
  6
Continuous
 62
     1
370
    15
100
AcDbSpline
210
0.0
220
0.0
230
1.0
 70
     8
 71
     3
 72
    38
 73
    34
 74
     0
 42
0.000000001
 43
0.00000001
 40
0.0
 40
0.0
 40
0.0
 40
0.0
 40
0.0625
 40
0.0625
 40
0.125
 40
0.125
 40
0.1875
 40
0.1875
 40
0.25
 40
0.25
 40
0.3125
 40
0.3125
 40
0.375
 40
0.375
 40
0.4375
 40
0.4375
 40
0.5
 40
0.5
 40
0.5625
 40
0.5625
 40
0.625
 40
0.625
 40
0.6875
 40
0.6875
 40
0.75
 40
0.75
 40
0.8125
 40
0.8125
 40
0.875
 40
0.875
 40
0.9375
 40
0.9375
 40
1.0
 40
1.0
 40
1.0
 40
1.0
 10
17.36602540378447
 20
-2.49892507127611
 30
0.0
 10
17.10443599378571
 20
-2.418308167008982
 30
0.0
 10
16.84295463979793
 20
-2.374802904930472
 30
0.0
 10
16.32633812843885
 20
-2.26307767461402
 30
0.0
 10
16.06336509906074
 20
-2.194260579761949
 30
0.0
 10
15.54080291265316
 20
-2.033776944331184
 30
0.0
 10
15.28397273110965
 20
-1.942545022571601
 30
0.0
 10
14.7617878502919
 20
-1.739050881385165
 30
0.0
 10
14.49867702500266
 20
-1.626957421748264
 30
0.0
 10
13.98115386441667
 20
-1.387671102577135
 30
0.0
 10
13.72067691846697
 20
-1.259589249221293
 30
0.0
 10
13.19733542851241
 20
-0.990705789254397
 30
0.0
 10
12.93964497846128
 20
-0.8508369481126369
 30
0.0
 10
12.41915525639958
 20
-0.5625082550071085
 30
0.0
 10
12.15582695758513
 20
-0.4139127794460147
 30
0.0
 10
11.63577323986729
 20
-0.1150699763155789
 30
0.0
 10
11.37774171262394
 20
0.0354086419213935
 30
0.0
 10
10.85432733499171
 20
0.3357759702605527
 30
0.0
 10
10.59446155441183
 20
0.4845942322168098
 30
0.0
 10
10.07636062022154
 20
0.7751125033360435
 30
0.0
 10
9.8131754773082
 20
0.9177111920158074
 30
0.0
 10
9.291282884141488
 20
1.190610042997058
 30
0.0
 10
9.034383238431879
 20
1.320661123100021
 30
0.0
 10
8.511602716923605
 20
1.566553248989161
 30
0.0
 10
8.248741854060697
 20
1.681812983121169
 30
0.0
 10
7.73277457586213
 20
1.891608019879792
 30
0.0
 10
7.470545080193624
 20
1.987383905404239
 30
0.0
 10
6.947513520217676
 20
2.156108316894167
 30
0.0
 10
6.690427156101876
 20
2.228775318672132
 30
0.0
 10
6.16898438457271
 20
2.349926433119345
 30
0.0
 10
5.90572213099405
 20
2.398170908716003
 30
0.0
 10
5.386875164049812
 20
2.467785679952462
 30
0.0
 10
5.1277581561394
 20
2.489417366594965
 30
0.0
 10
4.866025403782295
 20
2.49748507663808
 30
0.0
1001
PE_URL
1000

  0
LINE
  5
A6
330
1F
100
AcDbEntity
  8
0
  6
Continuous
 62
     1
370
    15
100
AcDbLine
 10
17.86602540378447
 20
-1.838155555817392
 30
0.0
 11
17.86602540378447
 21
0.2403054132652371
 31
0.0
1001
PE_URL
1000

  0
SPLINE
  5
A7
330
1F
100
AcDbEntity
  8
0
  6
Continuous
 62
     1
370
    15
100
AcDbSpline
210
0.0
220
0.0
230
1.0
 70
     8
 71
     3
 72
    12
 73
     8
 74
     0
 42
0.000000001
 43
0.00000001
 40
0.0
 40
0.0
 40
0.0
 40
0.0
 40
0.5000000000000002
 40
0.5000000000000002
 40
0.7500000000000001
 40
0.7500000000000001
 40
1.0
 40
1.0
 40
1.0
 40
1.0
 10
17.36602540378446
 20
-2.125818386733542
 30
0.0
 10
17.49332730929298
 20
-2.164328931953233
 30
0.0
 10
17.61033978778689
 20
-2.166014730080953
 30
0.0
 10
17.75163442547124
 20
-2.097399755916064
 30
0.0
 10
17.79176661178619
 20
-2.062414687234088
 30
0.0
 10
17.84926523135854
 20
-1.966857697224619
 30
0.0
 10
17.86602540378446
 20
-1.905970697313632
 30
0.0
 10
17.86602540378447
 20
-1.838155555817377
 30
0.0
1001
PE_URL
1000

  0
SPLINE
  5
A8
330
1F
100
AcDbEntity
  8
0
  6
Continuous
 62
     1
370
    15
100
AcDbSpline
210
0.0
220
0.0
230
1.0
 70
     8
 71
     3
 72
    17
 73
    13
 74
     0
 42
0.000000001
 43
0.00000001
 40
0.0
 40
0.0
 40
0.0
 40
0.0
 40
0.0928859198344385
 40
0.1969459855616206
 40
0.3010126635325504
 40
0.405087999703841
 40
0.5091740292155904
 40
0.6073659768969013
 40
0.7055913713691198
 40
0.8037661172177326
 40
0.9018972852198865
 40
1.0
 40
1.0
 40
1.0
 40
1.0
 10
6.157473016796878
 20
2.49241991120891
 30
0.0
 10
6.504504581484063
 20
2.481973164820479
 30
0.0
 10
7.240315495023253
 20
2.459822931856764
 30
0.0
 10
8.36494149108514
 20
2.206992212779274
 30
0.0
 10
9.531388305227914
 20
1.802226440363612
 30
0.0
 10
10.69794668298724
 20
1.263090022983356
 30
0.0
 10
11.84259745539144
 20
0.6458393731930774
 30
0.0
 10
12.96535205928353
 20
-0.002121698567505
 30
0.0
 10
14.06618989967755
 20
-0.6375562403430719
 30
0.0
 10
15.16660848857067
 20
-1.229555412655072
 30
0.0
 10
16.26648942194124
 20
-1.752245695715488
 30
0.0
 10
16.9995488401815
 20
-2.001306194025936
 30
0.0
 10
17.36602540378441
 20
-2.125818386733519
 30
0.0
1001
PE_URL
1000

  0
SPLINE
  5
A9
330
1F
100
AcDbEntity
  8
0
  6
Continuous
 62
     1
370
    15
100
AcDbSpline
210
0.0
220
0.0
230
1.0
 70
     8
 71
     3
 72
    15
 73
    11
 74
     0
 42
0.000000001
 43
0.00000001
 40
0.0
 40
0.0
 40
0.0
 40
0.0
 40
0.1360825898877071
 40
0.2721724035335386
 40
0.4082721227222972
 40
0.5443844168516863
 40
0.6805119396253452
 40
0.8166573257876429
 40
0.9451145061669666
 40
1.0
 40
1.0
 40
1.0
 40
1.0
 10
17.3660254037844
 20
0.5010457434988358
 30
0.0
 10
16.97725483156678
 20
0.7174895754172361
 30
0.0
 10
16.19969304977757
 20
1.15038872887876
 30
0.0
 10
15.03329741609527
 20
1.707120420641639
 30
0.0
 10
13.86679998393467
 20
2.143543654206449
 30
0.0
 10
12.70017505462367
 20
2.424107118031662
 30
0.0
 10
11.53338641883419
 20
2.532312029097653
 30
0.0
 10
10.38846543931987
 20
2.450899720622503
 30
0.0
 10
9.475557174729346
 20
2.275798387020447
 30
0.0
 10
8.951748084689982
 20
2.090114873954549
 30
0.0
 10
8.794940507269445
 20
2.034528626208046
 30
0.0
1001
PE_URL
1000

  0
SPLINE
  5
AA
330
1F
100
AcDbEntity
  8
0
  6
Continuous
 62
     1
370
    15
100
AcDbSpline
210
0.0
220
0.0
230
1.0
 70
     8
 71
     3
 72
    14
 73
    10
 74
     0
 42
0.000000001
 43
0.00000001
 40
0.0
 40
0.0
 40
0.0
 40
0.0
 40
0.25
 40
0.25
 40
0.5
 40
0.5
 40
0.75
 40
0.75
 40
1.0
 40
1.0
 40
1.0
 40
1.0
 10
17.86602540378447
 20
0.240305413265234
 30
0.0
 10
17.86602540378448
 20
0.2485663663218771
 30
0.0
 10
17.85166228172282
 20
0.2584851518174878
 30
0.0
 10
17.79734813134678
 20
0.2855350342783249
 30
0.0
 10
17.75709814033814
 20
0.3029310705747936
 30
0.0
 10
17.66072088346596
 20
0.3469403924684618
 30
0.0
 10
17.60405101307492
 20
0.373930729135568
 30
0.0
 10
17.48644712174843
 20
0.4342537088529834
 30
0.0
 10
17.42578825590496
 20
0.4673409630940877
 30
0.0
 10
17.36602540378447
 20
0.5010457434988087
 30
0.0
1001
PE_URL
1000

  0
SPLINE
  5
AB
330
1F
100
AcDbEntity
  8
0
  6
Continuous
 62
     1
370
    15
100
AcDbSpline
210
0.0
220
0.0
230
1.0
 70
     8
 71
     3
 72
    13
 73
     9
 74
     0
 42
0.000000001
 43
0.00000001
 40
0.0
 40
0.0
 40
0.0
 40
0.0
 40
0.1628830216705953
 40
0.3304353982806603
 40
0.4979217383662409
 40
0.6653274261573318
 40
0.8326781855659198
 40
1.0
 40
1.0
 40
1.0
 40
1.0
 10
11.43685356958159
 20
-2.49206788655462
 30
0.0
 10
11.08006675868379
 20
-2.480171633034478
 30
0.0
 10
10.35626515707352
 20
-2.456038097017904
 30
0.0
 10
9.265493367716324
 20
-2.212838509972579
 30
0.0
 10
8.164942016700437
 20
-1.839685215558715
 30
0.0
 10
7.064941118162039
 20
-1.344375262077966
 30
0.0
 10
5.965371767587918
 20
-0.7644353145249151
 30
0.0
 10
5.232453062296401
 20
-0.3433675109080123
 30
0.0
 10
4.866025403782295
 20
-0.1328518176379865
 30
0.0
1001
PE_URL
1000

  0
LINE
  5
AC
330
1F
100
AcDbEntity
  8
외형선
  6
Continuous
370
    15
100
AcDbLine
 10
4.866025403784427
 20
-0.1328518176334637
 30
0.0
 11
4.866025403784469
 21
0.7361233018262441
 31
0.0
  0
LINE
  5
AD
330
1F
100
AcDbEntity
  8
외형선
  6
Continuous
370
    15
100
AcDbLine
 10
4.866025403784427
 20
2.497485076622637
 30
0.0
 11
4.866025403784469
 21
2.501074928723894
 31
0.0
  0
SPLINE
  5
AE
330
1F
100
AcDbEntity
  8
0
  6
Continuous
 62
     1
370
    15
100
AcDbSpline
210
0.0
220
0.0
230
1.0
 70
     8
 71
     3
 72
    11
 73
     7
 74
     0
 42
0.000000001
 43
0.00000001
 40
0.0
 40
0.0
 40
0.0
 40
0.0
 40
0.2968414533550766
 40
0.5936900331771104
 40
0.8905516160532295
 40
0.9999999999999999
 40
0.9999999999999999
 40
0.9999999999999999
 40
0.9999999999999999
 10
4.866025403784498
 20
-2.388423740285904
 30
0.0
 10
5.254776739108053
 20
-2.438140322312208
 30
0.0
 10
6.032288742762802
 20
-2.537574679943322
 30
0.0
 10
7.198585339128769
 20
-2.448503752327732
 30
0.0
 10
8.119470383830247
 20
-2.276582595741712
 30
0.0
 10
8.651599903468401
 20
-2.084200933494676
 30
0.0
 10
8.79494050726943
 20
-2.032378768760259
 30
0.0
1001
PE_URL
1000

  0
SPLINE
  5
AF
330
1F
100
AcDbEntity
  8
외형선
  6
Continuous
370
    15
100
AcDbSpline
210
0.0
220
0.0
230
1.0
 70
    24
 71
     3
 72
    18
 73
    14
 74
     0
 42
0.000000001
 43
0.00000001
 40
0.0
 40
0.0
 40
0.0
 40
0.0
 40
0.075783333573567
 40
0.1697493596695302
 40
0.2610671632747175
 40
0.355033189370599
 40
0.4463509929756497
 40
0.5403170190715506
 40
0.6316348226767178
 40
0.7256008487727447
 40
0.8169186523776382
 40
0.9108846784738153
 40
1.0
 40
1.0
 40
1.0
 40
1.0
 10
4.866025403784469
 20
-0.1328518176392213
 30
0.0
 10
4.866025403784469
 20
-0.158211337852725
 30
0.0
 10
4.866025403784469
 20
-0.2150148870604138
 30
0.0
 10
4.866025403784469
 20
-0.3482215183652437
 30
0.0
 10
4.866025403784427
 20
-0.5203458469906788
 30
0.0
 10
4.866025403784377
 20
-0.7207677855401906
 30
0.0
 10
4.866025403784512
 20
-0.946002466799958
 30
0.0
 10
4.866025403784526
 20
-1.186010633618175
 30
0.0
 10
4.866025403784413
 20
-1.438175313481771
 30
0.0
 10
4.866025403784512
 20
-1.691002711049755
 30
0.0
 10
4.866025403784484
 20
-1.941299923141873
 30
0.0
 10
4.866025403784455
 20
-2.177741256571173
 30
0.0
 10
4.866025403784484
 20
-2.319447740928883
 30
0.0
 10
4.866025403784484
 20
-2.388423740285903
 30
0.0
  0
SPLINE
  5
B0
330
1F
100
AcDbEntity
  8
0
  6
Continuous
 62
     1
370
    15
100
AcDbSpline
210
0.0
220
0.0
230
1.0
 70
     8
 71
     3
 72
    12
 73
     8
 74
     0
 42
0.000000001
 43
0.00000001
 40
0.0
 40
0.0
 40
0.0
 40
0.0
 40
0.4999999999999998
 40
0.4999999999999998
 40
0.7499999999999999
 40
0.7499999999999999
 40
1.0
 40
1.0
 40
1.0
 40
1.0
 10
17.36602540378446
 20
1.314971737709452
 30
0.0
 10
17.49332730929295
 20
1.252632122724305
 30
0.0
 10
17.61033978778686
 20
1.156106923921393
 30
0.0
 10
17.7516344254712
 20
1.001931310691931
 30
0.0
 10
17.79176661178617
 20
0.9500170161406141
 30
0.0
 10
17.84926523135856
 20
0.8565961825448154
 30
0.0
 10
17.86602540378447
 20
0.8156833045035636
 30
0.0
 10
17.86602540378447
 20
0.7867155747789716
 30
0.0
1001
PE_URL
1000

  0
LINE
  5
B1
330
1F
100
AcDbEntity
  8
0
  6
Continuous
 62
     1
370
    15
100
AcDbLine
 10
17.86602540378447
 20
0.2403054132652371
 30
0.0
 11
17.86602540378447
 21
0.7867155747789782
 31
0.0
1001
PE_URL
1000

  0
SPLINE
  5
B2
330
1F
100
AcDbEntity
  8
0
  6
Continuous
 62
     1
370
    15
100
AcDbSpline
210
0.0
220
0.0
230
1.0
 70
     8
 71
     3
 72
    12
 73
     8
 74
     0
 42
0.000000001
 43
0.00000001
 40
0.0
 40
0.0
 40
0.0
 40
0.0
 40
0.0012364581994752
 40
0.2510974918981985
 40
0.500829688064442
 40
0.7504510330010196
 40
1.0
 40
1.0
 40
1.0
 40
1.0
 10
12.95980682024774
 20
2.500679558866014
 30
0.0
 10
12.96162297819748
 20
2.500811277190226
 30
0.0
 10
13.33044475176652
 20
2.527560374621121
 30
0.0
 10
14.06619758668987
 20
2.434195683819328
 30
0.0
 10
15.16660644014311
 20
2.209544663646317
 30
0.0
 10
16.26648993378019
 20
1.829798979610397
 30
0.0
 10
16.99954901077796
 20
1.48656422906637
 30
0.0
 10
17.36602540378438
 20
1.314971737709488
 30
0.0
1001
PE_URL
1000

  0
LINE
  5
B3
330
1F
100
AcDbEntity
  8
0
  6
Continuous
 62
     1
370
    15
100
AcDbLine
 10
17.86602540378447
 20
0.7856387857740592
 30
0.0
 11
17.86602540378447
 21
1.986715574778998
 31
0.0
1001
PE_URL
1000

  0
SPLINE
  5
B4
330
1F
100
AcDbEntity
  8
0
  6
Continuous
 62
     1
370
    15
100
AcDbSpline
210
0.0
220
0.0
230
1.0
 70
     8
 71
     3
 72
     9
 73
     5
 74
     0
 42
0.000000001
 43
0.00000001
 40
0.0
 40
0.0
 40
0.0
 40
0.0
 40
0.6619217762359322
 40
1.0
 40
1.0
 40
1.0
 40
1.0
 10
17.36602540378447
 20
2.501074928723889
 30
0.0
 10
16.97725540097877
 20
2.394496127267
 30
0.0
 10
16.38992013454222
 20
2.309781432145536
 30
0.0
 10
15.8025755135595
 20
2.103668545276912
 30
0.0
 10
15.60400708736027
 20
2.033986266589483
 30
0.0
1001
PE_URL
1000

  0
LINE
  5
B6
330
1F
100
AcDbEntity
  8
0
  6
Continuous
 62
     1
370
    15
100
AcDbLine
 10
17.86602540378447
 20
-1.984565717331211
 30
0.0
 11
17.86602540378447
 21
-1.838155555817392
 31
0.0
1001
PE_URL
1000

  0
LINE
  5
B7
330
1F
100
AcDbEntity
  8
외형선
  6
Continuous
370
    15
100
AcDbLine
 10
4.866025403784469
 20
-2.498925071276108
 30
0.0
 11
4.866025403784484
 21
-2.388423740285903
 31
0.0
  0
LINE
  5
B8
330
1F
100
AcDbEntity
  8
외형선
  6
Continuous
370
    15
100
AcDbLine
 10
2.0
 20
0.0010749287238931
 30
0.0
 11
2.0
 21
3.001074928723898
 31
0.0
  0
LINE
  5
B9
330
1F
100
AcDbEntity
  8
외형선
  6
Continuous
370
    15
100
AcDbLine
 10
2.0
 20
-2.998925071276111
 30
0.0
 11
2.0
 21
0.0010749287238931
 31
0.0
  0
LINE
  5
BA
330
1F
100
AcDbEntity
  8
외형선
  6
Continuous
370
    15
100
AcDbLine
 10
-71.53397459621553
 20
0.0010749287238931
 30
0.0
 11
-71.53397459621553
 21
3.001074928723898
 31
0.0
  0
LINE
  5
BB
330
1F
100
AcDbEntity
  8
외형선
  6
Continuous
370
    15
100
AcDbLine
 10
-71.53397459621553
 20
-2.998925071276111
 30
0.0
 11
-71.53397459621553
 21
0.0010749287238931
 31
0.0
  0
SPLINE
  5
BC
330
1F
100
AcDbEntity
  8
외형선
  6
Continuous
370
    15
100
AcDbSpline
210
0.0
220
0.0
230
1.0
 70
    24
 71
     3
 72
    11
 73
     7
 74
     0
 42
0.000000001
 43
0.00000001
 40
0.0
 40
0.0
 40
0.0
 40
0.0
 40
0.2926391309886034
 40
0.585278261977207
 40
0.8779173929658106
 40
0.9999999999999999
 40
0.9999999999999999
 40
0.9999999999999999
 40
0.9999999999999999
 10
3.866025403784469
 20
1.26382630452485
 30
0.0
 10
3.866025403784469
 20
1.472314442444469
 30
0.0
 10
3.866025403784455
 20
1.889290718283706
 30
0.0
 10
3.866025403784484
 20
2.296785161105999
 30
0.0
 10
3.866025403784455
 20
2.50286190487819
 30
0.0
 10
3.866025403784455
 20
2.47972775681709
 30
0.0
 10
3.866025403784469
 20
2.472917703598567
 30
0.0
  0
LINE
  5
BD
330
1F
100
AcDbEntity
  8
외형선
  6
Continuous
370
    15
100
AcDbLine
 10
3.866025403784469
 20
0.4424551046531997
 30
0.0
 11
3.866025403784469
 21
1.26382630452485
 31
0.0
  0
SPLINE
  5
BE
330
1F
100
AcDbEntity
  8
외형선
  6
Continuous
370
    15
100
AcDbSpline
210
0.0
220
0.0
230
1.0
 70
    24
 71
     3
 72
    10
 73
     6
 74
     0
 42
0.000000001
 43
0.00000001
 40
0.0
 40
0.0
 40
0.0
 40
0.0
 40
0.5
 40
0.5
 40
1.0
 40
1.0
 40
1.0
 40
1.0
 10
3.866025403784469
 20
-2.156576332002172
 30
0.0
 10
3.866025403784455
 20
-1.900073592959274
 30
0.0
 10
3.866025403784484
 20
-1.506626270682596
 30
0.0
 10
3.866025403784469
 20
-0.5842444253608781
 30
0.0
 10
3.866025403784484
 20
-0.0573927270742318
 30
0.0
 10
3.866025403784469
 20
0.4424551046531988
 30
0.0
  0
LINE
  5
BF
330
1F
100
AcDbEntity
  8
외형선
  6
Continuous
370
    15
100
AcDbLine
 10
3.866025403784469
 20
-2.459653070268091
 30
0.0
 11
3.866025403784469
 21
-2.156576332002172
 31
0.0
  0
LINE
  5
C0
330
1F
100
AcDbEntity
  8
외형선
  6
Continuous
370
    15
100
AcDbLine
 10
3.866025403784469
 20
-2.470767830136551
 30
0.0
 11
3.866025403784469
 21
-2.459653070268091
 31
0.0
  0
LINE
  5
C1
330
1F
100
AcDbEntity
  8
외형선
  6
Continuous
370
    15
100
AcDbLine
 10
-72.13397459621552
 20
0.0010749287238931
 30
0.0
 11
-72.13397459621552
 21
2.401074928723895
 31
0.0
  0
LINE
  5
C2
330
1F
100
AcDbEntity
  8
외형선
  6
Continuous
370
    15
100
AcDbLine
 10
-72.13397459621552
 20
-2.398925071276109
 30
0.0
 11
-72.13397459621552
 21
0.0010749287238931
 31
0.0
  0
SPLINE
  5
C3
330
1F
100
AcDbEntity
  8
외형선
  6
Continuous
370
    15
100
AcDbSpline
210
0.0
220
0.0
230
1.0
 70
    24
 71
     3
 72
    13
 73
     9
 74
     0
 42
0.000000001
 43
0.00000001
 40
0.0
 40
0.0
 40
0.0
 40
0.0
 40
0.1361188812555998
 40
0.3187665642719296
 40
0.5014142472882555
 40
0.6840619303045798
 40
0.8667096133209082
 40
1.0
 40
1.0
 40
1.0
 40
1.0
 10
4.866025403784469
 20
-2.388423740285901
 30
0.0
 10
4.866025403784427
 20
-2.27987375273485
 30
0.0
 10
4.866025403784334
 20
-2.025668705909387
 30
0.0
 10
4.866025403784469
 20
-1.559491722020564
 30
0.0
 10
4.866025403784512
 20
-1.052440158280256
 30
0.0
 10
4.866025403784413
 20
-0.6038218789812988
 30
0.0
 10
4.866025403784512
 20
-0.2733964548311159
 30
0.0
 10
4.866025403784484
 20
-0.1745527579317572
 30
0.0
 10
4.866025403784469
 20
-0.1328518176392253
 30
0.0
  0
SPLINE
  5
C4
330
1F
100
AcDbEntity
  8
외형선
  6
Continuous
370
    15
100
AcDbSpline
210
0.0
220
0.0
230
1.0
 70
     8
 71
     3
 72
    10
 73
     6
 74
     0
 42
0.000000001
 43
0.00000001
 40
0.0
 40
0.0
 40
0.0
 40
0.0
 40
0.5
 40
0.5
 40
1.0
 40
1.0
 40
1.0
 40
1.0
 10
4.866025403784469
 20
-2.388423740285899
 30
0.0
 10
4.698352152553234
 20
-2.360057315838945
 30
0.0
 10
4.530732660840442
 20
-2.32633870210332
 30
0.0
 10
4.198935270875268
 20
-2.248980792862892
 30
0.0
 10
4.033504470714931
 20
-2.205271317681532
 30
0.0
 10
3.866158036371353
 20
-2.156571541787164
 30
0.0
  0
SPLINE
  5
C5
330
1F
100
AcDbEntity
  8
외형선
  6
Continuous
370
    15
100
AcDbSpline
210
0.0
220
0.0
230
1.0
 70
     8
 71
     3
 72
    10
 73
     6
 74
     0
 42
0.000000001
 43
0.00000001
 40
0.0
 40
0.0
 40
0.0
 40
0.0
 40
0.5
 40
0.5
 40
1.0
 40
1.0
 40
1.0
 40
1.0
 10
4.866025403784484
 20
-0.132851817639237
 30
0.0
 10
4.698352152553291
 20
-0.0365122671542311
 30
0.0
 10
4.530732660840428
 20
0.0601156868137516
 30
0.0
 10
4.198935270875239
 20
0.2520196707002862
 30
0.0
 10
4.033504470714902
 20
0.3475398223291499
 30
0.0
 10
3.866158036371345
 20
0.442440739113267
 30
0.0
  0
SPLINE
  5
C6
330
1F
100
AcDbEntity
  8
외형선
  6
Continuous
370
    15
100
AcDbSpline
210
0.0
220
0.0
230
1.0
 70
     8
 71
     3
 72
    10
 73
     6
 74
     0
 42
0.000000001
 43
0.00000001
 40
0.0
 40
0.0
 40
0.0
 40
0.0
 40
0.5000000000000001
 40
0.5000000000000001
 40
1.0
 40
1.0
 40
1.0
 40
1.0
 10
4.866025403784469
 20
0.7361233018262521
 30
0.0
 10
4.698352152553248
 20
0.8283370063127791
 30
0.0
 10
4.530732660840442
 20
0.9188919583705522
 30
0.0
 10
4.198935270875282
 20
1.094917494463722
 30
0.0
 10
4.033504470714917
 20
1.18062236990214
 30
0.0
 10
3.866158036371353
 20
1.263834489484043
 30
0.0
  0
SPLINE
  5
C7
330
1F
100
AcDbEntity
  8
외형선
  6
Continuous
370
    15
100
AcDbSpline
210
0.0
220
0.0
230
1.0
 70
     8
 71
     3
 72
    10
 73
     6
 74
     0
 42
0.000000001
 43
0.00000001
 40
0.0
 40
0.0
 40
0.0
 40
0.0
 40
0.5000000000000001
 40
0.5000000000000001
 40
1.0
 40
1.0
 40
1.0
 40
1.0
 10
4.866025403784484
 20
2.497485076638011
 30
0.0
 10
4.698352152553277
 20
2.502653475169527
 30
0.0
 10
4.530732660840428
 20
2.502225963298558
 30
0.0
 10
4.198935270875239
 20
2.490305541854013
 30
0.0
 10
4.033504470714888
 20
2.4788275399659
 30
0.0
 10
3.866158036371345
 20
2.461805759477095
 30
0.0
  0
SPLINE
  5
C8
330
1F
100
AcDbEntity
  8
외형선
  6
Continuous
370
    15
100
AcDbSpline
210
0.0
220
0.0
230
1.0
 70
    24
 71
     3
 72
    11
 73
     7
 74
     0
 42
0.000000001
 43
0.00000001
 40
0.0
 40
0.0
 40
0.0
 40
0.0
 40
0.2596376649413336
 40
0.5275359899553496
 40
0.7954343149690797
 40
1.0
 40
1.0
 40
1.0
 40
1.0
 10
4.866025403784455
 20
0.797820697840987
 30
0.0
 10
4.866025403784484
 20
0.9108877869998464
 30
0.0
 10
4.866025403784541
 20
1.140619320074086
 30
0.0
 10
4.866025403784469
 20
1.614801149065067
 30
0.0
 10
4.866025403784377
 20
2.087595347492489
 30
0.0
 10
4.866025403784469
 20
2.373636191067114
 30
0.0
 10
4.866025403784512
 20
2.497485076630134
 30
0.0
  0
SPLINE
  5
C9
330
1F
100
AcDbEntity
  8
외형선
  6
Continuous
370
    15
100
AcDbSpline
210
0.0
220
0.0
230
1.0
 70
     8
 71
     3
 72
     9
 73
     5
 74
     0
 42
0.000000001
 43
0.00000001
 40
0.0
 40
0.0
 40
0.0
 40
0.0
 40
0.4279809326303753
 40
1.0
 40
1.0
 40
1.0
 40
1.0
 10
4.633891305094807
 20
-2.493843956661268
 30
0.0
 10
4.524307253331749
 20
-2.494701330869453
 30
0.0
 10
4.268258342251627
 20
-2.496704630883114
 30
0.0
 10
4.012472446121819
 20
-2.473137023070445
 30
0.0
 10
3.866158036371345
 20
-2.459655902029309
 30
0.0
  0
LINE
  5
CA
330
1F
100
AcDbEntity
  8
중심선
100
AcDbLine
 10
-75.13397459621552
 20
0.0010749287238931
 30
0.0
 11
20.86602540378447
 21
0.0010749287238891
 31
0.0
  0
LINE
  5
CB
330
1F
100
AcDbEntity
  8
참조1
100
AcDbLine
 10
-47.13448796377176
 20
-2.498925071276081
 30
0.0
 11
-47.13448796377175
 21
-39.9989250712761
 31
0.0
  0
LINE
  5
CC
330
1F
100
AcDbEntity
  8
참조1
100
AcDbLine
 10
-47.13448796377175
 20
-39.9989250712761
 30
0.0
 11
-62.29283141052421
 21
-39.9989250712761
 31
0.0
  0
CIRCLE
  5
CD
330
1F
100
AcDbEntity
  8
해칭선
100
AcDbCircle
 10
0.0
 20
0.0
 30
0.0
 40
2.999999999999997
  0
INSERT
  5
CE
330
1F
100
AcDbEntity
  8
0
  6
Continuous
 62
     7
100
AcDbBlockReference
 66
     1
  2
블럭10
 10
-41.01150214255141
 20
-52.04609937292003
 30
0.0
  0
ATTRIB
  5
CF
330
CE
100
AcDbEntity
  8
FORMAT
 62
     2
100
AcDbText
 10
-57.13076318198696
 20
-49.97073246008784
 30
0.0
 40
4.233333333333333
  1
SEME0105005E [ 4 FLUTE ]
 41
0.75
  7
SLDTEXTSTYLE0
 11
-57.13076318198696
 21
-52.08739912675451
 31
0.0
100
AcDbAttribute
  2
AUTOATTR0
 70
     0
 74
     1
  0
SEQEND
  5
D0
330
CE
100
AcDbEntity
  8
0
  6
Continuous
 62
     7
  0
HATCH
  5
D1
330
1F
100
AcDbEntity
  8
중심선
100
AcDbHatch
 10
0.0
 20
0.0
 30
0.0
210
0.0
220
0.0
230
1.0
  2
SOLID
 70
     1
 71
     0
 91
        1
 92
        0
 93
        4
 72
     1
 10
-35.29659283817055
 20
-35.79892507127609
 11
-38.74286808200783
 21
-35.79892507127609
 72
     1
 10
-38.74286808200783
 20
-35.79892507127609
 11
-40.87109794121186
 21
-38.33525065184868
 72
     1
 10
-40.87109794121186
 20
-38.33525065184868
 11
-37.42478961226143
 21
-38.33521122254619
 72
     1
 10
-37.42478961226143
 20
-38.33521122254619
 11
-35.29659283817055
 21
-35.79892507127609
 97
        0
 75
     0
 76
     1
 98
        1
 10
-11.29558697346639
 20
0.0010749287239074
  0
HATCH
  5
D2
330
1F
100
AcDbEntity
  8
중심선
100
AcDbHatch
 10
0.0
 20
0.0
 30
0.0
210
0.0
220
0.0
230
1.0
  2
SOLID
 70
     1
 71
     0
 91
        1
 92
        0
 93
        4
 72
     1
 10
-30.2838288471346
 20
-35.79892507127609
 11
-33.73010409097189
 21
-35.79892507127609
 72
     1
 10
-33.73010409097189
 20
-35.79892507127609
 11
-38.26124209932927
 21
-41.19892507127611
 72
     1
 10
-38.26124209932927
 20
-41.19892507127611
 11
-34.81496685549199
 21
-41.19892507127611
 72
     1
 10
-34.81496685549199
 20
-41.19892507127611
 11
-30.2838288471346
 21
-35.79892507127609
 97
        0
 75
     0
 76
     1
 98
        1
 10
-11.29558697346639
 20
0.0010749287239074
  0
HATCH
  5
D3
330
1F
100
AcDbEntity
  8
중심선
100
AcDbHatch
 10
0.0
 20
0.0
 30
0.0
210
0.0
220
0.0
230
1.0
  2
SOLID
 70
     1
 71
     0
 91
        1
 92
        0
 93
        4
 72
     1
 10
-25.2710648560987
 20
-35.79892507127612
 11
-28.71734009993582
 21
-35.79892507127609
 72
     1
 10
-28.71734009993583
 20
-35.79892507127609
 11
-35.76577700182507
 21
-44.19892507127611
 72
     1
 10
-35.76577700182507
 20
-44.19892507127611
 11
-32.31950175798779
 21
-44.19892507127611
 72
     1
 10
-32.31950175798779
 20
-44.19892507127611
 11
-25.27106485609871
 21
-35.79892507127612
 97
        0
 75
     0
 76
     1
 98
        1
 10
-11.29558697346639
 20
0.0010749287239074
  0
HATCH
  5
D4
330
1F
100
AcDbEntity
  8
중심선
100
AcDbHatch
 10
0.0
 20
0.0
 30
0.0
210
0.0
220
0.0
230
1.0
  2
SOLID
 70
     1
 71
     0
 91
        1
 92
        0
 93
        6
 72
     3
 10
-20.47117442508651
 20
-39.99892507132736
 11
3.960054785062283
 21
1.540882976769353E-10
 40
0.3939339440162628
 50
17.09539180608439
 51
320.0019657685082
 73
     0
 72
     1
 10
-18.78817476938591
 20
-38.58681907591439
 11
-16.48287289568487
 21
-36.65249236586647
 72
     3
 10
-20.47117442513935
 20
-39.99892507127625
 11
6.600054785286829
 21
-1.278976924368180E-13
 40
0.636358354079598
 50
39.99873849337418
 51
368.4976242363725
 73
     1
 72
     1
 10
-14.04584193323875
 20
-39.03892507120611
 11
-21.79110711830344
 21
-39.03892507120608
 72
     1
 10
-21.79110711830343
 20
-39.03892507120608
 11
-21.79113216274936
 21
-40.958925071206
 72
     1
 10
-21.79113216274936
 20
-40.95892507120601
 11
-17.34975239327733
 21
-40.95892507120598
 97
        0
 75
     0
 76
     1
 98
        1
 10
-11.29558697346639
 20
0.0010749287239074
  0
DIMENSION
  5
D5
330
1F
100
AcDbEntity
  8
치수문자_일반주서
100
AcDbDimension
  2
_D
 10
27.86602540378448
 20
-2.498925071276075
 30
0.0
 11
27.86602540378443
 21
12.16757492872395
 31
0.0
 70
   160
  1
%%c<>
 71
     2
 42
5.0
 52
-270.0
  3
SLDDIMSTYLE0
100
AcDbAlignedDimension
 13
17.86602540378447
 23
2.501074928723889
 33
0.0
 14
17.86602540378447
 24
-2.498925071276111
 34
0.0
 50
90.0000000000002
100
AcDbRotatedDimension
  0
DIMENSION
  5
E3
330
1F
100
AcDbEntity
  8
치수문자_일반주서
100
AcDbDimension
  2
_D_1
 10
-82.13397459621552
 20
-2.998925071276149
 30
0.0
 11
-82.13397459621557
 21
12.66757492872386
 31
0.0
 70
   160
  1
%%c<>
 71
     2
 42
6.000000000000005
 52
-270.0
  3
SLDDIMSTYLE0
100
AcDbAlignedDimension
 13
-71.53397459621553
 23
3.001074928723896
 33
0.0
 14
-71.53397459621553
 24
-2.998925071276109
 34
0.0
 50
90.0000000000002
100
AcDbRotatedDimension
  0
DIMENSION
  5
F0
330
1F
100
AcDbEntity
  8
치수문자_일반주서
100
AcDbDimension
  2
_D_2
 10
4.866025403784427
 20
13.00107492872389
 30
0.0
 11
11.36602540378423
 21
13.00107492872389
 31
0.0
 70
   160
  1
<>
 71
     2
 42
13.00000000000004
  3
SLDDIMSTYLE0
100
AcDbAlignedDimension
 13
17.86602540378447
 23
2.501074928723889
 33
0.0
 14
4.866025403784427
 24
2.497485076622637
 34
0.0
 50
0.0000000000004697
100
AcDbRotatedDimension
  0
DIMENSION
  5
FC
330
1F
100
AcDbEntity
  8
치수문자_일반주서
100
AcDbDimension
  2
_D_3
 10
-72.13397459621552
 20
23.00107492872389
 30
0.0
 11
-27.13397459621553
 21
23.00107492872389
 31
0.0
 70
   160
  1
<>
 71
     2
 42
90.0
  3
SLDDIMSTYLE1
100
AcDbAlignedDimension
 13
17.86602540378447
 23
2.501074928723889
 33
0.0
 14
-72.13397459621552
 24
2.401074928723895
 34
0.0
 50
0.0000000000000045
100
AcDbRotatedDimension
  0
LINE
  5
107
330
1F
100
AcDbEntity
  8
참조1
100
AcDbLine
 10
35.67950921913006
 20
7.441074928723895
 30
0.0
 11
35.67950921913006
 21
-7.438925071276109
 31
0.0
  0
LINE
  5
108
330
1F
100
AcDbEntity
  8
참조1
100
AcDbLine
 10
48.37950921913006
 20
5.441074928723896
 30
0.0
 11
35.67950921913006
 21
5.441074928723896
 31
0.0
  0
SOLID
  5
109
330
1F
100
AcDbEntity
  8
참조1
100
AcDbTrace
 10
35.67950921913006
 20
5.441074928723896
 30
0.0
 11
42.02950921913006
 21
4.425074928723896
 31
0.0
 12
42.02950921913006
 22
6.457074928723895
 32
0.0
 13
42.02950921913006
 23
6.457074928723895
 33
0.0
  0
LINE
  5
10A
330
1F
100
AcDbEntity
  8
참조1
100
AcDbLine
 10
48.37950921913006
 20
-5.438925071276109
 30
0.0
 11
35.67950921913006
 21
-5.438925071276109
 31
0.0
  0
SOLID
  5
10B
330
1F
100
AcDbEntity
  8
참조1
100
AcDbTrace
 10
35.67950921913006
 20
-5.438925071276109
 30
0.0
 11
42.02950921913006
 21
-6.454925071276109
 31
0.0
 12
42.02950921913006
 22
-4.422925071276109
 32
0.0
 13
42.02950921913006
 23
-4.422925071276109
 33
0.0
  0
MTEXT
  5
10C
330
1F
100
AcDbEntity
  8
참조1
100
AcDbMText
 10
45.07699931160034
 20
10.98929157337383
 30
0.0
 40
3.5
 41
0.0
 71
     1
 72
     1
  1
A
  7
SLDTEXTSTYLE0
 73
     1
 44
1.0
  0
MTEXT
  5
10D
330
1F
100
AcDbEntity
  8
참조1
100
AcDbMText
 10
45.07699931160034
 20
0.109291573373826
 30
0.0
 40
3.5
 41
0.0
 71
     1
 72
     1
  1
A
  7
SLDTEXTSTYLE0
 73
     1
 44
1.0
  0
INSERT
  5
114
330
1F
100
AcDbEntity
  8
해칭선
100
AcDbBlockReference
  2
SW_DOWELSYMBOL_0
 10
0.0
 20
0.0
 30
0.0
  0
ARC
  5
1BA
330
1F
100
AcDbEntity
  8
0
  6
Continuous
 62
     1
370
    15
100
AcDbCircle
 10
17.36602540378447
 20
2.001074928723889
 30
0.0
 40
0.4999999999999998
100
AcDbArc
 50
0.0
 51
90.0
1001
PE_URL
1000

  0
ARC
  5
1BB
102
{ACAD_REACTORS
102
}
330
1F
100
AcDbEntity
  8
0
  6
Continuous
 62
     1
370
    15
100
AcDbCircle
 10
17.36602540378447
 20
-1.99892507127611
 30
0.0
 40
0.4999999999999998
100
AcDbArc
 50
270.0
 51
0.0
1001
PE_URL
1000

  0
DIMENSION
  5
1BC
102
{ACAD_REACTORS
102
}
102
{ACAD_XDICTIONARY
360
1BD
102
}
330
1F
100
AcDbEntity
  8
치수문자_일반주서
100
AcDbDimension
  2
*D12
 10
17.36602540378447
 20
-1.99892507127611
 30
0.0
 11
28.74494939760188
 21
-15.28121852672016
 31
0.0
 70
   164
 71
     5
 42
0.5000000000000012
  3
SLDDIMSTYLE1
100
AcDbRadialDimension
 15
17.69132386468085
 25
-2.378636687293378
 35
0.0
 40
0.0
1001
ACAD
1000
DSTYLE
1002
{
1070
    78
1070
     8
1002
}
1001
ACAD_DSTYLE_DIMRADIAL_EXTENSION
1070
   387
1070
     1
1070
   388
1040
4.71238898038469
1070
   390
1040
0.0
1001
PE_URL
1000

  0
ENDSEC
  0
SECTION
  2
OBJECTS
  0
DICTIONARY
  5
C
330
0
100
AcDbDictionary
281
     1
  3
ACAD_DETAILVIEWSTYLE
350
1A7
  3
ACAD_GROUP
350
D
  3
ACAD_LAYOUT
350
1A
  3
ACAD_MLINESTYLE
350
17
  3
ACAD_PLOTSETTINGS
350
19
  3
ACAD_PLOTSTYLENAME
350
E
  3
ACAD_SCALELIST
350
47
  3
ACAD_SECTIONVIEWSTYLE
350
1A8
  3
AcDbVariableDictionary
350
1A2
  3
APPDATA
350
136
  3
DWGPROPS
350
1CA
  0
DICTIONARY
  5
177
330
2
100
AcDbDictionary
280
     1
281
     1
  3
ACAD_LAYERSTATES
360
178
  0
DICTIONARY
  5
1BD
330
1BC
100
AcDbDictionary
280
     1
281
     1
  0
DICTIONARY
  5
1A7
102
{ACAD_REACTORS
330
C
102
}
330
C
100
AcDbDictionary
281
     1
  0
DICTIONARY
  5
D
102
{ACAD_REACTORS
330
C
102
}
330
C
100
AcDbDictionary
281
     1
  0
DICTIONARY
  5
1A
102
{ACAD_REACTORS
330
C
102
}
330
C
100
AcDbDictionary
281
     1
  3
Layout1
350
1E
  3
Layout2
350
26
  3
Model
350
22
  0
DICTIONARY
  5
17
102
{ACAD_REACTORS
330
C
102
}
330
C
100
AcDbDictionary
281
     1
  3
Standard
350
18
  0
DICTIONARY
  5
19
102
{ACAD_REACTORS
330
C
102
}
330
C
100
AcDbDictionary
281
     1
  0
ACDBDICTIONARYWDFLT
  5
E
102
{ACAD_REACTORS
330
C
102
}
330
C
100
AcDbDictionary
281
     1
  3
Normal
350
F
100
AcDbDictionaryWithDefault
340
F
  0
DICTIONARY
  5
47
102
{ACAD_REACTORS
330
C
102
}
330
C
100
AcDbDictionary
281
     1
  3
A0
350
48
  3
A1
350
49
  3
A2
350
4A
  3
A3
350
4B
  3
A4
350
4C
  3
A5
350
4D
  3
A6
350
4E
  3
A7
350
4F
  3
A8
350
50
  3
A9
350
51
  3
B0
350
52
  3
B1
350
53
  3
B2
350
54
  3
B3
350
55
  3
B4
350
56
  3
B5
350
57
  3
B6
350
58
  3
B7
350
59
  3
B8
350
5A
  3
B9
350
5B
  3
C0
350
5C
  3
C1
350
5D
  3
C2
350
5E
  3
C3
350
5F
  3
C4
350
60
  3
C5
350
61
  3
C6
350
62
  3
C7
350
63
  3
C8
350
64
  3
C9
350
65
  3
D0
350
66
  3
D1
350
67
  3
D2
350
68
  0
DICTIONARY
  5
1A8
102
{ACAD_REACTORS
330
C
102
}
330
C
100
AcDbDictionary
281
     1
  0
DICTIONARY
  5
1A2
102
{ACAD_REACTORS
330
C
102
}
330
C
100
AcDbDictionary
281
     1
  0
DICTIONARY
  5
136
102
{ACAD_REACTORS
330
C
102
}
330
C
100
AcDbDictionary
281
     1
  0
XRECORD
  5
1CA
102
{ACAD_REACTORS
330
C
102
}
330
C
100
AcDbXrecord
280
     1
  1
DWGPROPS COOKIE
  2

  3

  4

  6

  7

  8
12017044
  9

300
=
301
=
302
=
303
=
304
=
305
=
306
=
307
=
308
=
309
=
 40
0.0
 41
2458269.433131551
 42
2458270.3955614
  1

 90
        0
  0
DICTIONARY
  5
178
102
{ACAD_REACTORS
330
177
102
}
330
177
100
AcDbDictionary
281
     1
  0
LAYOUT
  5
1E
102
{ACAD_REACTORS
330
1A
102
}
330
1A
100
AcDbPlotSettings
  1

  2
none_device
  4

  6

 40
0.0
 41
0.0
 42
0.0
 43
0.0
 44
0.0
 45
0.0
 46
0.0
 47
0.0
 48
0.0
 49
0.0
140
0.0
141
0.0
142
1.0
143
1.0
 70
   688
 72
     1
 73
     0
 74
     5
  7

 75
    16
147
1.0
148
0.0
149
0.0
100
AcDbLayout
  1
Layout1
 70
     1
 71
     1
 10
0.0
 20
0.0
 11
420.0
 21
297.0
 12
0.0
 22
0.0
 32
0.0
 14
1.000000000000000E+20
 24
1.000000000000000E+20
 34
1.000000000000000E+20
 15
-1.000000000000000E+20
 25
-1.000000000000000E+20
 35
-1.000000000000000E+20
146
0.0
 13
0.0
 23
0.0
 33
0.0
 16
1.0
 26
0.0
 36
0.0
 17
0.0
 27
1.0
 37
0.0
 76
     0
330
1B
  0
LAYOUT
  5
26
102
{ACAD_REACTORS
330
1A
102
}
330
1A
100
AcDbPlotSettings
  1

  2
none_device
  4

  6

 40
0.0
 41
0.0
 42
0.0
 43
0.0
 44
0.0
 45
0.0
 46
0.0
 47
0.0
 48
0.0
 49
0.0
140
0.0
141
0.0
142
1.0
143
1.0
 70
   688
 72
     1
 73
     0
 74
     5
  7

 75
    16
147
1.0
148
0.0
149
0.0
100
AcDbLayout
  1
Layout2
 70
     1
 71
     2
 10
0.0
 20
0.0
 11
0.0
 21
0.0
 12
0.0
 22
0.0
 32
0.0
 14
0.0
 24
0.0
 34
0.0
 15
0.0
 25
0.0
 35
0.0
146
0.0
 13
0.0
 23
0.0
 33
0.0
 16
1.0
 26
0.0
 36
0.0
 17
0.0
 27
1.0
 37
0.0
 76
     0
330
23
  0
LAYOUT
  5
22
102
{ACAD_REACTORS
330
1A
102
}
330
1A
100
AcDbPlotSettings
  1

  2
none_device
  4
ANSI_A_(11.00_x_8.50_Inches)
  6

 40
6.35
 41
19.05
 42
6.35000508
 43
19.05000254
 44
279.4
 45
215.9
 46
111.6855150645388
 47
108.3084052043534
 48
0.0
 49
0.0
140
0.0
141
0.0
142
0.0789824718862547
143
1.0
 70
  1696
 72
     0
 73
     0
 74
     0
  7

 75
     0
147
0.0235690232323232
148
0.0
149
0.0
100
AcDbLayout
  1
Model
 70
     1
 71
     0
 10
0.0
 20
0.0
 11
420.0
 21
297.0
 12
0.0
 22
0.0
 32
0.0
 14
-86.50897459621557
 24
-49.97073246008784
 34
0.0
 15
48.37950921913006
 25
27.3760749287239
 35
0.0
146
0.0
 13
0.0
 23
0.0
 33
0.0
 16
1.0
 26
0.0
 36
0.0
 17
0.0
 27
1.0
 37
0.0
 76
     0
330
1F
331
29
  0
MLINESTYLE
  5
18
102
{ACAD_REACTORS
330
17
102
}
330
17
100
AcDbMlineStyle
  2
Standard
 70
     0
  3

 62
   256
 51
90.0
 52
90.0
 71
     2
 49
0.5
 62
   256
  6
BYLAYER
 49
-0.5
 62
   256
  6
BYLAYER
  0
ACDBPLACEHOLDER
  5
F
102
{ACAD_REACTORS
330
E
102
}
330
E
  0
SCALE
  5
48
102
{ACAD_REACTORS
330
47
102
}
330
47
100
AcDbScale
 70
     0
300
1:1
140
1.0
141
1.0
290
     1
  0
SCALE
  5
49
102
{ACAD_REACTORS
330
47
102
}
330
47
100
AcDbScale
 70
     0
300
1:2
140
1.0
141
2.0
290
     0
  0
SCALE
  5
4A
102
{ACAD_REACTORS
330
47
102
}
330
47
100
AcDbScale
 70
     0
300
1:4
140
1.0
141
4.0
290
     0
  0
SCALE
  5
4B
102
{ACAD_REACTORS
330
47
102
}
330
47
100
AcDbScale
 70
     0
300
1:5
140
1.0
141
5.0
290
     0
  0
SCALE
  5
4C
102
{ACAD_REACTORS
330
47
102
}
330
47
100
AcDbScale
 70
     0
300
1:8
140
1.0
141
8.0
290
     0
  0
SCALE
  5
4D
102
{ACAD_REACTORS
330
47
102
}
330
47
100
AcDbScale
 70
     0
300
1:10
140
1.0
141
10.0
290
     0
  0
SCALE
  5
4E
102
{ACAD_REACTORS
330
47
102
}
330
47
100
AcDbScale
 70
     0
300
1:16
140
1.0
141
16.0
290
     0
  0
SCALE
  5
4F
102
{ACAD_REACTORS
330
47
102
}
330
47
100
AcDbScale
 70
     0
300
1:20
140
1.0
141
20.0
290
     0
  0
SCALE
  5
50
102
{ACAD_REACTORS
330
47
102
}
330
47
100
AcDbScale
 70
     0
300
1:30
140
1.0
141
30.0
290
     0
  0
SCALE
  5
51
102
{ACAD_REACTORS
330
47
102
}
330
47
100
AcDbScale
 70
     0
300
1:40
140
1.0
141
40.0
290
     0
  0
SCALE
  5
52
102
{ACAD_REACTORS
330
47
102
}
330
47
100
AcDbScale
 70
     0
300
1:50
140
1.0
141
50.0
290
     0
  0
SCALE
  5
53
102
{ACAD_REACTORS
330
47
102
}
330
47
100
AcDbScale
 70
     0
300
1:100
140
1.0
141
100.0
290
     0
  0
SCALE
  5
54
102
{ACAD_REACTORS
330
47
102
}
330
47
100
AcDbScale
 70
     0
300
2:1
140
2.0
141
1.0
290
     0
  0
SCALE
  5
55
102
{ACAD_REACTORS
330
47
102
}
330
47
100
AcDbScale
 70
     0
300
4:1
140
4.0
141
1.0
290
     0
  0
SCALE
  5
56
102
{ACAD_REACTORS
330
47
102
}
330
47
100
AcDbScale
 70
     0
300
8:1
140
8.0
141
1.0
290
     0
  0
SCALE
  5
57
102
{ACAD_REACTORS
330
47
102
}
330
47
100
AcDbScale
 70
     0
300
10:1
140
10.0
141
1.0
290
     0
  0
SCALE
  5
58
102
{ACAD_REACTORS
330
47
102
}
330
47
100
AcDbScale
 70
     0
300
100:1
140
100.0
141
1.0
290
     0
  0
SCALE
  5
59
102
{ACAD_REACTORS
330
47
102
}
330
47
100
AcDbScale
 70
     0
300
1/128" = 1'-0"
140
0.0078125
141
12.0
290
     0
  0
SCALE
  5
5A
102
{ACAD_REACTORS
330
47
102
}
330
47
100
AcDbScale
 70
     0
300
1/64" = 1'-0"
140
0.015625
141
12.0
290
     0
  0
SCALE
  5
5B
102
{ACAD_REACTORS
330
47
102
}
330
47
100
AcDbScale
 70
     0
300
1/32" = 1'-0"
140
0.03125
141
12.0
290
     0
  0
SCALE
  5
5C
102
{ACAD_REACTORS
330
47
102
}
330
47
100
AcDbScale
 70
     0
300
1/16" = 1'-0"
140
0.0625
141
12.0
290
     0
  0
SCALE
  5
5D
102
{ACAD_REACTORS
330
47
102
}
330
47
100
AcDbScale
 70
     0
300
3/32" = 1'-0"
140
0.09375
141
12.0
290
     0
  0
SCALE
  5
5E
102
{ACAD_REACTORS
330
47
102
}
330
47
100
AcDbScale
 70
     0
300
1/8" = 1'-0"
140
0.125
141
12.0
290
     0
  0
SCALE
  5
5F
102
{ACAD_REACTORS
330
47
102
}
330
47
100
AcDbScale
 70
     0
300
3/16" = 1'-0"
140
0.1875
141
12.0
290
     0
  0
SCALE
  5
60
102
{ACAD_REACTORS
330
47
102
}
330
47
100
AcDbScale
 70
     0
300
1/4" = 1'-0"
140
0.25
141
12.0
290
     0
  0
SCALE
  5
61
102
{ACAD_REACTORS
330
47
102
}
330
47
100
AcDbScale
 70
     0
300
3/8" = 1'-0"
140
0.375
141
12.0
290
     0
  0
SCALE
  5
62
102
{ACAD_REACTORS
330
47
102
}
330
47
100
AcDbScale
 70
     0
300
1/2" = 1'-0"
140
0.5
141
12.0
290
     0
  0
SCALE
  5
63
102
{ACAD_REACTORS
330
47
102
}
330
47
100
AcDbScale
 70
     0
300
3/4" = 1'-0"
140
0.75
141
12.0
290
     0
  0
SCALE
  5
64
102
{ACAD_REACTORS
330
47
102
}
330
47
100
AcDbScale
 70
     0
300
1" = 1'-0"
140
1.0
141
12.0
290
     0
  0
SCALE
  5
65
102
{ACAD_REACTORS
330
47
102
}
330
47
100
AcDbScale
 70
     0
300
1-1/2" = 1'-0"
140
1.5
141
12.0
290
     0
  0
SCALE
  5
66
102
{ACAD_REACTORS
330
47
102
}
330
47
100
AcDbScale
 70
     0
300
3" = 1'-0"
140
3.0
141
12.0
290
     0
  0
SCALE
  5
67
102
{ACAD_REACTORS
330
47
102
}
330
47
100
AcDbScale
 70
     0
300
6" = 1'-0"
140
6.0
141
12.0
290
     0
  0
SCALE
  5
68
102
{ACAD_REACTORS
330
47
102
}
330
47
100
AcDbScale
 70
     0
300
1'-0" = 1'-0"
140
12.0
141
12.0
290
     0
  0
ENDSEC
  0
EOF
