  0
SECTION
  2
HEADER
  9
$ACADVER
  1
AC1015
  9
$ACADMAINTVER
 70
     6
  9
$DWGCODEPAGE
  3
ANSI_949
  9
$INSBASE
 10
0.0
 20
0.0
 30
0.0
  9
$EXTMIN
 10
-83.50897459621557
 20
-49.97073246008785
 30
0.0
  9
$EXTMAX
 10
51.37950921913007
 20
28.3760749287239
 30
0.0
  9
$LIMMIN
 10
0.0
 20
0.0
  9
$LIMMAX
 10
420.0
 20
297.0
  9
$ORTHOMODE
 70
     1
  9
$REGENMODE
 70
     1
  9
$FILLMODE
 70
     1
  9
$QTEXTMODE
 70
     0
  9
$MIRRTEXT
 70
     1
  9
$LTSCALE
 40
1.0
  9
$ATTMODE
 70
     1
  9
$TEXTSIZE
 40
3.5
  9
$TRACEWID
 40
1.0
  9
$TEXTSTYLE
  7
Standard
  9
$CLAYER
  8
0
  9
$CELTYPE
  6
ByLayer
  9
$CECOLOR
 62
   256
  9
$CELTSCALE
 40
1.0
  9
$DISPSILH
 70
     0
  9
$DIMSCALE
 40
1.0
  9
$DIMASZ
 40
3.302
  9
$DIMEXO
 40
1.0
  9
$DIMDLI
 40
3.75
  9
$DIMRND
 40
0.0
  9
$DIMDLE
 40
0.0
  9
$DIMEXE
 40
1.0
  9
$DIMTP
 40
0.0
  9
$DIMTM
 40
0.0
  9
$DIMTXT
 40
3.5
  9
$DIMCEN
 40
2.5
  9
$DIMTSZ
 40
0.0
  9
$DIMTOL
 70
     0
  9
$DIMLIM
 70
     0
  9
$DIMTIH
 70
     1
  9
$DIMTOH
 70
     1
  9
$DIMSE1
 70
     0
  9
$DIMSE2
 70
     0
  9
$DIMTAD
 70
     1
  9
$DIMZIN
 70
     0
  9
$DIMBLK
  1

  9
$DIMASO
 70
     1
  9
$DIMSHO
 70
     1
  9
$DIMPOST
  1

  9
$DIMAPOST
  1

  9
$DIMALT
 70
     0
  9
$DIMALTD
 70
     3
  9
$DIMALTF
 40
0.0393700787401575
  9
$DIMLFAC
 40
1.0
  9
$DIMTOFL
 70
     1
  9
$DIMTVP
 40
0.0
  9
$DIMTIX
 70
     0
  9
$DIMSOXD
 70
     0
  9
$DIMSAH
 70
     0
  9
$DIMBLK1
  1

  9
$DIMBLK2
  1

  9
$DIMSTYLE
  2
ISO-25
  9
$DIMCLRD
 70
     0
  9
$DIMCLRE
 70
     0
  9
$DIMCLRT
 70
     0
  9
$DIMTFAC
 40
1.0
  9
$DIMGAP
 40
1.524
  9
$DIMJUST
 70
     0
  9
$DIMSD1
 70
     0
  9
$DIMSD2
 70
     0
  9
$DIMTOLJ
 70
     0
  9
$DIMTZIN
 70
     0
  9
$DIMALTZ
 70
     0
  9
$DIMALTTZ
 70
     0
  9
$DIMUPT
 70
     0
  9
$DIMDEC
 70
     2
  9
$DIMTDEC
 70
     2
  9
$DIMALTU
 70
     2
  9
$DIMALTTD
 70
     3
  9
$DIMTXSTY
  7
Standard
  9
$DIMAUNIT
 70
     0
  9
$DIMADEC
 70
     2
  9
$DIMALTRND
 40
0.0
  9
$DIMAZIN
 70
     0
  9
$DIMDSEP
 70
    44
  9
$DIMATFIT
 70
     3
  9
$DIMFRAC
 70
     0
  9
$DIMLDRBLK
  1

  9
$DIMLUNIT
 70
     2
  9
$DIMLWD
 70
    -2
  9
$DIMLWE
 70
    -2
  9
$DIMTMOVE
 70
     0
  9
$LUNITS
 70
     2
  9
$LUPREC
 70
     2
  9
$SKETCHINC
 40
1.0
  9
$FILLETRAD
 40
10.0
  9
$AUNITS
 70
     0
  9
$AUPREC
 70
     2
  9
$MENU
  1
.
  9
$ELEVATION
 40
0.0
  9
$PELEVATION
 40
0.0
  9
$THICKNESS
 40
0.0
  9
$LIMCHECK
 70
     0
  9
$CHAMFERA
 40
0.0
  9
$CHAMFERB
 40
0.0
  9
$CHAMFERC
 40
0.0
  9
$CHAMFERD
 40
0.0
  9
$SKPOLY
 70
     0
  9
$TDCREATE
 40
2458269.81228993
  9
$TDUCREATE
 40
2458269.43728993
  9
$TDUPDATE
 40
2458270.807006933
  9
$TDUUPDATE
 40
2458270.432006933
  9
$TDINDWG
 40
0.0006933681
  9
$TDUSRTIMER
 40
0.0019947685
  9
$USRTIMER
 70
     1
  9
$ANGBASE
 50
0.0
  9
$ANGDIR
 70
     0
  9
$PDMODE
 70
     0
  9
$PDSIZE
 40
-1.0
  9
$PLINEWID
 40
0.0
  9
$SPLFRAME
 70
     0
  9
$SPLINETYPE
 70
     6
  9
$SPLINESEGS
 70
     8
  9
$HANDSEED
  5
1D2
  9
$SURFTAB1
 70
     6
  9
$SURFTAB2
 70
     6
  9
$SURFTYPE
 70
     6
  9
$SURFU
 70
     6
  9
$SURFV
 70
     6
  9
$UCSBASE
  2

  9
$UCSNAME
  2

  9
$UCSORG
 10
0.0
 20
0.0
 30
0.0
  9
$UCSXDIR
 10
1.0
 20
0.0
 30
0.0
  9
$UCSYDIR
 10
0.0
 20
1.0
 30
0.0
  9
$UCSORTHOREF
  2

  9
$UCSORTHOVIEW
 70
     0
  9
$UCSORGTOP
 10
0.0
 20
0.0
 30
0.0
  9
$UCSORGBOTTOM
 10
0.0
 20
0.0
 30
0.0
  9
$UCSORGLEFT
 10
0.0
 20
0.0
 30
0.0
  9
$UCSORGRIGHT
 10
0.0
 20
0.0
 30
0.0
  9
$UCSORGFRONT
 10
0.0
 20
0.0
 30
0.0
  9
$UCSORGBACK
 10
0.0
 20
0.0
 30
0.0
  9
$PUCSBASE
  2

  9
$PUCSNAME
  2

  9
$PUCSORG
 10
0.0
 20
0.0
 30
0.0
  9
$PUCSXDIR
 10
1.0
 20
0.0
 30
0.0
  9
$PUCSYDIR
 10
0.0
 20
1.0
 30
0.0
  9
$PUCSORTHOREF
  2

  9
$PUCSORTHOVIEW
 70
     0
  9
$PUCSORGTOP
 10
0.0
 20
0.0
 30
0.0
  9
$PUCSORGBOTTOM
 10
0.0
 20
0.0
 30
0.0
  9
$PUCSORGLEFT
 10
0.0
 20
0.0
 30
0.0
  9
$PUCSORGRIGHT
 10
0.0
 20
0.0
 30
0.0
  9
$PUCSORGFRONT
 10
0.0
 20
0.0
 30
0.0
  9
$PUCSORGBACK
 10
0.0
 20
0.0
 30
0.0
  9
$USERI1
 70
     0
  9
$USERI2
 70
     0
  9
$USERI3
 70
     0
  9
$USERI4
 70
     0
  9
$USERI5
 70
     0
  9
$USERR1
 40
0.0
  9
$USERR2
 40
0.0
  9
$USERR3
 40
0.0
  9
$USERR4
 40
0.0
  9
$USERR5
 40
0.0
  9
$WORLDVIEW
 70
     1
  9
$SHADEDGE
 70
     3
  9
$SHADEDIF
 70
    70
  9
$TILEMODE
 70
     1
  9
$MAXACTVP
 70
    64
  9
$PINSBASE
 10
0.0
 20
0.0
 30
0.0
  9
$PLIMCHECK
 70
     0
  9
$PEXTMIN
 10
1.000000000000000E+20
 20
1.000000000000000E+20
 30
1.000000000000000E+20
  9
$PEXTMAX
 10
-1.000000000000000E+20
 20
-1.000000000000000E+20
 30
-1.000000000000000E+20
  9
$PLIMMIN
 10
0.0
 20
0.0
  9
$PLIMMAX
 10
0.0
 20
0.0
  9
$UNITMODE
 70
     0
  9
$VISRETAIN
 70
     1
  9
$PLINEGEN
 70
     0
  9
$PSLTSCALE
 70
     1
  9
$TREEDEPTH
 70
  3020
  9
$CMLSTYLE
  2
Standard
  9
$CMLJUST
 70
     0
  9
$CMLSCALE
 40
20.0
  9
$PROXYGRAPHICS
 70
     1
  9
$MEASUREMENT
 70
     1
  9
$CELWEIGHT
370
    -1
  9
$ENDCAPS
280
     0
  9
$JOINSTYLE
280
     0
  9
$LWDISPLAY
290
     1
  9
$INSUNITS
 70
     4
  9
$HYPERLINKBASE
  1

  9
$STYLESHEET
  1

  9
$XEDIT
290
     1
  9
$CEPSNTYPE
380
     0
  9
$PSTYLEMODE
290
     1
  9
$FINGERPRINTGUID
  2
{2109E442-8FCD-4A81-9292-7B0D89664619}
  9
$VERSIONGUID
  2
{FAEB1C32-E019-11D5-929B-00C0DF256EC4}
  9
$EXTNAMES
290
     1
  9
$PSVPSCALE
 40
0.0
  9
$OLESTARTUP
290
     0
  0
ENDSEC
  0
SECTION
  2
CLASSES
  0
CLASS
  1
ACDBDICTIONARYWDFLT
  2
AcDbDictionaryWithDefault
  3
ObjectDBX Classes
 90
        0
280
     0
281
     0
  0
CLASS
  1
VISUALSTYLE
  2
AcDbVisualStyle
  3
ObjectDBX Classes
 90
     4095
280
     0
281
     0
  0
CLASS
  1
MATERIAL
  2
AcDbMaterial
  3
ObjectDBX Classes
 90
     1153
280
     0
281
     0
  0
CLASS
  1
SCALE
  2
AcDbScale
  3
ObjectDBX Classes
 90
     1153
280
     0
281
     0
  0
CLASS
  1
SUN
  2
AcDbSun
  3
SCENEOE
 90
     1153
280
     0
281
     0
  0
CLASS
  1
ACDBPLACEHOLDER
  2
AcDbPlaceHolder
  3
ObjectDBX Classes
 90
        0
280
     0
281
     0
  0
CLASS
  1
LAYOUT
  2
AcDbLayout
  3
ObjectDBX Classes
 90
        0
280
     0
281
     0
  0
CLASS
  1
TABLESTYLE
  2
AcDbTableStyle
  3
ObjectDBX Classes
 90
     4095
280
     0
281
     0
  0
CLASS
  1
MLEADERSTYLE
  2
AcDbMLeaderStyle
  3
ACDB_MLEADERSTYLE_CLASS
 90
     4095
280
     0
281
     0
  0
CLASS
  1
DICTIONARYVAR
  2
AcDbDictionaryVar
  3
ObjectDBX Classes
 90
        0
280
     0
281
     0
  0
CLASS
  1
DIMASSOC
  2
AcDbDimAssoc
  3
"AcDbDimAssoc|Product Desc:     AcDim ARX App For Dimension|Company:          Autodesk, Inc.|WEB Address:      www.autodesk.com"
 90
        0
280
     0
281
     0
  0
ENDSEC
  0
SECTION
  2
TABLES
  0
TABLE
  2
VPORT
  5
8
330
0
100
AcDbSymbolTable
 70
     1
  0
VPORT
  5
29
330
8
100
AcDbSymbolTableRecord
100
AcDbViewportTableRecord
  2
*Active
 70
     0
 10
0.0
 20
0.0
 11
1.0
 21
1.0
 12
-16.06473268854273
 22
-10.79732876568197
 13
0.0
 23
0.0
 14
10.0
 24
10.0
 15
10.0
 25
10.0
 16
0.0
 26
0.0
 36
1.0
 17
0.0
 27
0.0
 37
0.0
 40
79.91374353658797
 41
2.003901170351105
 42
50.0
 43
0.0
 44
0.0
 50
0.0
 51
0.0
 71
    16
 72
  2000
 73
     1
 74
     3
 75
     0
 76
     0
 77
     0
 78
     0
281
     0
 65
     1
110
0.0
120
0.0
130
0.0
111
1.0
121
0.0
131
0.0
112
0.0
122
1.0
132
0.0
 79
     0
146
0.0
  0
ENDTAB
  0
TABLE
  2
LTYPE
  5
5
330
0
100
AcDbSymbolTable
 70
     6
  0
LTYPE
  5
14
330
5
100
AcDbSymbolTableRecord
100
AcDbLinetypeTableRecord
  2
ByBlock
 70
     0
  3

 72
    65
 73
     0
 40
0.0
  0
LTYPE
  5
15
330
5
100
AcDbSymbolTableRecord
100
AcDbLinetypeTableRecord
  2
ByLayer
 70
     0
  3

 72
    65
 73
     0
 40
0.0
  0
LTYPE
  5
16
330
5
100
AcDbSymbolTableRecord
100
AcDbLinetypeTableRecord
  2
Continuous
 70
     0
  3
Solid line
 72
    65
 73
     0
 40
0.0
  0
LTYPE
  5
6A
330
5
100
AcDbSymbolTableRecord
100
AcDbLinetypeTableRecord
  2
HIDDEN
 70
     0
  3
Hidden __ __ __ __ __ __ __ __ __ __ __ __ __ __
 72
    65
 73
     2
 40
1.905
 49
1.27
 74
     0
 49
-0.635
 74
     0
  0
LTYPE
  5
6B
330
5
100
AcDbSymbolTableRecord
100
AcDbLinetypeTableRecord
  2
PHANTOM
 70
     0
  3
Phantom ______  __  __  ______  __  __  ______
 72
    65
 73
     6
 40
12.7
 49
6.35
 74
     0
 49
-1.27
 74
     0
 49
1.27
 74
     0
 49
-1.27
 74
     0
 49
1.27
 74
     0
 49
-1.27
 74
     0
  0
LTYPE
  5
6C
330
5
100
AcDbSymbolTableRecord
100
AcDbLinetypeTableRecord
  2
CENTER
 70
     0
  3
Center ____ _ ____ _ ____ _ ____ _ ____ _ ____
 72
    65
 73
     4
 40
10.16
 49
6.35
 74
     0
 49
-1.27
 74
     0
 49
1.27
 74
     0
 49
-1.27
 74
     0
  0
LTYPE
  5
6D
330
5
100
AcDbSymbolTableRecord
100
AcDbLinetypeTableRecord
  2
CENTERX2
 70
     0
  3
Center (2x) ________  __  ________  __  _____
 72
    65
 73
     4
 40
20.32
 49
12.7
 74
     0
 49
-2.54
 74
     0
 49
2.54
 74
     0
 49
-2.54
 74
     0
  0
LTYPE
  5
6E
330
5
100
AcDbSymbolTableRecord
100
AcDbLinetypeTableRecord
  2
DOT2
 70
     0
  3
Dot (.5x) ........................................
 72
    65
 73
     2
 40
0.635
 49
0.0
 74
     0
 49
-0.635
 74
     0
  0
ENDTAB
  0
TABLE
  2
LAYER
  5
2
102
{ACAD_XDICTIONARY
360
179
102
}
330
0
100
AcDbSymbolTable
 70
    18
  0
LAYER
  5
10
330
2
100
AcDbSymbolTableRecord
100
AcDbLayerTableRecord
  2
0
 70
     0
 62
     7
  6
Continuous
370
    -3
390
F
  0
LAYER
  5
6F
330
2
100
AcDbSymbolTableRecord
100
AcDbLayerTableRecord
  2
FORMAT
 70
     0
 62
     2
  6
Continuous
370
    -3
390
F
  0
LAYER
  5
70
330
2
100
AcDbSymbolTableRecord
100
AcDbLayerTableRecord
  2
외형선
 70
     0
 62
     4
  6
Continuous
370
    30
390
F
  0
LAYER
  5
71
330
2
100
AcDbSymbolTableRecord
100
AcDbLayerTableRecord
  2
숨은선
 70
     0
 62
     2
  6
HIDDEN
370
    15
390
F
  0
LAYER
  5
72
330
2
100
AcDbSymbolTableRecord
100
AcDbLayerTableRecord
  2
중심선
 70
     0
 62
     1
  6
CENTERX2
370
    -3
390
F
  0
LAYER
  5
73
330
2
100
AcDbSymbolTableRecord
100
AcDbLayerTableRecord
  2
파단선
 70
     0
 62
     4
  6
Continuous
370
    -3
390
F
  0
LAYER
  5
74
330
2
100
AcDbSymbolTableRecord
100
AcDbLayerTableRecord
  2
해칭선
 70
     0
 62
   100
  6
Continuous
370
    -3
390
F
  0
LAYER
  5
75
330
2
100
AcDbSymbolTableRecord
100
AcDbLayerTableRecord
  2
가는실선
 70
     0
 62
     4
  6
Continuous
370
    -3
390
F
  0
LAYER
  5
76
330
2
100
AcDbSymbolTableRecord
100
AcDbLayerTableRecord
  2
치수_보조선
 70
     0
 62
     4
  6
Continuous
370
    -3
390
F
  0
LAYER
  5
77
330
2
100
AcDbSymbolTableRecord
100
AcDbLayerTableRecord
  2
치수문자_일반주서
 70
     0
 62
     7
  6
Continuous
370
    15
390
F
  0
LAYER
  5
78
330
2
100
AcDbSymbolTableRecord
100
AcDbLayerTableRecord
  2
개별주서
 70
     0
 62
   100
  6
Continuous
370
    30
390
F
  0
LAYER
  5
79
330
2
100
AcDbSymbolTableRecord
100
AcDbLayerTableRecord
  2
중간선
 70
     0
 62
     2
  6
Continuous
370
    15
390
F
  0
LAYER
  5
7A
330
2
100
AcDbSymbolTableRecord
100
AcDbLayerTableRecord
  2
윤곽선
 70
     0
 62
     3
  6
Continuous
370
    40
390
F
  0
LAYER
  5
7B
330
2
100
AcDbSymbolTableRecord
100
AcDbLayerTableRecord
  2
중심마크
 70
     0
 62
   100
  6
Continuous
370
    30
390
F
  0
LAYER
  5
7C
330
2
100
AcDbSymbolTableRecord
100
AcDbLayerTableRecord
  2
가상선
 70
     0
 62
     4
  6
PHANTOM
370
    -3
390
F
  0
LAYER
  5
7D
330
2
100
AcDbSymbolTableRecord
100
AcDbLayerTableRecord
  2
특수지정선
 70
     0
 62
     5
  6
CENTERX2
370
    60
390
F
  0
LAYER
  5
7E
330
2
100
AcDbSymbolTableRecord
100
AcDbLayerTableRecord
  2
참조1
 70
     0
 62
    -4
  6
Continuous
370
    -3
390
F
  0
LAYER
  5
135
330
2
100
AcDbSymbolTableRecord
100
AcDbLayerTableRecord
  2
Defpoints
 70
     0
 62
     7
  6
Continuous
290
     0
370
    -3
390
F
  0
ENDTAB
  0
TABLE
  2
STYLE
  5
3
330
0
100
AcDbSymbolTable
 70
     2
  0
STYLE
  5
11
330
3
100
AcDbSymbolTableRecord
100
AcDbTextStyleTableRecord
  2
Standard
 70
     0
 40
0.0
 41
1.0
 50
0.0
 71
     0
 42
3.5
  3
txt
  4

  0
STYLE
  5
94
330
3
100
AcDbSymbolTableRecord
100
AcDbTextStyleTableRecord
  2
SLDTEXTSTYLE0
 70
     0
 40
0.0
 41
0.75
 50
0.0
 71
     0
 42
3.5
  3
TXT
  4

  0
ENDTAB
  0
TABLE
  2
VIEW
  5
6
330
0
100
AcDbSymbolTable
 70
     0
  0
ENDTAB
  0
TABLE
  2
UCS
  5
7
330
0
100
AcDbSymbolTable
 70
     0
  0
ENDTAB
  0
TABLE
  2
APPID
  5
9
330
0
100
AcDbSymbolTable
 70
     3
  0
APPID
  5
12
330
9
100
AcDbSymbolTableRecord
100
AcDbRegAppTableRecord
  2
ACAD
 70
     0
  0
APPID
  5
13D
330
9
100
AcDbSymbolTableRecord
100
AcDbRegAppTableRecord
  2
PE_URL
 70
     0
  0
APPID
  5
13E
330
9
100
AcDbSymbolTableRecord
100
AcDbRegAppTableRecord
  2
ACAD_DSTYLE_DIMRADIAL_EXTENSION
 70
     0
  0
ENDTAB
  0
TABLE
  2
DIMSTYLE
  5
A
330
0
100
AcDbSymbolTable
 70
     3
100
AcDbDimStyleTable
  0
DIMSTYLE
105
27
330
A
100
AcDbSymbolTableRecord
100
AcDbDimStyleTableRecord
  2
ISO-25
 70
     0
 41
2.5
 42
0.625
 43
3.75
 44
1.25
 73
     0
 74
     0
 77
     1
 78
     8
140
2.5
141
2.5
143
0.03937007874016
147
0.625
171
     3
172
     1
178
     0
271
     2
272
     2
274
     3
278
    44
283
     0
284
     8
340
11
  0
DIMSTYLE
105
D3
102
{ACAD_REACTORS
330
D2
330
E0
330
ED
330
15D
330
F9
102
}
330
A
100
AcDbSymbolTableRecord
100
AcDbDimStyleTableRecord
  2
SLDDIMSTYLE0
 70
     0
 41
3.302
 44
0.0
 45
0.000000001
 73
     0
 74
     0
 77
     1
 78
    12
 79
     3
140
3.5
147
0.875
172
     1
173
     1
178
     0
271
     2
272
     2
276
     2
284
    12
289
     0
340
94
  0
DIMSTYLE
105
FA
102
{ACAD_REACTORS
330
16D
330
1C3
102
}
330
A
100
AcDbSymbolTableRecord
100
AcDbDimStyleTableRecord
  2
SLDDIMSTYLE1
 70
     0
 41
3.302
 44
0.0
 45
0.000000001
 73
     0
 74
     0
 77
     1
 78
    12
 79
     3
140
3.5
147
0.875
173
     1
178
     0
271
     2
272
     2
276
     2
284
    12
340
94
  0
ENDTAB
  0
TABLE
  2
BLOCK_RECORD
  5
1
330
0
100
AcDbSymbolTable
 70
    13
  0
BLOCK_RECORD
  5
1F
330
1
100
AcDbSymbolTableRecord
100
AcDbBlockTableRecord
  2
*Model_Space
340
22
  0
BLOCK_RECORD
  5
1B
330
1
100
AcDbSymbolTableRecord
100
AcDbBlockTableRecord
  2
*Paper_Space
340
1E
  0
BLOCK_RECORD
  5
23
330
1
100
AcDbSymbolTableRecord
100
AcDbBlockTableRecord
  2
*Paper_Space0
340
26
  0
BLOCK_RECORD
  5
7F
330
1
100
AcDbSymbolTableRecord
100
AcDbBlockTableRecord
  2
블럭10
340
0
102
{BLKREFS
331
CB
102
}
  0
BLOCK_RECORD
  5
D4
330
1
100
AcDbSymbolTableRecord
100
AcDbBlockTableRecord
  2
_D
340
0
  0
BLOCK_RECORD
  5
E1
330
1
100
AcDbSymbolTableRecord
100
AcDbBlockTableRecord
  2
_D_1
340
0
  0
BLOCK_RECORD
  5
EE
330
1
100
AcDbSymbolTableRecord
100
AcDbBlockTableRecord
  2
_D_2
340
0
  0
BLOCK_RECORD
  5
FB
330
1
100
AcDbSymbolTableRecord
100
AcDbBlockTableRecord
  2
_D_3
340
0
  0
BLOCK_RECORD
  5
10B
330
1
100
AcDbSymbolTableRecord
100
AcDbBlockTableRecord
  2
SW_DOWELSYMBOL_0
340
0
102
{BLKREFS
331
111
102
}
  0
BLOCK_RECORD
  5
16E
330
1
100
AcDbSymbolTableRecord
100
AcDbBlockTableRecord
  2
*D8
340
0
  0
BLOCK_RECORD
  5
17D
330
1
100
AcDbSymbolTableRecord
100
AcDbBlockTableRecord
  2
*D9
340
0
  0
BLOCK_RECORD
  5
190
330
1
100
AcDbSymbolTableRecord
100
AcDbBlockTableRecord
  2
*D10
340
0
  0
BLOCK_RECORD
  5
19F
330
1
100
AcDbSymbolTableRecord
100
AcDbBlockTableRecord
  2
*D11
340
0
  0
BLOCK_RECORD
  5
1C6
330
1
100
AcDbSymbolTableRecord
100
AcDbBlockTableRecord
  2
*D12
340
0
  0
ENDTAB
  0
ENDSEC
  0
SECTION
  2
BLOCKS
  0
BLOCK
  5
20
330
1F
100
AcDbEntity
  8
0
100
AcDbBlockBegin
  2
*Model_Space
 70
     0
 10
0.0
 20
0.0
 30
0.0
  3
*Model_Space
  1

  0
ENDBLK
  5
21
330
1F
100
AcDbEntity
  8
0
100
AcDbBlockEnd
  0
BLOCK
  5
1C
330
1B
100
AcDbEntity
 67
     1
  8
0
100
AcDbBlockBegin
  2
*Paper_Space
 70
     0
 10
0.0
 20
0.0
 30
0.0
  3
*Paper_Space
  1

  0
ENDBLK
  5
1D
330
1B
100
AcDbEntity
 67
     1
  8
0
100
AcDbBlockEnd
  0
BLOCK
  5
24
330
23
100
AcDbEntity
  8
0
100
AcDbBlockBegin
  2
*Paper_Space0
 70
     0
 10
0.0
 20
0.0
 30
0.0
  3
*Paper_Space0
  1

  0
ENDBLK
  5
25
330
23
100
AcDbEntity
  8
0
100
AcDbBlockEnd
  0
BLOCK
  5
80
330
7F
100
AcDbEntity
  8
0
100
AcDbBlockBegin
  2
블럭10
 70
     2
 10
0.0
 20
0.0
 30
0.0
  3
블럭10
  1

  0
ELLIPSE
  5
82
330
7F
100
AcDbEntity
  8
중심선
100
AcDbEllipse
 10
20.54032771741204
 20
12.0471743016438
 30
0.0
 11
6.600054785286829
 21
-1.261213355974178E-13
 31
0.0
210
0.0
220
0.0
230
1.0
 40
0.636358354079598
 41
0.9219305317359503
 42
6.513795318482858
  0
ELLIPSE
  5
83
330
7F
100
AcDbEntity
  8
중심선
100
AcDbEllipse
 10
20.54032771746488
 20
12.04717430159265
 30
0.0
 11
3.960054785062283
 21
1.540847449632565E-10
 31
0.0
210
0.0
220
0.0
230
1.0
 40
0.3939339440162632
 41
1.131841032648279
 42
5.62031148352944
  0
LINE
  5
84
330
7F
100
AcDbEntity
  8
중심선
100
AcDbLine
 10
2.268634060543552
 20
16.24717430164393
 30
0.0
 11
5.714909304380834
 21
16.24717430164393
 31
0.0
  0
LINE
  5
85
330
7F
100
AcDbEntity
  8
중심선
100
AcDbLine
 10
5.245725140726316
 20
7.84717430164391
 30
0.0
 11
8.692000384563599
 21
7.84717430164391
 31
0.0
  0
LINE
  5
86
330
7F
100
AcDbEntity
  8
중심선
100
AcDbLine
 10
15.74043728645272
 20
16.24717430164393
 30
0.0
 11
8.692000384563599
 21
7.84717430164391
 31
0.0
  0
LINE
  5
87
330
7F
100
AcDbEntity
  8
중심선
100
AcDbLine
 10
0.1404042013395286
 20
13.71084872107135
 30
0.0
 11
3.58671253028996
 21
13.71088815037384
 31
0.0
  0
LINE
  5
88
330
7F
100
AcDbEntity
  8
중심선
100
AcDbLine
 10
2.750260043222114
 20
10.84717430164391
 30
0.0
 11
6.196535287059397
 21
10.84717430164391
 31
0.0
  0
LINE
  5
89
330
7F
100
AcDbEntity
  8
중심선
100
AcDbLine
 10
12.29416204261559
 20
16.24717430164393
 30
0.0
 11
5.245725140726316
 21
7.84717430164391
 31
0.0
  0
LINE
  5
8A
330
7F
100
AcDbEntity
  8
중심선
100
AcDbLine
 10
10.72767329541681
 20
16.24717430164393
 30
0.0
 11
6.196535287059397
 21
10.84717430164391
 31
0.0
  0
LINE
  5
8B
330
7F
100
AcDbEntity
  8
중심선
100
AcDbLine
 10
7.28139805157953
 20
16.24717430164393
 30
0.0
 11
2.750260043222114
 21
10.84717430164391
 31
0.0
  0
LINE
  5
8C
330
7F
100
AcDbEntity
  8
중심선
100
AcDbLine
 10
5.714909304380834
 20
16.24717430164393
 30
0.0
 11
3.58671253028996
 21
13.71088815037384
 31
0.0
  0
LINE
  5
8D
330
7F
100
AcDbEntity
  8
중심선
100
AcDbLine
 10
2.268634060543552
 20
16.24717430164393
 30
0.0
 11
0.1404042013395286
 21
13.71084872107135
 31
0.0
  0
LINE
  5
8E
330
7F
100
AcDbEntity
  8
중심선
100
AcDbLine
 10
7.28139805157953
 20
16.24717430164393
 30
0.0
 11
10.72767329541681
 21
16.24717430164393
 31
0.0
  0
LINE
  5
8F
330
7F
100
AcDbEntity
  8
중심선
100
AcDbLine
 10
12.29416204261559
 20
16.24717430164393
 30
0.0
 11
15.74043728645272
 21
16.24717430164393
 31
0.0
  0
LINE
  5
90
330
7F
100
AcDbEntity
  8
중심선
100
AcDbLine
 10
19.22036997980202
 20
11.08717430171403
 30
0.0
 11
23.66174974927406
 21
11.08717430171406
 31
0.0
  0
LINE
  5
91
330
7F
100
AcDbEntity
  8
중심선
100
AcDbLine
 10
19.22039502424796
 20
13.00717430171391
 30
0.0
 11
19.22036997980202
 21
11.08717430171403
 31
0.0
  0
LINE
  5
92
330
7F
100
AcDbEntity
  8
중심선
100
AcDbLine
 10
19.22039502424796
 20
13.00717430171391
 30
0.0
 11
26.96566020931264
 21
13.00717430171391
 31
0.0
  0
LINE
  5
93
330
7F
100
AcDbEntity
  8
중심선
100
AcDbLine
 10
22.22332737316547
 20
13.45928029700563
 30
0.0
 11
24.52862924686651
 21
15.39360700705356
 31
0.0
  0
ATTDEF
  5
95
330
7F
100
AcDbEntity
  8
FORMAT
 62
     2
100
AcDbText
 10
-16.11926103943555
 20
2.075366912832191
 30
0.0
 40
4.233333333333333
  1
SEME0107001E [ 4 FLUTE ]
 41
0.75
  7
SLDTEXTSTYLE0
 11
-16.11926103943555
 21
-0.0412997538344756
 31
0.0
100
AcDbAttributeDefinition
  3

  2
AUTOATTR0
 70
     0
 74
     1
  0
ENDBLK
  5
81
330
7F
100
AcDbEntity
  8
0
100
AcDbBlockEnd
  0
BLOCK
  5
D5
330
D4
100
AcDbEntity
  8
0
100
AcDbBlockBegin
  2
_D
 70
     0
 10
0.0
 20
0.0
 30
0.0
  3
_D
  1

  0
LINE
  5
D7
330
D4
100
AcDbEntity
  8
치수문자_일반주서
 62
     0
370
    -2
100
AcDbLine
 10
20.92852540378447
 20
3.501074928723889
 30
0.0
 11
30.86602540378447
 21
3.501074928723927
 31
0.0
  0
LINE
  5
D8
330
D4
100
AcDbEntity
  8
치수문자_일반주서
 62
     0
370
    -2
100
AcDbLine
 10
20.92852540378447
 20
-3.498925071276111
 30
0.0
 11
30.86602540378449
 21
-3.498925071276075
 31
0.0
  0
LINE
  5
D9
330
D4
100
AcDbEntity
  8
치수문자_일반주서
 62
     0
370
    -2
100
AcDbLine
 10
30.86602540378447
 20
3.501074928723927
 30
0.0
 11
30.86602540378442
 21
16.23007492872395
 31
0.0
  0
LINE
  5
DA
330
D4
100
AcDbEntity
  8
치수문자_일반주서
 62
     0
370
    -2
100
AcDbLine
 10
30.86602540378447
 20
3.501074928723927
 30
0.0
 11
30.86602540378449
 21
-3.498925071276075
 31
0.0
  0
LINE
  5
DB
330
D4
100
AcDbEntity
  8
치수문자_일반주서
 62
     0
370
    -2
100
AcDbLine
 10
30.86602540378446
 20
6.803074928723927
 30
0.0
 11
30.86602540378444
 21
10.10507492872393
 31
0.0
  0
LINE
  5
DC
330
D4
100
AcDbEntity
  8
치수문자_일반주서
 62
     0
370
    -2
100
AcDbLine
 10
30.8660254037845
 20
-6.800925071276074
 30
0.0
 11
30.86602540378451
 21
-10.10292507127607
 31
0.0
  0
SOLID
  5
DD
330
D4
100
AcDbEntity
  8
치수문자_일반주서
 62
     0
100
AcDbTrace
 10
30.31569207045112
 20
6.803074928723925
 30
0.0
 11
31.41635873711779
 21
6.803074928723928
 31
0.0
 12
30.86602540378447
 22
3.501074928723927
 32
0.0
 13
30.86602540378447
 23
3.501074928723927
 33
0.0
  0
SOLID
  5
DE
330
D4
100
AcDbEntity
  8
치수문자_일반주서
 62
     0
100
AcDbTrace
 10
31.41635873711784
 20
-6.800925071276072
 30
0.0
 11
30.31569207045117
 21
-6.800925071276076
 31
0.0
 12
30.86602540378449
 22
-3.498925071276075
 32
0.0
 13
30.86602540378449
 23
-3.498925071276075
 33
0.0
  0
MTEXT
  5
DF
330
D4
100
AcDbEntity
  8
치수문자_일반주서
 62
     0
100
AcDbMText
 10
26.49102540378443
 20
13.16757492872394
 30
0.0
 40
3.5
 41
0.0
 71
     2
 72
     1
  1
\A1;%%c7
  7
SLDTEXTSTYLE0
 11
-3.552713678800501E-15
 21
1.0
 31
0.0
 73
     1
 44
1.0
  0
POINT
  5
1B4
330
D4
100
AcDbEntity
  8
Defpoints
 62
     0
100
AcDbPoint
 10
20.86602540378447
 20
3.501074928723889
 30
0.0
  0
POINT
  5
1B5
330
D4
100
AcDbEntity
  8
Defpoints
 62
     0
100
AcDbPoint
 10
20.86602540378447
 20
-3.498925071276111
 30
0.0
  0
POINT
  5
1B6
330
D4
100
AcDbEntity
  8
Defpoints
 62
     0
100
AcDbPoint
 10
30.86602540378448
 20
-3.498925071276074
 30
0.0
  0
ENDBLK
  5
D6
330
D4
100
AcDbEntity
  8
0
100
AcDbBlockEnd
  0
BLOCK
  5
E2
330
E1
100
AcDbEntity
  8
0
100
AcDbBlockBegin
  2
_D_1
 70
     0
 10
0.0
 20
0.0
 30
0.0
  3
_D_1
  1

  0
LINE
  5
E4
330
E1
100
AcDbEntity
  8
치수문자_일반주서
 62
     0
370
    -2
100
AcDbLine
 10
-68.39647459621553
 20
4.001074928723897
 30
0.0
 11
-79.13397459621554
 21
4.001074928723856
 31
0.0
  0
LINE
  5
E5
330
E1
100
AcDbEntity
  8
치수문자_일반주서
 62
     0
370
    -2
100
AcDbLine
 10
-68.39647459621553
 20
-3.998925071276111
 30
0.0
 11
-79.13397459621551
 21
-3.998925071276155
 31
0.0
  0
LINE
  5
E6
330
E1
100
AcDbEntity
  8
치수문자_일반주서
 62
     0
370
    -2
100
AcDbLine
 10
-79.13397459621554
 20
4.001074928723856
 30
0.0
 11
-79.13397459621558
 21
16.73007492872386
 31
0.0
  0
LINE
  5
E7
330
E1
100
AcDbEntity
  8
치수문자_일반주서
 62
     0
370
    -2
100
AcDbLine
 10
-79.13397459621554
 20
4.001074928723856
 30
0.0
 11
-79.13397459621551
 21
-3.998925071276155
 31
0.0
  0
LINE
  5
E8
330
E1
100
AcDbEntity
  8
치수문자_일반주서
 62
     0
370
    -2
100
AcDbLine
 10
-79.13397459621555
 20
7.303074928723856
 30
0.0
 11
-79.13397459621557
 21
10.60507492872386
 31
0.0
  0
LINE
  5
E9
330
E1
100
AcDbEntity
  8
치수문자_일반주서
 62
     0
370
    -2
100
AcDbLine
 10
-79.1339745962155
 20
-7.300925071276154
 30
0.0
 11
-79.13397459621548
 21
-10.60292507127615
 31
0.0
  0
SOLID
  5
EA
330
E1
100
AcDbEntity
  8
치수문자_일반주서
 62
     0
100
AcDbTrace
 10
-79.68430792954888
 20
7.303074928723854
 30
0.0
 11
-78.58364126288222
 21
7.303074928723857
 31
0.0
 12
-79.13397459621554
 22
4.001074928723856
 32
0.0
 13
-79.13397459621554
 23
4.001074928723856
 33
0.0
  0
SOLID
  5
EB
330
E1
100
AcDbEntity
  8
치수문자_일반주서
 62
     0
100
AcDbTrace
 10
-78.58364126288217
 20
-7.300925071276152
 30
0.0
 11
-79.68430792954882
 21
-7.300925071276156
 31
0.0
 12
-79.13397459621551
 22
-3.998925071276155
 32
0.0
 13
-79.13397459621551
 23
-3.998925071276155
 33
0.0
  0
MTEXT
  5
EC
330
E1
100
AcDbEntity
  8
치수문자_일반주서
 62
     0
100
AcDbMText
 10
-83.50897459621557
 20
13.66757492872384
 30
0.0
 40
3.5
 41
0.0
 71
     2
 72
     1
  1
\A1;%%c8
  7
SLDTEXTSTYLE0
 11
-3.552713678800498E-15
 21
1.0
 31
0.0
 73
     1
 44
1.0
  0
POINT
  5
1B1
330
E1
100
AcDbEntity
  8
Defpoints
 62
     0
100
AcDbPoint
 10
-68.33397459621553
 20
4.001074928723897
 30
0.0
  0
POINT
  5
1B2
330
E1
100
AcDbEntity
  8
Defpoints
 62
     0
100
AcDbPoint
 10
-68.33397459621553
 20
-3.99892507127611
 30
0.0
  0
POINT
  5
1B3
330
E1
100
AcDbEntity
  8
Defpoints
 62
     0
100
AcDbPoint
 10
-79.1339745962155
 20
-3.998925071276151
 30
0.0
  0
ENDBLK
  5
E3
330
E1
100
AcDbEntity
  8
0
100
AcDbBlockEnd
  0
BLOCK
  5
EF
330
EE
100
AcDbEntity
  8
0
100
AcDbBlockBegin
  2
_D_2
 70
     0
 10
0.0
 20
0.0
 30
0.0
  3
_D_2
  1

  0
LINE
  5
F1
330
EE
100
AcDbEntity
  8
치수문자_일반주서
 62
     0
370
    -2
100
AcDbLine
 10
20.86602540378447
 20
3.563574928723889
 30
0.0
 11
20.86602540378447
 21
14.0010749287239
 31
0.0
  0
LINE
  5
F2
330
EE
100
AcDbEntity
  8
치수문자_일반주서
 62
     0
370
    -2
100
AcDbLine
 10
4.866025403784487
 20
3.5563261267185
 30
0.0
 11
4.866025403784487
 21
14.0010749287239
 31
0.0
  0
LINE
  5
F3
330
EE
100
AcDbEntity
  8
치수문자_일반주서
 62
     0
370
    -2
100
AcDbLine
 10
17.56402540378447
 20
14.0010749287239
 30
0.0
 11
8.168025403784487
 21
14.0010749287239
 31
0.0
  0
SOLID
  5
F4
330
EE
100
AcDbEntity
  8
치수문자_일반주서
 62
     0
100
AcDbTrace
 10
17.56402540378447
 20
13.45074159539056
 30
0.0
 11
17.56402540378447
 21
14.55140826205723
 31
0.0
 12
20.86602540378447
 22
14.0010749287239
 32
0.0
 13
20.86602540378447
 23
14.0010749287239
 33
0.0
  0
SOLID
  5
F5
330
EE
100
AcDbEntity
  8
치수문자_일반주서
 62
     0
100
AcDbTrace
 10
8.168025403784487
 20
14.55140826205723
 30
0.0
 11
8.168025403784487
 21
13.45074159539056
 31
0.0
 12
4.866025403784487
 22
14.0010749287239
 32
0.0
 13
4.866025403784487
 23
14.0010749287239
 33
0.0
  0
MTEXT
  5
F6
330
EE
100
AcDbEntity
  8
치수문자_일반주서
 62
     0
100
AcDbMText
 10
12.86602540378449
 20
18.3760749287239
 30
0.0
 40
3.5
 41
0.0
 71
     2
 72
     1
  1
\A1;16
  7
SLDTEXTSTYLE0
 73
     1
 44
1.0
  0
POINT
  5
F7
330
EE
100
AcDbEntity
  8
Defpoints
 62
     0
100
AcDbPoint
 10
20.86602540378447
 20
3.501074928723889
 30
0.0
  0
POINT
  5
F8
330
EE
100
AcDbEntity
  8
Defpoints
 62
     0
100
AcDbPoint
 10
4.866025403784487
 20
3.4938261267185
 30
0.0
  0
POINT
  5
1A9
330
EE
100
AcDbEntity
  8
Defpoints
 62
     0
100
AcDbPoint
 10
4.866025403784487
 20
14.0010749287239
 30
0.0
  0
ENDBLK
  5
F0
330
EE
100
AcDbEntity
  8
0
100
AcDbBlockEnd
  0
BLOCK
  5
FC
330
FB
100
AcDbEntity
  8
0
100
AcDbBlockBegin
  2
_D_3
 70
     0
 10
0.0
 20
0.0
 30
0.0
  3
_D_3
  1

  0
LINE
  5
FE
330
FB
100
AcDbEntity
  8
치수문자_일반주서
 62
     0
370
    -2
100
AcDbLine
 10
20.86602540378447
 20
3.563574928723889
 30
0.0
 11
20.86602540378447
 21
24.0010749287239
 31
0.0
  0
LINE
  5
FF
330
FB
100
AcDbEntity
  8
치수문자_일반주서
 62
     0
370
    -2
100
AcDbLine
 10
-69.13397459621552
 20
3.263574928723896
 30
0.0
 11
-69.13397459621552
 21
24.0010749287239
 31
0.0
  0
LINE
  5
100
330
FB
100
AcDbEntity
  8
치수문자_일반주서
 62
     0
370
    -2
100
AcDbLine
 10
17.56402540378447
 20
24.0010749287239
 30
0.0
 11
-65.83197459621553
 21
24.0010749287239
 31
0.0
  0
SOLID
  5
101
330
FB
100
AcDbEntity
  8
치수문자_일반주서
 62
     0
100
AcDbTrace
 10
17.56402540378447
 20
23.45074159539056
 30
0.0
 11
17.56402540378447
 21
24.55140826205723
 31
0.0
 12
20.86602540378447
 22
24.0010749287239
 32
0.0
 13
20.86602540378447
 23
24.0010749287239
 33
0.0
  0
SOLID
  5
102
330
FB
100
AcDbEntity
  8
치수문자_일반주서
 62
     0
100
AcDbTrace
 10
-65.83197459621553
 20
24.55140826205723
 30
0.0
 11
-65.83197459621553
 21
23.45074159539056
 31
0.0
 12
-69.13397459621552
 22
24.0010749287239
 32
0.0
 13
-69.13397459621552
 23
24.0010749287239
 33
0.0
  0
MTEXT
  5
103
330
FB
100
AcDbEntity
  8
치수문자_일반주서
 62
     0
100
AcDbMText
 10
-24.13397459621553
 20
28.3760749287239
 30
0.0
 40
3.5
 41
0.0
 71
     2
 72
     1
  1
\A1;90
  7
SLDTEXTSTYLE0
 73
     1
 44
1.0
  0
POINT
  5
1AA
330
FB
100
AcDbEntity
  8
Defpoints
 62
     0
100
AcDbPoint
 10
20.86602540378447
 20
3.501074928723889
 30
0.0
  0
POINT
  5
1AB
330
FB
100
AcDbEntity
  8
Defpoints
 62
     0
100
AcDbPoint
 10
-69.13397459621552
 20
3.201074928723896
 30
0.0
  0
POINT
  5
1AC
330
FB
100
AcDbEntity
  8
Defpoints
 62
     0
100
AcDbPoint
 10
-69.13397459621552
 20
24.0010749287239
 30
0.0
  0
ENDBLK
  5
FD
330
FB
100
AcDbEntity
  8
0
100
AcDbBlockEnd
  0
BLOCK
  5
10C
330
10B
100
AcDbEntity
  8
0
100
AcDbBlockBegin
  2
SW_DOWELSYMBOL_0
 70
     0
 10
0.0
 20
0.0
 30
0.0
  3
SW_DOWELSYMBOL_0
  1

  0
CIRCLE
  5
10E
330
10B
100
AcDbEntity
  8
해칭선
 62
     0
100
AcDbCircle
 10
0.0
 20
0.0
 30
0.0
 40
3.000000000000001
  0
HATCH
  5
10F
330
10B
100
AcDbEntity
  8
0
  6
Continuous
 62
     0
370
     0
100
AcDbHatch
 10
0.0
 20
0.0
 30
0.0
210
0.0
220
0.0
230
1.0
  2
SOLID
 70
     1
 71
     0
 91
        1
 92
        0
 93
        3
 72
     2
 10
0.0
 20
0.0
 40
3.000000000000001
 50
0.0
 51
90.0
 73
     1
 72
     1
 10
0.0
 20
3.000000000000001
 11
0.0
 21
0.0
 72
     1
 10
0.0
 20
0.0
 11
3.000000000000003
 21
0.0
 97
        0
 75
     0
 76
     1
 98
        1
 10
0.0
 20
0.0
  0
HATCH
  5
110
330
10B
100
AcDbEntity
  8
0
  6
Continuous
 62
     0
370
     0
100
AcDbHatch
 10
0.0
 20
0.0
 30
0.0
210
0.0
220
0.0
230
1.0
  2
SOLID
 70
     1
 71
     0
 91
        1
 92
        0
 93
        3
 72
     2
 10
0.0
 20
0.0
 40
3.000000000000001
 50
180.0
 51
270.0000000000008
 73
     1
 72
     1
 10
0.0
 20
-3.000000000000001
 11
0.0
 21
0.0
 72
     1
 10
0.0
 20
0.0
 11
-3.000000000000003
 21
0.0
 97
        0
 75
     0
 76
     1
 98
        1
 10
0.0
 20
0.0
  0
ENDBLK
  5
10D
330
10B
100
AcDbEntity
  8
0
100
AcDbBlockEnd
  0
BLOCK
  5
16F
330
16E
100
AcDbEntity
  8
0
100
AcDbBlockBegin
  2
*D8
 70
     1
 10
0.0
 20
0.0
 30
0.0
  3
*D8
  1

  0
LINE
  5
170
330
16E
100
AcDbEntity
  8
치수문자_일반주서
 62
     0
370
    -2
100
AcDbLine
 10
15.80451446780138
 20
13.04557445451085
 30
0.0
 11
24.29686004508034
 21
0.0000000000000511
 31
0.0
  0
MTEXT
  5
171
330
16E
100
AcDbEntity
  8
치수문자_일반주서
 62
     0
100
AcDbMText
 10
24.22929843255111
 20
4.915330557654587
 30
0.0
 40
3.5
 41
0.0
 71
     5
 72
     1
  1
\A1;R0.1
  7
SLDTEXTSTYLE0
 11
0.5455627707375155
 21
-0.8380699631804049
 31
0.0
 73
     1
 44
1.0
  0
SOLID
  5
172
330
16E
100
AcDbEntity
  8
치수문자_일반주서
 62
     0
100
AcDbTrace
 10
16.26573230420499
 20
13.34581583267339
 30
0.0
 11
15.34329663139776
 21
12.7453330763483
 31
0.0
 12
14.0030661988261
 22
15.81288147293254
 32
0.0
 13
14.0030661988261
 23
15.81288147293254
 33
0.0
  0
LINE
  5
173
330
16E
100
AcDbEntity
  8
치수문자_일반주서
 62
     0
100
AcDbLine
 10
13.90350992175235
 20
15.89668846925058
 30
0.0
 11
13.99350992175235
 21
15.89668846925058
 31
0.0
  0
LINE
  5
174
330
16E
100
AcDbEntity
  8
치수문자_일반주서
 62
     0
100
AcDbLine
 10
13.94850992175235
 20
15.85168846925058
 30
0.0
 11
13.94850992175235
 21
15.94168846925058
 31
0.0
  0
POINT
  5
175
330
16E
100
AcDbEntity
  8
Defpoints
 62
     0
100
AcDbPoint
 10
14.0030661988261
 20
15.81288147293254
 30
0.0
  0
POINT
  5
176
330
16E
100
AcDbEntity
  8
Defpoints
 62
     0
100
AcDbPoint
 10
13.94850992175235
 20
15.89668846925058
 30
0.0
  0
ENDBLK
  5
177
330
16E
100
AcDbEntity
  8
0
100
AcDbBlockEnd
  0
BLOCK
  5
17E
330
17D
100
AcDbEntity
  8
0
100
AcDbBlockBegin
  2
*D9
 70
     1
 10
0.0
 20
0.0
 30
0.0
  3
*D9
  1

  0
LINE
  5
180
330
17D
100
AcDbEntity
  8
치수문자_일반주서
 62
     0
370
    -2
100
AcDbLine
 10
14.11100992175236
 20
21.79496381848847
 30
0.0
 11
24.04850992175235
 21
21.7949638184885
 31
0.0
  0
LINE
  5
181
330
17D
100
AcDbEntity
  8
치수문자_일반주서
 62
     0
370
    -2
100
AcDbLine
 10
14.11100992175236
 20
15.79496381848847
 30
0.0
 11
24.04850992175237
 21
15.79496381848851
 31
0.0
  0
LINE
  5
182
330
17D
100
AcDbEntity
  8
치수문자_일반주서
 62
     0
370
    -2
100
AcDbLine
 10
24.04850992175235
 20
21.7949638184885
 30
0.0
 11
24.0485099217523
 21
34.52396381848853
 31
0.0
  0
LINE
  5
183
330
17D
100
AcDbEntity
  8
치수문자_일반주서
 62
     0
370
    -2
100
AcDbLine
 10
24.04850992175235
 20
21.7949638184885
 30
0.0
 11
24.04850992175237
 21
15.79496381848851
 31
0.0
  0
LINE
  5
184
330
17D
100
AcDbEntity
  8
치수문자_일반주서
 62
     0
370
    -2
100
AcDbLine
 10
24.04850992175234
 20
25.0969638184885
 30
0.0
 11
24.04850992175233
 21
28.3989638184885
 31
0.0
  0
LINE
  5
185
330
17D
100
AcDbEntity
  8
치수문자_일반주서
 62
     0
370
    -2
100
AcDbLine
 10
24.04850992175238
 20
12.49296381848851
 30
0.0
 11
24.04850992175239
 21
9.190963818488507
 31
0.0
  0
SOLID
  5
186
330
17D
100
AcDbEntity
  8
치수문자_일반주서
 62
     0
100
AcDbTrace
 10
23.498176588419
 20
25.0969638184885
 30
0.0
 11
24.59884325508567
 21
25.09696381848851
 31
0.0
 12
24.04850992175235
 22
21.7949638184885
 32
0.0
 13
24.04850992175235
 23
21.7949638184885
 33
0.0
  0
SOLID
  5
187
330
17D
100
AcDbEntity
  8
치수문자_일반주서
 62
     0
100
AcDbTrace
 10
24.59884325508571
 20
12.49296381848851
 30
0.0
 11
23.49817658841905
 21
12.49296381848851
 31
0.0
 12
24.04850992175237
 22
15.79496381848851
 32
0.0
 13
24.04850992175237
 23
15.79496381848851
 33
0.0
  0
MTEXT
  5
188
330
17D
100
AcDbEntity
  8
치수문자_일반주서
 62
     0
100
AcDbMText
 10
19.67350992175231
 20
31.46146381848851
 30
0.0
 40
3.5
 41
0.0
 71
     2
 72
     1
  1
\A1;%%c6
  7
SLDTEXTSTYLE0
 11
-3.552713678800503E-15
 21
1.0
 31
0.0
 73
     1
 44
1.0
  0
POINT
  5
189
330
17D
100
AcDbEntity
  8
Defpoints
 62
     0
100
AcDbPoint
 10
14.04850992175236
 20
21.79496381848847
 30
0.0
  0
POINT
  5
18A
330
17D
100
AcDbEntity
  8
Defpoints
 62
     0
100
AcDbPoint
 10
14.04850992175236
 20
15.79496381848847
 30
0.0
  0
POINT
  5
18B
330
17D
100
AcDbEntity
  8
Defpoints
 62
     0
100
AcDbPoint
 10
24.04850992175237
 20
15.79496381848851
 30
0.0
  0
ENDBLK
  5
17F
330
17D
100
AcDbEntity
  8
0
100
AcDbBlockEnd
  0
BLOCK
  5
191
330
190
100
AcDbEntity
  8
0
100
AcDbBlockBegin
  2
*D10
 70
     1
 10
0.0
 20
0.0
 30
0.0
  3
*D10
  1

  0
LINE
  5
193
330
190
100
AcDbEntity
  8
치수문자_일반주서
 62
     0
370
    -2
100
AcDbLine
 10
81.86002363506245
 20
7.912742983028835
 30
0.0
 11
91.79752363506243
 21
7.912742983028872
 31
0.0
  0
LINE
  5
194
330
190
100
AcDbEntity
  8
치수문자_일반주서
 62
     0
370
    -2
100
AcDbLine
 10
81.86002363506245
 20
1.912742983028837
 30
0.0
 11
91.79752363506245
 21
1.912742983028874
 31
0.0
  0
LINE
  5
195
330
190
100
AcDbEntity
  8
치수문자_일반주서
 62
     0
370
    -2
100
AcDbLine
 10
91.79752363506243
 20
7.912742983028872
 30
0.0
 11
91.79752363506239
 21
20.6417429830289
 31
0.0
  0
LINE
  5
196
330
190
100
AcDbEntity
  8
치수문자_일반주서
 62
     0
370
    -2
100
AcDbLine
 10
91.79752363506243
 20
7.912742983028872
 30
0.0
 11
91.79752363506245
 21
1.912742983028874
 31
0.0
  0
LINE
  5
197
330
190
100
AcDbEntity
  8
치수문자_일반주서
 62
     0
370
    -2
100
AcDbLine
 10
91.79752363506242
 20
11.21474298302887
 30
0.0
 11
91.7975236350624
 21
14.51674298302887
 31
0.0
  0
LINE
  5
198
330
190
100
AcDbEntity
  8
치수문자_일반주서
 62
     0
370
    -2
100
AcDbLine
 10
91.79752363506246
 20
-1.389257016971126
 30
0.0
 11
91.79752363506248
 21
-4.691257016971125
 31
0.0
  0
SOLID
  5
199
330
190
100
AcDbEntity
  8
치수문자_일반주서
 62
     0
100
AcDbTrace
 10
91.24719030172909
 20
11.21474298302887
 30
0.0
 11
92.34785696839575
 21
11.21474298302887
 31
0.0
 12
91.79752363506243
 22
7.912742983028872
 32
0.0
 13
91.79752363506243
 23
7.912742983028872
 33
0.0
  0
SOLID
  5
19A
330
190
100
AcDbEntity
  8
치수문자_일반주서
 62
     0
100
AcDbTrace
 10
92.34785696839579
 20
-1.389257016971124
 30
0.0
 11
91.24719030172913
 21
-1.389257016971127
 31
0.0
 12
91.79752363506245
 22
1.912742983028874
 32
0.0
 13
91.79752363506245
 23
1.912742983028874
 33
0.0
  0
MTEXT
  5
19B
330
190
100
AcDbEntity
  8
치수문자_일반주서
 62
     0
100
AcDbMText
 10
87.4225236350624
 20
17.57924298302889
 30
0.0
 40
3.5
 41
0.0
 71
     2
 72
     1
  1
\A1;%%c6
  7
SLDTEXTSTYLE0
 11
-2.368475785867001E-15
 21
1.0
 31
0.0
 73
     1
 44
1.0
  0
POINT
  5
19C
330
190
100
AcDbEntity
  8
Defpoints
 62
     0
100
AcDbPoint
 10
81.79752363506245
 20
7.912742983028835
 30
0.0
  0
POINT
  5
19D
330
190
100
AcDbEntity
  8
Defpoints
 62
     0
100
AcDbPoint
 10
81.79752363506245
 20
1.912742983028837
 30
0.0
  0
POINT
  5
19E
330
190
100
AcDbEntity
  8
Defpoints
 62
     0
100
AcDbPoint
 10
91.79752363506246
 20
1.912742983028874
 30
0.0
  0
ENDBLK
  5
192
330
190
100
AcDbEntity
  8
0
100
AcDbBlockEnd
  0
BLOCK
  5
1A0
330
19F
100
AcDbEntity
  8
0
100
AcDbBlockBegin
  2
*D11
 70
     1
 10
0.0
 20
0.0
 30
0.0
  3
*D11
  1

  0
LINE
  5
1A2
330
19F
100
AcDbEntity
  8
치수문자_일반주서
 62
     0
370
    -2
100
AcDbLine
 10
83.55352818111163
 20
-0.8366463809486793
 30
0.0
 11
92.0458737583914
 21
-13.88222083545897
 31
0.0
  0
MTEXT
  5
1A3
330
19F
100
AcDbEntity
  8
치수문자_일반주서
 62
     0
100
AcDbMText
 10
91.97831214586186
 20
-8.966890277804437
 30
0.0
 40
3.5
 41
0.0
 71
     5
 72
     1
  1
\A1;R0.1
  7
SLDTEXTSTYLE0
 11
0.5455627707375653
 21
-0.8380699631803723
 31
0.0
 73
     1
 44
1.0
  0
SOLID
  5
1A4
330
19F
100
AcDbEntity
  8
치수문자_일반주서
 62
     0
100
AcDbTrace
 10
84.01474601751522
 20
-0.5364050027861058
 30
0.0
 11
83.09231034470804
 21
-1.136887759111253
 31
0.0
 12
81.7520799121362
 22
1.93066063747291
 32
0.0
 13
81.7520799121362
 23
1.93066063747291
 33
0.0
  0
LINE
  5
1A5
330
19F
100
AcDbEntity
  8
치수문자_일반주서
 62
     0
100
AcDbLine
 10
81.65252363506244
 20
2.014467633790948
 30
0.0
 11
81.74252363506244
 21
2.014467633790948
 31
0.0
  0
LINE
  5
1A6
330
19F
100
AcDbEntity
  8
치수문자_일반주서
 62
     0
100
AcDbLine
 10
81.69752363506244
 20
1.969467633790948
 30
0.0
 11
81.69752363506244
 21
2.059467633790948
 31
0.0
  0
POINT
  5
1A7
330
19F
100
AcDbEntity
  8
Defpoints
 62
     0
100
AcDbPoint
 10
81.7520799121362
 20
1.93066063747291
 30
0.0
  0
POINT
  5
1A8
330
19F
100
AcDbEntity
  8
Defpoints
 62
     0
100
AcDbPoint
 10
81.69752363506244
 20
2.014467633790948
 30
0.0
  0
ENDBLK
  5
1A1
330
19F
100
AcDbEntity
  8
0
100
AcDbBlockEnd
  0
BLOCK
  5
1C7
330
1C6
100
AcDbEntity
  8
0
100
AcDbBlockBegin
  2
*D12
 70
     1
 10
0.0
 20
0.0
 30
0.0
  3
*D12
  1

  0
LINE
  5
1C9
330
1C6
100
AcDbEntity
  8
치수문자_일반주서
 62
     0
370
    -2
100
AcDbLine
 10
22.45152398642364
 20
-6.352568126787168
 30
0.0
 11
30.21741309095419
 21
-19.96817573149335
 31
0.0
  0
MTEXT
  5
1CA
330
1C6
100
AcDbEntity
  8
치수문자_일반주서
 62
     0
100
AcDbMText
 10
30.43840681991954
 20
-15.05735086857491
 30
0.0
 40
3.5
 41
0.0
 71
     5
 72
     1
  1
\A1;R0.1
  7
SLDTEXTSTYLE0
 11
0.4954434399292085
 21
-0.8686402004461414
 31
0.0
 73
     1
 44
1.0
  0
SOLID
  5
1CB
330
1C6
100
AcDbEntity
  8
치수문자_일반주서
 62
     0
100
AcDbTrace
 10
22.9295656434025
 20
-6.079909087012794
 30
0.0
 11
21.97348232944478
 21
-6.625227166561542
 31
0.0
 12
20.81556974777739
 22
-3.484318184914009
 32
0.0
 13
20.81556974777739
 23
-3.484318184914009
 33
0.0
  0
LINE
  5
1CC
330
1C6
100
AcDbEntity
  8
치수문자_일반주서
 62
     0
100
AcDbLine
 10
20.72102540378447
 20
-3.397454164869396
 30
0.0
 11
20.81102540378447
 21
-3.397454164869396
 31
0.0
  0
LINE
  5
1CD
330
1C6
100
AcDbEntity
  8
치수문자_일반주서
 62
     0
100
AcDbLine
 10
20.76602540378447
 20
-3.442454164869396
 30
0.0
 11
20.76602540378447
 21
-3.352454164869396
 31
0.0
  0
POINT
  5
1CE
330
1C6
100
AcDbEntity
  8
Defpoints
 62
     0
100
AcDbPoint
 10
20.81556974777739
 20
-3.484318184914009
 30
0.0
  0
POINT
  5
1CF
330
1C6
100
AcDbEntity
  8
Defpoints
 62
     0
100
AcDbPoint
 10
20.76602540378447
 20
-3.397454164869396
 30
0.0
  0
ENDBLK
  5
1C8
330
1C6
100
AcDbEntity
  8
0
100
AcDbBlockEnd
  0
ENDSEC
  0
SECTION
  2
ENTITIES
  0
LINE
  5
96
330
1F
100
AcDbEntity
  8
0
  6
Continuous
 62
     1
370
    15
100
AcDbLine
 10
11.86292348425947
 20
-3.498925071276105
 30
0.0
 11
13.99714585759503
 21
-3.498925071276105
 31
0.0
1001
PE_URL
1000

  0
LINE
  5
97
330
1F
100
AcDbEntity
  8
0
  6
Continuous
 62
     1
370
    15
100
AcDbLine
 10
13.99714585759503
 20
3.501074928723892
 30
0.0
 11
11.8629234842595
 21
3.501074928723892
 31
0.0
1001
PE_URL
1000

  0
LINE
  5
98
330
1F
100
AcDbEntity
  8
외형선
  6
Continuous
370
    15
100
AcDbLine
 10
-68.33397459621553
 20
-3.998925071276111
 30
0.0
 11
2.0
 21
-3.998925071276111
 31
0.0
  0
LINE
  5
99
330
1F
100
AcDbEntity
  8
외형선
  6
Continuous
370
    15
100
AcDbLine
 10
2.0
 20
4.001074928723898
 30
0.0
 11
-68.33397459621553
 21
4.001074928723898
 31
0.0
  0
LINE
  5
9A
330
1F
100
AcDbEntity
  8
외형선
  6
Continuous
370
    15
100
AcDbLine
 10
2.0
 20
-3.998925071276116
 30
0.0
 11
3.866025403784473
 21
-3.498925071276108
 31
0.0
  0
LINE
  5
9B
330
1F
100
AcDbEntity
  8
외형선
  6
Continuous
370
    15
100
AcDbLine
 10
3.866025403784473
 20
3.501074928723893
 30
0.0
 11
2.0
 21
4.001074928723902
 31
0.0
  0
LINE
  5
9C
330
1F
100
AcDbEntity
  8
외형선
  6
Continuous
370
    15
100
AcDbLine
 10
-68.33397459621553
 20
4.001074928723893
 30
0.0
 11
-69.13397459621552
 21
3.201074928723896
 31
0.0
  0
LINE
  5
9D
330
1F
100
AcDbEntity
  8
외형선
  6
Continuous
370
    15
100
AcDbLine
 10
-69.13397459621552
 20
-3.19892507127611
 30
0.0
 11
-68.33397459621553
 21
-3.998925071276107
 31
0.0
  0
LINE
  5
9E
330
1F
100
AcDbEntity
  8
외형선
  6
Continuous
370
    15
100
AcDbLine
 10
4.475801709055109
 20
3.501074928723893
 30
0.0
 11
3.866025403784473
 21
3.501074928723893
 31
0.0
  0
LINE
  5
9F
330
1F
100
AcDbEntity
  8
외형선
  6
Continuous
370
    15
100
AcDbLine
 10
3.866025403784473
 20
-3.498925071276108
 30
0.0
 11
4.475801709055066
 21
-3.498925071276108
 31
0.0
  0
SPLINE
  5
A0
330
1F
100
AcDbEntity
  8
0
  6
Continuous
 62
     1
370
    15
100
AcDbSpline
210
0.0
220
0.0
230
1.0
 70
     8
 71
     3
 72
    16
 73
    12
 74
     0
 42
0.000000001
 43
0.00000001
 40
0.0
 40
0.0
 40
0.0
 40
0.0
 40
0.1158225517379639
 40
0.2316293037930466
 40
0.3474231326585406
 40
0.4632069325997513
 40
0.5789836117021936
 40
0.6947560878791922
 40
0.803895213914958
 40
0.9130477998791064
 40
1.0
 40
1.0
 40
1.0
 40
1.0
 10
4.86602540378296
 20
-0.2240674016070882
 30
0.0
 10
5.360815968721187
 20
-0.5077810118296884
 30
0.0
 10
6.350329602812909
 20
-1.075169530096398
 30
0.0
 10
7.834458276940079
 20
-1.858521960698036
 30
0.0
 10
9.31839016767476
 20
-2.531887120090759
 30
0.0
 10
10.80217284479856
 20
-3.054045381961509
 30
0.0
 10
12.28582438292448
 20
-3.393750817971805
 30
0.0
 10
13.74116241809093
 20
-3.529743027724765
 30
0.0
 10
15.16791572052284
 20
-3.461573122796104
 30
0.0
 10
16.47166785109408
 20
-3.244328230122169
 30
0.0
 10
17.3093245729328
 20
-2.977749975091284
 30
0.0
 10
17.68073873555476
 20
-2.859550076750853
 30
0.0
1001
PE_URL
1000

  0
SPLINE
  5
A1
330
1F
100
AcDbEntity
  8
외형선
  6
Continuous
370
    15
100
AcDbSpline
210
0.0
220
0.0
230
1.0
 70
    24
 71
     3
 72
    15
 73
    11
 74
     0
 42
0.000000001
 43
0.00000001
 40
0.0
 40
0.0
 40
0.0
 40
0.0
 40
0.0559226269767669
 40
0.2060610484858115
 40
0.3561994699948546
 40
0.5063378915038966
 40
0.6564763130129384
 40
0.8066147345219831
 40
0.9567531560310245
 40
1.0
 40
1.0
 40
1.0
 40
1.0
 10
4.866025403784487
 20
3.202008185171522
 30
0.0
 10
4.866025403784473
 20
3.134031103329072
 30
0.0
 10
4.86602540378443
 20
2.883552370216618
 30
0.0
 10
4.866025403784501
 20
2.36161791234817
 30
0.0
 10
4.866025403784459
 20
1.647241562875034
 30
0.0
 10
4.86602540378443
 20
0.9510955785823537
 30
0.0
 10
4.866025403784516
 20
0.3482358766213793
 30
0.0
 10
4.866025403784459
 20
-0.071731199836693
 30
0.0
 10
4.866025403784501
 20
-0.2798298103747933
 30
0.0
 10
4.866025403784473
 20
-0.2618367856548539
 30
0.0
 10
4.866025403784459
 20
-0.2578129965069594
 30
0.0
  0
SPLINE
  5
A2
330
1F
100
AcDbEntity
  8
0
  6
Continuous
 62
     1
370
    15
100
AcDbSpline
210
0.0
220
0.0
230
1.0
 70
     8
 71
     3
 72
    40
 73
    36
 74
     0
 42
0.000000001
 43
0.00000001
 40
0.0
 40
0.0
 40
0.0
 40
0.0
 40
0.0624999999999999
 40
0.0624999999999999
 40
0.1249999999999998
 40
0.1249999999999998
 40
0.1874999999999996
 40
0.1874999999999996
 40
0.2499999999999995
 40
0.2499999999999995
 40
0.3124999999999994
 40
0.3124999999999994
 40
0.3749999999999992
 40
0.3749999999999992
 40
0.4374999999999991
 40
0.4374999999999991
 40
0.499999999999999
 40
0.499999999999999
 40
0.5624999999999989
 40
0.5624999999999989
 40
0.6249999999999988
 40
0.6249999999999988
 40
0.6874999999999987
 40
0.6874999999999987
 40
0.7499999999999984
 40
0.7499999999999984
 40
0.8124999999999983
 40
0.8124999999999983
 40
0.8749999999999982
 40
0.8749999999999982
 40
0.9062499999999982
 40
0.9062499999999982
 40
0.9374999999999981
 40
0.9374999999999981
 40
1.0
 40
1.0
 40
1.0
 40
1.0
 10
20.76308422731389
 20
-3.497410902916258
 30
0.0
 10
20.43659978037464
 20
-3.461099275416881
 30
0.0
 10
20.10251487392778
 20
-3.425860781435499
 30
0.0
 10
19.43839441835103
 20
-3.325087240659816
 30
0.0
 10
19.1109810042944
 20
-3.259848777549383
 30
0.0
 10
18.44679169067951
 20
-3.100193768609686
 30
0.0
 10
18.11273043484157
 20
-3.005845310818668
 30
0.0
 10
17.45403953914466
 20
-2.792110481283848
 30
0.0
 10
17.12242377494644
 20
-2.672018631731989
 30
0.0
 10
16.45723040502048
 20
-2.408669844516846
 30
0.0
 10
16.12890342821168
 20
-2.266176033961779
 30
0.0
 10
15.4667491008341
 20
-1.961458501547393
 30
0.0
 10
15.13239944252892
 20
-1.799070636773976
 30
0.0
 10
14.47055788475035
 20
-1.460754104621301
 30
0.0
 10
14.14199186314842
 20
-1.284709619917772
 30
0.0
 10
13.47673746168938
 20
-0.9212386921925895
 30
0.0
 10
13.14558979670764
 20
-0.7348093779733982
 30
0.0
 10
12.48646697459629
 20
-0.3576595817407677
 30
0.0
 10
12.15234370799048
 20
-0.1657606479976663
 30
0.0
 10
11.48834643083937
 20
0.2170150474242801
 30
0.0
 10
11.1609242319516
 20
0.4074148310784852
 30
0.0
 10
10.49662099119899
 20
0.7846865129491589
 30
0.0
 10
10.16260281362282
 20
0.9709800164862081
 30
0.0
 10
9.504192495267876
 20
1.331491035884696
 30
0.0
 10
9.17226643338238
 20
1.50709347136191
 30
0.0
 10
8.507119262608985
 20
1.843439474789958
 30
0.0
 10
8.17892919556488
 20
2.003373442150308
 30
0.0
 10
7.516584489414807
 20
2.30491108670873
 30
0.0
 10
7.182238693181556
 20
2.446449961269897
 30
0.0
 10
6.686011513963653
 20
2.640674998028213
 30
0.0
 10
6.522246347314518
 20
2.702332347450153
 30
0.0
 10
6.191751062311955
 20
2.81984904135522
 30
0.0
 10
6.025549563115529
 20
2.875629485507958
 30
0.0
 10
5.526585501279602
 20
3.033133256006582
 30
0.0
 10
5.19571975007678
 20
3.124775403351793
 30
0.0
 10
4.866025403782988
 20
3.202008185171868
 30
0.0
1001
PE_URL
1000

  0
LINE
  5
A4
330
1F
100
AcDbEntity
  8
0
  6
Continuous
 62
     1
370
    15
100
AcDbLine
 10
20.86602540378447
 20
-3.090332106315633
 30
0.0
 11
20.86602540378447
 21
0.3210533923352719
 31
0.0
1001
PE_URL
1000

  0
SPLINE
  5
A5
330
1F
100
AcDbEntity
  8
0
  6
Continuous
 62
     1
370
    15
100
AcDbSpline
210
0.0
220
0.0
230
1.0
 70
     8
 71
     3
 72
    17
 73
    13
 74
     0
 42
0.000000001
 43
0.00000001
 40
0.0
 40
0.0
 40
0.0
 40
0.0
 40
0.0000509291312126
 40
0.0000509291312126
 40
0.0000509291312126
 40
0.000096420416021
 40
0.000096420416021
 40
0.000096420416021
 40
0.0001431959038173
 40
0.0001431959038173
 40
0.0001431959038173
 40
0.0001788312502811
 40
0.0001788312502811
 40
0.0001788312502811
 40
0.0001788312502811
 10
20.76602540378447
 20
-3.143783233871043
 30
0.0
 10
20.78071377586015
 20
-3.147519108056794
 30
0.0
 10
20.79517264692634
 20
-3.148664560756808
 30
0.0
 10
20.80805682031597
 20
-3.147300374467857
 30
0.0
 10
20.81960856315837
 20
-3.146077266960488
 30
0.0
 10
20.83025964362539
 20
-3.142809912843466
 30
0.0
 10
20.83911973547282
 20
-3.137601876690715
 30
0.0
 10
20.84819713398257
 20
-3.132266105862849
 30
0.0
 10
20.85568154513718
 20
-3.124678056702198
 30
0.0
 10
20.86037953841725
 20
-3.115251402798018
 30
0.0
 10
20.86397583754757
 20
-3.108035328781654
 30
0.0
 10
20.8660254037845
 20
-3.099516609966003
 30
0.0
 10
20.86602540378444
 20
-3.090332106315619
 30
0.0
1001
PE_URL
1000

  0
SPLINE
  5
A6
330
1F
100
AcDbEntity
  8
0
  6
Continuous
 62
     1
370
    15
100
AcDbSpline
210
0.0
220
0.0
230
1.0
 70
     8
 71
     3
 72
    40
 73
    36
 74
     0
 42
0.000000001
 43
0.00000001
 40
0.0
 40
0.0
 40
0.0
 40
0.0
 40
0.0625000000000002
 40
0.0625000000000002
 40
0.1250000000000005
 40
0.1250000000000005
 40
0.1875000000000007
 40
0.1875000000000007
 40
0.2500000000000009
 40
0.2500000000000009
 40
0.3125000000000012
 40
0.3125000000000012
 40
0.3750000000000014
 40
0.3750000000000014
 40
0.4375000000000017
 40
0.4375000000000017
 40
0.5000000000000019
 40
0.5000000000000019
 40
0.5625000000000022
 40
0.5625000000000022
 40
0.6250000000000024
 40
0.6250000000000024
 40
0.6875000000000028
 40
0.6875000000000028
 40
0.750000000000003
 40
0.750000000000003
 40
0.8125000000000032
 40
0.8125000000000032
 40
0.8750000000000036
 40
0.8750000000000036
 40
0.9062500000000027
 40
0.9062500000000027
 40
0.9375000000000018
 40
0.9375000000000018
 40
1.0
 40
1.0
 40
1.0
 40
1.0
 10
20.76602540378451
 20
-3.143783233871057
 30
0.0
 10
20.43659978037471
 20
-3.059996366525837
 30
0.0
 10
20.10251487392781
 20
-2.961689041935166
 30
0.0
 10
19.43839441835106
 20
-2.739758458290575
 30
0.0
 10
19.11098100429438
 20
-2.616568405969653
 30
0.0
 10
18.44679169067953
 20
-2.346733986321924
 30
0.0
 10
18.11273043484157
 20
-2.200343518182703
 30
0.0
 10
17.45403953914468
 20
-1.890647015426991
 30
0.0
 10
17.12242377494648
 20
-1.726283904868485
 30
0.0
 10
16.45723040502052
 20
-1.383190763088943
 30
0.0
 10
16.12890342821166
 20
-1.205411259239723
 30
0.0
 10
15.4667491008341
 20
-0.8397018027271167
 30
0.0
 10
15.13239944252895
 20
-0.6516371331576194
 30
0.0
 10
14.47055788475031
 20
-0.2726298341561312
 30
0.0
 10
14.14199186314847
 20
-0.0815038378162405
 30
0.0
 10
13.47673746168938
 20
0.3013373860007966
 30
0.0
 10
13.1455897967077
 20
0.4919775022051524
 30
0.0
 10
12.48646697459638
 20
0.8665873957961643
 30
0.0
 10
12.15234370799055
 20
1.051703585225981
 30
0.0
 10
11.48834643083945
 20
1.410080149299796
 30
0.0
 10
11.16092423195165
 20
1.582951781804919
 30
0.0
 10
10.49662099119902
 20
1.914647859010513
 30
0.0
 10
10.16260281362286
 20
2.072905122060142
 30
0.0
 10
9.504192495267919
 20
2.368057717838545
 30
0.0
 10
9.172266433382365
 20
2.506104541225087
 30
0.0
 10
8.50711926260897
 20
2.758654675391568
 30
0.0
 10
8.178929195564894
 20
2.872588939143211
 30
0.0
 10
7.516584489414871
 20
3.074510762644496
 30
0.0
 10
7.182238693181599
 20
3.16239040007975
 30
0.0
 10
6.686011513963667
 20
3.271968108079593
 30
0.0
 10
6.522246347314447
 20
3.304767970313216
 30
0.0
 10
6.191751062311912
 20
3.363116859152963
 30
0.0
 10
6.025549563115487
 20
3.388615033492387
 30
0.0
 10
5.526585501279602
 20
3.453622562973054
 30
0.0
 10
5.195719750076737
 20
3.481543051037819
 30
0.0
 10
4.866025403782988
 20
3.493826126718555
 30
0.0
1001
PE_URL
1000

  0
SPLINE
  5
A7
330
1F
100
AcDbEntity
  8
0
  6
Continuous
 62
     1
370
    15
100
AcDbSpline
210
0.0
220
0.0
230
1.0
 70
     8
 71
     3
 72
    16
 73
    12
 74
     0
 42
0.000000001
 43
0.00000001
 40
0.0
 40
0.0
 40
0.0
 40
0.0
 40
0.1179089427922296
 40
0.2358169290781564
 40
0.3537052363000864
 40
0.4715767642230481
 40
0.5894344356115877
 40
0.7072811922749405
 40
0.818370678290576
 40
0.9294517178026378
 40
1.0
 40
1.0
 40
1.0
 40
1.0
 10
20.76602540378447
 20
0.3587089431629993
 30
0.0
 10
20.27111307860568
 20
0.640780492777095
 30
0.0
 10
19.28129244309846
 20
1.204921303771598
 30
0.0
 10
17.79663228364351
 20
1.973558675709437
 30
0.0
 10
16.31219881824991
 20
2.62607619484788
 30
0.0
 10
14.82800820188316
 20
3.121727297779819
 30
0.0
 10
13.34404869406974
 20
3.430894810356637
 30
0.0
 10
11.88850498980556
 20
3.535319789188271
 30
0.0
 10
10.46168935060608
 20
3.434352994223013
 30
0.0
 10
9.233328776680136
 20
3.208182909031822
 30
0.0
 10
8.471126296027297
 20
2.953660922870841
 30
0.0
 10
8.175072359413182
 20
2.854799743760981
 30
0.0
1001
PE_URL
1000

  0
SPLINE
  5
A8
330
1F
100
AcDbEntity
  8
0
  6
Continuous
 62
     1
370
    15
100
AcDbSpline
210
0.0
220
0.0
230
1.0
 70
     8
 71
     3
 72
    23
 73
    19
 74
     0
 42
0.000000001
 43
0.00000001
 40
0.0
 40
0.0
 40
0.0
 40
0.0
 40
0.0000298396634813
 40
0.0000298396634813
 40
0.0000298396634813
 40
0.0000597848215126
 40
0.0000597848215126
 40
0.0000597848215126
 40
0.0000885624044898
 40
0.0000885624044898
 40
0.0000885624044898
 40
0.0001180212818936
 40
0.0001180212818936
 40
0.0001180212818936
 40
0.0001506707675638
 40
0.0001506707675638
 40
0.0001506707675638
 40
0.0001636422268549
 40
0.0001636422268549
 40
0.0001636422268549
 40
0.0001636422268549
 10
20.86602540378447
 20
0.3210533923352849
 30
0.0
 10
20.86602540378447
 20
0.3193775361963652
 30
0.0
 10
20.86459716156359
 20
0.318370971080454
 30
0.0
 10
20.86172888213519
 20
0.3182062214917619
 30
0.0
 10
20.85885426009242
 20
0.3180411075929902
 30
0.0
 10
20.85444260247344
 20
0.3187264689308287
 30
0.0
 10
20.84887690892088
 20
0.3202464413787005
 30
0.0
 10
20.84351921373692
 20
0.321709610162034
 30
0.0
 10
20.83696009671065
 20
0.3239808913056523
 30
0.0
 10
20.82978876237192
 20
0.3268549244365895
 30
0.0
 10
20.82243902621916
 20
0.3298004551020005
 30
0.0
 10
20.81427804086031
 20
0.3334431046417942
 30
0.0
 10
20.80592396038598
 20
0.3374798551706577
 30
0.0
 10
20.79666613931145
 20
0.3419532995232189
 30
0.0
 10
20.78696395585233
 20
0.3470073228355803
 30
0.0
 10
20.77743628701812
 20
0.3522685049622001
 30
0.0
 10
20.773618056354
 20
0.3543769332960364
 30
0.0
 10
20.76980440244125
 20
0.3565305291009976
 30
0.0
 10
20.76602540378447
 20
0.3587089431629905
 30
0.0
1001
PE_URL
1000

  0
LINE
  5
A9
330
1F
100
AcDbEntity
  8
외형선
  6
Continuous
370
    15
100
AcDbLine
 10
4.866025403784473
 20
3.202008185171521
 30
0.0
 11
4.866025403784487
 21
3.4938261267185
 31
0.0
  0
SPLINE
  5
AA
330
1F
100
AcDbEntity
  8
0
  6
Continuous
 62
     1
370
    15
100
AcDbSpline
210
0.0
220
0.0
230
1.0
 70
     8
 71
     3
 72
    13
 73
     9
 74
     0
 42
0.000000001
 43
0.00000001
 40
0.0
 40
0.0
 40
0.0
 40
0.0
 40
0.0003899630512417
 40
0.2002776006184634
 40
0.400150040062932
 40
0.6000397184322969
 40
0.7999789941749871
 40
1.0
 40
1.0
 40
1.0
 40
1.0
 10
11.86292348425949
 20
-3.498733535131997
 30
0.0
 10
11.86201389148435
 20
-3.498797372537059
 30
0.0
 10
11.394864355232
 20
-3.531583048705329
 30
0.0
 10
10.46170408396982
 20
-3.420926696991467
 30
0.0
 10
9.06318993946564
 20
-3.164231351888861
 30
0.0
 10
7.664564968964921
 20
-2.714084026735656
 30
0.0
 10
6.265525531389162
 20
-2.131705661832307
 30
0.0
 10
5.332588993445089
 20
-1.653642067744218
 30
0.0
 10
4.866025403782988
 20
-1.414561425628924
 30
0.0
1001
PE_URL
1000

  0
LINE
  5
AB
330
1F
100
AcDbEntity
  8
외형선
  6
Continuous
370
    15
100
AcDbLine
 10
4.866025403784473
 20
-1.414561425629712
 30
0.0
 11
4.866025403784445
 21
-0.2240674016079542
 31
0.0
  0
SPLINE
  5
AC
330
1F
100
AcDbEntity
  8
0
  6
Continuous
 62
     1
370
    15
100
AcDbSpline
210
0.0
220
0.0
230
1.0
 70
     8
 71
     3
 72
    17
 73
    13
 74
     0
 42
0.000000001
 43
0.00000001
 40
0.0
 40
0.0
 40
0.0
 40
0.0
 40
0.0000509291312126
 40
0.0000509291312126
 40
0.0000509291312126
 40
0.000096420416021
 40
0.000096420416021
 40
0.000096420416021
 40
0.0001431959038173
 40
0.0001431959038173
 40
0.0001431959038173
 40
0.0001788312502811
 40
0.0001788312502811
 40
0.0001788312502811
 40
0.0001788312502811
 10
20.76602540378447
 20
1.537260834517807
 30
0.0
 10
20.78071377586015
 20
1.529612805471864
 30
0.0
 10
20.79517264692634
 20
1.51968643165116
 30
0.0
 10
20.80805682031597
 20
1.508716725625579
 30
0.0
 10
20.81960856315837
 20
1.498881463460737
 30
0.0
 10
20.83025964362539
 20
1.487911358215694
 30
0.0
 10
20.83911973547282
 20
1.476684325285776
 30
0.0
 10
20.84819713398257
 20
1.465181933014688
 30
0.0
 10
20.85568154513718
 20
1.453012258712616
 30
0.0
 10
20.86037953841725
 20
1.441512619705167
 30
0.0
 10
20.86397583754757
 20
1.432709682089899
 30
0.0
 10
20.8660254037845
 20
1.424045378540296
 30
0.0
 10
20.86602540378444
 20
1.416420308376772
 30
0.0
1001
PE_URL
1000

  0
LINE
  5
AD
330
1F
100
AcDbEntity
  8
0
  6
Continuous
 62
     1
370
    15
100
AcDbLine
 10
20.86602540378447
 20
0.3210533923352717
 30
0.0
 11
20.86602540378447
 21
1.416420308376783
 31
0.0
1001
PE_URL
1000

  0
SPLINE
  5
AE
330
1F
100
AcDbEntity
  8
0
  6
Continuous
 62
     1
370
    15
100
AcDbSpline
210
0.0
220
0.0
230
1.0
 70
     8
 71
     3
 72
    12
 73
     8
 74
     0
 42
0.000000001
 43
0.00000001
 40
0.0
 40
0.0
 40
0.0
 40
0.0
 40
0.1729763499571753
 40
0.3796209284865162
 40
0.5863243994889551
 40
0.7931199056085391
 40
1.0
 40
1.0
 40
1.0
 40
1.0
 10
13.99714585759503
 20
3.488404637353982
 30
0.0
 10
14.38738714102788
 20
3.480903791510958
 30
0.0
 10
15.24382652356329
 20
3.464442130341276
 30
0.0
 10
16.56662750667188
 20
3.216764031603589
 30
0.0
 10
17.96580520044387
 20
2.801970849191364
 30
0.0
 10
19.36564701410439
 20
2.239260193660876
 30
0.0
 10
20.29916897845382
 20
1.771292517532294
 30
0.0
 10
20.7660254037845
 20
1.537260834517795
 30
0.0
1001
PE_URL
1000

  0
SPLINE
  5
AF
330
1F
100
AcDbEntity
  8
0
  6
Continuous
 62
     1
370
    15
100
AcDbSpline
210
0.0
220
0.0
230
1.0
 70
     8
 71
     3
 72
    10
 73
     6
 74
     0
 42
0.000000001
 43
0.00000001
 40
0.0
 40
0.0
 40
0.0
 40
0.0
 40
0.4485693947300619
 40
0.8970775988363553
 40
1.0
 40
1.0
 40
1.0
 40
1.0
 10
4.866025403782988
 20
-3.491676269270767
 30
0.0
 10
5.360815535411067
 20
-3.450519550500444
 30
0.0
 10
6.35032830294163
 20
-3.368211727264571
 30
0.0
 10
7.453335168007268
 20
-3.119311594506524
 30
0.0
 10
8.061551180449722
 20
-2.894592787218079
 30
0.0
 10
8.17507235941314
 20
-2.852649886313195
 30
0.0
1001
PE_URL
1000

  0
SPLINE
  5
B0
330
1F
100
AcDbEntity
  8
외형선
  6
Continuous
370
    15
100
AcDbSpline
210
0.0
220
0.0
230
1.0
 70
    24
 71
     3
 72
    14
 73
    10
 74
     0
 42
0.000000001
 43
0.00000001
 40
0.0
 40
0.0
 40
0.0
 40
0.0
 40
0.1488860537355653
 40
0.3122563598364042
 40
0.4710224388891265
 40
0.6343927449899657
 40
0.7931588240426959
 40
0.9565291301435348
 40
1.0
 40
1.0
 40
1.0
 40
1.0
 10
4.866025403784501
 20
-1.476479856598361
 30
0.0
 10
4.866025403784487
 20
-1.555065940649205
 30
0.0
 10
4.866025403784445
 20
-1.719883288707188
 30
0.0
 10
4.866025403784516
 20
-2.015304574426814
 30
0.0
 10
4.866025403784359
 20
-2.343928009061776
 30
0.0
 10
4.866025403784516
 20
-2.688883965066545
 30
0.0
 10
4.866025403784473
 20
-3.045172969274279
 30
0.0
 10
4.866025403784345
 20
-3.313045543334861
 30
0.0
 10
4.866025403784459
 20
-3.460654058516618
 30
0.0
 10
4.866025403784487
 20
-3.491676269270712
 30
0.0
  0
SPLINE
  5
B1
330
1F
100
AcDbEntity
  8
0
  6
Continuous
 62
     1
370
    15
100
AcDbSpline
210
0.0
220
0.0
230
1.0
 70
     8
 71
     3
 72
    10
 73
     6
 74
     0
 42
0.000000001
 43
0.00000001
 40
0.0
 40
0.0
 40
0.0
 40
0.0
 40
0.4812311909479506
 40
0.9624584780302915
 40
1.0
 40
1.0
 40
1.0
 40
1.0
 10
20.76308422731389
 20
3.499560760364036
 30
0.0
 10
20.27111424532728
 20
3.430175052630695
 30
0.0
 10
19.28129594325374
 20
3.325015069455813
 30
0.0
 10
18.25284480944596
 20
3.079495193777348
 30
0.0
 10
17.71934620254634
 20
2.876397424190161
 30
0.0
 10
17.68073873555476
 20
2.861699934198639
 30
0.0
1001
PE_URL
1000

  0
LINE
  5
B3
330
1F
100
AcDbEntity
  8
0
  6
Continuous
 62
     1
370
    15
100
AcDbLine
 10
20.86602540378447
 20
1.414249380386827
 30
0.0
 11
20.86602540378447
 21
3.385984644333
 31
0.0
1001
PE_URL
1000

  0
LINE
  5
B4
330
1F
100
AcDbEntity
  8
0
  6
Continuous
 62
     1
370
    15
100
AcDbLine
 10
20.86602540378447
 20
-3.383834786885213
 30
0.0
 11
20.86602540378447
 21
-3.090332106315633
 31
0.0
1001
PE_URL
1000

  0
LINE
  5
B5
330
1F
100
AcDbEntity
  8
외형선
  6
Continuous
370
    15
100
AcDbLine
 10
2.0
 20
0.0010749287238931
 30
0.0
 11
2.0
 21
4.001074928723898
 31
0.0
  0
LINE
  5
B6
330
1F
100
AcDbEntity
  8
외형선
  6
Continuous
370
    15
100
AcDbLine
 10
2.0
 20
-3.998925071276111
 30
0.0
 11
2.0
 21
0.0010749287238931
 31
0.0
  0
LINE
  5
B7
330
1F
100
AcDbEntity
  8
외형선
  6
Continuous
370
    15
100
AcDbLine
 10
-68.33397459621553
 20
0.0010749287238931
 30
0.0
 11
-68.33397459621553
 21
4.001074928723898
 31
0.0
  0
LINE
  5
B8
330
1F
100
AcDbEntity
  8
외형선
  6
Continuous
370
    15
100
AcDbLine
 10
-68.33397459621553
 20
-3.998925071276111
 30
0.0
 11
-68.33397459621553
 21
0.0010749287238931
 31
0.0
  0
LINE
  5
B9
330
1F
100
AcDbEntity
  8
외형선
  6
Continuous
370
    15
100
AcDbLine
 10
3.866025403784473
 20
3.390836213302623
 30
0.0
 11
3.866025403784473
 21
3.501074928723893
 31
0.0
  0
SPLINE
  5
BA
330
1F
100
AcDbEntity
  8
외형선
  6
Continuous
370
    15
100
AcDbSpline
210
0.0
220
0.0
230
1.0
 70
    24
 71
     3
 72
    14
 73
    10
 74
     0
 42
0.000000001
 43
0.00000001
 40
0.0
 40
0.0
 40
0.0
 40
0.0
 40
0.25
 40
0.25
 40
0.5
 40
0.5
 40
0.75
 40
0.75
 40
1.0
 40
1.0
 40
1.0
 40
1.0
 10
3.866025403784473
 20
0.3517996351447421
 30
0.0
 10
3.866025403784487
 20
0.7054856006983153
 30
0.0
 10
3.866025403784473
 20
1.053652634389084
 30
0.0
 10
3.866025403784487
 20
1.707069666112383
 30
0.0
 10
3.866025403784473
 20
2.012226216394522
 30
0.0
 10
3.866025403784473
 20
2.551494377055528
 30
0.0
 10
3.866025403784473
 20
2.785528864564888
 30
0.0
 10
3.866025403784473
 20
3.160969785198676
 30
0.0
 10
3.866025403784473
 20
3.302322525034232
 30
0.0
 10
3.866025403784473
 20
3.390836213302623
 30
0.0
  0
LINE
  5
BB
330
1F
100
AcDbEntity
  8
외형선
  6
Continuous
370
    15
100
AcDbLine
 10
3.866025403784473
 20
-0.8704286189287633
 30
0.0
 11
3.866025403784473
 21
0.3517996351447419
 31
0.0
  0
SPLINE
  5
BC
330
1F
100
AcDbEntity
  8
외형선
  6
Continuous
370
    15
100
AcDbSpline
210
0.0
220
0.0
230
1.0
 70
    24
 71
     3
 72
    14
 73
    10
 74
     0
 42
0.000000001
 43
0.00000001
 40
0.0
 40
0.0
 40
0.0
 40
0.0
 40
0.25
 40
0.25
 40
0.5
 40
0.5
 40
0.75
 40
0.75
 40
1.0
 40
1.0
 40
1.0
 40
1.0
 10
3.866025403784473
 20
-3.481308189243745
 30
0.0
 10
3.866025403784487
 20
-3.445687063643311
 30
0.0
 10
3.866025403784473
 20
-3.355775202031903
 30
0.0
 10
3.866025403784487
 20
-3.07560259464793
 30
0.0
 10
3.866025403784473
 20
-2.885381917466495
 30
0.0
 10
3.866025403784473
 20
-2.422088966762823
 30
0.0
 10
3.866025403784473
 20
-2.149082950595249
 30
0.0
 10
3.866025403784473
 20
-1.54534905028148
 30
0.0
 10
3.866025403784473
 20
-1.214707508504833
 30
0.0
 10
3.866025403784473
 20
-0.8704286189287641
 30
0.0
  0
LINE
  5
BD
330
1F
100
AcDbEntity
  8
외형선
  6
Continuous
370
    15
100
AcDbLine
 10
3.866025403784473
 20
-3.498925071276108
 30
0.0
 11
3.866025403784473
 21
-3.481308189243745
 31
0.0
  0
LINE
  5
BE
330
1F
100
AcDbEntity
  8
외형선
  6
Continuous
370
    15
100
AcDbLine
 10
-69.13397459621552
 20
0.0010749287238931
 30
0.0
 11
-69.13397459621552
 21
3.201074928723896
 31
0.0
  0
LINE
  5
BF
330
1F
100
AcDbEntity
  8
외형선
  6
Continuous
370
    15
100
AcDbLine
 10
-69.13397459621552
 20
-3.19892507127611
 30
0.0
 11
-69.13397459621552
 21
0.0010749287238931
 31
0.0
  0
SPLINE
  5
C0
330
1F
100
AcDbEntity
  8
외형선
  6
Continuous
370
    15
100
AcDbSpline
210
0.0
220
0.0
230
1.0
 70
    24
 71
     3
 72
    15
 73
    11
 74
     0
 42
0.000000001
 43
0.00000001
 40
0.0
 40
0.0
 40
0.0
 40
0.0
 40
0.0254043221567252
 40
0.1757488987568054
 40
0.3260934753569205
 40
0.4764380519570182
 40
0.6267826285571155
 40
0.777127205157205
 40
0.9274717817573156
 40
0.9999999999999999
 40
0.9999999999999999
 40
0.9999999999999999
 40
0.9999999999999999
 10
4.866025403784487
 20
-0.2748546046843305
 30
0.0
 10
4.866025403784487
 20
-0.2747535326742531
 30
0.0
 10
4.86602540378453
 20
-0.2740543093548244
 30
0.0
 10
4.866025403784487
 20
-0.1118662619114825
 30
0.0
 10
4.866025403784487
 20
0.2927944021383291
 30
0.0
 10
4.866025403784473
 20
0.8788937326040834
 30
0.0
 10
4.866025403784459
 20
1.568547298322869
 30
0.0
 10
4.866025403784487
 20
2.2844970053913
 30
0.0
 10
4.866025403784416
 20
2.840022758682077
 30
0.0
 10
4.866025403784459
 20
3.113131854860843
 30
0.0
 10
4.866025403784473
 20
3.202008185171536
 30
0.0
  0
SPLINE
  5
C1
330
1F
100
AcDbEntity
  8
외형선
  6
Continuous
370
    15
100
AcDbSpline
210
0.0
220
0.0
230
1.0
 70
     8
 71
     3
 72
     8
 73
     4
 74
     0
 42
0.000000001
 43
0.00000001
 40
0.0
 40
0.0
 40
0.0
 40
0.0
 40
1.0
 40
1.0
 40
1.0
 40
1.0
 10
4.866025403783002
 20
-0.2240674016070915
 30
0.0
 10
4.53488353253692
 20
-0.0326769708525438
 30
0.0
 10
4.199238035758928
 20
0.1605963591609713
 30
0.0
 10
3.865866344614705
 20
0.3518452234885063
 30
0.0
  0
SPLINE
  5
C2
330
1F
100
AcDbEntity
  8
외형선
  6
Continuous
370
    15
100
AcDbSpline
210
0.0
220
0.0
230
1.0
 70
     8
 71
     3
 72
     8
 73
     4
 74
     0
 42
0.000000001
 43
0.00000001
 40
0.0
 40
0.0
 40
0.0
 40
0.0
 40
1.0
 40
1.0
 40
1.0
 40
1.0
 10
4.866025403782988
 20
3.202008185171866
 30
0.0
 10
4.534883532536934
 20
3.279580057971436
 30
0.0
 10
4.199238035758942
 20
3.342986295716246
 30
0.0
 10
3.865866344614719
 20
3.390846278505518
 30
0.0
  0
SPLINE
  5
C3
330
1F
100
AcDbEntity
  8
외형선
  6
Continuous
370
    15
100
AcDbSpline
210
0.0
220
0.0
230
1.0
 70
     8
 71
     3
 72
     8
 73
     4
 74
     0
 42
0.000000001
 43
0.00000001
 40
0.0
 40
0.0
 40
0.0
 40
0.0
 40
1.0
 40
1.0
 40
1.0
 40
1.0
 10
4.866025403782988
 20
-1.414561425628929
 30
0.0
 10
4.534883532536934
 20
-1.239161587495634
 30
0.0
 10
4.199238035758942
 20
-1.05655243648971
 30
0.0
 10
3.865866344614719
 20
-0.8703894688275223
 30
0.0
  0
SPLINE
  5
C4
330
1F
100
AcDbEntity
  8
외형선
  6
Continuous
370
    15
100
AcDbSpline
210
0.0
220
0.0
230
1.0
 70
     8
 71
     3
 72
     8
 73
     4
 74
     0
 42
0.000000001
 43
0.00000001
 40
0.0
 40
0.0
 40
0.0
 40
0.0
 40
1.0
 40
1.0
 40
1.0
 40
1.0
 10
4.866025403783002
 20
-3.491676269270771
 30
0.0
 10
4.53488353253692
 20
-3.504013273866994
 30
0.0
 10
4.199238035758928
 20
-3.500567563266501
 30
0.0
 10
3.865866344614705
 20
-3.481303597558216
 30
0.0
  0
SPLINE
  5
C5
330
1F
100
AcDbEntity
  8
외형선
  6
Continuous
370
    15
100
AcDbSpline
210
0.0
220
0.0
230
1.0
 70
    24
 71
     3
 72
    14
 73
    10
 74
     0
 42
0.000000001
 43
0.00000001
 40
0.0
 40
0.0
 40
0.0
 40
0.0
 40
0.1624296820321853
 40
0.3298139955078756
 40
0.4883944338960001
 40
0.6515737157403799
 40
0.8101541541285394
 40
0.9733334359729597
 40
1.0
 40
1.0
 40
1.0
 40
1.0
 10
4.866025403784473
 20
-3.491676269270715
 30
0.0
 10
4.866025403784459
 20
-3.374490296384729
 30
0.0
 10
4.866025403784402
 20
-3.136543798851438
 30
0.0
 10
4.866025403784558
 20
-2.775785974849996
 30
0.0
 10
4.866025403784402
 20
-2.422412071032817
 30
0.0
 10
4.866025403784544
 20
-2.089965965524941
 30
0.0
 10
4.866025403784459
 20
-1.784316491723719
 30
0.0
 10
4.866025403784473
 20
-1.578400128059214
 30
0.0
 10
4.866025403784473
 20
-1.489024010475631
 30
0.0
 10
4.866025403784487
 20
-1.476469856598361
 30
0.0
  0
LINE
  5
C6
330
1F
100
AcDbEntity
  8
외형선
  6
Continuous
370
    15
100
AcDbLine
 10
4.475801709055109
 20
3.50016609626671
 30
0.0
 11
4.866025403783002
 21
3.493826126718558
 31
0.0
  0
LINE
  5
C7
330
1F
100
AcDbEntity
  8
중심선
100
AcDbLine
 10
-72.13397459621552
 20
0.0010749287238931
 30
0.0
 11
23.86602540378447
 21
0.0010749287238892
 31
0.0
  0
LINE
  5
C8
330
1F
100
AcDbEntity
  8
참조1
100
AcDbLine
 10
-44.13448796377176
 20
-2.498925071276081
 30
0.0
 11
-44.13448796377175
 21
-39.9989250712761
 31
0.0
  0
LINE
  5
C9
330
1F
100
AcDbEntity
  8
참조1
100
AcDbLine
 10
-44.13448796377175
 20
-39.9989250712761
 30
0.0
 11
-59.2928314105242
 21
-39.9989250712761
 31
0.0
  0
CIRCLE
  5
CA
330
1F
100
AcDbEntity
  8
해칭선
100
AcDbCircle
 10
0.0
 20
0.0
 30
0.0
 40
3.000000000000001
  0
INSERT
  5
CB
330
1F
100
AcDbEntity
  8
0
  6
Continuous
 62
     7
100
AcDbBlockReference
 66
     1
  2
블럭10
 10
-38.09716625189871
 20
-52.04609937292004
 30
0.0
  0
ATTRIB
  5
CC
330
CB
100
AcDbEntity
  8
FORMAT
 62
     2
100
AcDbText
 10
-54.21642729133426
 20
-49.97073246008785
 30
0.0
 40
4.233333333333333
  1
SEME0107001E [ 4 FLUTE ]
 41
0.75
  7
SLDTEXTSTYLE0
 11
-54.21642729133426
 21
-52.08739912675451
 31
0.0
100
AcDbAttribute
  2
AUTOATTR0
 70
     0
 74
     1
  0
SEQEND
  5
CD
330
CB
100
AcDbEntity
  8
0
  6
Continuous
 62
     7
  0
HATCH
  5
CE
330
1F
100
AcDbEntity
  8
중심선
100
AcDbHatch
 10
0.0
 20
0.0
 30
0.0
210
0.0
220
0.0
230
1.0
  2
SOLID
 70
     1
 71
     0
 91
        1
 92
        0
 93
        4
 72
     1
 10
-32.38225694751786
 20
-35.7989250712761
 11
-35.82853219135514
 21
-35.7989250712761
 72
     1
 10
-35.82853219135514
 20
-35.7989250712761
 11
-37.95676205055916
 21
-38.3352506518487
 72
     1
 10
-37.95676205055916
 20
-38.3352506518487
 11
-34.51045372160873
 21
-38.33521122254621
 72
     1
 10
-34.51045372160873
 20
-38.33521122254621
 11
-32.38225694751785
 21
-35.7989250712761
 97
        0
 75
     0
 76
     1
 98
        1
 10
-8.381251082813694
 20
0.0010749287238931
  0
HATCH
  5
CF
330
1F
100
AcDbEntity
  8
중심선
100
AcDbHatch
 10
0.0
 20
0.0
 30
0.0
210
0.0
220
0.0
230
1.0
  2
SOLID
 70
     1
 71
     0
 91
        1
 92
        0
 93
        4
 72
     1
 10
-27.3694929564819
 20
-35.7989250712761
 11
-30.81576820031919
 21
-35.7989250712761
 72
     1
 10
-30.81576820031919
 20
-35.7989250712761
 11
-35.34690620867657
 21
-41.19892507127612
 72
     1
 10
-35.34690620867657
 20
-41.19892507127612
 11
-31.90063096483929
 21
-41.19892507127612
 72
     1
 10
-31.90063096483929
 20
-41.19892507127612
 11
-27.3694929564819
 21
-35.7989250712761
 97
        0
 75
     0
 76
     1
 98
        1
 10
-8.381251082813694
 20
0.0010749287238931
  0
HATCH
  5
D0
330
1F
100
AcDbEntity
  8
중심선
100
AcDbHatch
 10
0.0
 20
0.0
 30
0.0
210
0.0
220
0.0
230
1.0
  2
SOLID
 70
     1
 71
     0
 91
        1
 92
        0
 93
        4
 72
     1
 10
-22.35672896544601
 20
-35.79892507127613
 11
-25.80300420928312
 21
-35.7989250712761
 72
     1
 10
-25.80300420928312
 20
-35.7989250712761
 11
-32.85144111117238
 21
-44.19892507127612
 72
     1
 10
-32.85144111117238
 20
-44.19892507127612
 11
-29.4051658673351
 21
-44.19892507127612
 72
     1
 10
-29.40516586733509
 20
-44.19892507127612
 11
-22.35672896544601
 21
-35.79892507127613
 97
        0
 75
     0
 76
     1
 98
        1
 10
-8.381251082813694
 20
0.0010749287238931
  0
HATCH
  5
D1
330
1F
100
AcDbEntity
  8
중심선
100
AcDbHatch
 10
0.0
 20
0.0
 30
0.0
210
0.0
220
0.0
230
1.0
  2
SOLID
 70
     1
 71
     0
 91
        1
 92
        0
 93
        6
 72
     3
 10
-17.55683853443381
 20
-39.99892507132738
 11
3.960054785062281
 21
1.540882976769353E-10
 40
0.393933944016263
 50
17.09539180608441
 51
320.0019657685081
 73
     0
 72
     1
 10
-15.87383887873321
 20
-38.58681907591441
 11
-13.56853700503218
 21
-36.65249236586649
 72
     3
 10
-17.55683853448666
 20
-39.99892507127625
 11
6.600054785286833
 21
-1.278976924368180E-13
 40
0.6363583540795976
 50
39.99873849337408
 51
368.4976242363725
 73
     1
 72
     1
 10
-11.13150604258605
 20
-39.03892507120612
 11
-18.87677122765074
 21
-39.03892507120609
 72
     1
 10
-18.87677122765074
 20
-39.03892507120609
 11
-18.87679627209667
 21
-40.95892507120602
 72
     1
 10
-18.87679627209667
 20
-40.95892507120602
 11
-14.43541650262463
 21
-40.95892507120599
 97
        0
 75
     0
 76
     1
 98
        1
 10
-8.381251082813694
 20
0.0010749287238931
  0
DIMENSION
  5
D2
330
1F
100
AcDbEntity
  8
치수문자_일반주서
100
AcDbDimension
  2
_D
 10
30.86602540378449
 20
-3.498925071276075
 30
0.0
 11
30.86602540378443
 21
13.16757492872395
 31
0.0
 70
   160
  1
%%c<>
 71
     2
 42
7.0
 52
-270.0
  3
SLDDIMSTYLE0
100
AcDbAlignedDimension
 13
20.86602540378447
 23
3.501074928723889
 33
0.0
 14
20.86602540378447
 24
-3.498925071276111
 34
0.0
 50
90.0000000000002
100
AcDbRotatedDimension
1001
PE_URL
1000

  0
DIMENSION
  5
E0
330
1F
100
AcDbEntity
  8
치수문자_일반주서
100
AcDbDimension
  2
_D_1
 10
-79.13397459621551
 20
-3.998925071276155
 30
0.0
 11
-79.13397459621557
 21
13.66757492872386
 31
0.0
 70
   160
  1
%%c<>
 71
     2
 42
8.000000000000007
 52
-270.0
  3
SLDDIMSTYLE0
100
AcDbAlignedDimension
 13
-68.33397459621553
 23
4.001074928723897
 33
0.0
 14
-68.33397459621553
 24
-3.99892507127611
 34
0.0
 50
90.0000000000002
100
AcDbRotatedDimension
1001
PE_URL
1000

  0
DIMENSION
  5
ED
330
1F
100
AcDbEntity
  8
치수문자_일반주서
100
AcDbDimension
  2
_D_2
 10
4.866025403784487
 20
14.0010749287239
 30
0.0
 11
12.86602540378449
 21
14.0010749287239
 31
0.0
 70
   160
  1
<>
 71
     2
 42
15.99999999999999
  3
SLDDIMSTYLE0
100
AcDbAlignedDimension
 13
20.86602540378447
 23
3.501074928723889
 33
0.0
 14
4.866025403784487
 24
3.4938261267185
 34
0.0
 50
-0.0000000000001018
100
AcDbRotatedDimension
1001
PE_URL
1000

  0
DIMENSION
  5
F9
330
1F
100
AcDbEntity
  8
치수문자_일반주서
100
AcDbDimension
  2
_D_3
 10
-69.13397459621552
 20
24.0010749287239
 30
0.0
 11
-24.13397459621553
 21
24.0010749287239
 31
0.0
 70
   160
  1
<>
 71
     2
 42
90.0
  3
SLDDIMSTYLE0
100
AcDbAlignedDimension
 13
20.86602540378447
 23
3.501074928723889
 33
0.0
 14
-69.13397459621552
 24
3.201074928723896
 34
0.0
 50
0.0000000000000068
100
AcDbRotatedDimension
1001
PE_URL
1000

  0
LINE
  5
104
330
1F
100
AcDbEntity
  8
참조1
100
AcDbLine
 10
38.67950921913007
 20
7.441074928723896
 30
0.0
 11
38.67950921913007
 21
-7.438925071276109
 31
0.0
  0
LINE
  5
105
330
1F
100
AcDbEntity
  8
참조1
100
AcDbLine
 10
51.37950921913007
 20
5.441074928723896
 30
0.0
 11
38.67950921913007
 21
5.441074928723896
 31
0.0
  0
SOLID
  5
106
330
1F
100
AcDbEntity
  8
참조1
100
AcDbTrace
 10
38.67950921913007
 20
5.441074928723896
 30
0.0
 11
45.02950921913006
 21
4.425074928723896
 31
0.0
 12
45.02950921913006
 22
6.457074928723896
 32
0.0
 13
45.02950921913006
 23
6.457074928723896
 33
0.0
  0
LINE
  5
107
330
1F
100
AcDbEntity
  8
참조1
100
AcDbLine
 10
51.37950921913007
 20
-5.438925071276109
 30
0.0
 11
38.67950921913007
 21
-5.438925071276109
 31
0.0
  0
SOLID
  5
108
330
1F
100
AcDbEntity
  8
참조1
100
AcDbTrace
 10
38.67950921913007
 20
-5.438925071276109
 30
0.0
 11
45.02950921913006
 21
-6.454925071276109
 31
0.0
 12
45.02950921913006
 22
-4.422925071276109
 32
0.0
 13
45.02950921913006
 23
-4.422925071276109
 33
0.0
  0
MTEXT
  5
109
330
1F
100
AcDbEntity
  8
참조1
100
AcDbMText
 10
48.07699931160035
 20
10.98929157337383
 30
0.0
 40
3.5
 41
0.0
 71
     1
 72
     1
  1
A
  7
SLDTEXTSTYLE0
 73
     1
 44
1.0
  0
MTEXT
  5
10A
330
1F
100
AcDbEntity
  8
참조1
100
AcDbMText
 10
48.07699931160035
 20
0.1092915733738259
 30
0.0
 40
3.5
 41
0.0
 71
     1
 72
     1
  1
A
  7
SLDTEXTSTYLE0
 73
     1
 44
1.0
  0
INSERT
  5
111
330
1F
100
AcDbEntity
  8
해칭선
100
AcDbBlockReference
  2
SW_DOWELSYMBOL_0
 10
0.0
 20
0.0
 30
0.0
  0
ARC
  5
1BA
330
1F
100
AcDbEntity
  8
0
  6
Continuous
 62
     1
370
    15
100
AcDbCircle
 10
20.76602540378447
 20
3.399604022317175
 30
0.0
 40
0.1
100
AcDbArc
 50
0.0000000000005089
 51
91.6854130402211
1001
PE_URL
1000

  0
ARC
  5
1BB
102
{ACAD_REACTORS
102
}
330
1F
100
AcDbEntity
  8
0
  6
Continuous
 62
     1
370
    15
100
AcDbCircle
 10
20.76602540378447
 20
-3.397454164869396
 30
0.0
 40
0.1
100
AcDbArc
 50
268.3145869597789
 51
359.9999999999995
1001
PE_URL
1000

  0
DIMENSION
  5
1C3
102
{ACAD_REACTORS
102
}
102
{ACAD_XDICTIONARY
360
1C4
102
}
330
1F
100
AcDbEntity
  8
치수문자_일반주서
100
AcDbDimension
  2
*D12
 10
20.76602540378447
 20
-3.397454164869396
 30
0.0
 11
28.15822629374842
 21
-16.35788989838908
 31
0.0
 70
   164
 71
     5
 42
0.0999999999999991
  3
SLDDIMSTYLE1
100
AcDbRadialDimension
 15
20.81556974777739
 25
-3.484318184914009
 35
0.0
 40
0.0
1001
ACAD
1000
DSTYLE
1002
{
1070
    78
1070
     8
1002
}
1001
ACAD_DSTYLE_DIMRADIAL_EXTENSION
1070
   387
1070
     1
1070
   388
1040
4.682972973576784
1070
   390
1040
6.283185307179582
1001
PE_URL
1000

  0
ENDSEC
  0
SECTION
  2
OBJECTS
  0
DICTIONARY
  5
C
330
0
100
AcDbDictionary
281
     1
  3
ACAD_DETAILVIEWSTYLE
350
1C1
  3
ACAD_GROUP
350
D
  3
ACAD_LAYOUT
350
1A
  3
ACAD_MLINESTYLE
350
17
  3
ACAD_PLOTSETTINGS
350
19
  3
ACAD_PLOTSTYLENAME
350
E
  3
ACAD_SCALELIST
350
47
  3
ACAD_SECTIONVIEWSTYLE
350
1C2
  3
AcDbVariableDictionary
350
1BC
  3
APPDATA
350
133
  3
DWGPROPS
350
1D1
  0
DICTIONARY
  5
179
330
2
100
AcDbDictionary
280
     1
281
     1
  3
ACAD_LAYERSTATES
360
17A
  0
DICTIONARY
  5
1C4
330
1C3
100
AcDbDictionary
280
     1
281
     1
  0
DICTIONARY
  5
1C1
102
{ACAD_REACTORS
330
C
102
}
330
C
100
AcDbDictionary
281
     1
  0
DICTIONARY
  5
D
102
{ACAD_REACTORS
330
C
102
}
330
C
100
AcDbDictionary
281
     1
  0
DICTIONARY
  5
1A
102
{ACAD_REACTORS
330
C
102
}
330
C
100
AcDbDictionary
281
     1
  3
Layout1
350
1E
  3
Layout2
350
26
  3
Model
350
22
  0
DICTIONARY
  5
17
102
{ACAD_REACTORS
330
C
102
}
330
C
100
AcDbDictionary
281
     1
  3
Standard
350
18
  0
DICTIONARY
  5
19
102
{ACAD_REACTORS
330
C
102
}
330
C
100
AcDbDictionary
281
     1
  0
ACDBDICTIONARYWDFLT
  5
E
102
{ACAD_REACTORS
330
C
102
}
330
C
100
AcDbDictionary
281
     1
  3
Normal
350
F
100
AcDbDictionaryWithDefault
340
F
  0
DICTIONARY
  5
47
102
{ACAD_REACTORS
330
C
102
}
330
C
100
AcDbDictionary
281
     1
  3
A0
350
48
  3
A1
350
49
  3
A2
350
4A
  3
A3
350
4B
  3
A4
350
4C
  3
A5
350
4D
  3
A6
350
4E
  3
A7
350
4F
  3
A8
350
50
  3
A9
350
51
  3
B0
350
52
  3
B1
350
53
  3
B2
350
54
  3
B3
350
55
  3
B4
350
56
  3
B5
350
57
  3
B6
350
58
  3
B7
350
59
  3
B8
350
5A
  3
B9
350
5B
  3
C0
350
5C
  3
C1
350
5D
  3
C2
350
5E
  3
C3
350
5F
  3
C4
350
60
  3
C5
350
61
  3
C6
350
62
  3
C7
350
63
  3
C8
350
64
  3
C9
350
65
  3
D0
350
66
  3
D1
350
67
  3
D2
350
68
  0
DICTIONARY
  5
1C2
102
{ACAD_REACTORS
330
C
102
}
330
C
100
AcDbDictionary
281
     1
  0
DICTIONARY
  5
1BC
102
{ACAD_REACTORS
330
C
102
}
330
C
100
AcDbDictionary
281
     1
  0
DICTIONARY
  5
133
102
{ACAD_REACTORS
330
C
102
}
330
C
100
AcDbDictionary
281
     1
  0
XRECORD
  5
1D1
102
{ACAD_REACTORS
330
C
102
}
330
C
100
AcDbXrecord
280
     1
  1
DWGPROPS COOKIE
  2

  3

  4

  6

  7

  8
12017044
  9

300
=
301
=
302
=
303
=
304
=
305
=
306
=
307
=
308
=
309
=
 40
0.0
 41
2458269.43728993
 42
2458270.432006933
  1

 90
        0
  0
DICTIONARY
  5
17A
102
{ACAD_REACTORS
330
179
102
}
330
179
100
AcDbDictionary
281
     1
  0
LAYOUT
  5
1E
102
{ACAD_REACTORS
330
1A
102
}
330
1A
100
AcDbPlotSettings
  1

  2
none_device
  4

  6

 40
0.0
 41
0.0
 42
0.0
 43
0.0
 44
0.0
 45
0.0
 46
0.0
 47
0.0
 48
0.0
 49
0.0
140
0.0
141
0.0
142
1.0
143
1.0
 70
   688
 72
     1
 73
     0
 74
     5
  7

 75
    16
147
1.0
148
0.0
149
0.0
100
AcDbLayout
  1
Layout1
 70
     1
 71
     1
 10
0.0
 20
0.0
 11
420.0
 21
297.0
 12
0.0
 22
0.0
 32
0.0
 14
1.000000000000000E+20
 24
1.000000000000000E+20
 34
1.000000000000000E+20
 15
-1.000000000000000E+20
 25
-1.000000000000000E+20
 35
-1.000000000000000E+20
146
0.0
 13
0.0
 23
0.0
 33
0.0
 16
1.0
 26
0.0
 36
0.0
 17
0.0
 27
1.0
 37
0.0
 76
     0
330
1B
  0
LAYOUT
  5
26
102
{ACAD_REACTORS
330
1A
102
}
330
1A
100
AcDbPlotSettings
  1

  2
none_device
  4

  6

 40
0.0
 41
0.0
 42
0.0
 43
0.0
 44
0.0
 45
0.0
 46
0.0
 47
0.0
 48
0.0
 49
0.0
140
0.0
141
0.0
142
1.0
143
1.0
 70
   688
 72
     1
 73
     0
 74
     5
  7

 75
    16
147
1.0
148
0.0
149
0.0
100
AcDbLayout
  1
Layout2
 70
     1
 71
     2
 10
0.0
 20
0.0
 11
0.0
 21
0.0
 12
0.0
 22
0.0
 32
0.0
 14
0.0
 24
0.0
 34
0.0
 15
0.0
 25
0.0
 35
0.0
146
0.0
 13
0.0
 23
0.0
 33
0.0
 16
1.0
 26
0.0
 36
0.0
 17
0.0
 27
1.0
 37
0.0
 76
     0
330
23
  0
LAYOUT
  5
22
102
{ACAD_REACTORS
330
1A
102
}
330
1A
100
AcDbPlotSettings
  1

  2
none_device
  4
ANSI_A_(11.00_x_8.50_Inches)
  6

 40
6.35
 41
19.05
 42
6.35000508
 43
19.05000254
 44
279.4
 45
215.9
 46
110.9593412050573
 47
106.8544972853139
 48
0.0
 49
0.0
140
0.0
141
0.0
142
0.0787616753210067
143
1.0
 70
  1696
 72
     0
 73
     0
 74
     0
  7

 75
     0
147
0.0235690232323232
148
0.0
149
0.0
100
AcDbLayout
  1
Model
 70
     1
 71
     0
 10
0.0
 20
0.0
 11
420.0
 21
297.0
 12
0.0
 22
0.0
 32
0.0
 14
-83.50897459621557
 24
-49.97073246008785
 34
0.0
 15
51.37950921913007
 25
28.3760749287239
 35
0.0
146
0.0
 13
0.0
 23
0.0
 33
0.0
 16
1.0
 26
0.0
 36
0.0
 17
0.0
 27
1.0
 37
0.0
 76
     0
330
1F
331
29
  0
MLINESTYLE
  5
18
102
{ACAD_REACTORS
330
17
102
}
330
17
100
AcDbMlineStyle
  2
Standard
 70
     0
  3

 62
   256
 51
90.0
 52
90.0
 71
     2
 49
0.5
 62
   256
  6
BYLAYER
 49
-0.5
 62
   256
  6
BYLAYER
  0
ACDBPLACEHOLDER
  5
F
102
{ACAD_REACTORS
330
E
102
}
330
E
  0
SCALE
  5
48
102
{ACAD_REACTORS
330
47
102
}
330
47
100
AcDbScale
 70
     0
300
1:1
140
1.0
141
1.0
290
     1
  0
SCALE
  5
49
102
{ACAD_REACTORS
330
47
102
}
330
47
100
AcDbScale
 70
     0
300
1:2
140
1.0
141
2.0
290
     0
  0
SCALE
  5
4A
102
{ACAD_REACTORS
330
47
102
}
330
47
100
AcDbScale
 70
     0
300
1:4
140
1.0
141
4.0
290
     0
  0
SCALE
  5
4B
102
{ACAD_REACTORS
330
47
102
}
330
47
100
AcDbScale
 70
     0
300
1:5
140
1.0
141
5.0
290
     0
  0
SCALE
  5
4C
102
{ACAD_REACTORS
330
47
102
}
330
47
100
AcDbScale
 70
     0
300
1:8
140
1.0
141
8.0
290
     0
  0
SCALE
  5
4D
102
{ACAD_REACTORS
330
47
102
}
330
47
100
AcDbScale
 70
     0
300
1:10
140
1.0
141
10.0
290
     0
  0
SCALE
  5
4E
102
{ACAD_REACTORS
330
47
102
}
330
47
100
AcDbScale
 70
     0
300
1:16
140
1.0
141
16.0
290
     0
  0
SCALE
  5
4F
102
{ACAD_REACTORS
330
47
102
}
330
47
100
AcDbScale
 70
     0
300
1:20
140
1.0
141
20.0
290
     0
  0
SCALE
  5
50
102
{ACAD_REACTORS
330
47
102
}
330
47
100
AcDbScale
 70
     0
300
1:30
140
1.0
141
30.0
290
     0
  0
SCALE
  5
51
102
{ACAD_REACTORS
330
47
102
}
330
47
100
AcDbScale
 70
     0
300
1:40
140
1.0
141
40.0
290
     0
  0
SCALE
  5
52
102
{ACAD_REACTORS
330
47
102
}
330
47
100
AcDbScale
 70
     0
300
1:50
140
1.0
141
50.0
290
     0
  0
SCALE
  5
53
102
{ACAD_REACTORS
330
47
102
}
330
47
100
AcDbScale
 70
     0
300
1:100
140
1.0
141
100.0
290
     0
  0
SCALE
  5
54
102
{ACAD_REACTORS
330
47
102
}
330
47
100
AcDbScale
 70
     0
300
2:1
140
2.0
141
1.0
290
     0
  0
SCALE
  5
55
102
{ACAD_REACTORS
330
47
102
}
330
47
100
AcDbScale
 70
     0
300
4:1
140
4.0
141
1.0
290
     0
  0
SCALE
  5
56
102
{ACAD_REACTORS
330
47
102
}
330
47
100
AcDbScale
 70
     0
300
8:1
140
8.0
141
1.0
290
     0
  0
SCALE
  5
57
102
{ACAD_REACTORS
330
47
102
}
330
47
100
AcDbScale
 70
     0
300
10:1
140
10.0
141
1.0
290
     0
  0
SCALE
  5
58
102
{ACAD_REACTORS
330
47
102
}
330
47
100
AcDbScale
 70
     0
300
100:1
140
100.0
141
1.0
290
     0
  0
SCALE
  5
59
102
{ACAD_REACTORS
330
47
102
}
330
47
100
AcDbScale
 70
     0
300
1/128" = 1'-0"
140
0.0078125
141
12.0
290
     0
  0
SCALE
  5
5A
102
{ACAD_REACTORS
330
47
102
}
330
47
100
AcDbScale
 70
     0
300
1/64" = 1'-0"
140
0.015625
141
12.0
290
     0
  0
SCALE
  5
5B
102
{ACAD_REACTORS
330
47
102
}
330
47
100
AcDbScale
 70
     0
300
1/32" = 1'-0"
140
0.03125
141
12.0
290
     0
  0
SCALE
  5
5C
102
{ACAD_REACTORS
330
47
102
}
330
47
100
AcDbScale
 70
     0
300
1/16" = 1'-0"
140
0.0625
141
12.0
290
     0
  0
SCALE
  5
5D
102
{ACAD_REACTORS
330
47
102
}
330
47
100
AcDbScale
 70
     0
300
3/32" = 1'-0"
140
0.09375
141
12.0
290
     0
  0
SCALE
  5
5E
102
{ACAD_REACTORS
330
47
102
}
330
47
100
AcDbScale
 70
     0
300
1/8" = 1'-0"
140
0.125
141
12.0
290
     0
  0
SCALE
  5
5F
102
{ACAD_REACTORS
330
47
102
}
330
47
100
AcDbScale
 70
     0
300
3/16" = 1'-0"
140
0.1875
141
12.0
290
     0
  0
SCALE
  5
60
102
{ACAD_REACTORS
330
47
102
}
330
47
100
AcDbScale
 70
     0
300
1/4" = 1'-0"
140
0.25
141
12.0
290
     0
  0
SCALE
  5
61
102
{ACAD_REACTORS
330
47
102
}
330
47
100
AcDbScale
 70
     0
300
3/8" = 1'-0"
140
0.375
141
12.0
290
     0
  0
SCALE
  5
62
102
{ACAD_REACTORS
330
47
102
}
330
47
100
AcDbScale
 70
     0
300
1/2" = 1'-0"
140
0.5
141
12.0
290
     0
  0
SCALE
  5
63
102
{ACAD_REACTORS
330
47
102
}
330
47
100
AcDbScale
 70
     0
300
3/4" = 1'-0"
140
0.75
141
12.0
290
     0
  0
SCALE
  5
64
102
{ACAD_REACTORS
330
47
102
}
330
47
100
AcDbScale
 70
     0
300
1" = 1'-0"
140
1.0
141
12.0
290
     0
  0
SCALE
  5
65
102
{ACAD_REACTORS
330
47
102
}
330
47
100
AcDbScale
 70
     0
300
1-1/2" = 1'-0"
140
1.5
141
12.0
290
     0
  0
SCALE
  5
66
102
{ACAD_REACTORS
330
47
102
}
330
47
100
AcDbScale
 70
     0
300
3" = 1'-0"
140
3.0
141
12.0
290
     0
  0
SCALE
  5
67
102
{ACAD_REACTORS
330
47
102
}
330
47
100
AcDbScale
 70
     0
300
6" = 1'-0"
140
6.0
141
12.0
290
     0
  0
SCALE
  5
68
102
{ACAD_REACTORS
330
47
102
}
330
47
100
AcDbScale
 70
     0
300
1'-0" = 1'-0"
140
12.0
141
12.0
290
     0
  0
ENDSEC
  0
EOF
