  0
SECTION
  2
HEADER
  9
$ACADVER
  1
AC1015
  9
$ACADMAINTVER
 70
     6
  9
$DWGCODEPAGE
  3
ANSI_949
  9
$INSBASE
 10
0.0
 20
0.0
 30
0.0
  9
$EXTMIN
 10
-84.37500000000009
 20
-49.99899573428361
 30
0.0
  9
$EXTMAX
 10
50.51348381534557
 20
28.34781165452813
 30
0.0
  9
$LIMMIN
 10
0.0
 20
0.0
  9
$LIMMAX
 10
420.0
 20
297.0
  9
$ORTHOMODE
 70
     1
  9
$REGENMODE
 70
     1
  9
$FILLMODE
 70
     1
  9
$QTEXTMODE
 70
     0
  9
$MIRRTEXT
 70
     1
  9
$LTSCALE
 40
1.0
  9
$ATTMODE
 70
     1
  9
$TEXTSIZE
 40
3.5
  9
$TRACEWID
 40
1.0
  9
$TEXTSTYLE
  7
Standard
  9
$CLAYER
  8
0
  9
$CELTYPE
  6
ByLayer
  9
$CECOLOR
 62
   256
  9
$CELTSCALE
 40
1.0
  9
$DISPSILH
 70
     0
  9
$DIMSCALE
 40
1.0
  9
$DIMASZ
 40
3.302
  9
$DIMEXO
 40
1.0
  9
$DIMDLI
 40
3.75
  9
$DIMRND
 40
0.0
  9
$DIMDLE
 40
0.0
  9
$DIMEXE
 40
1.0
  9
$DIMTP
 40
0.0
  9
$DIMTM
 40
0.0
  9
$DIMTXT
 40
3.5
  9
$DIMCEN
 40
2.5
  9
$DIMTSZ
 40
0.0
  9
$DIMTOL
 70
     0
  9
$DIMLIM
 70
     0
  9
$DIMTIH
 70
     1
  9
$DIMTOH
 70
     1
  9
$DIMSE1
 70
     0
  9
$DIMSE2
 70
     0
  9
$DIMTAD
 70
     1
  9
$DIMZIN
 70
     0
  9
$DIMBLK
  1

  9
$DIMASO
 70
     1
  9
$DIMSHO
 70
     1
  9
$DIMPOST
  1

  9
$DIMAPOST
  1

  9
$DIMALT
 70
     0
  9
$DIMALTD
 70
     3
  9
$DIMALTF
 40
0.0393700787401575
  9
$DIMLFAC
 40
1.0
  9
$DIMTOFL
 70
     1
  9
$DIMTVP
 40
0.0
  9
$DIMTIX
 70
     0
  9
$DIMSOXD
 70
     0
  9
$DIMSAH
 70
     0
  9
$DIMBLK1
  1

  9
$DIMBLK2
  1

  9
$DIMSTYLE
  2
ISO-25
  9
$DIMCLRD
 70
     0
  9
$DIMCLRE
 70
     0
  9
$DIMCLRT
 70
     0
  9
$DIMTFAC
 40
1.0
  9
$DIMGAP
 40
1.524
  9
$DIMJUST
 70
     0
  9
$DIMSD1
 70
     0
  9
$DIMSD2
 70
     0
  9
$DIMTOLJ
 70
     0
  9
$DIMTZIN
 70
     0
  9
$DIMALTZ
 70
     0
  9
$DIMALTTZ
 70
     0
  9
$DIMUPT
 70
     0
  9
$DIMDEC
 70
     2
  9
$DIMTDEC
 70
     2
  9
$DIMALTU
 70
     2
  9
$DIMALTTD
 70
     3
  9
$DIMTXSTY
  7
Standard
  9
$DIMAUNIT
 70
     0
  9
$DIMADEC
 70
     2
  9
$DIMALTRND
 40
0.0
  9
$DIMAZIN
 70
     0
  9
$DIMDSEP
 70
    44
  9
$DIMATFIT
 70
     3
  9
$DIMFRAC
 70
     0
  9
$DIMLDRBLK
  1

  9
$DIMLUNIT
 70
     2
  9
$DIMLWD
 70
    -2
  9
$DIMLWE
 70
    -2
  9
$DIMTMOVE
 70
     0
  9
$LUNITS
 70
     2
  9
$LUPREC
 70
     2
  9
$SKETCHINC
 40
1.0
  9
$FILLETRAD
 40
10.0
  9
$AUNITS
 70
     0
  9
$AUPREC
 70
     2
  9
$MENU
  1
.
  9
$ELEVATION
 40
0.0
  9
$PELEVATION
 40
0.0
  9
$THICKNESS
 40
0.0
  9
$LIMCHECK
 70
     0
  9
$CHAMFERA
 40
0.0
  9
$CHAMFERB
 40
0.0
  9
$CHAMFERC
 40
0.0
  9
$CHAMFERD
 40
0.0
  9
$SKPOLY
 70
     0
  9
$TDCREATE
 40
2458269.813613403
  9
$TDUCREATE
 40
2458269.438613403
  9
$TDUPDATE
 40
2458270.823726898
  9
$TDUUPDATE
 40
2458270.448726898
  9
$TDINDWG
 40
0.0019913889
  9
$TDUSRTIMER
 40
0.0019913773
  9
$USRTIMER
 70
     1
  9
$ANGBASE
 50
0.0
  9
$ANGDIR
 70
     0
  9
$PDMODE
 70
     0
  9
$PDSIZE
 40
-1.0
  9
$PLINEWID
 40
0.0
  9
$SPLFRAME
 70
     0
  9
$SPLINETYPE
 70
     6
  9
$SPLINESEGS
 70
     8
  9
$HANDSEED
  5
1C8
  9
$SURFTAB1
 70
     6
  9
$SURFTAB2
 70
     6
  9
$SURFTYPE
 70
     6
  9
$SURFU
 70
     6
  9
$SURFV
 70
     6
  9
$UCSBASE
  2

  9
$UCSNAME
  2

  9
$UCSORG
 10
0.0
 20
0.0
 30
0.0
  9
$UCSXDIR
 10
1.0
 20
0.0
 30
0.0
  9
$UCSYDIR
 10
0.0
 20
1.0
 30
0.0
  9
$UCSORTHOREF
  2

  9
$UCSORTHOVIEW
 70
     0
  9
$UCSORGTOP
 10
0.0
 20
0.0
 30
0.0
  9
$UCSORGBOTTOM
 10
0.0
 20
0.0
 30
0.0
  9
$UCSORGLEFT
 10
0.0
 20
0.0
 30
0.0
  9
$UCSORGRIGHT
 10
0.0
 20
0.0
 30
0.0
  9
$UCSORGFRONT
 10
0.0
 20
0.0
 30
0.0
  9
$UCSORGBACK
 10
0.0
 20
0.0
 30
0.0
  9
$PUCSBASE
  2

  9
$PUCSNAME
  2

  9
$PUCSORG
 10
0.0
 20
0.0
 30
0.0
  9
$PUCSXDIR
 10
1.0
 20
0.0
 30
0.0
  9
$PUCSYDIR
 10
0.0
 20
1.0
 30
0.0
  9
$PUCSORTHOREF
  2

  9
$PUCSORTHOVIEW
 70
     0
  9
$PUCSORGTOP
 10
0.0
 20
0.0
 30
0.0
  9
$PUCSORGBOTTOM
 10
0.0
 20
0.0
 30
0.0
  9
$PUCSORGLEFT
 10
0.0
 20
0.0
 30
0.0
  9
$PUCSORGRIGHT
 10
0.0
 20
0.0
 30
0.0
  9
$PUCSORGFRONT
 10
0.0
 20
0.0
 30
0.0
  9
$PUCSORGBACK
 10
0.0
 20
0.0
 30
0.0
  9
$USERI1
 70
     0
  9
$USERI2
 70
     0
  9
$USERI3
 70
     0
  9
$USERI4
 70
     0
  9
$USERI5
 70
     0
  9
$USERR1
 40
0.0
  9
$USERR2
 40
0.0
  9
$USERR3
 40
0.0
  9
$USERR4
 40
0.0
  9
$USERR5
 40
0.0
  9
$WORLDVIEW
 70
     1
  9
$SHADEDGE
 70
     3
  9
$SHADEDIF
 70
    70
  9
$TILEMODE
 70
     1
  9
$MAXACTVP
 70
    64
  9
$PINSBASE
 10
0.0
 20
0.0
 30
0.0
  9
$PLIMCHECK
 70
     0
  9
$PEXTMIN
 10
1.000000000000000E+20
 20
1.000000000000000E+20
 30
1.000000000000000E+20
  9
$PEXTMAX
 10
-1.000000000000000E+20
 20
-1.000000000000000E+20
 30
-1.000000000000000E+20
  9
$PLIMMIN
 10
0.0
 20
0.0
  9
$PLIMMAX
 10
0.0
 20
0.0
  9
$UNITMODE
 70
     0
  9
$VISRETAIN
 70
     1
  9
$PLINEGEN
 70
     0
  9
$PSLTSCALE
 70
     1
  9
$TREEDEPTH
 70
  3020
  9
$CMLSTYLE
  2
Standard
  9
$CMLJUST
 70
     0
  9
$CMLSCALE
 40
20.0
  9
$PROXYGRAPHICS
 70
     1
  9
$MEASUREMENT
 70
     1
  9
$CELWEIGHT
370
    -1
  9
$ENDCAPS
280
     0
  9
$JOINSTYLE
280
     0
  9
$LWDISPLAY
290
     1
  9
$INSUNITS
 70
     4
  9
$HYPERLINKBASE
  1

  9
$STYLESHEET
  1

  9
$XEDIT
290
     1
  9
$CEPSNTYPE
380
     0
  9
$PSTYLEMODE
290
     1
  9
$FINGERPRINTGUID
  2
{879AB8F3-BEB3-4986-A6AC-D6CD4D34D018}
  9
$VERSIONGUID
  2
{FAEB1C32-E019-11D5-929B-00C0DF256EC4}
  9
$EXTNAMES
290
     1
  9
$PSVPSCALE
 40
0.0
  9
$OLESTARTUP
290
     0
  0
ENDSEC
  0
SECTION
  2
CLASSES
  0
CLASS
  1
ACDBDICTIONARYWDFLT
  2
AcDbDictionaryWithDefault
  3
ObjectDBX Classes
 90
        0
280
     0
281
     0
  0
CLASS
  1
VISUALSTYLE
  2
AcDbVisualStyle
  3
ObjectDBX Classes
 90
     4095
280
     0
281
     0
  0
CLASS
  1
MATERIAL
  2
AcDbMaterial
  3
ObjectDBX Classes
 90
     1153
280
     0
281
     0
  0
CLASS
  1
SCALE
  2
AcDbScale
  3
ObjectDBX Classes
 90
     1153
280
     0
281
     0
  0
CLASS
  1
SUN
  2
AcDbSun
  3
SCENEOE
 90
     1153
280
     0
281
     0
  0
CLASS
  1
ACDBPLACEHOLDER
  2
AcDbPlaceHolder
  3
ObjectDBX Classes
 90
        0
280
     0
281
     0
  0
CLASS
  1
LAYOUT
  2
AcDbLayout
  3
ObjectDBX Classes
 90
        0
280
     0
281
     0
  0
CLASS
  1
TABLESTYLE
  2
AcDbTableStyle
  3
ObjectDBX Classes
 90
     4095
280
     0
281
     0
  0
CLASS
  1
MLEADERSTYLE
  2
AcDbMLeaderStyle
  3
ACDB_MLEADERSTYLE_CLASS
 90
     4095
280
     0
281
     0
  0
CLASS
  1
DICTIONARYVAR
  2
AcDbDictionaryVar
  3
ObjectDBX Classes
 90
        0
280
     0
281
     0
  0
CLASS
  1
DIMASSOC
  2
AcDbDimAssoc
  3
"AcDbDimAssoc|Product Desc:     AcDim ARX App For Dimension|Company:          Autodesk, Inc.|WEB Address:      www.autodesk.com"
 90
        0
280
     0
281
     0
  0
ENDSEC
  0
SECTION
  2
TABLES
  0
TABLE
  2
VPORT
  5
8
330
0
100
AcDbSymbolTable
 70
     1
  0
VPORT
  5
29
330
8
100
AcDbSymbolTableRecord
100
AcDbViewportTableRecord
  2
*Active
 70
     0
 10
0.0
 20
0.0
 11
1.0
 21
1.0
 12
-16.93075809232725
 22
-10.82559203987774
 13
0.0
 23
0.0
 14
10.0
 24
10.0
 15
10.0
 25
10.0
 16
0.0
 26
0.0
 36
1.0
 17
0.0
 27
0.0
 37
0.0
 40
79.91374353658797
 41
2.05607476635514
 42
50.0
 43
0.0
 44
0.0
 50
0.0
 51
0.0
 71
    16
 72
  2000
 73
     1
 74
     3
 75
     0
 76
     0
 77
     0
 78
     0
281
     0
 65
     1
110
0.0
120
0.0
130
0.0
111
1.0
121
0.0
131
0.0
112
0.0
122
1.0
132
0.0
 79
     0
146
0.0
  0
ENDTAB
  0
TABLE
  2
LTYPE
  5
5
330
0
100
AcDbSymbolTable
 70
     6
  0
LTYPE
  5
14
330
5
100
AcDbSymbolTableRecord
100
AcDbLinetypeTableRecord
  2
ByBlock
 70
     0
  3

 72
    65
 73
     0
 40
0.0
  0
LTYPE
  5
15
330
5
100
AcDbSymbolTableRecord
100
AcDbLinetypeTableRecord
  2
ByLayer
 70
     0
  3

 72
    65
 73
     0
 40
0.0
  0
LTYPE
  5
16
330
5
100
AcDbSymbolTableRecord
100
AcDbLinetypeTableRecord
  2
Continuous
 70
     0
  3
Solid line
 72
    65
 73
     0
 40
0.0
  0
LTYPE
  5
6A
330
5
100
AcDbSymbolTableRecord
100
AcDbLinetypeTableRecord
  2
HIDDEN
 70
     0
  3
Hidden __ __ __ __ __ __ __ __ __ __ __ __ __ __
 72
    65
 73
     2
 40
1.905
 49
1.27
 74
     0
 49
-0.635
 74
     0
  0
LTYPE
  5
6B
330
5
100
AcDbSymbolTableRecord
100
AcDbLinetypeTableRecord
  2
PHANTOM
 70
     0
  3
Phantom ______  __  __  ______  __  __  ______
 72
    65
 73
     6
 40
12.7
 49
6.35
 74
     0
 49
-1.27
 74
     0
 49
1.27
 74
     0
 49
-1.27
 74
     0
 49
1.27
 74
     0
 49
-1.27
 74
     0
  0
LTYPE
  5
6C
330
5
100
AcDbSymbolTableRecord
100
AcDbLinetypeTableRecord
  2
CENTER
 70
     0
  3
Center ____ _ ____ _ ____ _ ____ _ ____ _ ____
 72
    65
 73
     4
 40
10.16
 49
6.35
 74
     0
 49
-1.27
 74
     0
 49
1.27
 74
     0
 49
-1.27
 74
     0
  0
LTYPE
  5
6D
330
5
100
AcDbSymbolTableRecord
100
AcDbLinetypeTableRecord
  2
CENTERX2
 70
     0
  3
Center (2x) ________  __  ________  __  _____
 72
    65
 73
     4
 40
20.32
 49
12.7
 74
     0
 49
-2.54
 74
     0
 49
2.54
 74
     0
 49
-2.54
 74
     0
  0
LTYPE
  5
6E
330
5
100
AcDbSymbolTableRecord
100
AcDbLinetypeTableRecord
  2
DOT2
 70
     0
  3
Dot (.5x) ........................................
 72
    65
 73
     2
 40
0.635
 49
0.0
 74
     0
 49
-0.635
 74
     0
  0
ENDTAB
  0
TABLE
  2
LAYER
  5
2
102
{ACAD_XDICTIONARY
360
16E
102
}
330
0
100
AcDbSymbolTable
 70
    18
  0
LAYER
  5
10
330
2
100
AcDbSymbolTableRecord
100
AcDbLayerTableRecord
  2
0
 70
     0
 62
     7
  6
Continuous
370
    -3
390
F
  0
LAYER
  5
6F
330
2
100
AcDbSymbolTableRecord
100
AcDbLayerTableRecord
  2
FORMAT
 70
     0
 62
     2
  6
Continuous
370
    -3
390
F
  0
LAYER
  5
70
330
2
100
AcDbSymbolTableRecord
100
AcDbLayerTableRecord
  2
외형선
 70
     0
 62
     4
  6
Continuous
370
    30
390
F
  0
LAYER
  5
71
330
2
100
AcDbSymbolTableRecord
100
AcDbLayerTableRecord
  2
숨은선
 70
     0
 62
     2
  6
HIDDEN
370
    15
390
F
  0
LAYER
  5
72
330
2
100
AcDbSymbolTableRecord
100
AcDbLayerTableRecord
  2
중심선
 70
     0
 62
     1
  6
CENTERX2
370
    -3
390
F
  0
LAYER
  5
73
330
2
100
AcDbSymbolTableRecord
100
AcDbLayerTableRecord
  2
파단선
 70
     0
 62
     4
  6
Continuous
370
    -3
390
F
  0
LAYER
  5
74
330
2
100
AcDbSymbolTableRecord
100
AcDbLayerTableRecord
  2
해칭선
 70
     0
 62
   100
  6
Continuous
370
    -3
390
F
  0
LAYER
  5
75
330
2
100
AcDbSymbolTableRecord
100
AcDbLayerTableRecord
  2
가는실선
 70
     0
 62
     4
  6
Continuous
370
    -3
390
F
  0
LAYER
  5
76
330
2
100
AcDbSymbolTableRecord
100
AcDbLayerTableRecord
  2
치수_보조선
 70
     0
 62
     4
  6
Continuous
370
    -3
390
F
  0
LAYER
  5
77
330
2
100
AcDbSymbolTableRecord
100
AcDbLayerTableRecord
  2
치수문자_일반주서
 70
     0
 62
     7
  6
Continuous
370
    15
390
F
  0
LAYER
  5
78
330
2
100
AcDbSymbolTableRecord
100
AcDbLayerTableRecord
  2
개별주서
 70
     0
 62
   100
  6
Continuous
370
    30
390
F
  0
LAYER
  5
79
330
2
100
AcDbSymbolTableRecord
100
AcDbLayerTableRecord
  2
중간선
 70
     0
 62
     2
  6
Continuous
370
    15
390
F
  0
LAYER
  5
7A
330
2
100
AcDbSymbolTableRecord
100
AcDbLayerTableRecord
  2
윤곽선
 70
     0
 62
     3
  6
Continuous
370
    40
390
F
  0
LAYER
  5
7B
330
2
100
AcDbSymbolTableRecord
100
AcDbLayerTableRecord
  2
중심마크
 70
     0
 62
   100
  6
Continuous
370
    30
390
F
  0
LAYER
  5
7C
330
2
100
AcDbSymbolTableRecord
100
AcDbLayerTableRecord
  2
가상선
 70
     0
 62
     4
  6
PHANTOM
370
    -3
390
F
  0
LAYER
  5
7D
330
2
100
AcDbSymbolTableRecord
100
AcDbLayerTableRecord
  2
특수지정선
 70
     0
 62
     5
  6
CENTERX2
370
    60
390
F
  0
LAYER
  5
7E
330
2
100
AcDbSymbolTableRecord
100
AcDbLayerTableRecord
  2
참조1
 70
     0
 62
    -4
  6
Continuous
370
    -3
390
F
  0
LAYER
  5
12A
330
2
100
AcDbSymbolTableRecord
100
AcDbLayerTableRecord
  2
Defpoints
 70
     0
 62
     7
  6
Continuous
290
     0
370
    -3
390
F
  0
ENDTAB
  0
TABLE
  2
STYLE
  5
3
330
0
100
AcDbSymbolTable
 70
     2
  0
STYLE
  5
11
330
3
100
AcDbSymbolTableRecord
100
AcDbTextStyleTableRecord
  2
Standard
 70
     0
 40
0.0
 41
1.0
 50
0.0
 71
     0
 42
3.5
  3
txt
  4

  0
STYLE
  5
94
330
3
100
AcDbSymbolTableRecord
100
AcDbTextStyleTableRecord
  2
SLDTEXTSTYLE0
 70
     0
 40
0.0
 41
0.75
 50
0.0
 71
     0
 42
3.5
  3
TXT
  4

  0
ENDTAB
  0
TABLE
  2
VIEW
  5
6
330
0
100
AcDbSymbolTable
 70
     0
  0
ENDTAB
  0
TABLE
  2
UCS
  5
7
330
0
100
AcDbSymbolTable
 70
     0
  0
ENDTAB
  0
TABLE
  2
APPID
  5
9
330
0
100
AcDbSymbolTable
 70
     3
  0
APPID
  5
12
330
9
100
AcDbSymbolTableRecord
100
AcDbRegAppTableRecord
  2
ACAD
 70
     0
  0
APPID
  5
132
330
9
100
AcDbSymbolTableRecord
100
AcDbRegAppTableRecord
  2
PE_URL
 70
     0
  0
APPID
  5
133
330
9
100
AcDbSymbolTableRecord
100
AcDbRegAppTableRecord
  2
ACAD_DSTYLE_DIMRADIAL_EXTENSION
 70
     0
  0
ENDTAB
  0
TABLE
  2
DIMSTYLE
  5
A
330
0
100
AcDbSymbolTable
 70
     3
100
AcDbDimStyleTable
  0
DIMSTYLE
105
27
330
A
100
AcDbSymbolTableRecord
100
AcDbDimStyleTableRecord
  2
ISO-25
 70
     0
 41
2.5
 42
0.625
 43
3.75
 44
1.25
 73
     0
 74
     0
 77
     1
 78
     8
140
2.5
141
2.5
143
0.03937007874016
147
0.625
171
     3
172
     1
178
     0
271
     2
272
     2
274
     3
278
    44
283
     0
284
     8
340
11
  0
DIMSTYLE
105
CA
102
{ACAD_REACTORS
330
C9
330
D7
330
E4
330
152
330
EE
102
}
330
A
100
AcDbSymbolTableRecord
100
AcDbDimStyleTableRecord
  2
SLDDIMSTYLE0
 70
     0
 41
3.302
 44
0.0
 45
0.000000001
 73
     0
 74
     0
 77
     1
 78
    12
 79
     3
140
3.5
147
0.875
172
     1
173
     1
178
     0
271
     2
272
     2
276
     2
284
    12
289
     0
340
94
  0
DIMSTYLE
105
EF
102
{ACAD_REACTORS
330
162
330
1B9
102
}
330
A
100
AcDbSymbolTableRecord
100
AcDbDimStyleTableRecord
  2
SLDDIMSTYLE1
 70
     0
 41
3.302
 44
0.0
 45
0.000000001
 73
     0
 74
     0
 77
     1
 78
    12
 79
     3
140
3.5
147
0.875
173
     1
178
     0
271
     2
272
     2
276
     2
284
    12
340
94
  0
ENDTAB
  0
TABLE
  2
BLOCK_RECORD
  5
1
330
0
100
AcDbSymbolTable
 70
    13
  0
BLOCK_RECORD
  5
1F
330
1
100
AcDbSymbolTableRecord
100
AcDbBlockTableRecord
  2
*Model_Space
340
22
  0
BLOCK_RECORD
  5
1B
330
1
100
AcDbSymbolTableRecord
100
AcDbBlockTableRecord
  2
*Paper_Space
340
1E
  0
BLOCK_RECORD
  5
23
330
1
100
AcDbSymbolTableRecord
100
AcDbBlockTableRecord
  2
*Paper_Space0
340
26
  0
BLOCK_RECORD
  5
7F
330
1
100
AcDbSymbolTableRecord
100
AcDbBlockTableRecord
  2
블럭10
340
0
102
{BLKREFS
331
C2
102
}
  0
BLOCK_RECORD
  5
CB
330
1
100
AcDbSymbolTableRecord
100
AcDbBlockTableRecord
  2
_D
340
0
  0
BLOCK_RECORD
  5
D8
330
1
100
AcDbSymbolTableRecord
100
AcDbBlockTableRecord
  2
_D_1
340
0
  0
BLOCK_RECORD
  5
E5
330
1
100
AcDbSymbolTableRecord
100
AcDbBlockTableRecord
  2
_D_2
340
0
  0
BLOCK_RECORD
  5
F0
330
1
100
AcDbSymbolTableRecord
100
AcDbBlockTableRecord
  2
_D_3
340
0
  0
BLOCK_RECORD
  5
100
330
1
100
AcDbSymbolTableRecord
100
AcDbBlockTableRecord
  2
SW_DOWELSYMBOL_0
340
0
102
{BLKREFS
331
106
102
}
  0
BLOCK_RECORD
  5
163
330
1
100
AcDbSymbolTableRecord
100
AcDbBlockTableRecord
  2
*D8
340
0
  0
BLOCK_RECORD
  5
172
330
1
100
AcDbSymbolTableRecord
100
AcDbBlockTableRecord
  2
*D9
340
0
  0
BLOCK_RECORD
  5
185
330
1
100
AcDbSymbolTableRecord
100
AcDbBlockTableRecord
  2
*D10
340
0
  0
BLOCK_RECORD
  5
194
330
1
100
AcDbSymbolTableRecord
100
AcDbBlockTableRecord
  2
*D11
340
0
  0
BLOCK_RECORD
  5
1BC
330
1
100
AcDbSymbolTableRecord
100
AcDbBlockTableRecord
  2
*D12
340
0
  0
ENDTAB
  0
ENDSEC
  0
SECTION
  2
BLOCKS
  0
BLOCK
  5
20
330
1F
100
AcDbEntity
  8
0
100
AcDbBlockBegin
  2
*Model_Space
 70
     0
 10
0.0
 20
0.0
 30
0.0
  3
*Model_Space
  1

  0
ENDBLK
  5
21
330
1F
100
AcDbEntity
  8
0
100
AcDbBlockEnd
  0
BLOCK
  5
1C
330
1B
100
AcDbEntity
 67
     1
  8
0
100
AcDbBlockBegin
  2
*Paper_Space
 70
     0
 10
0.0
 20
0.0
 30
0.0
  3
*Paper_Space
  1

  0
ENDBLK
  5
1D
330
1B
100
AcDbEntity
 67
     1
  8
0
100
AcDbBlockEnd
  0
BLOCK
  5
24
330
23
100
AcDbEntity
  8
0
100
AcDbBlockBegin
  2
*Paper_Space0
 70
     0
 10
0.0
 20
0.0
 30
0.0
  3
*Paper_Space0
  1

  0
ENDBLK
  5
25
330
23
100
AcDbEntity
  8
0
100
AcDbBlockEnd
  0
BLOCK
  5
80
330
7F
100
AcDbEntity
  8
0
100
AcDbBlockBegin
  2
블럭10
 70
     2
 10
0.0
 20
0.0
 30
0.0
  3
블럭10
  1

  0
ELLIPSE
  5
82
330
7F
100
AcDbEntity
  8
중심선
100
AcDbEllipse
 10
20.54032771741204
 20
12.0471743016438
 30
0.0
 11
6.600054785286829
 21
-1.261213355974178E-13
 31
0.0
210
0.0
220
0.0
230
1.0
 40
0.636358354079598
 41
0.9219305317359503
 42
6.513795318482858
  0
ELLIPSE
  5
83
330
7F
100
AcDbEntity
  8
중심선
100
AcDbEllipse
 10
20.54032771746488
 20
12.04717430159265
 30
0.0
 11
3.960054785062283
 21
1.540847449632565E-10
 31
0.0
210
0.0
220
0.0
230
1.0
 40
0.3939339440162632
 41
1.131841032648279
 42
5.62031148352944
  0
LINE
  5
84
330
7F
100
AcDbEntity
  8
중심선
100
AcDbLine
 10
2.268634060543552
 20
16.24717430164393
 30
0.0
 11
5.714909304380834
 21
16.24717430164393
 31
0.0
  0
LINE
  5
85
330
7F
100
AcDbEntity
  8
중심선
100
AcDbLine
 10
5.245725140726316
 20
7.84717430164391
 30
0.0
 11
8.692000384563599
 21
7.84717430164391
 31
0.0
  0
LINE
  5
86
330
7F
100
AcDbEntity
  8
중심선
100
AcDbLine
 10
15.74043728645272
 20
16.24717430164393
 30
0.0
 11
8.692000384563599
 21
7.84717430164391
 31
0.0
  0
LINE
  5
87
330
7F
100
AcDbEntity
  8
중심선
100
AcDbLine
 10
0.1404042013395286
 20
13.71084872107135
 30
0.0
 11
3.58671253028996
 21
13.71088815037384
 31
0.0
  0
LINE
  5
88
330
7F
100
AcDbEntity
  8
중심선
100
AcDbLine
 10
2.750260043222114
 20
10.84717430164391
 30
0.0
 11
6.196535287059397
 21
10.84717430164391
 31
0.0
  0
LINE
  5
89
330
7F
100
AcDbEntity
  8
중심선
100
AcDbLine
 10
12.29416204261559
 20
16.24717430164393
 30
0.0
 11
5.245725140726316
 21
7.84717430164391
 31
0.0
  0
LINE
  5
8A
330
7F
100
AcDbEntity
  8
중심선
100
AcDbLine
 10
10.72767329541681
 20
16.24717430164393
 30
0.0
 11
6.196535287059397
 21
10.84717430164391
 31
0.0
  0
LINE
  5
8B
330
7F
100
AcDbEntity
  8
중심선
100
AcDbLine
 10
7.28139805157953
 20
16.24717430164393
 30
0.0
 11
2.750260043222114
 21
10.84717430164391
 31
0.0
  0
LINE
  5
8C
330
7F
100
AcDbEntity
  8
중심선
100
AcDbLine
 10
5.714909304380834
 20
16.24717430164393
 30
0.0
 11
3.58671253028996
 21
13.71088815037384
 31
0.0
  0
LINE
  5
8D
330
7F
100
AcDbEntity
  8
중심선
100
AcDbLine
 10
2.268634060543552
 20
16.24717430164393
 30
0.0
 11
0.1404042013395286
 21
13.71084872107135
 31
0.0
  0
LINE
  5
8E
330
7F
100
AcDbEntity
  8
중심선
100
AcDbLine
 10
7.28139805157953
 20
16.24717430164393
 30
0.0
 11
10.72767329541681
 21
16.24717430164393
 31
0.0
  0
LINE
  5
8F
330
7F
100
AcDbEntity
  8
중심선
100
AcDbLine
 10
12.29416204261559
 20
16.24717430164393
 30
0.0
 11
15.74043728645272
 21
16.24717430164393
 31
0.0
  0
LINE
  5
90
330
7F
100
AcDbEntity
  8
중심선
100
AcDbLine
 10
19.22036997980202
 20
11.08717430171403
 30
0.0
 11
23.66174974927406
 21
11.08717430171406
 31
0.0
  0
LINE
  5
91
330
7F
100
AcDbEntity
  8
중심선
100
AcDbLine
 10
19.22039502424796
 20
13.00717430171391
 30
0.0
 11
19.22036997980202
 21
11.08717430171403
 31
0.0
  0
LINE
  5
92
330
7F
100
AcDbEntity
  8
중심선
100
AcDbLine
 10
19.22039502424796
 20
13.00717430171391
 30
0.0
 11
26.96566020931264
 21
13.00717430171391
 31
0.0
  0
LINE
  5
93
330
7F
100
AcDbEntity
  8
중심선
100
AcDbLine
 10
22.22332737316547
 20
13.45928029700563
 30
0.0
 11
24.52862924686651
 21
15.39360700705356
 31
0.0
  0
ATTDEF
  5
95
330
7F
100
AcDbEntity
  8
FORMAT
 62
     2
100
AcDbText
 10
-16.11926103943555
 20
2.075366912832191
 30
0.0
 40
4.233333333333333
  1
SEME0108002E [ 4 FLUTE ]
 41
0.75
  7
SLDTEXTSTYLE0
 11
-16.11926103943555
 21
-0.0412997538344756
 31
0.0
100
AcDbAttributeDefinition
  3

  2
AUTOATTR0
 70
     0
 74
     1
  0
ENDBLK
  5
81
330
7F
100
AcDbEntity
  8
0
100
AcDbBlockEnd
  0
BLOCK
  5
CC
330
CB
100
AcDbEntity
  8
0
100
AcDbBlockBegin
  2
_D
 70
     0
 10
0.0
 20
0.0
 30
0.0
  3
_D
  1

  0
LINE
  5
CE
330
CB
100
AcDbEntity
  8
치수문자_일반주서
 62
     0
370
    -2
100
AcDbLine
 10
30.06249999999999
 20
3.972811654528124
 30
0.0
 11
39.99999999999997
 21
3.972811654528162
 31
0.0
  0
LINE
  5
CF
330
CB
100
AcDbEntity
  8
치수문자_일반주서
 62
     0
370
    -2
100
AcDbLine
 10
30.06249999999999
 20
-4.027188345471877
 30
0.0
 11
40.0
 21
-4.02718834547184
 31
0.0
  0
LINE
  5
D0
330
CB
100
AcDbEntity
  8
치수문자_일반주서
 62
     0
370
    -2
100
AcDbLine
 10
39.99999999999997
 20
3.972811654528162
 30
0.0
 11
39.99999999999992
 21
16.70181165452819
 31
0.0
  0
LINE
  5
D1
330
CB
100
AcDbEntity
  8
치수문자_일반주서
 62
     0
370
    -2
100
AcDbLine
 10
39.99999999999997
 20
3.972811654528162
 30
0.0
 11
40.0
 21
-4.02718834547184
 31
0.0
  0
LINE
  5
D2
330
CB
100
AcDbEntity
  8
치수문자_일반주서
 62
     0
370
    -2
100
AcDbLine
 10
39.99999999999996
 20
7.274811654528161
 30
0.0
 11
39.99999999999994
 21
10.57681165452816
 31
0.0
  0
LINE
  5
D3
330
CB
100
AcDbEntity
  8
치수문자_일반주서
 62
     0
370
    -2
100
AcDbLine
 10
40.00000000000001
 20
-7.32918834547184
 30
0.0
 11
40.00000000000003
 21
-10.63118834547184
 31
0.0
  0
SOLID
  5
D4
330
CB
100
AcDbEntity
  8
치수문자_일반주서
 62
     0
100
AcDbTrace
 10
39.44966666666662
 20
7.274811654528159
 30
0.0
 11
40.55033333333329
 21
7.274811654528163
 31
0.0
 12
39.99999999999997
 22
3.972811654528162
 32
0.0
 13
39.99999999999997
 23
3.972811654528162
 33
0.0
  0
SOLID
  5
D5
330
CB
100
AcDbEntity
  8
치수문자_일반주서
 62
     0
100
AcDbTrace
 10
40.55033333333335
 20
-7.329188345471838
 30
0.0
 11
39.44966666666668
 21
-7.329188345471842
 31
0.0
 12
40.0
 22
-4.02718834547184
 32
0.0
 13
40.0
 23
-4.02718834547184
 33
0.0
  0
MTEXT
  5
D6
330
CB
100
AcDbEntity
  8
치수문자_일반주서
 62
     0
100
AcDbMText
 10
35.62499999999994
 20
13.63931165452818
 30
0.0
 40
3.5
 41
0.0
 71
     2
 72
     1
  1
\A1;%%c8
  7
SLDTEXTSTYLE0
 11
-3.552713678800501E-15
 21
1.0
 31
0.0
 73
     1
 44
1.0
  0
POINT
  5
1B2
330
CB
100
AcDbEntity
  8
Defpoints
 62
     0
100
AcDbPoint
 10
29.99999999999999
 20
3.972811654528123
 30
0.0
  0
POINT
  5
1B3
330
CB
100
AcDbEntity
  8
Defpoints
 62
     0
100
AcDbPoint
 10
29.99999999999999
 20
-4.027188345471877
 30
0.0
  0
POINT
  5
1B4
330
CB
100
AcDbEntity
  8
Defpoints
 62
     0
100
AcDbPoint
 10
39.99999999999999
 20
-4.027188345471839
 30
0.0
  0
ENDBLK
  5
CD
330
CB
100
AcDbEntity
  8
0
100
AcDbBlockEnd
  0
BLOCK
  5
D9
330
D8
100
AcDbEntity
  8
0
100
AcDbBlockBegin
  2
_D_1
 70
     0
 10
0.0
 20
0.0
 30
0.0
  3
_D_1
  1

  0
LINE
  5
DB
330
D8
100
AcDbEntity
  8
치수문자_일반주서
 62
     0
370
    -2
100
AcDbLine
 10
-69.26250000000002
 20
3.97281165452813
 30
0.0
 11
-80.00000000000004
 21
3.972811654528089
 31
0.0
  0
LINE
  5
DC
330
D8
100
AcDbEntity
  8
치수문자_일반주서
 62
     0
370
    -2
100
AcDbLine
 10
-69.26250000000002
 20
-4.027188345471877
 30
0.0
 11
-80.00000000000001
 21
-4.027188345471918
 31
0.0
  0
LINE
  5
DD
330
D8
100
AcDbEntity
  8
치수문자_일반주서
 62
     0
370
    -2
100
AcDbLine
 10
-80.00000000000004
 20
3.972811654528089
 30
0.0
 11
-80.00000000000009
 21
16.70181165452809
 31
0.0
  0
LINE
  5
DE
330
D8
100
AcDbEntity
  8
치수문자_일반주서
 62
     0
370
    -2
100
AcDbLine
 10
-80.00000000000004
 20
3.972811654528089
 30
0.0
 11
-80.00000000000001
 21
-4.027188345471918
 31
0.0
  0
LINE
  5
DF
330
D8
100
AcDbEntity
  8
치수문자_일반주서
 62
     0
370
    -2
100
AcDbLine
 10
-80.00000000000006
 20
7.274811654528088
 30
0.0
 11
-80.00000000000007
 21
10.57681165452809
 31
0.0
  0
LINE
  5
E0
330
D8
100
AcDbEntity
  8
치수문자_일반주서
 62
     0
370
    -2
100
AcDbLine
 10
-80.0
 20
-7.329188345471918
 30
0.0
 11
-79.99999999999999
 21
-10.63118834547192
 31
0.0
  0
SOLID
  5
E1
330
D8
100
AcDbEntity
  8
치수문자_일반주서
 62
     0
100
AcDbTrace
 10
-80.55033333333338
 20
7.274811654528087
 30
0.0
 11
-79.44966666666673
 21
7.27481165452809
 31
0.0
 12
-80.00000000000004
 22
3.972811654528089
 32
0.0
 13
-80.00000000000004
 23
3.972811654528089
 33
0.0
  0
SOLID
  5
E2
330
D8
100
AcDbEntity
  8
치수문자_일반주서
 62
     0
100
AcDbTrace
 10
-79.44966666666667
 20
-7.329188345471916
 30
0.0
 11
-80.55033333333333
 21
-7.32918834547192
 31
0.0
 12
-80.00000000000001
 22
-4.027188345471918
 32
0.0
 13
-80.00000000000001
 23
-4.027188345471918
 33
0.0
  0
MTEXT
  5
E3
330
D8
100
AcDbEntity
  8
치수문자_일반주서
 62
     0
100
AcDbMText
 10
-84.37500000000007
 20
13.63931165452808
 30
0.0
 40
3.5
 41
0.0
 71
     2
 72
     1
  1
\A1;%%c8
  7
SLDTEXTSTYLE0
 11
-3.552713678800499E-15
 21
1.0
 31
0.0
 73
     1
 44
1.0
  0
POINT
  5
1AF
330
D8
100
AcDbEntity
  8
Defpoints
 62
     0
100
AcDbPoint
 10
-69.20000000000002
 20
3.97281165452813
 30
0.0
  0
POINT
  5
1B0
330
D8
100
AcDbEntity
  8
Defpoints
 62
     0
100
AcDbPoint
 10
-69.20000000000002
 20
-4.027188345471877
 30
0.0
  0
POINT
  5
1B1
330
D8
100
AcDbEntity
  8
Defpoints
 62
     0
100
AcDbPoint
 10
-80.0
 20
-4.027188345471917
 30
0.0
  0
ENDBLK
  5
DA
330
D8
100
AcDbEntity
  8
0
100
AcDbBlockEnd
  0
BLOCK
  5
E6
330
E5
100
AcDbEntity
  8
0
100
AcDbBlockBegin
  2
_D_2
 70
     0
 10
0.0
 20
0.0
 30
0.0
  3
_D_2
  1

  0
LINE
  5
E8
330
E5
100
AcDbEntity
  8
치수문자_일반주서
 62
     0
370
    -2
100
AcDbLine
 10
29.99999999999999
 20
3.816366398409993
 30
0.0
 11
29.99999999999999
 21
13.97281165452813
 31
0.0
  0
LINE
  5
E9
330
E5
100
AcDbEntity
  8
치수문자_일반주서
 62
     0
370
    -2
100
AcDbLine
 10
10.0
 20
3.97825209007995
 30
0.0
 11
10.0
 21
13.97281165452813
 31
0.0
  0
LINE
  5
EA
330
E5
100
AcDbEntity
  8
치수문자_일반주서
 62
     0
370
    -2
100
AcDbLine
 10
26.69799999999999
 20
13.97281165452813
 30
0.0
 11
13.302
 21
13.97281165452813
 31
0.0
  0
SOLID
  5
EB
330
E5
100
AcDbEntity
  8
치수문자_일반주서
 62
     0
100
AcDbTrace
 10
26.69799999999999
 20
13.42247832119479
 30
0.0
 11
26.69799999999999
 21
14.52314498786146
 31
0.0
 12
29.99999999999999
 22
13.97281165452813
 32
0.0
 13
29.99999999999999
 23
13.97281165452813
 33
0.0
  0
SOLID
  5
EC
330
E5
100
AcDbEntity
  8
치수문자_일반주서
 62
     0
100
AcDbTrace
 10
13.302
 20
14.52314498786146
 30
0.0
 11
13.302
 21
13.42247832119479
 31
0.0
 12
10.0
 22
13.97281165452813
 32
0.0
 13
10.0
 23
13.97281165452813
 33
0.0
  0
MTEXT
  5
ED
330
E5
100
AcDbEntity
  8
치수문자_일반주서
 62
     0
100
AcDbMText
 10
19.99999999999999
 20
18.34781165452813
 30
0.0
 40
3.5
 41
0.0
 71
     2
 72
     1
  1
\A1;20
  7
SLDTEXTSTYLE0
 73
     1
 44
1.0
  0
POINT
  5
1A9
330
E5
100
AcDbEntity
  8
Defpoints
 62
     0
100
AcDbPoint
 10
29.99999999999999
 20
3.753866398409993
 30
0.0
  0
POINT
  5
1AA
330
E5
100
AcDbEntity
  8
Defpoints
 62
     0
100
AcDbPoint
 10
10.0
 20
3.91575209007995
 30
0.0
  0
POINT
  5
1AB
330
E5
100
AcDbEntity
  8
Defpoints
 62
     0
100
AcDbPoint
 10
10.0
 20
13.97281165452813
 30
0.0
  0
ENDBLK
  5
E7
330
E5
100
AcDbEntity
  8
0
100
AcDbBlockEnd
  0
BLOCK
  5
F1
330
F0
100
AcDbEntity
  8
0
100
AcDbBlockBegin
  2
_D_3
 70
     0
 10
0.0
 20
0.0
 30
0.0
  3
_D_3
  1

  0
LINE
  5
F3
330
F0
100
AcDbEntity
  8
치수문자_일반주서
 62
     0
370
    -2
100
AcDbLine
 10
29.99999999999999
 20
4.035311654528123
 30
0.0
 11
29.99999999999999
 21
23.97281165452813
 31
0.0
  0
LINE
  5
F4
330
F0
100
AcDbEntity
  8
치수문자_일반주서
 62
     0
370
    -2
100
AcDbLine
 10
-70.00000000000003
 20
3.23531165452813
 30
0.0
 11
-70.00000000000003
 21
23.97281165452813
 31
0.0
  0
LINE
  5
F5
330
F0
100
AcDbEntity
  8
치수문자_일반주서
 62
     0
370
    -2
100
AcDbLine
 10
26.69799999999999
 20
23.97281165452813
 30
0.0
 11
-66.69800000000004
 21
23.97281165452813
 31
0.0
  0
SOLID
  5
F6
330
F0
100
AcDbEntity
  8
치수문자_일반주서
 62
     0
100
AcDbTrace
 10
26.69799999999999
 20
23.42247832119479
 30
0.0
 11
26.69799999999999
 21
24.52314498786146
 31
0.0
 12
29.99999999999999
 22
23.97281165452813
 32
0.0
 13
29.99999999999999
 23
23.97281165452813
 33
0.0
  0
SOLID
  5
F7
330
F0
100
AcDbEntity
  8
치수문자_일반주서
 62
     0
100
AcDbTrace
 10
-66.69800000000004
 20
24.52314498786146
 30
0.0
 11
-66.69800000000004
 21
23.42247832119479
 31
0.0
 12
-70.00000000000003
 22
23.97281165452813
 32
0.0
 13
-70.00000000000003
 23
23.97281165452813
 33
0.0
  0
MTEXT
  5
F8
330
F0
100
AcDbEntity
  8
치수문자_일반주서
 62
     0
100
AcDbMText
 10
-20.00000000000003
 20
28.34781165452813
 30
0.0
 40
3.5
 41
0.0
 71
     2
 72
     1
  1
\A1;100
  7
SLDTEXTSTYLE0
 73
     1
 44
1.0
  0
POINT
  5
1AC
330
F0
100
AcDbEntity
  8
Defpoints
 62
     0
100
AcDbPoint
 10
29.99999999999999
 20
3.972811654528123
 30
0.0
  0
POINT
  5
1AD
330
F0
100
AcDbEntity
  8
Defpoints
 62
     0
100
AcDbPoint
 10
-70.00000000000003
 20
3.17281165452813
 30
0.0
  0
POINT
  5
1AE
330
F0
100
AcDbEntity
  8
Defpoints
 62
     0
100
AcDbPoint
 10
-70.00000000000003
 20
23.97281165452813
 30
0.0
  0
ENDBLK
  5
F2
330
F0
100
AcDbEntity
  8
0
100
AcDbBlockEnd
  0
BLOCK
  5
101
330
100
100
AcDbEntity
  8
0
100
AcDbBlockBegin
  2
SW_DOWELSYMBOL_0
 70
     0
 10
0.0
 20
0.0
 30
0.0
  3
SW_DOWELSYMBOL_0
  1

  0
CIRCLE
  5
103
330
100
100
AcDbEntity
  8
해칭선
 62
     0
100
AcDbCircle
 10
0.0
 20
0.0
 30
0.0
 40
3.000000000000001
  0
HATCH
  5
104
330
100
100
AcDbEntity
  8
0
  6
Continuous
 62
     0
370
     0
100
AcDbHatch
 10
0.0
 20
0.0
 30
0.0
210
0.0
220
0.0
230
1.0
  2
SOLID
 70
     1
 71
     0
 91
        1
 92
        0
 93
        3
 72
     2
 10
0.0
 20
0.0
 40
3.000000000000001
 50
0.0
 51
90.0
 73
     1
 72
     1
 10
0.0
 20
3.000000000000001
 11
0.0
 21
0.0
 72
     1
 10
0.0
 20
0.0
 11
3.000000000000003
 21
0.0
 97
        0
 75
     0
 76
     1
 98
        1
 10
0.0
 20
0.0
  0
HATCH
  5
105
330
100
100
AcDbEntity
  8
0
  6
Continuous
 62
     0
370
     0
100
AcDbHatch
 10
0.0
 20
0.0
 30
0.0
210
0.0
220
0.0
230
1.0
  2
SOLID
 70
     1
 71
     0
 91
        1
 92
        0
 93
        3
 72
     2
 10
0.0
 20
0.0
 40
3.000000000000001
 50
180.0
 51
270.0000000000008
 73
     1
 72
     1
 10
0.0
 20
-3.000000000000001
 11
0.0
 21
0.0
 72
     1
 10
0.0
 20
0.0
 11
-3.000000000000003
 21
0.0
 97
        0
 75
     0
 76
     1
 98
        1
 10
0.0
 20
0.0
  0
ENDBLK
  5
102
330
100
100
AcDbEntity
  8
0
100
AcDbBlockEnd
  0
BLOCK
  5
164
330
163
100
AcDbEntity
  8
0
100
AcDbBlockBegin
  2
*D8
 70
     1
 10
0.0
 20
0.0
 30
0.0
  3
*D8
  1

  0
LINE
  5
165
330
163
100
AcDbEntity
  8
치수문자_일반주서
 62
     0
370
    -2
100
AcDbLine
 10
12.62717396278132
 20
13.04557445451085
 30
0.0
 11
21.11951954006028
 21
0.0000000000000533
 31
0.0
  0
MTEXT
  5
166
330
163
100
AcDbEntity
  8
치수문자_일반주서
 62
     0
100
AcDbMText
 10
21.05195792753105
 20
4.915330557654589
 30
0.0
 40
3.5
 41
0.0
 71
     5
 72
     1
  1
\A1;R0.1
  7
SLDTEXTSTYLE0
 11
0.5455627707375155
 21
-0.8380699631804049
 31
0.0
 73
     1
 44
1.0
  0
SOLID
  5
167
330
163
100
AcDbEntity
  8
치수문자_일반주서
 62
     0
100
AcDbTrace
 10
13.08839179918493
 20
13.34581583267339
 30
0.0
 11
12.1659561263777
 21
12.7453330763483
 31
0.0
 12
10.82572569380604
 22
15.81288147293254
 32
0.0
 13
10.82572569380604
 23
15.81288147293254
 33
0.0
  0
LINE
  5
168
330
163
100
AcDbEntity
  8
치수문자_일반주서
 62
     0
100
AcDbLine
 10
10.72616941673229
 20
15.89668846925058
 30
0.0
 11
10.81616941673229
 21
15.89668846925058
 31
0.0
  0
LINE
  5
169
330
163
100
AcDbEntity
  8
치수문자_일반주서
 62
     0
100
AcDbLine
 10
10.77116941673229
 20
15.85168846925058
 30
0.0
 11
10.77116941673229
 21
15.94168846925058
 31
0.0
  0
POINT
  5
16A
330
163
100
AcDbEntity
  8
Defpoints
 62
     0
100
AcDbPoint
 10
10.82572569380604
 20
15.81288147293254
 30
0.0
  0
POINT
  5
16B
330
163
100
AcDbEntity
  8
Defpoints
 62
     0
100
AcDbPoint
 10
10.77116941673229
 20
15.89668846925058
 30
0.0
  0
ENDBLK
  5
16C
330
163
100
AcDbEntity
  8
0
100
AcDbBlockEnd
  0
BLOCK
  5
173
330
172
100
AcDbEntity
  8
0
100
AcDbBlockBegin
  2
*D9
 70
     1
 10
0.0
 20
0.0
 30
0.0
  3
*D9
  1

  0
LINE
  5
175
330
172
100
AcDbEntity
  8
치수문자_일반주서
 62
     0
370
    -2
100
AcDbLine
 10
10.9336694167323
 20
21.79496381848847
 30
0.0
 11
20.87116941673229
 21
21.7949638184885
 31
0.0
  0
LINE
  5
176
330
172
100
AcDbEntity
  8
치수문자_일반주서
 62
     0
370
    -2
100
AcDbLine
 10
10.9336694167323
 20
15.79496381848847
 30
0.0
 11
20.87116941673231
 21
15.79496381848851
 31
0.0
  0
LINE
  5
177
330
172
100
AcDbEntity
  8
치수문자_일반주서
 62
     0
370
    -2
100
AcDbLine
 10
20.87116941673229
 20
21.7949638184885
 30
0.0
 11
20.87116941673224
 21
34.52396381848853
 31
0.0
  0
LINE
  5
178
330
172
100
AcDbEntity
  8
치수문자_일반주서
 62
     0
370
    -2
100
AcDbLine
 10
20.87116941673229
 20
21.7949638184885
 30
0.0
 11
20.87116941673231
 21
15.79496381848851
 31
0.0
  0
LINE
  5
179
330
172
100
AcDbEntity
  8
치수문자_일반주서
 62
     0
370
    -2
100
AcDbLine
 10
20.87116941673228
 20
25.0969638184885
 30
0.0
 11
20.87116941673226
 21
28.3989638184885
 31
0.0
  0
LINE
  5
17A
330
172
100
AcDbEntity
  8
치수문자_일반주서
 62
     0
370
    -2
100
AcDbLine
 10
20.87116941673232
 20
12.49296381848851
 30
0.0
 11
20.87116941673233
 21
9.190963818488507
 31
0.0
  0
SOLID
  5
17B
330
172
100
AcDbEntity
  8
치수문자_일반주서
 62
     0
100
AcDbTrace
 10
20.32083608339894
 20
25.0969638184885
 30
0.0
 11
21.42150275006561
 21
25.09696381848851
 31
0.0
 12
20.87116941673229
 22
21.7949638184885
 32
0.0
 13
20.87116941673229
 23
21.7949638184885
 33
0.0
  0
SOLID
  5
17C
330
172
100
AcDbEntity
  8
치수문자_일반주서
 62
     0
100
AcDbTrace
 10
21.42150275006565
 20
12.49296381848851
 30
0.0
 11
20.32083608339898
 21
12.49296381848851
 31
0.0
 12
20.87116941673231
 22
15.79496381848851
 32
0.0
 13
20.87116941673231
 23
15.79496381848851
 33
0.0
  0
MTEXT
  5
17D
330
172
100
AcDbEntity
  8
치수문자_일반주서
 62
     0
100
AcDbMText
 10
16.49616941673225
 20
31.46146381848851
 30
0.0
 40
3.5
 41
0.0
 71
     2
 72
     1
  1
\A1;%%c6
  7
SLDTEXTSTYLE0
 11
-3.552713678800503E-15
 21
1.0
 31
0.0
 73
     1
 44
1.0
  0
POINT
  5
17E
330
172
100
AcDbEntity
  8
Defpoints
 62
     0
100
AcDbPoint
 10
10.8711694167323
 20
21.79496381848847
 30
0.0
  0
POINT
  5
17F
330
172
100
AcDbEntity
  8
Defpoints
 62
     0
100
AcDbPoint
 10
10.8711694167323
 20
15.79496381848847
 30
0.0
  0
POINT
  5
180
330
172
100
AcDbEntity
  8
Defpoints
 62
     0
100
AcDbPoint
 10
20.87116941673231
 20
15.79496381848851
 30
0.0
  0
ENDBLK
  5
174
330
172
100
AcDbEntity
  8
0
100
AcDbBlockEnd
  0
BLOCK
  5
186
330
185
100
AcDbEntity
  8
0
100
AcDbBlockBegin
  2
*D10
 70
     1
 10
0.0
 20
0.0
 30
0.0
  3
*D10
  1

  0
LINE
  5
188
330
185
100
AcDbEntity
  8
치수문자_일반주서
 62
     0
370
    -2
100
AcDbLine
 10
83.65655401374904
 20
10.53196714209986
 30
0.0
 11
93.59405401374903
 21
10.5319671420999
 31
0.0
  0
LINE
  5
189
330
185
100
AcDbEntity
  8
치수문자_일반주서
 62
     0
370
    -2
100
AcDbLine
 10
83.65655401374904
 20
4.531967142099861
 30
0.0
 11
93.59405401374904
 21
4.531967142099898
 31
0.0
  0
LINE
  5
18A
330
185
100
AcDbEntity
  8
치수문자_일반주서
 62
     0
370
    -2
100
AcDbLine
 10
93.59405401374903
 20
10.5319671420999
 30
0.0
 11
93.59405401374899
 21
23.26096714209992
 31
0.0
  0
LINE
  5
18B
330
185
100
AcDbEntity
  8
치수문자_일반주서
 62
     0
370
    -2
100
AcDbLine
 10
93.59405401374903
 20
10.5319671420999
 30
0.0
 11
93.59405401374904
 21
4.531967142099898
 31
0.0
  0
LINE
  5
18C
330
185
100
AcDbEntity
  8
치수문자_일반주서
 62
     0
370
    -2
100
AcDbLine
 10
93.59405401374902
 20
13.8339671420999
 30
0.0
 11
93.594054013749
 21
17.13596714209989
 31
0.0
  0
LINE
  5
18D
330
185
100
AcDbEntity
  8
치수문자_일반주서
 62
     0
370
    -2
100
AcDbLine
 10
93.59405401374906
 20
1.229967142099898
 30
0.0
 11
93.59405401374907
 21
-2.072032857900101
 31
0.0
  0
SOLID
  5
18E
330
185
100
AcDbEntity
  8
치수문자_일반주서
 62
     0
100
AcDbTrace
 10
93.04372068041569
 20
13.83396714209989
 30
0.0
 11
94.14438734708234
 21
13.8339671420999
 31
0.0
 12
93.59405401374903
 22
10.5319671420999
 32
0.0
 13
93.59405401374903
 23
10.5319671420999
 33
0.0
  0
SOLID
  5
18F
330
185
100
AcDbEntity
  8
치수문자_일반주서
 62
     0
100
AcDbTrace
 10
94.14438734708239
 20
1.2299671420999
 30
0.0
 11
93.04372068041573
 21
1.229967142099897
 31
0.0
 12
93.59405401374904
 22
4.531967142099898
 32
0.0
 13
93.59405401374904
 23
4.531967142099898
 33
0.0
  0
MTEXT
  5
190
330
185
100
AcDbEntity
  8
치수문자_일반주서
 62
     0
100
AcDbMText
 10
89.219054013749
 20
20.19846714209991
 30
0.0
 40
3.5
 41
0.0
 71
     2
 72
     1
  1
\A1;%%c6
  7
SLDTEXTSTYLE0
 11
-2.368475785867001E-15
 21
1.0
 31
0.0
 73
     1
 44
1.0
  0
POINT
  5
191
330
185
100
AcDbEntity
  8
Defpoints
 62
     0
100
AcDbPoint
 10
83.59405401374904
 20
10.53196714209986
 30
0.0
  0
POINT
  5
192
330
185
100
AcDbEntity
  8
Defpoints
 62
     0
100
AcDbPoint
 10
83.59405401374904
 20
4.531967142099861
 30
0.0
  0
POINT
  5
193
330
185
100
AcDbEntity
  8
Defpoints
 62
     0
100
AcDbPoint
 10
93.59405401374906
 20
4.531967142099898
 30
0.0
  0
ENDBLK
  5
187
330
185
100
AcDbEntity
  8
0
100
AcDbBlockEnd
  0
BLOCK
  5
195
330
194
100
AcDbEntity
  8
0
100
AcDbBlockBegin
  2
*D11
 70
     1
 10
0.0
 20
0.0
 30
0.0
  3
*D11
  1

  0
LINE
  5
197
330
194
100
AcDbEntity
  8
치수문자_일반주서
 62
     0
370
    -2
100
AcDbLine
 10
85.35005855979789
 20
1.78257777812213
 30
0.0
 11
93.84240413707607
 21
-11.26299667638917
 31
0.0
  0
MTEXT
  5
198
330
194
100
AcDbEntity
  8
치수문자_일반주서
 62
     0
100
AcDbMText
 10
93.77484252454714
 20
-6.347666118734633
 30
0.0
 40
3.5
 41
0.0
 71
     5
 72
     1
  1
\A1;R0.1
  7
SLDTEXTSTYLE0
 11
0.5455627707374655
 21
-0.8380699631804374
 31
0.0
 73
     1
 44
1.0
  0
SOLID
  5
199
330
194
100
AcDbEntity
  8
치수문자_일반주서
 62
     0
100
AcDbTrace
 10
85.81127639620152
 20
2.082819156284648
 30
0.0
 11
84.88884072339425
 21
1.482336399959611
 31
0.0
 12
83.54861029082278
 22
4.549884796543934
 32
0.0
 13
83.54861029082278
 23
4.549884796543934
 33
0.0
  0
LINE
  5
19A
330
194
100
AcDbEntity
  8
치수문자_일반주서
 62
     0
100
AcDbLine
 10
83.44905401374903
 20
4.633691792861972
 30
0.0
 11
83.53905401374904
 21
4.633691792861972
 31
0.0
  0
LINE
  5
19B
330
194
100
AcDbEntity
  8
치수문자_일반주서
 62
     0
100
AcDbLine
 10
83.49405401374904
 20
4.588691792861972
 30
0.0
 11
83.49405401374904
 21
4.678691792861972
 31
0.0
  0
POINT
  5
19C
330
194
100
AcDbEntity
  8
Defpoints
 62
     0
100
AcDbPoint
 10
83.54861029082278
 20
4.549884796543934
 30
0.0
  0
POINT
  5
19D
330
194
100
AcDbEntity
  8
Defpoints
 62
     0
100
AcDbPoint
 10
83.49405401374904
 20
4.633691792861972
 30
0.0
  0
ENDBLK
  5
196
330
194
100
AcDbEntity
  8
0
100
AcDbBlockEnd
  0
BLOCK
  5
1BD
330
1BC
100
AcDbEntity
  8
0
100
AcDbBlockBegin
  2
*D12
 70
     1
 10
0.0
 20
0.0
 30
0.0
  3
*D12
  1

  0
LINE
  5
1BF
330
1BC
100
AcDbEntity
  8
치수문자_일반주서
 62
     0
370
    -2
100
AcDbLine
 10
31.8912601654436
 20
-6.630948935267048
 30
0.0
 11
43.10226475348729
 21
-21.68982088373956
 31
0.0
  0
MTEXT
  5
1C0
330
1BC
100
AcDbEntity
  8
치수문자_일반주서
 62
     0
100
AcDbMText
 10
42.46462070256648
 20
-16.43752861018649
 30
0.0
 40
3.5
 41
0.0
 71
     5
 72
     1
  1
\A1;R0.2
  7
SLDTEXTSTYLE0
 11
0.5971616691729339
 21
-0.8021209016542302
 31
0.0
 73
     1
 44
1.0
  0
SOLID
  5
1C1
330
1BC
100
AcDbEntity
  8
치수문자_일반주서
 62
     0
100
AcDbTrace
 10
32.33269403498731
 20
-6.30231096333221
 30
0.0
 11
31.44982629589989
 21
-6.959586907201886
 31
0.0
 12
29.91943233383457
 22
-3.98234571800478
 32
0.0
 13
29.91943233383457
 23
-3.98234571800478
 33
0.0
  0
LINE
  5
1C2
330
1BC
100
AcDbEntity
  8
치수문자_일반주서
 62
     0
100
AcDbLine
 10
29.75499999999998
 20
-3.821921537673932
 30
0.0
 11
29.84499999999998
 21
-3.821921537673932
 31
0.0
  0
LINE
  5
1C3
330
1BC
100
AcDbEntity
  8
치수문자_일반주서
 62
     0
100
AcDbLine
 10
29.79999999999998
 20
-3.866921537673932
 30
0.0
 11
29.79999999999998
 21
-3.776921537673932
 31
0.0
  0
POINT
  5
1C4
330
1BC
100
AcDbEntity
  8
Defpoints
 62
     0
100
AcDbPoint
 10
29.91943233383457
 20
-3.98234571800478
 30
0.0
  0
POINT
  5
1C5
330
1BC
100
AcDbEntity
  8
Defpoints
 62
     0
100
AcDbPoint
 10
29.79999999999998
 20
-3.821921537673932
 30
0.0
  0
ENDBLK
  5
1BE
330
1BC
100
AcDbEntity
  8
0
100
AcDbBlockEnd
  0
ENDSEC
  0
SECTION
  2
ENTITIES
  0
LINE
  5
96
330
1F
100
AcDbEntity
  8
0
  6
Continuous
 62
     1
370
    15
100
AcDbLine
 10
19.71119876563027
 20
-4.027188345471876
 30
0.0
 11
22.1516223401978
 21
-4.027188345471876
 31
0.0
1001
PE_URL
1000

  0
LINE
  5
97
330
1F
100
AcDbEntity
  8
0
  6
Continuous
 62
     1
370
    15
100
AcDbLine
 10
11.26824236233922
 20
3.97281165452813
 30
0.0
 11
9.999999999999986
 21
3.97281165452813
 31
0.0
1001
PE_URL
1000

  0
LINE
  5
98
330
1F
100
AcDbEntity
  8
0
  6
Continuous
 62
     1
370
    15
100
AcDbLine
 10
22.15162234019781
 20
3.97281165452813
 30
0.0
 11
19.71119876563032
 21
3.97281165452813
 31
0.0
1001
PE_URL
1000

  0
LINE
  5
99
330
1F
100
AcDbEntity
  8
0
  6
Continuous
 62
     1
370
    15
100
AcDbLine
 10
9.999999999999986
 20
-4.027188345471876
 30
0.0
 11
11.26824236233914
 21
-4.027188345471876
 31
0.0
1001
PE_URL
1000

  0
LINE
  5
9A
330
1F
100
AcDbEntity
  8
외형선
  6
Continuous
370
    15
100
AcDbLine
 10
-69.20000000000002
 20
3.972811654528127
 30
0.0
 11
-70.00000000000003
 21
3.17281165452813
 31
0.0
  0
LINE
  5
9B
330
1F
100
AcDbEntity
  8
외형선
  6
Continuous
370
    15
100
AcDbLine
 10
-70.00000000000003
 20
-3.227188345471877
 30
0.0
 11
-69.20000000000002
 21
-4.027188345471873
 31
0.0
  0
LINE
  5
9C
330
1F
100
AcDbEntity
  8
외형선
  6
Continuous
370
    15
100
AcDbLine
 10
-69.20000000000002
 20
-4.027188345471873
 30
0.0
 11
9.999999999999986
 21
-4.027188345471873
 31
0.0
  0
LINE
  5
9D
330
1F
100
AcDbEntity
  8
외형선
  6
Continuous
370
    15
100
AcDbLine
 10
9.999999999999986
 20
3.972811654528127
 30
0.0
 11
-69.20000000000002
 21
3.972811654528127
 31
0.0
  0
LINE
  5
9E
330
1F
100
AcDbEntity
  8
0
  6
Continuous
 62
     1
370
    15
100
AcDbLine
 10
29.99999999999999
 20
-3.491167268072887
 30
0.0
 11
29.99999999999999
 21
0.3517905771290554
 31
0.0
1001
PE_URL
1000

  0
SPLINE
  5
9F
330
1F
100
AcDbEntity
  8
0
  6
Continuous
 62
     1
370
    15
100
AcDbSpline
210
0.0
220
0.0
230
1.0
 70
     8
 71
     3
 72
    10
 73
     6
 74
     0
 42
0.000000001
 43
0.00000001
 40
0.0
 40
0.0
 40
0.0
 40
0.0
 40
0.5
 40
0.5
 40
1.0
 40
1.0
 40
1.0
 40
1.0
 10
29.79999999999997
 20
-3.599286617742448
 30
0.0
 10
29.85232997630201
 20
-3.612906960307201
 30
0.0
 10
29.90026400348079
 20
-3.610376281294267
 30
0.0
 10
29.97444670865811
 20
-3.574009074698934
 30
0.0
 10
30.00000000000003
 20
-3.539270419815217
 30
0.0
 10
30.00000000000001
 20
-3.491167268072884
 30
0.0
1001
PE_URL
1000

  0
SPLINE
  5
A0
330
1F
100
AcDbEntity
  8
0
  6
Continuous
 62
     1
370
    15
100
AcDbSpline
210
0.0
220
0.0
230
1.0
 70
     8
 71
     3
 72
    19
 73
    15
 74
     0
 42
0.000000001
 43
0.00000001
 40
0.0
 40
0.0
 40
0.0
 40
0.0
 40
0.0170620090161507
 40
0.1025608413707488
 40
0.188051111756038
 40
0.2735338364890589
 40
0.3590100405492436
 40
0.444480754197887
 40
0.5299470121515777
 40
0.6239632393304919
 40
0.7179770917755506
 40
0.8119881287432583
 40
0.9059959107952203
 40
1.0
 40
1.0
 40
1.0
 40
1.0
 10
11.26824236233922
 20
3.956148766587028
 30
0.0
 10
11.37363808474004
 20
3.961336777777154
 30
0.0
 10
12.00717859899453
 20
3.992522249089269
 30
0.0
 10
13.16882095244786
 20
3.845543217262641
 30
0.0
 10
14.75306880238729
 20
3.511111438313667
 30
0.0
 10
16.33715515240846
 20
2.974441574987168
 30
0.0
 10
17.92108781764651
 20
2.28643309584495
 30
0.0
 10
19.50492722001552
 20
1.476769621753272
 30
0.0
 10
21.14139052238316
 20
0.5595318048883312
 30
0.0
 10
22.83105007965183
 20
-0.4230294267451253
 30
0.0
 10
24.57336408010415
 20
-1.412539510129654
 30
0.0
 10
26.31564906175544
 20
-2.310571425315079
 30
0.0
 10
28.05785374401935
 20
-3.081084723847132
 30
0.0
 10
29.21929218549555
 20
-3.426554914968953
 30
0.0
 10
29.79999999999998
 20
-3.599286617742449
 30
0.0
1001
PE_URL
1000

  0
SPLINE
  5
A1
330
1F
100
AcDbEntity
  8
0
  6
Continuous
 62
     1
370
    15
100
AcDbSpline
210
0.0
220
0.0
230
1.0
 70
     8
 71
     3
 72
    16
 73
    12
 74
     0
 42
0.000000001
 43
0.00000001
 40
0.0
 40
0.0
 40
0.0
 40
0.0
 40
0.1106120166924507
 40
0.2212347997762451
 40
0.3318621975594725
 40
0.442478858711412
 40
0.5530854832606946
 40
0.6636833958653374
 40
0.774273928237339
 40
0.8959147947192154
 40
1.0
 40
1.0
 40
1.0
 40
1.0
 10
29.8
 20
0.4307989908764462
 30
0.0
 10
29.27193440289732
 20
0.7313174511188897
 30
0.0
 10
28.21575180956692
 20
1.332383622488496
 30
0.0
 10
26.63138910772484
 20
2.156798625169275
 30
0.0
 10
25.04698397303792
 20
2.869219243602326
 30
0.0
 10
23.46269902633252
 20
3.430553116928543
 30
0.0
 10
21.87858693088038
 20
3.811688033107511
 30
0.0
 10
20.29460031706819
 20
3.994294255758779
 30
0.0
 10
18.65805458323445
 20
3.961779775086903
 30
0.0
 10
17.0522450918761
 20
3.727992631791144
 30
0.0
 10
15.9745444110728
 20
3.391140537050049
 30
0.0
 10
15.47760271658125
 20
3.235813688199136
 30
0.0
1001
PE_URL
1000

  0
SPLINE
  5
A2
330
1F
100
AcDbEntity
  8
0
  6
Continuous
 62
     1
370
    15
100
AcDbSpline
210
0.0
220
0.0
230
1.0
 70
     8
 71
     3
 72
    10
 73
     6
 74
     0
 42
0.000000001
 43
0.00000001
 40
0.0
 40
0.0
 40
0.0
 40
0.0
 40
0.5
 40
0.5
 40
1.0
 40
1.0
 40
1.0
 40
1.0
 10
29.99999999999999
 20
0.351790577129312
 30
0.0
 10
29.99999999999971
 20
0.3444968822971699
 30
0.0
 10
29.97621292549788
 20
0.347912960664947
 30
0.0
 10
29.89849385524854
 20
0.3779697330345116
 30
0.0
 10
29.84772736475148
 20
0.4033757184923763
 30
0.0
 10
29.80000000000001
 20
0.4307989908764565
 30
0.0
1001
PE_URL
1000

  0
SPLINE
  5
A3
330
1F
100
AcDbEntity
  8
0
  6
Continuous
 62
     1
370
    15
100
AcDbSpline
210
0.0
220
0.0
230
1.0
 70
     8
 71
     3
 72
    18
 73
    14
 74
     0
 42
0.000000001
 43
0.00000001
 40
0.0
 40
0.0
 40
0.0
 40
0.0
 40
0.0967071597046083
 40
0.1934146519087333
 40
0.2901124596931152
 40
0.3868017326111397
 40
0.4834836300141966
 40
0.5801593172279855
 40
0.6768299646175665
 40
0.7831714584903462
 40
0.8895102663082444
 40
0.9958458895475175
 40
1.0
 40
1.0
 40
1.0
 40
1.0
 10
10.00000000000001
 20
0.7004050428274606
 30
0.0
 10
10.52814250962704
 20
0.3969656949626948
 30
0.0
 10
11.58442934474593
 20
-0.2099140440550156
 30
0.0
 10
13.16882051973533
 20
-1.120821339460701
 30
0.0
 10
14.75306891792037
 20
-1.972103781227268
 30
0.0
 10
16.3371551229327
 20
-2.722886385501275
 30
0.0
 10
17.92108782003037
 20
-3.333072362731765
 30
0.0
 10
19.50492723995122
 20
-3.771634707941367
 30
0.0
 10
21.14139043685812
 20
-4.022052159015501
 30
0.0
 10
22.83105043714325
 20
-4.053914913180641
 30
0.0
 10
24.57336274956623
 20
-3.810961143853634
 30
0.0
 10
25.75759763877693
 20
-3.540852706016788
 30
0.0
 10
26.36104151475006
 20
-3.308764252239658
 30
0.0
 10
26.38372934672238
 20
-3.300038363964592
 30
0.0
1001
PE_URL
1000

  0
SPLINE
  5
A4
330
1F
100
AcDbEntity
  8
외형선
  6
Continuous
370
    15
100
AcDbSpline
210
0.0
220
0.0
230
1.0
 70
    24
 71
     3
 72
    16
 73
    12
 74
     0
 42
0.000000001
 43
0.00000001
 40
0.0
 40
0.0
 40
0.0
 40
0.0
 40
0.2132330368604729
 40
0.3242246492519564
 40
0.4384350259218998
 40
0.5494266383133831
 40
0.6636370149833258
 40
0.7746286273748073
 40
0.8888390040447474
 40
0.9998306164362335
 40
1.0
 40
1.0
 40
1.0
 40
1.0
 10
10.0
 20
3.91575209007995
 30
0.0
 10
10.00000000000002
 20
3.676954398626619
 30
0.0
 10
10.00000000000006
 20
3.313858234478774
 30
0.0
 10
9.9999999999999
 20
2.785318443871738
 30
0.0
 10
9.999999999999986
 20
2.383425886705111
 30
0.0
 10
10.0
 20
1.989501626102604
 30
0.0
 10
9.999999999999986
 20
1.623347770535957
 30
0.0
 10
9.99999999999961
 20
1.285924411106842
 30
0.0
 10
10.00000000000136
 20
1.002526691679056
 30
0.0
 10
9.999999999997137
 20
0.8282900999953506
 30
0.0
 10
10.00000000000004
 20
0.769201256019338
 30
0.0
 10
10.00000000000004
 20
0.7691112183322384
 30
0.0
  0
SPLINE
  5
A5
330
1F
100
AcDbEntity
  8
0
  6
Continuous
 62
     1
370
    15
100
AcDbSpline
210
0.0
220
0.0
230
1.0
 70
     8
 71
     3
 72
    48
 73
    44
 74
     0
 42
0.000000001
 43
0.00000001
 40
0.0
 40
0.0
 40
0.0
 40
0.0
 40
0.0624999999999993
 40
0.0624999999999993
 40
0.0937499999999998
 40
0.0937499999999998
 40
0.1250000000000002
 40
0.1250000000000002
 40
0.1875000000000011
 40
0.1875000000000011
 40
0.2500000000000019
 40
0.2500000000000019
 40
0.3125000000000028
 40
0.3125000000000028
 40
0.3437500000000033
 40
0.3437500000000033
 40
0.3750000000000037
 40
0.3750000000000037
 40
0.437500000000003
 40
0.437500000000003
 40
0.5000000000000023
 40
0.5000000000000023
 40
0.5625000000000017
 40
0.5625000000000017
 40
0.5937500000000013
 40
0.5937500000000013
 40
0.625000000000001
 40
0.625000000000001
 40
0.6562500000000007
 40
0.6562500000000007
 40
0.6875000000000003
 40
0.6875000000000003
 40
0.7499999999999996
 40
0.7499999999999996
 40
0.8124999999999989
 40
0.8124999999999989
 40
0.8749999999999982
 40
0.8749999999999982
 40
0.9062499999999987
 40
0.9062499999999987
 40
0.9374999999999991
 40
0.9374999999999991
 40
1.0
 40
1.0
 40
1.0
 40
1.0
 10
29.78947368421051
 20
-4.021644337263513
 30
0.0
 10
29.38863791586739
 20
-3.973641042821908
 30
0.0
 10
28.97219240332756
 20
-3.925031390630489
 30
0.0
 10
28.35473191337899
 20
-3.821775558089029
 30
0.0
 10
28.15040541452471
 20
-3.782373240298946
 30
0.0
 10
27.73776445413037
 20
-3.69344568451945
 30
0.0
 10
27.53053453461396
 20
-3.643973374436651
 30
0.0
 10
26.90983179133862
 20
-3.481377473206269
 30
0.0
 10
26.50119523369153
 20
-3.354501948417632
 30
0.0
 10
25.67420362256913
 20
-3.065812273940417
 30
0.0
 10
25.26086318638824
 20
-2.904473899705533
 30
0.0
 10
24.43940652922802
 20
-2.553772836875567
 30
0.0
 10
24.02301336017197
 20
-2.36318482438162
 30
0.0
 10
23.40475316431766
 20
-2.061166876659335
 30
0.0
 10
23.2005502556744
 20
-1.957974396992386
 30
0.0
 10
22.78837346848403
 20
-1.746111758383299
 30
0.0
 10
22.58123013229846
 20
-1.637570752368428
 30
0.0
 10
21.96034547785075
 20
-1.306036692880795
 30
0.0
 10
21.55144610472637
 20
-1.077935929890943
 30
0.0
 10
20.72504048711423
 20
-0.6114350294094187
 30
0.0
 10
20.31017807520654
 20
-0.3735059705075716
 30
0.0
 10
19.49012433682901
 20
0.1016555435899729
 30
0.0
 10
19.07385436922772
 20
0.3410125337819576
 30
0.0
 10
18.45489722742266
 20
0.6941779809671913
 30
0.0
 10
18.25057236476849
 20
0.8107203634623249
 30
0.0
 10
17.83892825926893
 20
1.041840731969512
 30
0.0
 10
17.6319063491072
 20
1.156357034524478
 30
0.0
 10
17.21793145523683
 20
1.3819170353466
 30
0.0
 10
17.01098176531023
 20
1.492958942108579
 30
0.0
 10
16.5996236795697
 20
1.710265176816402
 30
0.0
 10
16.39514938706306
 20
1.81655180349638
 30
0.0
 10
15.7758882898267
 20
2.128643222567509
 30
0.0
 10
15.35970456526241
 20
2.326809827786946
 30
0.0
 10
14.54038767275559
 20
2.694132190489157
 30
0.0
 10
14.12470298780026
 20
2.865158225810943
 30
0.0
 10
13.29863506841937
 20
3.173904693906506
 30
0.0
 10
12.88952942002592
 20
3.311610034148451
 30
0.0
 10
12.26859366115381
 20
3.491281109720429
 30
0.0
 10
12.06150549105833
 20
3.546564589876514
 30
0.0
 10
11.64958125064616
 20
3.647303493287577
 30
0.0
 10
11.44534924734664
 20
3.69273541844547
 30
0.0
 10
10.82673458380293
 20
3.814475856717491
 30
0.0
 10
10.41039295053272
 20
3.875739597614613
 30
0.0
 10
9.999999999998415
 20
3.915752090090834
 30
0.0
1001
PE_URL
1000

  0
SPLINE
  5
A7
330
1F
100
AcDbEntity
  8
0
  6
Continuous
 62
     1
370
    15
100
AcDbSpline
210
0.0
220
0.0
230
1.0
 70
     8
 71
     3
 72
    13
 73
     9
 74
     0
 42
0.000000001
 43
0.00000001
 40
0.0
 40
0.0
 40
0.0
 40
0.0
 40
0.1030300792102721
 40
0.2824374946646556
 40
0.4618390297845652
 40
0.6412338476645392
 40
0.8206211145064655
 40
1.0
 40
1.0
 40
1.0
 40
1.0
 10
19.71119876563027
 20
-4.002900779486287
 30
0.0
 10
19.37772396493959
 20
-4.004275647497999
 30
0.0
 10
18.46356580876994
 20
-4.008044588371372
 30
0.0
 10
16.96843989855243
 20
-3.750810943511533
 30
0.0
 10
15.22623034767285
 20
-3.253673787578578
 30
0.0
 10
13.48406645037376
 20
-2.542950473752613
 30
0.0
 10
11.74199801968646
 20
-1.67965275659165
 30
0.0
 10
10.5806569629692
 20
-1.026815863648937
 30
0.0
 10
9.99999999999843
 20
-0.7004050428320738
 30
0.0
1001
PE_URL
1000

  0
LINE
  5
A8
330
1F
100
AcDbEntity
  8
외형선
  6
Continuous
370
    15
100
AcDbLine
 10
10.0
 20
-0.7004050428274717
 30
0.0
 11
10.0
 21
0.7004050428274716
 31
0.0
  0
SPLINE
  5
A9
330
1F
100
AcDbEntity
  8
0
  6
Continuous
 62
     1
370
    15
100
AcDbSpline
210
0.0
220
0.0
230
1.0
 70
     8
 71
     3
 72
    10
 73
     6
 74
     0
 42
0.000000001
 43
0.00000001
 40
0.0
 40
0.0
 40
0.0
 40
0.0
 40
0.5
 40
0.5
 40
1.0
 40
1.0
 40
1.0
 40
1.0
 10
29.79999999999997
 20
1.772843302372541
 30
0.0
 10
29.85232997630201
 20
1.745814220855259
 30
0.0
 10
29.90026400348083
 20
1.706447080394944
 30
0.0
 10
29.97444670865812
 20
1.619541632296561
 30
0.0
 10
30.00000000000003
 20
1.572163179292176
 30
0.0
 10
30.00000000000001
 20
1.535133651997221
 30
0.0
1001
PE_URL
1000

  0
LINE
  5
AA
330
1F
100
AcDbEntity
  8
0
  6
Continuous
 62
     1
370
    15
100
AcDbLine
 10
29.99999999999999
 20
0.3517905771290555
 30
0.0
 11
29.99999999999999
 21
1.535133651997223
 31
0.0
1001
PE_URL
1000

  0
SPLINE
  5
AB
330
1F
100
AcDbEntity
  8
0
  6
Continuous
 62
     1
370
    15
100
AcDbSpline
210
0.0
220
0.0
230
1.0
 70
     8
 71
     3
 72
    12
 73
     8
 74
     0
 42
0.000000001
 43
0.00000001
 40
0.0
 40
0.0
 40
0.0
 40
0.0
 40
0.0888306844205796
 40
0.3166343104140384
 40
0.5444311142644538
 40
0.7722200311749138
 40
1.0
 40
1.0
 40
1.0
 40
1.0
 10
22.15162234019781
 20
3.942768059336283
 30
0.0
 10
22.37809576719135
 20
3.950382576393548
 30
0.0
 10
23.18535350533602
 20
3.977524294070149
 30
0.0
 10
24.57336940872299
 20
3.761086510927551
 30
0.0
 10
26.3156476408615
 20
3.307949434653682
 30
0.0
 10
28.0578540992214
 20
2.6374094207959
 30
0.0
 10
29.2192923038947
 20
2.061028234837694
 30
0.0
 10
29.8
 20
1.772843302372535
 30
0.0
1001
PE_URL
1000

  0
SPLINE
  5
AC
330
1F
100
AcDbEntity
  8
0
  6
Continuous
 62
     1
370
    15
100
AcDbSpline
210
0.0
220
0.0
230
1.0
 70
     8
 71
     3
 72
    11
 73
     7
 74
     0
 42
0.000000001
 43
0.00000001
 40
0.0
 40
0.0
 40
0.0
 40
0.0
 40
0.2892530730962667
 40
0.5785071407053252
 40
0.867732242018805
 40
1.0
 40
1.0
 40
1.0
 40
1.0
 10
9.999999999999986
 20
-3.960457705851745
 30
0.0
 10
10.52814258942215
 20
-3.996539481769063
 30
0.0
 10
11.58442958413166
 20
-4.068703157660421
 30
0.0
 10
13.1688195622284
 20
-3.902782492684849
 30
0.0
 10
14.46653824289437
 20
-3.643062232662113
 30
0.0
 10
15.23610625233847
 20
-3.374475117825206
 30
0.0
 10
15.4776027165812
 20
-3.290190379142886
 30
0.0
1001
PE_URL
1000

  0
SPLINE
  5
AD
330
1F
100
AcDbEntity
  8
외형선
  6
Continuous
370
    15
100
AcDbSpline
210
0.0
220
0.0
230
1.0
 70
    24
 71
     3
 72
    20
 73
    16
 74
     0
 42
0.000000001
 43
0.00000001
 40
0.0
 40
0.0
 40
0.0
 40
0.0
 40
0.0095814033561033
 40
0.0924267214715093
 40
0.1729372294027402
 40
0.2557825475181462
 40
0.3362930554493755
 40
0.4191383735647797
 40
0.4996488814960124
 40
0.5824941996114206
 40
0.6630047075426518
 40
0.7458500256580576
 40
0.8263605335891594
 40
0.9092058517046987
 40
1.0
 40
1.0
 40
1.0
 40
1.0
 10
10.0
 20
-0.4395498599597671
 30
0.0
 10
10.0
 20
-0.4383164968406163
 30
0.0
 10
9.999999999999886
 20
-0.4264188963273911
 30
0.0
 10
10.00000000000002
 20
-0.4687656359614428
 30
0.0
 10
10.0
 20
-0.5712142716804292
 30
0.0
 10
9.9999999999999
 20
-0.7433776267430822
 30
0.0
 10
9.999999999999986
 20
-0.9749642597623304
 30
0.0
 10
9.999999999999943
 20
-1.257529418339078
 30
0.0
 10
10.00000000000008
 20
-1.58754529244243
 30
0.0
 10
9.999999999999986
 20
-1.949909980231564
 30
0.0
 10
10.00000000000001
 20
-2.340787266310485
 30
0.0
 10
10.00000000000008
 20
-2.742304397957537
 30
0.0
 10
9.999999999999929
 20
-3.149518283826529
 30
0.0
 10
9.999999999999986
 20
-3.563303474308636
 30
0.0
 10
9.999999999999986
 20
-3.824093498771253
 30
0.0
 10
10.0
 20
-3.960457705851746
 30
0.0
  0
SPLINE
  5
AE
330
1F
100
AcDbEntity
  8
0
  6
Continuous
 62
     1
370
    15
100
AcDbSpline
210
0.0
220
0.0
230
1.0
 70
     8
 71
     3
 72
    10
 73
     6
 74
     0
 42
0.000000001
 43
0.00000001
 40
0.0
 40
0.0
 40
0.0
 40
0.0
 40
0.4637282142329824
 40
0.9275015653288552
 40
1.0
 40
1.0
 40
1.0
 40
1.0
 10
29.78947368421051
 20
3.96726764631976
 30
0.0
 10
29.27193446256121
 20
3.888680469273776
 30
0.0
 10
28.21575198856446
 20
3.773023565846581
 30
0.0
 10
27.07698239895927
 20
3.502866660678138
 30
0.0
 10
26.46628884032246
 20
3.276292210403807
 30
0.0
 10
26.3837293467224
 20
3.245661673020845
 30
0.0
1001
PE_URL
1000

  0
LINE
  5
B0
330
1F
100
AcDbEntity
  8
0
  6
Continuous
 62
     1
370
    15
100
AcDbLine
 10
29.99999999999999
 20
1.519716775853149
 30
0.0
 11
29.99999999999999
 21
3.753866398409993
 31
0.0
1001
PE_URL
1000

  0
LINE
  5
B1
330
1F
100
AcDbEntity
  8
0
  6
Continuous
 62
     1
370
    15
100
AcDbLine
 10
29.99999999999999
 20
-3.80824308935374
 30
0.0
 11
29.99999999999999
 21
-3.491167268072887
 31
0.0
1001
PE_URL
1000

  0
LINE
  5
B2
330
1F
100
AcDbEntity
  8
외형선
  6
Continuous
370
    15
100
AcDbLine
 10
-69.20000000000002
 20
-0.0271883454718733
 30
0.0
 11
-69.20000000000002
 21
3.972811654528127
 31
0.0
  0
LINE
  5
B3
330
1F
100
AcDbEntity
  8
외형선
  6
Continuous
370
    15
100
AcDbLine
 10
-69.20000000000002
 20
-4.027188345471873
 30
0.0
 11
-69.20000000000002
 21
-0.0271883454718733
 31
0.0
  0
LINE
  5
B4
330
1F
100
AcDbEntity
  8
외형선
  6
Continuous
370
    15
100
AcDbLine
 10
-70.00000000000003
 20
-0.0271883454718733
 30
0.0
 11
-70.00000000000003
 21
3.17281165452813
 31
0.0
  0
LINE
  5
B5
330
1F
100
AcDbEntity
  8
외형선
  6
Continuous
370
    15
100
AcDbLine
 10
-70.00000000000003
 20
-3.227188345471877
 30
0.0
 11
-70.00000000000003
 21
-0.0271883454718733
 31
0.0
  0
SPLINE
  5
B6
330
1F
100
AcDbEntity
  8
외형선
  6
Continuous
370
    15
100
AcDbSpline
210
0.0
220
0.0
230
1.0
 70
     8
 71
     3
 72
     8
 73
     4
 74
     0
 42
0.000000001
 43
0.00000001
 40
0.0
 40
0.0
 40
0.0
 40
0.0
 40
1.0
 40
1.0
 40
1.0
 40
1.0
 10
9.999999999999972
 20
3.915752090090677
 30
0.0
 10
9.66823072077046
 20
3.948098931749986
 30
0.0
 10
9.334605153858604
 20
3.966820399085445
 30
0.0
 10
8.999965140767749
 20
3.971587867094204
 30
0.0
  0
LINE
  5
B7
330
1F
100
AcDbEntity
  8
외형선
  6
Continuous
370
    15
100
AcDbLine
 10
8.999965140767706
 20
1.258695328569599
 30
0.0
 11
8.99996514076772
 21
3.971588637488265
 31
0.0
  0
SPLINE
  5
B8
330
1F
100
AcDbEntity
  8
외형선
  6
Continuous
370
    15
100
AcDbSpline
210
0.0
220
0.0
230
1.0
 70
     8
 71
     3
 72
     8
 73
     4
 74
     0
 42
0.000000001
 43
0.00000001
 40
0.0
 40
0.0
 40
0.0
 40
0.0
 40
1.0
 40
1.0
 40
1.0
 40
1.0
 10
10.0
 20
0.7004050428274605
 30
0.0
 10
9.668230720770502
 20
0.8893915039510936
 30
0.0
 10
9.334605153858618
 20
1.076205035504144
 30
0.0
 10
8.99996514076772
 20
1.258718598395151
 30
0.0
  0
SPLINE
  5
B9
330
1F
100
AcDbEntity
  8
외형선
  6
Continuous
370
    15
100
AcDbSpline
210
0.0
220
0.0
230
1.0
 70
     8
 71
     3
 72
     8
 73
     4
 74
     0
 42
0.000000001
 43
0.00000001
 40
0.0
 40
0.0
 40
0.0
 40
0.0
 40
1.0
 40
1.0
 40
1.0
 40
1.0
 10
9.999999999999972
 20
-0.7004050428329747
 30
0.0
 10
9.66823072077046
 20
-0.5109539040820108
 30
0.0
 10
9.334605153858604
 20
-0.3188127007851472
 30
0.0
 10
8.999965140767749
 20
-0.1261267192997438
 30
0.0
  0
LINE
  5
BA
330
1F
100
AcDbEntity
  8
외형선
  6
Continuous
370
    15
100
AcDbLine
 10
8.999965140767706
 20
-3.814866153421432
 30
0.0
 11
8.99996514076772
 21
-0.1260955775037882
 31
0.0
  0
SPLINE
  5
BB
330
1F
100
AcDbEntity
  8
외형선
  6
Continuous
370
    15
100
AcDbSpline
210
0.0
220
0.0
230
1.0
 70
     8
 71
     3
 72
     8
 73
     4
 74
     0
 42
0.000000001
 43
0.00000001
 40
0.0
 40
0.0
 40
0.0
 40
0.0
 40
1.0
 40
1.0
 40
1.0
 40
1.0
 10
10.0
 20
-3.960457705851748
 30
0.0
 10
9.668230720770502
 20
-3.925498162786441
 30
0.0
 10
9.334605153858618
 20
-3.876821271223434
 30
0.0
 10
8.99996514076772
 20
-3.81485825343832
 30
0.0
  0
SPLINE
  5
BC
330
1F
100
AcDbEntity
  8
외형선
  6
Continuous
370
    15
100
AcDbSpline
210
0.0
220
0.0
230
1.0
 70
    24
 71
     3
 72
    19
 73
    15
 74
     0
 42
0.000000001
 43
0.00000001
 40
0.0
 40
0.0
 40
0.0
 40
0.0
 40
0.1521503635133374
 40
0.2337767093178152
 40
0.3154030551222928
 40
0.3970294009268566
 40
0.4786557467314204
 40
0.5602820925359422
 40
0.641908438340464
 40
0.7235347841449846
 40
0.8051611299495053
 40
0.8867874757540204
 40
0.9684138215585354
 40
1.0
 40
1.0
 40
1.0
 40
1.0
 10
10.0
 20
-3.960457705851746
 30
0.0
 10
10.00000000000002
 20
-3.726955981266419
 30
0.0
 10
10.00000000000006
 20
-3.368184148369633
 30
0.0
 10
10.0
 20
-2.844227344978579
 30
0.0
 10
10.0
 20
-2.43977611588666
 30
0.0
 10
9.999999999999957
 20
-2.04611585290743
 30
0.0
 10
9.999999999999915
 20
-1.674595824702845
 30
0.0
 10
9.999999999999972
 20
-1.336697021503829
 30
0.0
 10
9.999999999999986
 20
-1.040412659986957
 30
0.0
 10
9.999999999999972
 20
-0.796457962837106
 30
0.0
 10
10.0
 20
-0.6080462036362979
 30
0.0
 10
10.00000000000001
 20
-0.4885200489928589
 30
0.0
 10
9.999999999999986
 20
-0.432464776890744
 30
0.0
 10
9.999999999999986
 20
-0.4417229013029085
 30
0.0
 10
10.0
 20
-0.4443059085422889
 30
0.0
  0
SPLINE
  5
BD
330
1F
100
AcDbEntity
  8
외형선
  6
Continuous
370
    15
100
AcDbSpline
210
0.0
220
0.0
230
1.0
 70
    24
 71
     3
 72
    16
 73
    12
 74
     0
 42
0.000000001
 43
0.00000001
 40
0.0
 40
0.0
 40
0.0
 40
0.0
 40
0.0863018152988798
 40
0.198525985489575
 40
0.3107501556802689
 40
0.4229743258709628
 40
0.5351984960616492
 40
0.6474226662523352
 40
0.759646836443038
 40
0.8718710066337411
 40
1.0
 40
1.0
 40
1.0
 40
1.0
 10
9.999999999999929
 20
0.7691112183322383
 30
0.0
 10
9.999999999999915
 20
0.8239702696126768
 30
0.0
 10
9.999999999999957
 20
0.9501663082562993
 30
0.0
 10
9.999999999999986
 20
1.211895290379156
 30
0.0
 10
9.999999999999972
 20
1.53509335372247
 30
0.0
 10
10.00000000000001
 20
1.895913819276145
 30
0.0
 10
9.999999999999957
 20
2.282983334786921
 30
0.0
 10
10.0
 20
2.685297303697143
 30
0.0
 10
10.00000000000002
 20
3.090898748973471
 30
0.0
 10
10.00000000000004
 20
3.510147366489112
 30
0.0
 10
10.00000000000005
 20
3.774714799781716
 30
0.0
 10
10.00000000000005
 20
3.915752090090741
 30
0.0
  0
LINE
  5
BE
330
1F
100
AcDbEntity
  8
중심선
100
AcDbLine
 10
-73.00000000000003
 20
-0.0271883454718733
 30
0.0
 11
32.99999999999999
 21
-0.0271883454718773
 31
0.0
  0
LINE
  5
BF
330
1F
100
AcDbEntity
  8
참조1
100
AcDbLine
 10
-45.00051336755625
 20
-2.527188345471847
 30
0.0
 11
-45.00051336755624
 21
-40.02718834547187
 31
0.0
  0
LINE
  5
C0
330
1F
100
AcDbEntity
  8
참조1
100
AcDbLine
 10
-45.00051336755624
 20
-40.02718834547187
 30
0.0
 11
-60.1588568143087
 21
-40.02718834547187
 31
0.0
  0
CIRCLE
  5
C1
330
1F
100
AcDbEntity
  8
해칭선
100
AcDbCircle
 10
0.0
 20
0.0
 30
0.0
 40
3.000000000000001
  0
INSERT
  5
C2
330
1F
100
AcDbEntity
  8
0
  6
Continuous
 62
     7
100
AcDbBlockReference
 66
     1
  2
블럭10
 10
-33.72648136885962
 20
-52.07436264711581
 30
0.0
  0
ATTRIB
  5
C3
330
C2
100
AcDbEntity
  8
FORMAT
 62
     2
100
AcDbText
 10
-49.84574240829517
 20
-49.99899573428361
 30
0.0
 40
4.233333333333333
  1
SEME0108002E [ 4 FLUTE ]
 41
0.75
  7
SLDTEXTSTYLE0
 11
-49.84574240829517
 21
-52.11566240095028
 31
0.0
100
AcDbAttribute
  2
AUTOATTR0
 70
     0
 74
     1
  0
SEQEND
  5
C4
330
C2
100
AcDbEntity
  8
0
  6
Continuous
 62
     7
  0
HATCH
  5
C5
330
1F
100
AcDbEntity
  8
중심선
100
AcDbHatch
 10
0.0
 20
0.0
 30
0.0
210
0.0
220
0.0
230
1.0
  2
SOLID
 70
     1
 71
     0
 91
        1
 92
        0
 93
        4
 72
     1
 10
-28.01157206447877
 20
-35.82718834547187
 11
-31.45784730831605
 21
-35.82718834547187
 72
     1
 10
-31.45784730831605
 20
-35.82718834547187
 11
-33.58607716752007
 21
-38.36351392604446
 72
     1
 10
-33.58607716752007
 20
-38.36351392604446
 11
-30.13976883856964
 21
-38.36347449674197
 72
     1
 10
-30.13976883856964
 20
-38.36347449674197
 11
-28.01157206447877
 21
-35.82718834547187
 97
        0
 75
     0
 76
     1
 98
        1
 10
-4.010566199774608
 20
-0.0271883454718733
  0
HATCH
  5
C6
330
1F
100
AcDbEntity
  8
중심선
100
AcDbHatch
 10
0.0
 20
0.0
 30
0.0
210
0.0
220
0.0
230
1.0
  2
SOLID
 70
     1
 71
     0
 91
        1
 92
        0
 93
        4
 72
     1
 10
-22.99880807344282
 20
-35.82718834547187
 11
-26.4450833172801
 21
-35.82718834547187
 72
     1
 10
-26.4450833172801
 20
-35.82718834547187
 11
-30.97622132563749
 21
-41.22718834547189
 72
     1
 10
-30.97622132563749
 20
-41.22718834547189
 11
-27.52994608180021
 21
-41.22718834547189
 72
     1
 10
-27.52994608180021
 20
-41.22718834547189
 11
-22.99880807344282
 21
-35.82718834547187
 97
        0
 75
     0
 76
     1
 98
        1
 10
-4.010566199774608
 20
-0.0271883454718733
  0
HATCH
  5
C7
330
1F
100
AcDbEntity
  8
중심선
100
AcDbHatch
 10
0.0
 20
0.0
 30
0.0
210
0.0
220
0.0
230
1.0
  2
SOLID
 70
     1
 71
     0
 91
        1
 92
        0
 93
        4
 72
     1
 10
-17.98604408240692
 20
-35.8271883454719
 11
-21.43231932624404
 21
-35.82718834547187
 72
     1
 10
-21.43231932624404
 20
-35.82718834547187
 11
-28.48075622813329
 21
-44.22718834547189
 72
     1
 10
-28.48075622813329
 20
-44.22718834547189
 11
-25.03448098429601
 21
-44.22718834547189
 72
     1
 10
-25.03448098429601
 20
-44.22718834547189
 11
-17.98604408240692
 21
-35.8271883454719
 97
        0
 75
     0
 76
     1
 98
        1
 10
-4.010566199774608
 20
-0.0271883454718733
  0
HATCH
  5
C8
330
1F
100
AcDbEntity
  8
중심선
100
AcDbHatch
 10
0.0
 20
0.0
 30
0.0
210
0.0
220
0.0
230
1.0
  2
SOLID
 70
     1
 71
     0
 91
        1
 92
        0
 93
        6
 72
     3
 10
-13.18615365139473
 20
-40.02718834552314
 11
3.960054785062283
 21
1.540882976769353E-10
 40
0.3939339440162628
 50
17.09539180608439
 51
320.0019657685081
 73
     0
 72
     1
 10
-11.50315399569413
 20
-38.61508235011017
 11
-9.19785212199309
 21
-36.68075564006225
 72
     3
 10
-13.18615365144757
 20
-40.02718834547202
 11
6.600054785286829
 21
-1.278976924368180E-13
 40
0.636358354079598
 50
39.99873849337413
 51
368.4976242363725
 73
     1
 72
     1
 10
-6.760821159546961
 20
-39.06718834540189
 11
-14.50608634461165
 21
-39.06718834540186
 72
     1
 10
-14.50608634461165
 20
-39.06718834540186
 11
-14.50611138905758
 21
-40.98718834540178
 72
     1
 10
-14.50611138905758
 20
-40.98718834540178
 11
-10.06473161958554
 21
-40.98718834540175
 97
        0
 75
     0
 76
     1
 98
        1
 10
-4.010566199774608
 20
-0.0271883454718733
  0
DIMENSION
  5
C9
330
1F
100
AcDbEntity
  8
치수문자_일반주서
100
AcDbDimension
  2
_D
 10
40.0
 20
-4.02718834547184
 30
0.0
 11
39.99999999999994
 21
13.63931165452819
 31
0.0
 70
   160
  1
%%c<>
 71
     2
 42
8.0
 52
-270.0
  3
SLDDIMSTYLE0
100
AcDbAlignedDimension
 13
29.99999999999999
 23
3.972811654528123
 33
0.0
 14
29.99999999999999
 24
-4.027188345471877
 34
0.0
 50
90.0000000000002
100
AcDbRotatedDimension
1001
PE_URL
1000

  0
DIMENSION
  5
D7
330
1F
100
AcDbEntity
  8
치수문자_일반주서
100
AcDbDimension
  2
_D_1
 10
-80.00000000000001
 20
-4.027188345471918
 30
0.0
 11
-80.00000000000007
 21
13.63931165452809
 31
0.0
 70
   160
  1
%%c<>
 71
     2
 42
8.000000000000007
 52
-270.0
  3
SLDDIMSTYLE0
100
AcDbAlignedDimension
 13
-69.20000000000002
 23
3.97281165452813
 33
0.0
 14
-69.20000000000002
 24
-4.027188345471877
 34
0.0
 50
90.0000000000002
100
AcDbRotatedDimension
1001
PE_URL
1000

  0
DIMENSION
  5
E4
330
1F
100
AcDbEntity
  8
치수문자_일반주서
100
AcDbDimension
  2
_D_2
 10
10.0
 20
13.97281165452813
 30
0.0
 11
19.99999999999999
 21
13.97281165452813
 31
0.0
 70
   160
  1
<>
 71
     2
 42
19.99999999999999
  3
SLDDIMSTYLE0
100
AcDbAlignedDimension
 13
29.99999999999999
 23
3.753866398409993
 33
0.0
 14
10.0
 24
3.91575209007995
 34
0.0
100
AcDbRotatedDimension
1001
PE_URL
1000

  0
DIMENSION
  5
EE
330
1F
100
AcDbEntity
  8
치수문자_일반주서
100
AcDbDimension
  2
_D_3
 10
-70.00000000000003
 20
23.97281165452813
 30
0.0
 11
-20.00000000000003
 21
23.97281165452813
 31
0.0
 70
   160
  1
<>
 71
     2
 42
100.0
  3
SLDDIMSTYLE0
100
AcDbAlignedDimension
 13
29.99999999999999
 23
3.972811654528123
 33
0.0
 14
-70.00000000000003
 24
3.17281165452813
 34
0.0
 50
0.0000000000000041
100
AcDbRotatedDimension
1001
PE_URL
1000

  0
LINE
  5
F9
330
1F
100
AcDbEntity
  8
참조1
100
AcDbLine
 10
37.81348381534557
 20
7.412811654528129
 30
0.0
 11
37.81348381534557
 21
-7.467188345471875
 31
0.0
  0
LINE
  5
FA
330
1F
100
AcDbEntity
  8
참조1
100
AcDbLine
 10
50.51348381534557
 20
5.412811654528129
 30
0.0
 11
37.81348381534557
 21
5.412811654528129
 31
0.0
  0
SOLID
  5
FB
330
1F
100
AcDbEntity
  8
참조1
100
AcDbTrace
 10
37.81348381534557
 20
5.412811654528129
 30
0.0
 11
44.16348381534556
 21
4.396811654528129
 31
0.0
 12
44.16348381534556
 22
6.428811654528129
 32
0.0
 13
44.16348381534556
 23
6.428811654528129
 33
0.0
  0
LINE
  5
FC
330
1F
100
AcDbEntity
  8
참조1
100
AcDbLine
 10
50.51348381534557
 20
-5.467188345471875
 30
0.0
 11
37.81348381534557
 21
-5.467188345471875
 31
0.0
  0
SOLID
  5
FD
330
1F
100
AcDbEntity
  8
참조1
100
AcDbTrace
 10
37.81348381534557
 20
-5.467188345471875
 30
0.0
 11
44.16348381534556
 21
-6.483188345471875
 31
0.0
 12
44.16348381534556
 22
-4.451188345471875
 32
0.0
 13
44.16348381534556
 23
-4.451188345471875
 33
0.0
  0
MTEXT
  5
FE
330
1F
100
AcDbEntity
  8
참조1
100
AcDbMText
 10
47.21097390781585
 20
10.96102829917806
 30
0.0
 40
3.5
 41
0.0
 71
     1
 72
     1
  1
A
  7
SLDTEXTSTYLE0
 73
     1
 44
1.0
  0
MTEXT
  5
FF
330
1F
100
AcDbEntity
  8
참조1
100
AcDbMText
 10
47.21097390781585
 20
0.0810282991780595
 30
0.0
 40
3.5
 41
0.0
 71
     1
 72
     1
  1
A
  7
SLDTEXTSTYLE0
 73
     1
 44
1.0
  0
INSERT
  5
106
330
1F
100
AcDbEntity
  8
해칭선
100
AcDbBlockReference
  2
SW_DOWELSYMBOL_0
 10
0.0
 20
0.0
 30
0.0
  0
ARC
  5
1B7
330
1F
100
AcDbEntity
  8
0
  6
Continuous
 62
     1
370
    15
100
AcDbCircle
 10
29.79999999999998
 20
3.767544846730178
 30
0.0
 40
0.2
100
AcDbArc
 50
0.0
 51
93.0169613098169
1001
PE_URL
1000

  0
ARC
  5
1B8
102
{ACAD_REACTORS
102
}
330
1F
100
AcDbEntity
  8
0
  6
Continuous
 62
     1
370
    15
100
AcDbCircle
 10
29.79999999999998
 20
-3.821921537673932
 30
0.0
 40
0.2
100
AcDbArc
 50
266.9830386901831
 51
0.0
1001
PE_URL
1000

  0
DIMENSION
  5
1B9
102
{ACAD_REACTORS
102
}
102
{ACAD_XDICTIONARY
360
1BA
102
}
330
1F
100
AcDbEntity
  8
치수문자_일반주서
100
AcDbDimension
  2
*D12
 10
29.79999999999998
 20
-3.821921537673932
 30
0.0
 11
40.35905333572413
 21
-18.00507799176544
 31
0.0
 70
   164
 71
     5
 42
0.2000000000000023
  3
SLDDIMSTYLE1
100
AcDbRadialDimension
 15
29.91943233383457
 25
-3.98234571800478
 35
0.0
 40
0.0
1001
ACAD
1000
DSTYLE
1002
{
1070
    78
1070
     8
1002
}
1001
ACAD_DSTYLE_DIMRADIAL_EXTENSION
1070
   387
1070
     1
1070
   388
1040
4.659733072123104
1070
   390
1040
0.0
1001
PE_URL
1000

  0
ENDSEC
  0
SECTION
  2
OBJECTS
  0
DICTIONARY
  5
C
330
0
100
AcDbDictionary
281
     1
  3
ACAD_DETAILVIEWSTYLE
350
1A3
  3
ACAD_GROUP
350
D
  3
ACAD_LAYOUT
350
1A
  3
ACAD_MLINESTYLE
350
17
  3
ACAD_PLOTSETTINGS
350
19
  3
ACAD_PLOTSTYLENAME
350
E
  3
ACAD_SCALELIST
350
47
  3
ACAD_SECTIONVIEWSTYLE
350
1A4
  3
AcDbVariableDictionary
350
19E
  3
APPDATA
350
128
  3
DWGPROPS
350
1C7
  0
DICTIONARY
  5
16E
330
2
100
AcDbDictionary
280
     1
281
     1
  3
ACAD_LAYERSTATES
360
16F
  0
DICTIONARY
  5
1BA
330
1B9
100
AcDbDictionary
280
     1
281
     1
  0
DICTIONARY
  5
1A3
102
{ACAD_REACTORS
330
C
102
}
330
C
100
AcDbDictionary
281
     1
  0
DICTIONARY
  5
D
102
{ACAD_REACTORS
330
C
102
}
330
C
100
AcDbDictionary
281
     1
  0
DICTIONARY
  5
1A
102
{ACAD_REACTORS
330
C
102
}
330
C
100
AcDbDictionary
281
     1
  3
Layout1
350
1E
  3
Layout2
350
26
  3
Model
350
22
  0
DICTIONARY
  5
17
102
{ACAD_REACTORS
330
C
102
}
330
C
100
AcDbDictionary
281
     1
  3
Standard
350
18
  0
DICTIONARY
  5
19
102
{ACAD_REACTORS
330
C
102
}
330
C
100
AcDbDictionary
281
     1
  0
ACDBDICTIONARYWDFLT
  5
E
102
{ACAD_REACTORS
330
C
102
}
330
C
100
AcDbDictionary
281
     1
  3
Normal
350
F
100
AcDbDictionaryWithDefault
340
F
  0
DICTIONARY
  5
47
102
{ACAD_REACTORS
330
C
102
}
330
C
100
AcDbDictionary
281
     1
  3
A0
350
48
  3
A1
350
49
  3
A2
350
4A
  3
A3
350
4B
  3
A4
350
4C
  3
A5
350
4D
  3
A6
350
4E
  3
A7
350
4F
  3
A8
350
50
  3
A9
350
51
  3
B0
350
52
  3
B1
350
53
  3
B2
350
54
  3
B3
350
55
  3
B4
350
56
  3
B5
350
57
  3
B6
350
58
  3
B7
350
59
  3
B8
350
5A
  3
B9
350
5B
  3
C0
350
5C
  3
C1
350
5D
  3
C2
350
5E
  3
C3
350
5F
  3
C4
350
60
  3
C5
350
61
  3
C6
350
62
  3
C7
350
63
  3
C8
350
64
  3
C9
350
65
  3
D0
350
66
  3
D1
350
67
  3
D2
350
68
  0
DICTIONARY
  5
1A4
102
{ACAD_REACTORS
330
C
102
}
330
C
100
AcDbDictionary
281
     1
  0
DICTIONARY
  5
19E
102
{ACAD_REACTORS
330
C
102
}
330
C
100
AcDbDictionary
281
     1
  0
DICTIONARY
  5
128
102
{ACAD_REACTORS
330
C
102
}
330
C
100
AcDbDictionary
281
     1
  0
XRECORD
  5
1C7
102
{ACAD_REACTORS
330
C
102
}
330
C
100
AcDbXrecord
280
     1
  1
DWGPROPS COOKIE
  2

  3

  4

  6

  7

  8
12017044
  9

300
=
301
=
302
=
303
=
304
=
305
=
306
=
307
=
308
=
309
=
 40
0.0
 41
2458269.438613403
 42
2458270.448726898
  1

 90
        0
  0
DICTIONARY
  5
16F
102
{ACAD_REACTORS
330
16E
102
}
330
16E
100
AcDbDictionary
281
     1
  0
LAYOUT
  5
1E
102
{ACAD_REACTORS
330
1A
102
}
330
1A
100
AcDbPlotSettings
  1

  2
none_device
  4

  6

 40
0.0
 41
0.0
 42
0.0
 43
0.0
 44
0.0
 45
0.0
 46
0.0
 47
0.0
 48
0.0
 49
0.0
140
0.0
141
0.0
142
1.0
143
1.0
 70
   688
 72
     1
 73
     0
 74
     5
  7

 75
    16
147
1.0
148
0.0
149
0.0
100
AcDbLayout
  1
Layout1
 70
     1
 71
     1
 10
0.0
 20
0.0
 11
420.0
 21
297.0
 12
0.0
 22
0.0
 32
0.0
 14
1.000000000000000E+20
 24
1.000000000000000E+20
 34
1.000000000000000E+20
 15
-1.000000000000000E+20
 25
-1.000000000000000E+20
 35
-1.000000000000000E+20
146
0.0
 13
0.0
 23
0.0
 33
0.0
 16
1.0
 26
0.0
 36
0.0
 17
0.0
 27
1.0
 37
0.0
 76
     0
330
1B
  0
LAYOUT
  5
26
102
{ACAD_REACTORS
330
1A
102
}
330
1A
100
AcDbPlotSettings
  1

  2
none_device
  4

  6

 40
0.0
 41
0.0
 42
0.0
 43
0.0
 44
0.0
 45
0.0
 46
0.0
 47
0.0
 48
0.0
 49
0.0
140
0.0
141
0.0
142
1.0
143
1.0
 70
   688
 72
     1
 73
     0
 74
     5
  7

 75
    16
147
1.0
148
0.0
149
0.0
100
AcDbLayout
  1
Layout2
 70
     1
 71
     2
 10
0.0
 20
0.0
 11
0.0
 21
0.0
 12
0.0
 22
0.0
 32
0.0
 14
0.0
 24
0.0
 34
0.0
 15
0.0
 25
0.0
 35
0.0
146
0.0
 13
0.0
 23
0.0
 33
0.0
 16
1.0
 26
0.0
 36
0.0
 17
0.0
 27
1.0
 37
0.0
 76
     0
330
23
  0
LAYOUT
  5
22
102
{ACAD_REACTORS
330
1A
102
}
330
1A
100
AcDbPlotSettings
  1

  2
none_device
  4
ANSI_A_(11.00_x_8.50_Inches)
  6

 40
6.35
 41
19.05
 42
6.35000508
 43
19.05000254
 44
279.4
 45
215.9
 46
110.9593412050573
 47
106.4582439998839
 48
0.0
 49
0.0
140
0.0
141
0.0
142
0.0787616753210067
143
1.0
 70
  1696
 72
     0
 73
     0
 74
     0
  7

 75
     0
147
0.0235690232323232
148
0.0
149
0.0
100
AcDbLayout
  1
Model
 70
     1
 71
     0
 10
0.0
 20
0.0
 11
420.0
 21
297.0
 12
0.0
 22
0.0
 32
0.0
 14
-84.37500000000009
 24
-49.99899573428361
 34
0.0
 15
50.51348381534557
 25
28.34781165452813
 35
0.0
146
0.0
 13
0.0
 23
0.0
 33
0.0
 16
1.0
 26
0.0
 36
0.0
 17
0.0
 27
1.0
 37
0.0
 76
     0
330
1F
331
29
  0
MLINESTYLE
  5
18
102
{ACAD_REACTORS
330
17
102
}
330
17
100
AcDbMlineStyle
  2
Standard
 70
     0
  3

 62
   256
 51
90.0
 52
90.0
 71
     2
 49
0.5
 62
   256
  6
BYLAYER
 49
-0.5
 62
   256
  6
BYLAYER
  0
ACDBPLACEHOLDER
  5
F
102
{ACAD_REACTORS
330
E
102
}
330
E
  0
SCALE
  5
48
102
{ACAD_REACTORS
330
47
102
}
330
47
100
AcDbScale
 70
     0
300
1:1
140
1.0
141
1.0
290
     1
  0
SCALE
  5
49
102
{ACAD_REACTORS
330
47
102
}
330
47
100
AcDbScale
 70
     0
300
1:2
140
1.0
141
2.0
290
     0
  0
SCALE
  5
4A
102
{ACAD_REACTORS
330
47
102
}
330
47
100
AcDbScale
 70
     0
300
1:4
140
1.0
141
4.0
290
     0
  0
SCALE
  5
4B
102
{ACAD_REACTORS
330
47
102
}
330
47
100
AcDbScale
 70
     0
300
1:5
140
1.0
141
5.0
290
     0
  0
SCALE
  5
4C
102
{ACAD_REACTORS
330
47
102
}
330
47
100
AcDbScale
 70
     0
300
1:8
140
1.0
141
8.0
290
     0
  0
SCALE
  5
4D
102
{ACAD_REACTORS
330
47
102
}
330
47
100
AcDbScale
 70
     0
300
1:10
140
1.0
141
10.0
290
     0
  0
SCALE
  5
4E
102
{ACAD_REACTORS
330
47
102
}
330
47
100
AcDbScale
 70
     0
300
1:16
140
1.0
141
16.0
290
     0
  0
SCALE
  5
4F
102
{ACAD_REACTORS
330
47
102
}
330
47
100
AcDbScale
 70
     0
300
1:20
140
1.0
141
20.0
290
     0
  0
SCALE
  5
50
102
{ACAD_REACTORS
330
47
102
}
330
47
100
AcDbScale
 70
     0
300
1:30
140
1.0
141
30.0
290
     0
  0
SCALE
  5
51
102
{ACAD_REACTORS
330
47
102
}
330
47
100
AcDbScale
 70
     0
300
1:40
140
1.0
141
40.0
290
     0
  0
SCALE
  5
52
102
{ACAD_REACTORS
330
47
102
}
330
47
100
AcDbScale
 70
     0
300
1:50
140
1.0
141
50.0
290
     0
  0
SCALE
  5
53
102
{ACAD_REACTORS
330
47
102
}
330
47
100
AcDbScale
 70
     0
300
1:100
140
1.0
141
100.0
290
     0
  0
SCALE
  5
54
102
{ACAD_REACTORS
330
47
102
}
330
47
100
AcDbScale
 70
     0
300
2:1
140
2.0
141
1.0
290
     0
  0
SCALE
  5
55
102
{ACAD_REACTORS
330
47
102
}
330
47
100
AcDbScale
 70
     0
300
4:1
140
4.0
141
1.0
290
     0
  0
SCALE
  5
56
102
{ACAD_REACTORS
330
47
102
}
330
47
100
AcDbScale
 70
     0
300
8:1
140
8.0
141
1.0
290
     0
  0
SCALE
  5
57
102
{ACAD_REACTORS
330
47
102
}
330
47
100
AcDbScale
 70
     0
300
10:1
140
10.0
141
1.0
290
     0
  0
SCALE
  5
58
102
{ACAD_REACTORS
330
47
102
}
330
47
100
AcDbScale
 70
     0
300
100:1
140
100.0
141
1.0
290
     0
  0
SCALE
  5
59
102
{ACAD_REACTORS
330
47
102
}
330
47
100
AcDbScale
 70
     0
300
1/128" = 1'-0"
140
0.0078125
141
12.0
290
     0
  0
SCALE
  5
5A
102
{ACAD_REACTORS
330
47
102
}
330
47
100
AcDbScale
 70
     0
300
1/64" = 1'-0"
140
0.015625
141
12.0
290
     0
  0
SCALE
  5
5B
102
{ACAD_REACTORS
330
47
102
}
330
47
100
AcDbScale
 70
     0
300
1/32" = 1'-0"
140
0.03125
141
12.0
290
     0
  0
SCALE
  5
5C
102
{ACAD_REACTORS
330
47
102
}
330
47
100
AcDbScale
 70
     0
300
1/16" = 1'-0"
140
0.0625
141
12.0
290
     0
  0
SCALE
  5
5D
102
{ACAD_REACTORS
330
47
102
}
330
47
100
AcDbScale
 70
     0
300
3/32" = 1'-0"
140
0.09375
141
12.0
290
     0
  0
SCALE
  5
5E
102
{ACAD_REACTORS
330
47
102
}
330
47
100
AcDbScale
 70
     0
300
1/8" = 1'-0"
140
0.125
141
12.0
290
     0
  0
SCALE
  5
5F
102
{ACAD_REACTORS
330
47
102
}
330
47
100
AcDbScale
 70
     0
300
3/16" = 1'-0"
140
0.1875
141
12.0
290
     0
  0
SCALE
  5
60
102
{ACAD_REACTORS
330
47
102
}
330
47
100
AcDbScale
 70
     0
300
1/4" = 1'-0"
140
0.25
141
12.0
290
     0
  0
SCALE
  5
61
102
{ACAD_REACTORS
330
47
102
}
330
47
100
AcDbScale
 70
     0
300
3/8" = 1'-0"
140
0.375
141
12.0
290
     0
  0
SCALE
  5
62
102
{ACAD_REACTORS
330
47
102
}
330
47
100
AcDbScale
 70
     0
300
1/2" = 1'-0"
140
0.5
141
12.0
290
     0
  0
SCALE
  5
63
102
{ACAD_REACTORS
330
47
102
}
330
47
100
AcDbScale
 70
     0
300
3/4" = 1'-0"
140
0.75
141
12.0
290
     0
  0
SCALE
  5
64
102
{ACAD_REACTORS
330
47
102
}
330
47
100
AcDbScale
 70
     0
300
1" = 1'-0"
140
1.0
141
12.0
290
     0
  0
SCALE
  5
65
102
{ACAD_REACTORS
330
47
102
}
330
47
100
AcDbScale
 70
     0
300
1-1/2" = 1'-0"
140
1.5
141
12.0
290
     0
  0
SCALE
  5
66
102
{ACAD_REACTORS
330
47
102
}
330
47
100
AcDbScale
 70
     0
300
3" = 1'-0"
140
3.0
141
12.0
290
     0
  0
SCALE
  5
67
102
{ACAD_REACTORS
330
47
102
}
330
47
100
AcDbScale
 70
     0
300
6" = 1'-0"
140
6.0
141
12.0
290
     0
  0
SCALE
  5
68
102
{ACAD_REACTORS
330
47
102
}
330
47
100
AcDbScale
 70
     0
300
1'-0" = 1'-0"
140
12.0
141
12.0
290
     0
  0
ENDSEC
  0
EOF
