  0
SECTION
  2
HEADER
  9
$ACADVER
  1
AC1015
  9
$ACADMAINTVER
 70
     6
  9
$DWGCODEPAGE
  3
ANSI_949
  9
$INSBASE
 10
0.0
 20
0.0
 30
0.0
  9
$EXTMIN
 10
-84.37500000000007
 20
-49.99899573428362
 30
0.0
  9
$EXTMAX
 10
50.51348381534557
 20
28.34781165452813
 30
0.0
  9
$LIMMIN
 10
0.0
 20
0.0
  9
$LIMMAX
 10
420.0
 20
297.0
  9
$ORTHOMODE
 70
     1
  9
$REGENMODE
 70
     1
  9
$FILLMODE
 70
     1
  9
$QTEXTMODE
 70
     0
  9
$MIRRTEXT
 70
     1
  9
$LTSCALE
 40
1.0
  9
$ATTMODE
 70
     1
  9
$TEXTSIZE
 40
3.5
  9
$TRACEWID
 40
1.0
  9
$TEXTSTYLE
  7
Standard
  9
$CLAYER
  8
0
  9
$CELTYPE
  6
ByLayer
  9
$CECOLOR
 62
   256
  9
$CELTSCALE
 40
1.0
  9
$DISPSILH
 70
     0
  9
$DIMSCALE
 40
1.0
  9
$DIMASZ
 40
3.302
  9
$DIMEXO
 40
1.0
  9
$DIMDLI
 40
3.75
  9
$DIMRND
 40
0.0
  9
$DIMDLE
 40
0.0
  9
$DIMEXE
 40
1.0
  9
$DIMTP
 40
0.0
  9
$DIMTM
 40
0.0
  9
$DIMTXT
 40
3.5
  9
$DIMCEN
 40
2.5
  9
$DIMTSZ
 40
0.0
  9
$DIMTOL
 70
     0
  9
$DIMLIM
 70
     0
  9
$DIMTIH
 70
     1
  9
$DIMTOH
 70
     1
  9
$DIMSE1
 70
     0
  9
$DIMSE2
 70
     0
  9
$DIMTAD
 70
     1
  9
$DIMZIN
 70
     0
  9
$DIMBLK
  1

  9
$DIMASO
 70
     1
  9
$DIMSHO
 70
     1
  9
$DIMPOST
  1

  9
$DIMAPOST
  1

  9
$DIMALT
 70
     0
  9
$DIMALTD
 70
     3
  9
$DIMALTF
 40
0.0393700787401575
  9
$DIMLFAC
 40
1.0
  9
$DIMTOFL
 70
     1
  9
$DIMTVP
 40
0.0
  9
$DIMTIX
 70
     0
  9
$DIMSOXD
 70
     0
  9
$DIMSAH
 70
     0
  9
$DIMBLK1
  1

  9
$DIMBLK2
  1

  9
$DIMSTYLE
  2
ISO-25
  9
$DIMCLRD
 70
     0
  9
$DIMCLRE
 70
     0
  9
$DIMCLRT
 70
     0
  9
$DIMTFAC
 40
1.0
  9
$DIMGAP
 40
1.524
  9
$DIMJUST
 70
     0
  9
$DIMSD1
 70
     0
  9
$DIMSD2
 70
     0
  9
$DIMTOLJ
 70
     0
  9
$DIMTZIN
 70
     0
  9
$DIMALTZ
 70
     0
  9
$DIMALTTZ
 70
     0
  9
$DIMUPT
 70
     0
  9
$DIMDEC
 70
     2
  9
$DIMTDEC
 70
     2
  9
$DIMALTU
 70
     2
  9
$DIMALTTD
 70
     3
  9
$DIMTXSTY
  7
Standard
  9
$DIMAUNIT
 70
     0
  9
$DIMADEC
 70
     2
  9
$DIMALTRND
 40
0.0
  9
$DIMAZIN
 70
     0
  9
$DIMDSEP
 70
    44
  9
$DIMATFIT
 70
     3
  9
$DIMFRAC
 70
     0
  9
$DIMLDRBLK
  1

  9
$DIMLUNIT
 70
     2
  9
$DIMLWD
 70
    -2
  9
$DIMLWE
 70
    -2
  9
$DIMTMOVE
 70
     0
  9
$LUNITS
 70
     2
  9
$LUPREC
 70
     2
  9
$SKETCHINC
 40
1.0
  9
$FILLETRAD
 40
10.0
  9
$AUNITS
 70
     0
  9
$AUPREC
 70
     2
  9
$MENU
  1
.
  9
$ELEVATION
 40
0.0
  9
$PELEVATION
 40
0.0
  9
$THICKNESS
 40
0.0
  9
$LIMCHECK
 70
     0
  9
$CHAMFERA
 40
0.0
  9
$CHAMFERB
 40
0.0
  9
$CHAMFERC
 40
0.0
  9
$CHAMFERD
 40
0.0
  9
$SKPOLY
 70
     0
  9
$TDCREATE
 40
2458269.815693044
  9
$TDUCREATE
 40
2458269.440693044
  9
$TDUPDATE
 40
2458270.835672639
  9
$TDUUPDATE
 40
2458270.460672639
  9
$TDINDWG
 40
0.0015816435
  9
$TDUSRTIMER
 40
0.0023132755
  9
$USRTIMER
 70
     1
  9
$ANGBASE
 50
0.0
  9
$ANGDIR
 70
     0
  9
$PDMODE
 70
     0
  9
$PDSIZE
 40
-1.0
  9
$PLINEWID
 40
0.0
  9
$SPLFRAME
 70
     0
  9
$SPLINETYPE
 70
     6
  9
$SPLINESEGS
 70
     8
  9
$HANDSEED
  5
1C9
  9
$SURFTAB1
 70
     6
  9
$SURFTAB2
 70
     6
  9
$SURFTYPE
 70
     6
  9
$SURFU
 70
     6
  9
$SURFV
 70
     6
  9
$UCSBASE
  2

  9
$UCSNAME
  2

  9
$UCSORG
 10
0.0
 20
0.0
 30
0.0
  9
$UCSXDIR
 10
1.0
 20
0.0
 30
0.0
  9
$UCSYDIR
 10
0.0
 20
1.0
 30
0.0
  9
$UCSORTHOREF
  2

  9
$UCSORTHOVIEW
 70
     0
  9
$UCSORGTOP
 10
0.0
 20
0.0
 30
0.0
  9
$UCSORGBOTTOM
 10
0.0
 20
0.0
 30
0.0
  9
$UCSORGLEFT
 10
0.0
 20
0.0
 30
0.0
  9
$UCSORGRIGHT
 10
0.0
 20
0.0
 30
0.0
  9
$UCSORGFRONT
 10
0.0
 20
0.0
 30
0.0
  9
$UCSORGBACK
 10
0.0
 20
0.0
 30
0.0
  9
$PUCSBASE
  2

  9
$PUCSNAME
  2

  9
$PUCSORG
 10
0.0
 20
0.0
 30
0.0
  9
$PUCSXDIR
 10
1.0
 20
0.0
 30
0.0
  9
$PUCSYDIR
 10
0.0
 20
1.0
 30
0.0
  9
$PUCSORTHOREF
  2

  9
$PUCSORTHOVIEW
 70
     0
  9
$PUCSORGTOP
 10
0.0
 20
0.0
 30
0.0
  9
$PUCSORGBOTTOM
 10
0.0
 20
0.0
 30
0.0
  9
$PUCSORGLEFT
 10
0.0
 20
0.0
 30
0.0
  9
$PUCSORGRIGHT
 10
0.0
 20
0.0
 30
0.0
  9
$PUCSORGFRONT
 10
0.0
 20
0.0
 30
0.0
  9
$PUCSORGBACK
 10
0.0
 20
0.0
 30
0.0
  9
$USERI1
 70
     0
  9
$USERI2
 70
     0
  9
$USERI3
 70
     0
  9
$USERI4
 70
     0
  9
$USERI5
 70
     0
  9
$USERR1
 40
0.0
  9
$USERR2
 40
0.0
  9
$USERR3
 40
0.0
  9
$USERR4
 40
0.0
  9
$USERR5
 40
0.0
  9
$WORLDVIEW
 70
     1
  9
$SHADEDGE
 70
     3
  9
$SHADEDIF
 70
    70
  9
$TILEMODE
 70
     1
  9
$MAXACTVP
 70
    64
  9
$PINSBASE
 10
0.0
 20
0.0
 30
0.0
  9
$PLIMCHECK
 70
     0
  9
$PEXTMIN
 10
1.000000000000000E+20
 20
1.000000000000000E+20
 30
1.000000000000000E+20
  9
$PEXTMAX
 10
-1.000000000000000E+20
 20
-1.000000000000000E+20
 30
-1.000000000000000E+20
  9
$PLIMMIN
 10
0.0
 20
0.0
  9
$PLIMMAX
 10
0.0
 20
0.0
  9
$UNITMODE
 70
     0
  9
$VISRETAIN
 70
     1
  9
$PLINEGEN
 70
     0
  9
$PSLTSCALE
 70
     1
  9
$TREEDEPTH
 70
  3020
  9
$CMLSTYLE
  2
Standard
  9
$CMLJUST
 70
     0
  9
$CMLSCALE
 40
20.0
  9
$PROXYGRAPHICS
 70
     1
  9
$MEASUREMENT
 70
     1
  9
$CELWEIGHT
370
    -1
  9
$ENDCAPS
280
     0
  9
$JOINSTYLE
280
     0
  9
$LWDISPLAY
290
     1
  9
$INSUNITS
 70
     4
  9
$HYPERLINKBASE
  1

  9
$STYLESHEET
  1

  9
$XEDIT
290
     1
  9
$CEPSNTYPE
380
     0
  9
$PSTYLEMODE
290
     1
  9
$FINGERPRINTGUID
  2
{3AEC88E7-D166-4862-A123-C2331D5271EF}
  9
$VERSIONGUID
  2
{FAEB1C32-E019-11D5-929B-00C0DF256EC4}
  9
$EXTNAMES
290
     1
  9
$PSVPSCALE
 40
0.0
  9
$OLESTARTUP
290
     0
  0
ENDSEC
  0
SECTION
  2
CLASSES
  0
CLASS
  1
ACDBDICTIONARYWDFLT
  2
AcDbDictionaryWithDefault
  3
ObjectDBX Classes
 90
        0
280
     0
281
     0
  0
CLASS
  1
VISUALSTYLE
  2
AcDbVisualStyle
  3
ObjectDBX Classes
 90
     4095
280
     0
281
     0
  0
CLASS
  1
MATERIAL
  2
AcDbMaterial
  3
ObjectDBX Classes
 90
     1153
280
     0
281
     0
  0
CLASS
  1
SCALE
  2
AcDbScale
  3
ObjectDBX Classes
 90
     1153
280
     0
281
     0
  0
CLASS
  1
SUN
  2
AcDbSun
  3
SCENEOE
 90
     1153
280
     0
281
     0
  0
CLASS
  1
ACDBPLACEHOLDER
  2
AcDbPlaceHolder
  3
ObjectDBX Classes
 90
        0
280
     0
281
     0
  0
CLASS
  1
LAYOUT
  2
AcDbLayout
  3
ObjectDBX Classes
 90
        0
280
     0
281
     0
  0
CLASS
  1
TABLESTYLE
  2
AcDbTableStyle
  3
ObjectDBX Classes
 90
     4095
280
     0
281
     0
  0
CLASS
  1
MLEADERSTYLE
  2
AcDbMLeaderStyle
  3
ACDB_MLEADERSTYLE_CLASS
 90
     4095
280
     0
281
     0
  0
CLASS
  1
DICTIONARYVAR
  2
AcDbDictionaryVar
  3
ObjectDBX Classes
 90
        0
280
     0
281
     0
  0
CLASS
  1
DIMASSOC
  2
AcDbDimAssoc
  3
"AcDbDimAssoc|Product Desc:     AcDim ARX App For Dimension|Company:          Autodesk, Inc.|WEB Address:      www.autodesk.com"
 90
        0
280
     0
281
     0
  0
ENDSEC
  0
SECTION
  2
TABLES
  0
TABLE
  2
VPORT
  5
8
330
0
100
AcDbSymbolTable
 70
     1
  0
VPORT
  5
29
330
8
100
AcDbSymbolTableRecord
100
AcDbViewportTableRecord
  2
*Active
 70
     0
 10
0.0
 20
0.0
 11
1.0
 21
1.0
 12
-16.93075809232725
 22
-10.82559203987775
 13
0.0
 23
0.0
 14
10.0
 24
10.0
 15
10.0
 25
10.0
 16
0.0
 26
0.0
 36
1.0
 17
0.0
 27
0.0
 37
0.0
 40
79.91374353658797
 41
2.05607476635514
 42
50.0
 43
0.0
 44
0.0
 50
0.0
 51
0.0
 71
    16
 72
  2000
 73
     1
 74
     3
 75
     0
 76
     0
 77
     0
 78
     0
281
     0
 65
     1
110
0.0
120
0.0
130
0.0
111
1.0
121
0.0
131
0.0
112
0.0
122
1.0
132
0.0
 79
     0
146
0.0
  0
ENDTAB
  0
TABLE
  2
LTYPE
  5
5
330
0
100
AcDbSymbolTable
 70
     6
  0
LTYPE
  5
14
330
5
100
AcDbSymbolTableRecord
100
AcDbLinetypeTableRecord
  2
ByBlock
 70
     0
  3

 72
    65
 73
     0
 40
0.0
  0
LTYPE
  5
15
330
5
100
AcDbSymbolTableRecord
100
AcDbLinetypeTableRecord
  2
ByLayer
 70
     0
  3

 72
    65
 73
     0
 40
0.0
  0
LTYPE
  5
16
330
5
100
AcDbSymbolTableRecord
100
AcDbLinetypeTableRecord
  2
Continuous
 70
     0
  3
Solid line
 72
    65
 73
     0
 40
0.0
  0
LTYPE
  5
6A
330
5
100
AcDbSymbolTableRecord
100
AcDbLinetypeTableRecord
  2
HIDDEN
 70
     0
  3
Hidden __ __ __ __ __ __ __ __ __ __ __ __ __ __
 72
    65
 73
     2
 40
1.905
 49
1.27
 74
     0
 49
-0.635
 74
     0
  0
LTYPE
  5
6B
330
5
100
AcDbSymbolTableRecord
100
AcDbLinetypeTableRecord
  2
PHANTOM
 70
     0
  3
Phantom ______  __  __  ______  __  __  ______
 72
    65
 73
     6
 40
12.7
 49
6.35
 74
     0
 49
-1.27
 74
     0
 49
1.27
 74
     0
 49
-1.27
 74
     0
 49
1.27
 74
     0
 49
-1.27
 74
     0
  0
LTYPE
  5
6C
330
5
100
AcDbSymbolTableRecord
100
AcDbLinetypeTableRecord
  2
CENTER
 70
     0
  3
Center ____ _ ____ _ ____ _ ____ _ ____ _ ____
 72
    65
 73
     4
 40
10.16
 49
6.35
 74
     0
 49
-1.27
 74
     0
 49
1.27
 74
     0
 49
-1.27
 74
     0
  0
LTYPE
  5
6D
330
5
100
AcDbSymbolTableRecord
100
AcDbLinetypeTableRecord
  2
CENTERX2
 70
     0
  3
Center (2x) ________  __  ________  __  _____
 72
    65
 73
     4
 40
20.32
 49
12.7
 74
     0
 49
-2.54
 74
     0
 49
2.54
 74
     0
 49
-2.54
 74
     0
  0
LTYPE
  5
6E
330
5
100
AcDbSymbolTableRecord
100
AcDbLinetypeTableRecord
  2
DOT2
 70
     0
  3
Dot (.5x) ........................................
 72
    65
 73
     2
 40
0.635
 49
0.0
 74
     0
 49
-0.635
 74
     0
  0
ENDTAB
  0
TABLE
  2
LAYER
  5
2
102
{ACAD_XDICTIONARY
360
16E
102
}
330
0
100
AcDbSymbolTable
 70
    18
  0
LAYER
  5
10
330
2
100
AcDbSymbolTableRecord
100
AcDbLayerTableRecord
  2
0
 70
     0
 62
     7
  6
Continuous
370
    -3
390
F
  0
LAYER
  5
6F
330
2
100
AcDbSymbolTableRecord
100
AcDbLayerTableRecord
  2
FORMAT
 70
     0
 62
     2
  6
Continuous
370
    -3
390
F
  0
LAYER
  5
70
330
2
100
AcDbSymbolTableRecord
100
AcDbLayerTableRecord
  2
외형선
 70
     0
 62
     4
  6
Continuous
370
    30
390
F
  0
LAYER
  5
71
330
2
100
AcDbSymbolTableRecord
100
AcDbLayerTableRecord
  2
숨은선
 70
     0
 62
     2
  6
HIDDEN
370
    15
390
F
  0
LAYER
  5
72
330
2
100
AcDbSymbolTableRecord
100
AcDbLayerTableRecord
  2
중심선
 70
     0
 62
     1
  6
CENTERX2
370
    -3
390
F
  0
LAYER
  5
73
330
2
100
AcDbSymbolTableRecord
100
AcDbLayerTableRecord
  2
파단선
 70
     0
 62
     4
  6
Continuous
370
    -3
390
F
  0
LAYER
  5
74
330
2
100
AcDbSymbolTableRecord
100
AcDbLayerTableRecord
  2
해칭선
 70
     0
 62
   100
  6
Continuous
370
    -3
390
F
  0
LAYER
  5
75
330
2
100
AcDbSymbolTableRecord
100
AcDbLayerTableRecord
  2
가는실선
 70
     0
 62
     4
  6
Continuous
370
    -3
390
F
  0
LAYER
  5
76
330
2
100
AcDbSymbolTableRecord
100
AcDbLayerTableRecord
  2
치수_보조선
 70
     0
 62
     4
  6
Continuous
370
    -3
390
F
  0
LAYER
  5
77
330
2
100
AcDbSymbolTableRecord
100
AcDbLayerTableRecord
  2
치수문자_일반주서
 70
     0
 62
     7
  6
Continuous
370
    15
390
F
  0
LAYER
  5
78
330
2
100
AcDbSymbolTableRecord
100
AcDbLayerTableRecord
  2
개별주서
 70
     0
 62
   100
  6
Continuous
370
    30
390
F
  0
LAYER
  5
79
330
2
100
AcDbSymbolTableRecord
100
AcDbLayerTableRecord
  2
중간선
 70
     0
 62
     2
  6
Continuous
370
    15
390
F
  0
LAYER
  5
7A
330
2
100
AcDbSymbolTableRecord
100
AcDbLayerTableRecord
  2
윤곽선
 70
     0
 62
     3
  6
Continuous
370
    40
390
F
  0
LAYER
  5
7B
330
2
100
AcDbSymbolTableRecord
100
AcDbLayerTableRecord
  2
중심마크
 70
     0
 62
   100
  6
Continuous
370
    30
390
F
  0
LAYER
  5
7C
330
2
100
AcDbSymbolTableRecord
100
AcDbLayerTableRecord
  2
가상선
 70
     0
 62
     4
  6
PHANTOM
370
    -3
390
F
  0
LAYER
  5
7D
330
2
100
AcDbSymbolTableRecord
100
AcDbLayerTableRecord
  2
특수지정선
 70
     0
 62
     5
  6
CENTERX2
370
    60
390
F
  0
LAYER
  5
7E
330
2
100
AcDbSymbolTableRecord
100
AcDbLayerTableRecord
  2
참조1
 70
     0
 62
    -4
  6
Continuous
370
    -3
390
F
  0
LAYER
  5
12A
330
2
100
AcDbSymbolTableRecord
100
AcDbLayerTableRecord
  2
Defpoints
 70
     0
 62
     7
  6
Continuous
290
     0
370
    -3
390
F
  0
ENDTAB
  0
TABLE
  2
STYLE
  5
3
330
0
100
AcDbSymbolTable
 70
     2
  0
STYLE
  5
11
330
3
100
AcDbSymbolTableRecord
100
AcDbTextStyleTableRecord
  2
Standard
 70
     0
 40
0.0
 41
1.0
 50
0.0
 71
     0
 42
3.5
  3
txt
  4

  0
STYLE
  5
94
330
3
100
AcDbSymbolTableRecord
100
AcDbTextStyleTableRecord
  2
SLDTEXTSTYLE0
 70
     0
 40
0.0
 41
0.75
 50
0.0
 71
     0
 42
3.5
  3
TXT
  4

  0
ENDTAB
  0
TABLE
  2
VIEW
  5
6
330
0
100
AcDbSymbolTable
 70
     0
  0
ENDTAB
  0
TABLE
  2
UCS
  5
7
330
0
100
AcDbSymbolTable
 70
     0
  0
ENDTAB
  0
TABLE
  2
APPID
  5
9
330
0
100
AcDbSymbolTable
 70
     3
  0
APPID
  5
12
330
9
100
AcDbSymbolTableRecord
100
AcDbRegAppTableRecord
  2
ACAD
 70
     0
  0
APPID
  5
132
330
9
100
AcDbSymbolTableRecord
100
AcDbRegAppTableRecord
  2
PE_URL
 70
     0
  0
APPID
  5
133
330
9
100
AcDbSymbolTableRecord
100
AcDbRegAppTableRecord
  2
ACAD_DSTYLE_DIMRADIAL_EXTENSION
 70
     0
  0
ENDTAB
  0
TABLE
  2
DIMSTYLE
  5
A
330
0
100
AcDbSymbolTable
 70
     3
100
AcDbDimStyleTable
  0
DIMSTYLE
105
27
330
A
100
AcDbSymbolTableRecord
100
AcDbDimStyleTableRecord
  2
ISO-25
 70
     0
 41
2.5
 42
0.625
 43
3.75
 44
1.25
 73
     0
 74
     0
 77
     1
 78
     8
140
2.5
141
2.5
143
0.03937007874016
147
0.625
171
     3
172
     1
178
     0
271
     2
272
     2
274
     3
278
    44
283
     0
284
     8
340
11
  0
DIMSTYLE
105
CA
102
{ACAD_REACTORS
330
C9
330
D7
330
E4
330
152
102
}
330
A
100
AcDbSymbolTableRecord
100
AcDbDimStyleTableRecord
  2
SLDDIMSTYLE0
 70
     0
 41
3.302
 44
0.0
 45
0.000000001
 73
     0
 74
     0
 77
     1
 78
    12
 79
     3
140
3.5
147
0.875
172
     1
173
     1
178
     0
271
     2
272
     2
276
     2
284
    12
289
     0
340
94
  0
DIMSTYLE
105
EF
102
{ACAD_REACTORS
330
EE
330
162
330
1BA
102
}
330
A
100
AcDbSymbolTableRecord
100
AcDbDimStyleTableRecord
  2
SLDDIMSTYLE1
 70
     0
 41
3.302
 44
0.0
 45
0.000000001
 73
     0
 74
     0
 77
     1
 78
    12
 79
     3
140
3.5
147
0.875
173
     1
178
     0
271
     2
272
     2
276
     2
284
    12
340
94
  0
ENDTAB
  0
TABLE
  2
BLOCK_RECORD
  5
1
330
0
100
AcDbSymbolTable
 70
    13
  0
BLOCK_RECORD
  5
1F
330
1
100
AcDbSymbolTableRecord
100
AcDbBlockTableRecord
  2
*Model_Space
340
22
  0
BLOCK_RECORD
  5
1B
330
1
100
AcDbSymbolTableRecord
100
AcDbBlockTableRecord
  2
*Paper_Space
340
1E
  0
BLOCK_RECORD
  5
23
330
1
100
AcDbSymbolTableRecord
100
AcDbBlockTableRecord
  2
*Paper_Space0
340
26
  0
BLOCK_RECORD
  5
7F
330
1
100
AcDbSymbolTableRecord
100
AcDbBlockTableRecord
  2
블럭10
340
0
102
{BLKREFS
331
C2
102
}
  0
BLOCK_RECORD
  5
CB
330
1
100
AcDbSymbolTableRecord
100
AcDbBlockTableRecord
  2
_D
340
0
  0
BLOCK_RECORD
  5
D8
330
1
100
AcDbSymbolTableRecord
100
AcDbBlockTableRecord
  2
_D_1
340
0
  0
BLOCK_RECORD
  5
E5
330
1
100
AcDbSymbolTableRecord
100
AcDbBlockTableRecord
  2
_D_2
340
0
  0
BLOCK_RECORD
  5
F0
330
1
100
AcDbSymbolTableRecord
100
AcDbBlockTableRecord
  2
_D_3
340
0
  0
BLOCK_RECORD
  5
100
330
1
100
AcDbSymbolTableRecord
100
AcDbBlockTableRecord
  2
SW_DOWELSYMBOL_0
340
0
102
{BLKREFS
331
106
102
}
  0
BLOCK_RECORD
  5
163
330
1
100
AcDbSymbolTableRecord
100
AcDbBlockTableRecord
  2
*D8
340
0
  0
BLOCK_RECORD
  5
172
330
1
100
AcDbSymbolTableRecord
100
AcDbBlockTableRecord
  2
*D9
340
0
  0
BLOCK_RECORD
  5
185
330
1
100
AcDbSymbolTableRecord
100
AcDbBlockTableRecord
  2
*D10
340
0
  0
BLOCK_RECORD
  5
194
330
1
100
AcDbSymbolTableRecord
100
AcDbBlockTableRecord
  2
*D11
340
0
  0
BLOCK_RECORD
  5
1BD
330
1
100
AcDbSymbolTableRecord
100
AcDbBlockTableRecord
  2
*D12
340
0
  0
ENDTAB
  0
ENDSEC
  0
SECTION
  2
BLOCKS
  0
BLOCK
  5
20
330
1F
100
AcDbEntity
  8
0
100
AcDbBlockBegin
  2
*Model_Space
 70
     0
 10
0.0
 20
0.0
 30
0.0
  3
*Model_Space
  1

  0
ENDBLK
  5
21
330
1F
100
AcDbEntity
  8
0
100
AcDbBlockEnd
  0
BLOCK
  5
1C
330
1B
100
AcDbEntity
 67
     1
  8
0
100
AcDbBlockBegin
  2
*Paper_Space
 70
     0
 10
0.0
 20
0.0
 30
0.0
  3
*Paper_Space
  1

  0
ENDBLK
  5
1D
330
1B
100
AcDbEntity
 67
     1
  8
0
100
AcDbBlockEnd
  0
BLOCK
  5
24
330
23
100
AcDbEntity
  8
0
100
AcDbBlockBegin
  2
*Paper_Space0
 70
     0
 10
0.0
 20
0.0
 30
0.0
  3
*Paper_Space0
  1

  0
ENDBLK
  5
25
330
23
100
AcDbEntity
  8
0
100
AcDbBlockEnd
  0
BLOCK
  5
80
330
7F
100
AcDbEntity
  8
0
100
AcDbBlockBegin
  2
블럭10
 70
     2
 10
0.0
 20
0.0
 30
0.0
  3
블럭10
  1

  0
ELLIPSE
  5
82
330
7F
100
AcDbEntity
  8
중심선
100
AcDbEllipse
 10
20.54032771741204
 20
12.0471743016438
 30
0.0
 11
6.600054785286829
 21
-1.261213355974178E-13
 31
0.0
210
0.0
220
0.0
230
1.0
 40
0.636358354079598
 41
0.9219305317359503
 42
6.513795318482858
  0
ELLIPSE
  5
83
330
7F
100
AcDbEntity
  8
중심선
100
AcDbEllipse
 10
20.54032771746488
 20
12.04717430159265
 30
0.0
 11
3.960054785062283
 21
1.540847449632565E-10
 31
0.0
210
0.0
220
0.0
230
1.0
 40
0.3939339440162632
 41
1.131841032648279
 42
5.62031148352944
  0
LINE
  5
84
330
7F
100
AcDbEntity
  8
중심선
100
AcDbLine
 10
2.268634060543552
 20
16.24717430164393
 30
0.0
 11
5.714909304380834
 21
16.24717430164393
 31
0.0
  0
LINE
  5
85
330
7F
100
AcDbEntity
  8
중심선
100
AcDbLine
 10
5.245725140726316
 20
7.84717430164391
 30
0.0
 11
8.692000384563599
 21
7.84717430164391
 31
0.0
  0
LINE
  5
86
330
7F
100
AcDbEntity
  8
중심선
100
AcDbLine
 10
15.74043728645272
 20
16.24717430164393
 30
0.0
 11
8.692000384563599
 21
7.84717430164391
 31
0.0
  0
LINE
  5
87
330
7F
100
AcDbEntity
  8
중심선
100
AcDbLine
 10
0.1404042013395286
 20
13.71084872107135
 30
0.0
 11
3.58671253028996
 21
13.71088815037384
 31
0.0
  0
LINE
  5
88
330
7F
100
AcDbEntity
  8
중심선
100
AcDbLine
 10
2.750260043222114
 20
10.84717430164391
 30
0.0
 11
6.196535287059397
 21
10.84717430164391
 31
0.0
  0
LINE
  5
89
330
7F
100
AcDbEntity
  8
중심선
100
AcDbLine
 10
12.29416204261559
 20
16.24717430164393
 30
0.0
 11
5.245725140726316
 21
7.84717430164391
 31
0.0
  0
LINE
  5
8A
330
7F
100
AcDbEntity
  8
중심선
100
AcDbLine
 10
10.72767329541681
 20
16.24717430164393
 30
0.0
 11
6.196535287059397
 21
10.84717430164391
 31
0.0
  0
LINE
  5
8B
330
7F
100
AcDbEntity
  8
중심선
100
AcDbLine
 10
7.28139805157953
 20
16.24717430164393
 30
0.0
 11
2.750260043222114
 21
10.84717430164391
 31
0.0
  0
LINE
  5
8C
330
7F
100
AcDbEntity
  8
중심선
100
AcDbLine
 10
5.714909304380834
 20
16.24717430164393
 30
0.0
 11
3.58671253028996
 21
13.71088815037384
 31
0.0
  0
LINE
  5
8D
330
7F
100
AcDbEntity
  8
중심선
100
AcDbLine
 10
2.268634060543552
 20
16.24717430164393
 30
0.0
 11
0.1404042013395286
 21
13.71084872107135
 31
0.0
  0
LINE
  5
8E
330
7F
100
AcDbEntity
  8
중심선
100
AcDbLine
 10
7.28139805157953
 20
16.24717430164393
 30
0.0
 11
10.72767329541681
 21
16.24717430164393
 31
0.0
  0
LINE
  5
8F
330
7F
100
AcDbEntity
  8
중심선
100
AcDbLine
 10
12.29416204261559
 20
16.24717430164393
 30
0.0
 11
15.74043728645272
 21
16.24717430164393
 31
0.0
  0
LINE
  5
90
330
7F
100
AcDbEntity
  8
중심선
100
AcDbLine
 10
19.22036997980202
 20
11.08717430171403
 30
0.0
 11
23.66174974927406
 21
11.08717430171406
 31
0.0
  0
LINE
  5
91
330
7F
100
AcDbEntity
  8
중심선
100
AcDbLine
 10
19.22039502424796
 20
13.00717430171391
 30
0.0
 11
19.22036997980202
 21
11.08717430171403
 31
0.0
  0
LINE
  5
92
330
7F
100
AcDbEntity
  8
중심선
100
AcDbLine
 10
19.22039502424796
 20
13.00717430171391
 30
0.0
 11
26.96566020931264
 21
13.00717430171391
 31
0.0
  0
LINE
  5
93
330
7F
100
AcDbEntity
  8
중심선
100
AcDbLine
 10
22.22332737316547
 20
13.45928029700563
 30
0.0
 11
24.52862924686651
 21
15.39360700705356
 31
0.0
  0
ATTDEF
  5
95
330
7F
100
AcDbEntity
  8
FORMAT
 62
     2
100
AcDbText
 10
-16.11926103943555
 20
2.075366912832191
 30
0.0
 40
4.233333333333333
  1
SEME0108015E [ 4 FLUTE ]
 41
0.75
  7
SLDTEXTSTYLE0
 11
-16.11926103943555
 21
-0.0412997538344756
 31
0.0
100
AcDbAttributeDefinition
  3

  2
AUTOATTR0
 70
     0
 74
     1
  0
ENDBLK
  5
81
330
7F
100
AcDbEntity
  8
0
100
AcDbBlockEnd
  0
BLOCK
  5
CC
330
CB
100
AcDbEntity
  8
0
100
AcDbBlockBegin
  2
_D
 70
     0
 10
0.0
 20
0.0
 30
0.0
  3
_D
  1

  0
LINE
  5
CE
330
CB
100
AcDbEntity
  8
치수문자_일반주서
 62
     0
370
    -2
100
AcDbLine
 10
30.06249999999999
 20
3.972811654528119
 30
0.0
 11
39.99999999999997
 21
3.972811654528156
 31
0.0
  0
LINE
  5
CF
330
CB
100
AcDbEntity
  8
치수문자_일반주서
 62
     0
370
    -2
100
AcDbLine
 10
30.06249999999999
 20
-4.02718834547188
 30
0.0
 11
40.0
 21
-4.027188345471846
 31
0.0
  0
LINE
  5
D0
330
CB
100
AcDbEntity
  8
치수문자_일반주서
 62
     0
370
    -2
100
AcDbLine
 10
39.99999999999997
 20
3.972811654528156
 30
0.0
 11
39.99999999999992
 21
16.70181165452819
 31
0.0
  0
LINE
  5
D1
330
CB
100
AcDbEntity
  8
치수문자_일반주서
 62
     0
370
    -2
100
AcDbLine
 10
39.99999999999997
 20
3.972811654528156
 30
0.0
 11
40.0
 21
-4.027188345471846
 31
0.0
  0
LINE
  5
D2
330
CB
100
AcDbEntity
  8
치수문자_일반주서
 62
     0
370
    -2
100
AcDbLine
 10
39.99999999999996
 20
7.274811654528156
 30
0.0
 11
39.99999999999994
 21
10.57681165452816
 31
0.0
  0
LINE
  5
D3
330
CB
100
AcDbEntity
  8
치수문자_일반주서
 62
     0
370
    -2
100
AcDbLine
 10
40.00000000000001
 20
-7.329188345471845
 30
0.0
 11
40.00000000000003
 21
-10.63118834547184
 31
0.0
  0
SOLID
  5
D4
330
CB
100
AcDbEntity
  8
치수문자_일반주서
 62
     0
100
AcDbTrace
 10
39.44966666666662
 20
7.274811654528154
 30
0.0
 11
40.55033333333329
 21
7.274811654528158
 31
0.0
 12
39.99999999999997
 22
3.972811654528156
 32
0.0
 13
39.99999999999997
 23
3.972811654528156
 33
0.0
  0
SOLID
  5
D5
330
CB
100
AcDbEntity
  8
치수문자_일반주서
 62
     0
100
AcDbTrace
 10
40.55033333333335
 20
-7.329188345471843
 30
0.0
 11
39.44966666666668
 21
-7.329188345471847
 31
0.0
 12
40.0
 22
-4.027188345471846
 32
0.0
 13
40.0
 23
-4.027188345471846
 33
0.0
  0
MTEXT
  5
D6
330
CB
100
AcDbEntity
  8
치수문자_일반주서
 62
     0
100
AcDbMText
 10
35.62499999999994
 20
13.63931165452817
 30
0.0
 40
3.5
 41
0.0
 71
     2
 72
     1
  1
\A1;%%c8
  7
SLDTEXTSTYLE0
 11
-3.552713678800502E-15
 21
1.0
 31
0.0
 73
     1
 44
1.0
  0
POINT
  5
1B2
330
CB
100
AcDbEntity
  8
Defpoints
 62
     0
100
AcDbPoint
 10
29.99999999999999
 20
3.972811654528119
 30
0.0
  0
POINT
  5
1B3
330
CB
100
AcDbEntity
  8
Defpoints
 62
     0
100
AcDbPoint
 10
29.99999999999999
 20
-4.02718834547188
 30
0.0
  0
POINT
  5
1B4
330
CB
100
AcDbEntity
  8
Defpoints
 62
     0
100
AcDbPoint
 10
39.99999999999999
 20
-4.027188345471843
 30
0.0
  0
ENDBLK
  5
CD
330
CB
100
AcDbEntity
  8
0
100
AcDbBlockEnd
  0
BLOCK
  5
D9
330
D8
100
AcDbEntity
  8
0
100
AcDbBlockBegin
  2
_D_1
 70
     0
 10
0.0
 20
0.0
 30
0.0
  3
_D_1
  1

  0
LINE
  5
DB
330
D8
100
AcDbEntity
  8
치수문자_일반주서
 62
     0
370
    -2
100
AcDbLine
 10
-69.26250000000002
 20
3.972811654528126
 30
0.0
 11
-80.00000000000003
 21
3.972811654528085
 31
0.0
  0
LINE
  5
DC
330
D8
100
AcDbEntity
  8
치수문자_일반주서
 62
     0
370
    -2
100
AcDbLine
 10
-69.26250000000002
 20
-4.02718834547188
 30
0.0
 11
-80.0
 21
-4.027188345471922
 31
0.0
  0
LINE
  5
DD
330
D8
100
AcDbEntity
  8
치수문자_일반주서
 62
     0
370
    -2
100
AcDbLine
 10
-80.00000000000003
 20
3.972811654528085
 30
0.0
 11
-80.00000000000007
 21
16.70181165452809
 31
0.0
  0
LINE
  5
DE
330
D8
100
AcDbEntity
  8
치수문자_일반주서
 62
     0
370
    -2
100
AcDbLine
 10
-80.00000000000003
 20
3.972811654528085
 30
0.0
 11
-80.0
 21
-4.027188345471922
 31
0.0
  0
LINE
  5
DF
330
D8
100
AcDbEntity
  8
치수문자_일반주서
 62
     0
370
    -2
100
AcDbLine
 10
-80.00000000000004
 20
7.274811654528085
 30
0.0
 11
-80.00000000000006
 21
10.57681165452808
 31
0.0
  0
LINE
  5
E0
330
D8
100
AcDbEntity
  8
치수문자_일반주서
 62
     0
370
    -2
100
AcDbLine
 10
-79.99999999999999
 20
-7.329188345471922
 30
0.0
 11
-79.99999999999997
 21
-10.63118834547192
 31
0.0
  0
SOLID
  5
E1
330
D8
100
AcDbEntity
  8
치수문자_일반주서
 62
     0
100
AcDbTrace
 10
-80.55033333333337
 20
7.274811654528083
 30
0.0
 11
-79.44966666666672
 21
7.274811654528087
 31
0.0
 12
-80.00000000000003
 22
3.972811654528085
 32
0.0
 13
-80.00000000000003
 23
3.972811654528085
 33
0.0
  0
SOLID
  5
E2
330
D8
100
AcDbEntity
  8
치수문자_일반주서
 62
     0
100
AcDbTrace
 10
-79.44966666666666
 20
-7.32918834547192
 30
0.0
 11
-80.55033333333331
 21
-7.329188345471923
 31
0.0
 12
-80.0
 22
-4.027188345471922
 32
0.0
 13
-80.0
 23
-4.027188345471922
 33
0.0
  0
MTEXT
  5
E3
330
D8
100
AcDbEntity
  8
치수문자_일반주서
 62
     0
100
AcDbMText
 10
-84.37500000000006
 20
13.63931165452807
 30
0.0
 40
3.5
 41
0.0
 71
     2
 72
     1
  1
\A1;%%c8
  7
SLDTEXTSTYLE0
 11
-3.552713678800499E-15
 21
1.0
 31
0.0
 73
     1
 44
1.0
  0
POINT
  5
1A9
330
D8
100
AcDbEntity
  8
Defpoints
 62
     0
100
AcDbPoint
 10
-69.20000000000002
 20
3.972811654528127
 30
0.0
  0
POINT
  5
1AA
330
D8
100
AcDbEntity
  8
Defpoints
 62
     0
100
AcDbPoint
 10
-69.20000000000002
 20
-4.02718834547188
 30
0.0
  0
POINT
  5
1AB
330
D8
100
AcDbEntity
  8
Defpoints
 62
     0
100
AcDbPoint
 10
-80.0
 20
-4.02718834547192
 30
0.0
  0
ENDBLK
  5
DA
330
D8
100
AcDbEntity
  8
0
100
AcDbBlockEnd
  0
BLOCK
  5
E6
330
E5
100
AcDbEntity
  8
0
100
AcDbBlockBegin
  2
_D_2
 70
     0
 10
0.0
 20
0.0
 30
0.0
  3
_D_2
  1

  0
LINE
  5
E8
330
E5
100
AcDbEntity
  8
치수문자_일반주서
 62
     0
370
    -2
100
AcDbLine
 10
29.99999999999999
 20
4.035311654528119
 30
0.0
 11
29.99999999999999
 21
13.97281165452812
 31
0.0
  0
LINE
  5
E9
330
E5
100
AcDbEntity
  8
치수문자_일반주서
 62
     0
370
    -2
100
AcDbLine
 10
10.0
 20
3.978252090079947
 30
0.0
 11
10.0
 21
13.97281165452812
 31
0.0
  0
LINE
  5
EA
330
E5
100
AcDbEntity
  8
치수문자_일반주서
 62
     0
370
    -2
100
AcDbLine
 10
26.69799999999999
 20
13.97281165452812
 30
0.0
 11
13.302
 21
13.97281165452812
 31
0.0
  0
SOLID
  5
EB
330
E5
100
AcDbEntity
  8
치수문자_일반주서
 62
     0
100
AcDbTrace
 10
26.69799999999999
 20
13.42247832119479
 30
0.0
 11
26.69799999999999
 21
14.52314498786146
 31
0.0
 12
29.99999999999999
 22
13.97281165452812
 32
0.0
 13
29.99999999999999
 23
13.97281165452812
 33
0.0
  0
SOLID
  5
EC
330
E5
100
AcDbEntity
  8
치수문자_일반주서
 62
     0
100
AcDbTrace
 10
13.302
 20
14.52314498786146
 30
0.0
 11
13.302
 21
13.42247832119479
 31
0.0
 12
10.0
 22
13.97281165452812
 32
0.0
 13
10.0
 23
13.97281165452812
 33
0.0
  0
MTEXT
  5
ED
330
E5
100
AcDbEntity
  8
치수문자_일반주서
 62
     0
100
AcDbMText
 10
19.99999999999998
 20
18.34781165452812
 30
0.0
 40
3.5
 41
0.0
 71
     2
 72
     1
  1
\A1;20
  7
SLDTEXTSTYLE0
 73
     1
 44
1.0
  0
POINT
  5
1AC
330
E5
100
AcDbEntity
  8
Defpoints
 62
     0
100
AcDbPoint
 10
29.99999999999999
 20
3.972811654528119
 30
0.0
  0
POINT
  5
1AD
330
E5
100
AcDbEntity
  8
Defpoints
 62
     0
100
AcDbPoint
 10
10.0
 20
3.915752090079947
 30
0.0
  0
POINT
  5
1AE
330
E5
100
AcDbEntity
  8
Defpoints
 62
     0
100
AcDbPoint
 10
10.0
 20
13.97281165452812
 30
0.0
  0
ENDBLK
  5
E7
330
E5
100
AcDbEntity
  8
0
100
AcDbBlockEnd
  0
BLOCK
  5
F1
330
F0
100
AcDbEntity
  8
0
100
AcDbBlockBegin
  2
_D_3
 70
     0
 10
0.0
 20
0.0
 30
0.0
  3
_D_3
  1

  0
LINE
  5
F3
330
F0
100
AcDbEntity
  8
치수문자_일반주서
 62
     0
370
    -2
100
AcDbLine
 10
29.99999999999999
 20
4.035311654528119
 30
0.0
 11
29.99999999999999
 21
23.97281165452812
 31
0.0
  0
LINE
  5
F4
330
F0
100
AcDbEntity
  8
치수문자_일반주서
 62
     0
370
    -2
100
AcDbLine
 10
-70.00000000000003
 20
3.235311654528126
 30
0.0
 11
-70.00000000000003
 21
23.97281165452812
 31
0.0
  0
LINE
  5
F5
330
F0
100
AcDbEntity
  8
치수문자_일반주서
 62
     0
370
    -2
100
AcDbLine
 10
26.69799999999999
 20
23.97281165452812
 30
0.0
 11
-66.69800000000004
 21
23.97281165452812
 31
0.0
  0
SOLID
  5
F6
330
F0
100
AcDbEntity
  8
치수문자_일반주서
 62
     0
100
AcDbTrace
 10
26.69799999999999
 20
23.42247832119479
 30
0.0
 11
26.69799999999999
 21
24.52314498786146
 31
0.0
 12
29.99999999999999
 22
23.97281165452812
 32
0.0
 13
29.99999999999999
 23
23.97281165452812
 33
0.0
  0
SOLID
  5
F7
330
F0
100
AcDbEntity
  8
치수문자_일반주서
 62
     0
100
AcDbTrace
 10
-66.69800000000004
 20
24.52314498786146
 30
0.0
 11
-66.69800000000004
 21
23.42247832119479
 31
0.0
 12
-70.00000000000003
 22
23.97281165452812
 32
0.0
 13
-70.00000000000003
 23
23.97281165452812
 33
0.0
  0
MTEXT
  5
F8
330
F0
100
AcDbEntity
  8
치수문자_일반주서
 62
     0
100
AcDbMText
 10
-19.20000000000002
 20
28.34781165452812
 30
0.0
 40
3.5
 41
0.0
 71
     2
 72
     1
  1
\A1;100
  7
SLDTEXTSTYLE0
 73
     1
 44
1.0
  0
POINT
  5
1AF
330
F0
100
AcDbEntity
  8
Defpoints
 62
     0
100
AcDbPoint
 10
29.99999999999999
 20
3.972811654528119
 30
0.0
  0
POINT
  5
1B0
330
F0
100
AcDbEntity
  8
Defpoints
 62
     0
100
AcDbPoint
 10
-70.00000000000003
 20
3.172811654528126
 30
0.0
  0
POINT
  5
1B1
330
F0
100
AcDbEntity
  8
Defpoints
 62
     0
100
AcDbPoint
 10
-70.00000000000003
 20
23.97281165452812
 30
0.0
  0
ENDBLK
  5
F2
330
F0
100
AcDbEntity
  8
0
100
AcDbBlockEnd
  0
BLOCK
  5
101
330
100
100
AcDbEntity
  8
0
100
AcDbBlockBegin
  2
SW_DOWELSYMBOL_0
 70
     0
 10
0.0
 20
0.0
 30
0.0
  3
SW_DOWELSYMBOL_0
  1

  0
CIRCLE
  5
103
330
100
100
AcDbEntity
  8
해칭선
 62
     0
100
AcDbCircle
 10
0.0
 20
0.0
 30
0.0
 40
3.000000000000001
  0
HATCH
  5
104
330
100
100
AcDbEntity
  8
0
  6
Continuous
 62
     0
370
     0
100
AcDbHatch
 10
0.0
 20
0.0
 30
0.0
210
0.0
220
0.0
230
1.0
  2
SOLID
 70
     1
 71
     0
 91
        1
 92
        0
 93
        3
 72
     2
 10
0.0
 20
0.0
 40
3.000000000000001
 50
0.0
 51
90.0
 73
     1
 72
     1
 10
0.0
 20
3.000000000000001
 11
0.0
 21
0.0
 72
     1
 10
0.0
 20
0.0
 11
3.000000000000003
 21
0.0
 97
        0
 75
     0
 76
     1
 98
        1
 10
0.0
 20
0.0
  0
HATCH
  5
105
330
100
100
AcDbEntity
  8
0
  6
Continuous
 62
     0
370
     0
100
AcDbHatch
 10
0.0
 20
0.0
 30
0.0
210
0.0
220
0.0
230
1.0
  2
SOLID
 70
     1
 71
     0
 91
        1
 92
        0
 93
        3
 72
     2
 10
0.0
 20
0.0
 40
3.000000000000001
 50
180.0
 51
270.0000000000008
 73
     1
 72
     1
 10
0.0
 20
-3.000000000000001
 11
0.0
 21
0.0
 72
     1
 10
0.0
 20
0.0
 11
-3.000000000000003
 21
0.0
 97
        0
 75
     0
 76
     1
 98
        1
 10
0.0
 20
0.0
  0
ENDBLK
  5
102
330
100
100
AcDbEntity
  8
0
100
AcDbBlockEnd
  0
BLOCK
  5
164
330
163
100
AcDbEntity
  8
0
100
AcDbBlockBegin
  2
*D8
 70
     1
 10
0.0
 20
0.0
 30
0.0
  3
*D8
  1

  0
LINE
  5
165
330
163
100
AcDbEntity
  8
치수문자_일반주서
 62
     0
370
    -2
100
AcDbLine
 10
12.62717396278132
 20
13.04557445451085
 30
0.0
 11
21.11951954006028
 21
0.0000000000000533
 31
0.0
  0
MTEXT
  5
166
330
163
100
AcDbEntity
  8
치수문자_일반주서
 62
     0
100
AcDbMText
 10
21.05195792753105
 20
4.915330557654589
 30
0.0
 40
3.5
 41
0.0
 71
     5
 72
     1
  1
\A1;R0.1
  7
SLDTEXTSTYLE0
 11
0.5455627707375155
 21
-0.8380699631804049
 31
0.0
 73
     1
 44
1.0
  0
SOLID
  5
167
330
163
100
AcDbEntity
  8
치수문자_일반주서
 62
     0
100
AcDbTrace
 10
13.08839179918493
 20
13.34581583267339
 30
0.0
 11
12.1659561263777
 21
12.7453330763483
 31
0.0
 12
10.82572569380604
 22
15.81288147293254
 32
0.0
 13
10.82572569380604
 23
15.81288147293254
 33
0.0
  0
LINE
  5
168
330
163
100
AcDbEntity
  8
치수문자_일반주서
 62
     0
100
AcDbLine
 10
10.72616941673229
 20
15.89668846925058
 30
0.0
 11
10.81616941673229
 21
15.89668846925058
 31
0.0
  0
LINE
  5
169
330
163
100
AcDbEntity
  8
치수문자_일반주서
 62
     0
100
AcDbLine
 10
10.77116941673229
 20
15.85168846925058
 30
0.0
 11
10.77116941673229
 21
15.94168846925058
 31
0.0
  0
POINT
  5
16A
330
163
100
AcDbEntity
  8
Defpoints
 62
     0
100
AcDbPoint
 10
10.82572569380604
 20
15.81288147293254
 30
0.0
  0
POINT
  5
16B
330
163
100
AcDbEntity
  8
Defpoints
 62
     0
100
AcDbPoint
 10
10.77116941673229
 20
15.89668846925058
 30
0.0
  0
ENDBLK
  5
16C
330
163
100
AcDbEntity
  8
0
100
AcDbBlockEnd
  0
BLOCK
  5
173
330
172
100
AcDbEntity
  8
0
100
AcDbBlockBegin
  2
*D9
 70
     1
 10
0.0
 20
0.0
 30
0.0
  3
*D9
  1

  0
LINE
  5
175
330
172
100
AcDbEntity
  8
치수문자_일반주서
 62
     0
370
    -2
100
AcDbLine
 10
10.9336694167323
 20
21.79496381848847
 30
0.0
 11
20.87116941673229
 21
21.7949638184885
 31
0.0
  0
LINE
  5
176
330
172
100
AcDbEntity
  8
치수문자_일반주서
 62
     0
370
    -2
100
AcDbLine
 10
10.9336694167323
 20
15.79496381848847
 30
0.0
 11
20.87116941673231
 21
15.79496381848851
 31
0.0
  0
LINE
  5
177
330
172
100
AcDbEntity
  8
치수문자_일반주서
 62
     0
370
    -2
100
AcDbLine
 10
20.87116941673229
 20
21.7949638184885
 30
0.0
 11
20.87116941673224
 21
34.52396381848853
 31
0.0
  0
LINE
  5
178
330
172
100
AcDbEntity
  8
치수문자_일반주서
 62
     0
370
    -2
100
AcDbLine
 10
20.87116941673229
 20
21.7949638184885
 30
0.0
 11
20.87116941673231
 21
15.79496381848851
 31
0.0
  0
LINE
  5
179
330
172
100
AcDbEntity
  8
치수문자_일반주서
 62
     0
370
    -2
100
AcDbLine
 10
20.87116941673228
 20
25.0969638184885
 30
0.0
 11
20.87116941673226
 21
28.3989638184885
 31
0.0
  0
LINE
  5
17A
330
172
100
AcDbEntity
  8
치수문자_일반주서
 62
     0
370
    -2
100
AcDbLine
 10
20.87116941673232
 20
12.49296381848851
 30
0.0
 11
20.87116941673233
 21
9.190963818488507
 31
0.0
  0
SOLID
  5
17B
330
172
100
AcDbEntity
  8
치수문자_일반주서
 62
     0
100
AcDbTrace
 10
20.32083608339894
 20
25.0969638184885
 30
0.0
 11
21.42150275006561
 21
25.09696381848851
 31
0.0
 12
20.87116941673229
 22
21.7949638184885
 32
0.0
 13
20.87116941673229
 23
21.7949638184885
 33
0.0
  0
SOLID
  5
17C
330
172
100
AcDbEntity
  8
치수문자_일반주서
 62
     0
100
AcDbTrace
 10
21.42150275006565
 20
12.49296381848851
 30
0.0
 11
20.32083608339898
 21
12.49296381848851
 31
0.0
 12
20.87116941673231
 22
15.79496381848851
 32
0.0
 13
20.87116941673231
 23
15.79496381848851
 33
0.0
  0
MTEXT
  5
17D
330
172
100
AcDbEntity
  8
치수문자_일반주서
 62
     0
100
AcDbMText
 10
16.49616941673225
 20
31.46146381848851
 30
0.0
 40
3.5
 41
0.0
 71
     2
 72
     1
  1
\A1;%%c6
  7
SLDTEXTSTYLE0
 11
-3.552713678800503E-15
 21
1.0
 31
0.0
 73
     1
 44
1.0
  0
POINT
  5
17E
330
172
100
AcDbEntity
  8
Defpoints
 62
     0
100
AcDbPoint
 10
10.8711694167323
 20
21.79496381848847
 30
0.0
  0
POINT
  5
17F
330
172
100
AcDbEntity
  8
Defpoints
 62
     0
100
AcDbPoint
 10
10.8711694167323
 20
15.79496381848847
 30
0.0
  0
POINT
  5
180
330
172
100
AcDbEntity
  8
Defpoints
 62
     0
100
AcDbPoint
 10
20.87116941673231
 20
15.79496381848851
 30
0.0
  0
ENDBLK
  5
174
330
172
100
AcDbEntity
  8
0
100
AcDbBlockEnd
  0
BLOCK
  5
186
330
185
100
AcDbEntity
  8
0
100
AcDbBlockBegin
  2
*D10
 70
     1
 10
0.0
 20
0.0
 30
0.0
  3
*D10
  1

  0
LINE
  5
188
330
185
100
AcDbEntity
  8
치수문자_일반주서
 62
     0
370
    -2
100
AcDbLine
 10
84.78458334272898
 20
9.914851561971979
 30
0.0
 11
94.72208334272895
 21
9.914851561972016
 31
0.0
  0
LINE
  5
189
330
185
100
AcDbEntity
  8
치수문자_일반주서
 62
     0
370
    -2
100
AcDbLine
 10
84.78458334272898
 20
3.914851561971981
 30
0.0
 11
94.72208334272896
 21
3.914851561972018
 31
0.0
  0
LINE
  5
18A
330
185
100
AcDbEntity
  8
치수문자_일반주서
 62
     0
370
    -2
100
AcDbLine
 10
94.72208334272895
 20
9.914851561972016
 30
0.0
 11
94.72208334272891
 21
22.64385156197204
 31
0.0
  0
LINE
  5
18B
330
185
100
AcDbEntity
  8
치수문자_일반주서
 62
     0
370
    -2
100
AcDbLine
 10
94.72208334272895
 20
9.914851561972016
 30
0.0
 11
94.72208334272896
 21
3.914851561972018
 31
0.0
  0
LINE
  5
18C
330
185
100
AcDbEntity
  8
치수문자_일반주서
 62
     0
370
    -2
100
AcDbLine
 10
94.72208334272894
 20
13.21685156197202
 30
0.0
 11
94.72208334272892
 21
16.51885156197201
 31
0.0
  0
LINE
  5
18D
330
185
100
AcDbEntity
  8
치수문자_일반주서
 62
     0
370
    -2
100
AcDbLine
 10
94.72208334272898
 20
0.6128515619720183
 30
0.0
 11
94.722083342729
 21
-2.689148438027981
 31
0.0
  0
SOLID
  5
18E
330
185
100
AcDbEntity
  8
치수문자_일반주서
 62
     0
100
AcDbTrace
 10
94.17175000939561
 20
13.21685156197201
 30
0.0
 11
95.27241667606226
 21
13.21685156197202
 31
0.0
 12
94.72208334272895
 22
9.914851561972016
 32
0.0
 13
94.72208334272895
 23
9.914851561972016
 33
0.0
  0
SOLID
  5
18F
330
185
100
AcDbEntity
  8
치수문자_일반주서
 62
     0
100
AcDbTrace
 10
95.2724166760623
 20
0.6128515619720196
 30
0.0
 11
94.17175000939565
 21
0.612851561972017
 31
0.0
 12
94.72208334272896
 22
3.914851561972018
 32
0.0
 13
94.72208334272896
 23
3.914851561972018
 33
0.0
  0
MTEXT
  5
190
330
185
100
AcDbEntity
  8
치수문자_일반주서
 62
     0
100
AcDbMText
 10
90.34708334272892
 20
19.58135156197203
 30
0.0
 40
3.5
 41
0.0
 71
     2
 72
     1
  1
\A1;%%c6
  7
SLDTEXTSTYLE0
 11
-2.368475785867001E-15
 21
1.0
 31
0.0
 73
     1
 44
1.0
  0
POINT
  5
191
330
185
100
AcDbEntity
  8
Defpoints
 62
     0
100
AcDbPoint
 10
84.72208334272898
 20
9.914851561971979
 30
0.0
  0
POINT
  5
192
330
185
100
AcDbEntity
  8
Defpoints
 62
     0
100
AcDbPoint
 10
84.72208334272898
 20
3.914851561971981
 30
0.0
  0
POINT
  5
193
330
185
100
AcDbEntity
  8
Defpoints
 62
     0
100
AcDbPoint
 10
94.72208334272898
 20
3.914851561972018
 30
0.0
  0
ENDBLK
  5
187
330
185
100
AcDbEntity
  8
0
100
AcDbBlockEnd
  0
BLOCK
  5
195
330
194
100
AcDbEntity
  8
0
100
AcDbBlockBegin
  2
*D11
 70
     1
 10
0.0
 20
0.0
 30
0.0
  3
*D11
  1

  0
LINE
  5
197
330
194
100
AcDbEntity
  8
치수문자_일반주서
 62
     0
370
    -2
100
AcDbLine
 10
86.47808788877782
 20
1.16546219799425
 30
0.0
 11
94.97043346605601
 21
-11.88011225651705
 31
0.0
  0
MTEXT
  5
198
330
194
100
AcDbEntity
  8
치수문자_일반주서
 62
     0
100
AcDbMText
 10
94.90287185352707
 20
-6.964781698862512
 30
0.0
 40
3.5
 41
0.0
 71
     5
 72
     1
  1
\A1;R0.1
  7
SLDTEXTSTYLE0
 11
0.5455627707374655
 21
-0.8380699631804374
 31
0.0
 73
     1
 44
1.0
  0
SOLID
  5
199
330
194
100
AcDbEntity
  8
치수문자_일반주서
 62
     0
100
AcDbTrace
 10
86.93930572518146
 20
1.465703576156768
 30
0.0
 11
86.01687005237419
 21
0.8652208198317313
 31
0.0
 12
84.67663961980271
 22
3.932769216416053
 32
0.0
 13
84.67663961980271
 23
3.932769216416053
 33
0.0
  0
LINE
  5
19A
330
194
100
AcDbEntity
  8
치수문자_일반주서
 62
     0
100
AcDbLine
 10
84.57708334272897
 20
4.016576212734092
 30
0.0
 11
84.66708334272897
 21
4.016576212734092
 31
0.0
  0
LINE
  5
19B
330
194
100
AcDbEntity
  8
치수문자_일반주서
 62
     0
100
AcDbLine
 10
84.62208334272897
 20
3.971576212734092
 30
0.0
 11
84.62208334272897
 21
4.061576212734092
 31
0.0
  0
POINT
  5
19C
330
194
100
AcDbEntity
  8
Defpoints
 62
     0
100
AcDbPoint
 10
84.67663961980271
 20
3.932769216416053
 30
0.0
  0
POINT
  5
19D
330
194
100
AcDbEntity
  8
Defpoints
 62
     0
100
AcDbPoint
 10
84.62208334272897
 20
4.016576212734092
 30
0.0
  0
ENDBLK
  5
196
330
194
100
AcDbEntity
  8
0
100
AcDbBlockEnd
  0
BLOCK
  5
1BE
330
1BD
100
AcDbEntity
  8
0
100
AcDbBlockBegin
  2
*D12
 70
     1
 10
0.0
 20
0.0
 30
0.0
  3
*D12
  1

  0
LINE
  5
1C0
330
1BD
100
AcDbEntity
  8
치수문자_일반주서
 62
     0
370
    -2
100
AcDbLine
 10
31.2822413586284
 20
-6.439250767967607
 30
0.0
 11
41.92471548443725
 21
-21.41034730944572
 31
0.0
  0
MTEXT
  5
1C1
330
1BD
100
AcDbEntity
  8
치수문자_일반주서
 62
     0
100
AcDbMText
 10
41.52937790382735
 20
-16.32360393107901
 30
0.0
 40
3.5
 41
0.0
 71
     5
 72
     1
  1
\A1;R1.5
  7
SLDTEXTSTYLE0
 11
0.5793922029630125
 21
-0.815048878991725
 31
0.0
 73
     1
 44
1.0
  0
SOLID
  5
1C2
330
1BD
100
AcDbEntity
  8
치수문자_일반주서
 62
     0
100
AcDbTrace
 10
31.73078992503352
 20
-6.12039192560363
 30
0.0
 11
30.83369279222329
 21
-6.758109610331586
 31
0.0
 12
29.36908830444454
 22
-3.747959369536932
 32
0.0
 13
29.36908830444454
 23
-3.747959369536932
 33
0.0
  0
LINE
  5
1C3
330
1BD
100
AcDbEntity
  8
치수문자_일반주서
 62
     0
100
AcDbLine
 10
28.45500000000002
 20
-2.525386051049347
 30
0.0
 11
28.54500000000002
 21
-2.525386051049347
 31
0.0
  0
LINE
  5
1C4
330
1BD
100
AcDbEntity
  8
치수문자_일반주서
 62
     0
100
AcDbLine
 10
28.50000000000002
 20
-2.570386051049347
 30
0.0
 11
28.50000000000002
 21
-2.480386051049347
 31
0.0
  0
POINT
  5
1C5
330
1BD
100
AcDbEntity
  8
Defpoints
 62
     0
100
AcDbPoint
 10
29.36908830444454
 20
-3.747959369536932
 30
0.0
  0
POINT
  5
1C6
330
1BD
100
AcDbEntity
  8
Defpoints
 62
     0
100
AcDbPoint
 10
28.50000000000002
 20
-2.525386051049347
 30
0.0
  0
ENDBLK
  5
1BF
330
1BD
100
AcDbEntity
  8
0
100
AcDbBlockEnd
  0
ENDSEC
  0
SECTION
  2
ENTITIES
  0
LINE
  5
96
330
1F
100
AcDbEntity
  8
0
  6
Continuous
 62
     1
370
    15
100
AcDbLine
 10
19.71252651392359
 20
-4.027188345471878
 30
0.0
 11
22.14913335880114
 21
-4.027188345471878
 31
0.0
1001
PE_URL
1000

  0
LINE
  5
97
330
1F
100
AcDbEntity
  8
0
  6
Continuous
 62
     1
370
    15
100
AcDbLine
 10
11.26798778440259
 20
3.972811654528125
 30
0.0
 11
9.999999999999986
 21
3.972811654528125
 31
0.0
1001
PE_URL
1000

  0
LINE
  5
98
330
1F
100
AcDbEntity
  8
0
  6
Continuous
 62
     1
370
    15
100
AcDbLine
 10
22.14913335880114
 20
3.972811654528125
 30
0.0
 11
19.71252651392366
 21
3.972811654528125
 31
0.0
1001
PE_URL
1000

  0
LINE
  5
99
330
1F
100
AcDbEntity
  8
0
  6
Continuous
 62
     1
370
    15
100
AcDbLine
 10
9.999999999999986
 20
-4.027188345471878
 30
0.0
 11
11.26798778440252
 21
-4.027188345471878
 31
0.0
1001
PE_URL
1000

  0
LINE
  5
9A
330
1F
100
AcDbEntity
  8
외형선
  6
Continuous
370
    15
100
AcDbLine
 10
-69.20000000000002
 20
3.972811654528123
 30
0.0
 11
-70.00000000000003
 21
3.172811654528126
 31
0.0
  0
LINE
  5
9B
330
1F
100
AcDbEntity
  8
외형선
  6
Continuous
370
    15
100
AcDbLine
 10
-70.00000000000003
 20
-3.22718834547188
 30
0.0
 11
-69.20000000000002
 21
-4.027188345471877
 31
0.0
  0
LINE
  5
9C
330
1F
100
AcDbEntity
  8
외형선
  6
Continuous
370
    15
100
AcDbLine
 10
-69.20000000000002
 20
-4.027188345471877
 30
0.0
 11
9.999999999999986
 21
-4.027188345471877
 31
0.0
  0
LINE
  5
9D
330
1F
100
AcDbEntity
  8
외형선
  6
Continuous
370
    15
100
AcDbLine
 10
9.999999999999986
 20
3.972811654528123
 30
0.0
 11
-69.20000000000002
 21
3.972811654528123
 31
0.0
  0
LINE
  5
9E
330
1F
100
AcDbEntity
  8
0
  6
Continuous
 62
     1
370
    15
100
AcDbLine
 10
29.99999999999999
 20
-2.28294041158583
 30
0.0
 11
29.99999999999999
 21
0.167313720642106
 31
0.0
1001
PE_URL
1000

  0
SPLINE
  5
9F
330
1F
100
AcDbEntity
  8
0
  6
Continuous
 62
     1
370
    15
100
AcDbSpline
210
0.0
220
0.0
230
1.0
 70
     8
 71
     3
 72
    20
 73
    16
 74
     0
 42
0.000000001
 43
0.00000001
 40
0.0
 40
0.0
 40
0.0
 40
0.0
 40
0.25
 40
0.25
 40
0.375
 40
0.375
 40
0.5
 40
0.5
 40
0.625
 40
0.625
 40
0.75
 40
0.75
 40
0.875
 40
0.875
 40
1.0
 40
1.0
 40
1.0
 40
1.0
 10
28.49999999999999
 20
-3.201251785780212
 30
0.0
 10
28.68765980268391
 20
-3.267326674050388
 30
0.0
 10
28.86595505992506
 20
-3.306186021053972
 30
0.0
 10
29.12269010274597
 20
-3.315623989915761
 30
0.0
 10
29.20443681058595
 20
-3.310372736558881
 30
0.0
 10
29.36171422943909
 20
-3.281142812500197
 30
0.0
 10
29.43803043241178
 20
-3.256811581980965
 30
0.0
 10
29.58107807887777
 20
-3.186150846502812
 30
0.0
 10
29.64719563815997
 20
-3.140466145408142
 30
0.0
 10
29.76828232127031
 20
-3.023486686599943
 30
0.0
 10
29.82170024426564
 20
-2.953299272924126
 30
0.0
 10
29.90983689482238
 20
-2.790040496612315
 30
0.0
 10
29.94417677701547
 20
-2.696919290792594
 30
0.0
 10
29.98907507313017
 20
-2.498418064810511
 30
0.0
 10
30.00000000000001
 20
-2.39123039301671
 30
0.0
 10
30.00000000000001
 20
-2.28294041158585
 30
0.0
1001
PE_URL
1000

  0
SPLINE
  5
A0
330
1F
100
AcDbEntity
  8
0
  6
Continuous
 62
     1
370
    15
100
AcDbSpline
210
0.0
220
0.0
230
1.0
 70
     8
 71
     3
 72
    18
 73
    14
 74
     0
 42
0.000000001
 43
0.00000001
 40
0.0
 40
0.0
 40
0.0
 40
0.0
 40
0.0266058430693072
 40
0.1267968649480427
 40
0.2269905443221225
 40
0.3271866662878722
 40
0.4273850152710484
 40
0.5275853750853102
 40
0.6220649130785387
 40
0.71654599623816
 40
0.8110287730759449
 40
0.9055133917432793
 40
1.0
 40
1.0
 40
1.0
 40
1.0
 10
11.26798778440259
 20
3.948636434120028
 30
0.0
 10
11.42081376811868
 20
3.955800380749961
 30
0.0
 10
12.14914459256664
 20
3.989941977803072
 30
0.0
 10
13.4530057936554
 20
3.802848635545197
 30
0.0
 10
15.17958334457656
 20
3.390110933553282
 30
0.0
 10
16.90621688168438
 20
2.746998829152659
 30
0.0
 10
18.63287876822783
 20
1.937628893282059
 30
0.0
 10
20.32677455822654
 20
1.023108929783048
 30
0.0
 10
21.9876064635973
 20
0.0673968976562277
 30
0.0
 10
23.61566180859666
 20
-0.8756089967150157
 30
0.0
 10
25.24373682512382
 20
-1.768604065030594
 30
0.0
 10
26.87185351733098
 20
-2.578420371933151
 30
0.0
 10
27.95728069645912
 20
-2.993639857280786
 30
0.0
 10
28.49999999999994
 20
-3.201251785780176
 30
0.0
1001
PE_URL
1000

  0
SPLINE
  5
A1
330
1F
100
AcDbEntity
  8
0
  6
Continuous
 62
     1
370
    15
100
AcDbSpline
210
0.0
220
0.0
230
1.0
 70
     8
 71
     3
 72
    15
 73
    11
 74
     0
 42
0.000000001
 43
0.00000001
 40
0.0
 40
0.0
 40
0.0
 40
0.0
 40
0.1328026750057011
 40
0.2656014272177906
 40
0.3983959742377911
 40
0.5311880203136705
 40
0.6639839287547786
 40
0.7967839531295269
 40
0.9220320615428204
 40
1.0
 40
1.0
 40
1.0
 40
1.0
 10
28.5
 20
1.163318511043326
 30
0.0
 10
27.92449880738078
 20
1.473392992889103
 30
0.0
 10
26.77351342159211
 20
2.093532797441384
 30
0.0
 10
25.04707458499738
 20
2.872964327035494
 30
0.0
 10
23.32069280504315
 20
3.478640871244892
 30
0.0
 10
21.59433229660908
 20
3.865691534066941
 30
0.0
 10
19.8679401825335
 20
4.014835999225584
 30
0.0
 10
18.17420243628651
 20
3.907818065308623
 30
0.0
 10
16.71814093500489
 20
3.642360811251216
 30
0.0
 10
15.83752498380014
 20
3.347579823642469
 30
0.0
 10
15.49965889819667
 20
3.234481147360892
 30
0.0
1001
PE_URL
1000

  0
SPLINE
  5
A2
330
1F
100
AcDbEntity
  8
0
  6
Continuous
 62
     1
370
    15
100
AcDbSpline
210
0.0
220
0.0
230
1.0
 70
     8
 71
     3
 72
    18
 73
    14
 74
     0
 42
0.000000001
 43
0.00000001
 40
0.0
 40
0.0
 40
0.0
 40
0.0
 40
0.125
 40
0.125
 40
0.25
 40
0.25
 40
0.375
 40
0.375
 40
0.5
 40
0.5
 40
0.75
 40
0.75
 40
1.0
 40
1.0
 40
1.0
 40
1.0
 10
29.99999999999999
 20
0.1673137206421063
 30
0.0
 10
29.99999999999999
 20
0.209770366144957
 30
0.0
 10
29.99024130309677
 20
0.2483158223868621
 30
0.0
 10
29.95071884227435
 20
0.3219355585169211
 30
0.0
 10
29.92047984638624
 20
0.3573698146877431
 30
0.0
 10
29.84109525264361
 20
0.4268936076502107
 30
0.0
 10
29.79235149532653
 20
0.4609200349956551
 30
0.0
 10
29.67741625569051
 20
0.5317497036160037
 30
0.0
 10
29.61063374083729
 20
0.568811079373637
 30
0.0
 10
29.3942600315931
 20
0.6844169538331003
 30
0.0
 10
29.22266134445201
 20
0.771582112976949
 30
0.0
 10
28.86742259552189
 20
0.9604051357878509
 30
0.0
 10
28.68147650541918
 20
1.063076790785088
 30
0.0
 10
28.49999999999996
 20
1.163318511043345
 30
0.0
1001
PE_URL
1000

  0
SPLINE
  5
A3
330
1F
100
AcDbEntity
  8
0
  6
Continuous
 62
     1
370
    15
100
AcDbSpline
210
0.0
220
0.0
230
1.0
 70
     8
 71
     3
 72
    17
 73
    13
 74
     0
 42
0.000000001
 43
0.00000001
 40
0.0
 40
0.0
 40
0.0
 40
0.0
 40
0.1054724203046227
 40
0.2109478637414284
 40
0.3164261048390883
 40
0.4219069173591643
 40
0.5273900743572801
 40
0.6328753482446786
 40
0.7323380643511338
 40
0.8318024071214097
 40
0.9312685329003029
 40
1.0
 40
1.0
 40
1.0
 40
1.0
 10
10.0
 20
0.700405042827457
 30
0.0
 10
10.57548793863912
 20
0.3692948359560634
 30
0.0
 10
11.72648031099828
 20
-0.2929350683238671
 30
0.0
 10
13.45300541594179
 20
-1.281895292619908
 30
0.0
 10
15.17958344550998
 20
-2.190121333230334
 30
0.0
 10
16.90621685567768
 20
-2.96553107953359
 30
0.0
 10
18.6328787713177
 20
-3.559294281627303
 30
0.0
 10
20.32677457167398
 20
-3.927178658261783
 30
0.0
 10
21.98760641067664
 20
-4.064196115829019
 30
0.0
 10
23.61566200814999
 20
-3.969890573823885
 30
0.0
 10
25.07603600053689
 20
-3.713533419868631
 30
0.0
 10
25.99373551606828
 20
-3.411764517062786
 30
0.0
 10
26.3687398962123
 20
-3.288451103000535
 30
0.0
1001
PE_URL
1000

  0
SPLINE
  5
A4
330
1F
100
AcDbEntity
  8
외형선
  6
Continuous
370
    15
100
AcDbSpline
210
0.0
220
0.0
230
1.0
 70
    24
 71
     3
 72
    16
 73
    12
 74
     0
 42
0.000000001
 43
0.00000001
 40
0.0
 40
0.0
 40
0.0
 40
0.0
 40
0.2132330368604729
 40
0.3242246492519564
 40
0.4384350259218998
 40
0.5494266383133831
 40
0.6636370149833258
 40
0.7746286273748073
 40
0.8888390040447474
 40
0.9998306164362335
 40
1.0
 40
1.0
 40
1.0
 40
1.0
 10
10.0
 20
3.915752090079947
 30
0.0
 10
10.00000000000002
 20
3.676954398626616
 30
0.0
 10
10.00000000000006
 20
3.31385823447877
 30
0.0
 10
9.9999999999999
 20
2.785318443871734
 30
0.0
 10
9.999999999999986
 20
2.383425886705107
 30
0.0
 10
10.0
 20
1.989501626102601
 30
0.0
 10
9.999999999999986
 20
1.623347770535954
 30
0.0
 10
9.99999999999961
 20
1.285924411106839
 30
0.0
 10
10.00000000000136
 20
1.002526691679053
 30
0.0
 10
9.999999999997137
 20
0.8282900999953471
 30
0.0
 10
10.00000000000004
 20
0.7692012560193344
 30
0.0
 10
10.00000000000004
 20
0.7691112183322348
 30
0.0
  0
SPLINE
  5
A5
330
1F
100
AcDbEntity
  8
0
  6
Continuous
 62
     1
370
    15
100
AcDbSpline
210
0.0
220
0.0
230
1.0
 70
     8
 71
     3
 72
    46
 73
    42
 74
     0
 42
0.000000001
 43
0.00000001
 40
0.0
 40
0.0
 40
0.0
 40
0.0
 40
0.0624999999999993
 40
0.0624999999999993
 40
0.1249999999999987
 40
0.1249999999999987
 40
0.1874999999999981
 40
0.1874999999999981
 40
0.2499999999999974
 40
0.2499999999999974
 40
0.3124999999999967
 40
0.3124999999999967
 40
0.3749999999999961
 40
0.3749999999999961
 40
0.4374999999999954
 40
0.4374999999999954
 40
0.4999999999999948
 40
0.4999999999999948
 40
0.5312499999999953
 40
0.5312499999999953
 40
0.5624999999999959
 40
0.5624999999999959
 40
0.6249999999999952
 40
0.6249999999999952
 40
0.6562499999999949
 40
0.6562499999999949
 40
0.6874999999999946
 40
0.6874999999999946
 40
0.7187499999999942
 40
0.7187499999999942
 40
0.7499999999999939
 40
0.7499999999999939
 40
0.8124999999999933
 40
0.8124999999999933
 40
0.8437499999999939
 40
0.8437499999999939
 40
0.8749999999999944
 40
0.8749999999999944
 40
0.9374999999999972
 40
0.9374999999999972
 40
1.0
 40
1.0
 40
1.0
 40
1.0
 10
28.49812057503171
 20
-4.025384873636147
 30
0.0
 10
27.9655961609109
 20
-3.947452035183946
 30
0.0
 10
27.45015278225658
 20
-3.752589294473168
 30
0.0
 10
27.03528372138847
 20
-3.601727817793856
 30
0.0
 10
26.575444726663
 20
-3.377568595623428
 30
0.0
 10
25.80347015762298
 20
-3.113125584931114
 30
0.0
 10
25.41487582753339
 20
-2.965554591517755
 30
0.0
 10
24.64858310665485
 20
-2.646041153149525
 30
0.0
 10
24.26136136373447
 20
-2.472806294676856
 30
0.0
 10
23.48853877355035
 20
-2.105434317011979
 30
0.0
 10
23.10683577209466
 20
-1.912008483000502
 30
0.0
 10
22.33394784796263
 20
-1.507902317727426
 30
0.0
 10
21.94694326300078
 20
-1.297896556527197
 30
0.0
 10
21.18045635960836
 20
-0.8694610274419486
 30
0.0
 10
20.79183650069834
 20
-0.6493281059133381
 30
0.0
 10
20.01995747413974
 20
-0.2063193675132295
 30
0.0
 10
19.63793690620697
 20
0.0162934995149509
 30
0.0
 10
19.05784792194226
 20
0.3497174945874553
 30
0.0
 10
18.86425162134244
 20
0.4605935091537673
 30
0.0
 10
18.47861326235327
 20
0.6806597645778433
 30
0.0
 10
18.28753700168887
 20
0.7896689140975763
 30
0.0
 10
17.71112985518644
 20
1.114084942100567
 30
0.0
 10
17.32231210552733
 20
1.32689243908772
 30
0.0
 10
16.74437134336147
 20
1.634249828412642
 30
0.0
 10
16.55349902685623
 20
1.734584661236208
 30
0.0
 10
16.16877778942781
 20
1.93146231836951
 30
0.0
 10
15.97538580103807
 20
2.027916844147442
 30
0.0
 10
15.58855285966106
 20
2.215825551352376
 30
0.0
 10
15.39511425448849
 20
2.30727858951055
 30
0.0
 10
15.01020816434176
 20
2.484254173843552
 30
0.0
 10
14.81937272111421
 20
2.569694127076843
 30
0.0
 10
14.2416806835688
 20
2.817461095632723
 30
0.0
 10
13.8528432623551
 20
2.970644134947475
 30
0.0
 10
13.27613038633084
 20
3.177690512357631
 30
0.0
 10
13.08516473170041
 20
3.242931462909804
 30
0.0
 10
12.69967309054082
 20
3.366081160306347
 30
0.0
 10
12.50610403888704
 20
3.423869721532392
 30
0.0
 10
11.92595705456032
 20
3.584932140575374
 30
0.0
 10
11.54378771103584
 20
3.675612857481005
 30
0.0
 10
10.77216381263191
 20
3.822436305162223
 30
0.0
 10
10.38348496930517
 20
3.878363072006688
 30
0.0
 10
9.99999999999843
 20
3.915752090090826
 30
0.0
1001
PE_URL
1000

  0
SPLINE
  5
A7
330
1F
100
AcDbEntity
  8
0
  6
Continuous
 62
     1
370
    15
100
AcDbSpline
210
0.0
220
0.0
230
1.0
 70
     8
 71
     3
 72
    13
 73
     9
 74
     0
 42
0.000000001
 43
0.00000001
 40
0.0
 40
0.0
 40
0.0
 40
0.0
 40
0.1617505964935382
 40
0.3293952220078151
 40
0.4970441007691699
 40
0.6646974918179753
 40
0.8323510050582801
 40
1.0
 40
1.0
 40
1.0
 40
1.0
 10
19.71252651392361
 20
-4.017051949604692
 30
0.0
 10
19.18884428032047
 20
-4.001414513474694
 30
0.0
 10
18.1223973593279
 20
-3.96956982877284
 30
0.0
 10
16.51324575556916
 20
-3.638092789498202
 30
0.0
 10
14.88495407039885
 20
-3.124460897361449
 30
0.0
 10
13.25662867227369
 20
-2.434480717180125
 30
0.0
 10
11.628300335525
 20
-1.616263696740453
 30
0.0
 10
10.5427619025255
 20
-1.005688518242321
 30
0.0
 10
9.99999999999843
 20
-0.7004050428320977
 30
0.0
1001
PE_URL
1000

  0
LINE
  5
A8
330
1F
100
AcDbEntity
  8
외형선
  6
Continuous
370
    15
100
AcDbLine
 10
10.0
 20
-0.7004050428274753
 30
0.0
 11
10.0
 21
0.7004050428274681
 31
0.0
  0
SPLINE
  5
A9
330
1F
100
AcDbEntity
  8
0
  6
Continuous
 62
     1
370
    15
100
AcDbSpline
210
0.0
220
0.0
230
1.0
 70
     8
 71
     3
 72
    11
 73
     7
 74
     0
 42
0.000000001
 43
0.00000001
 40
0.0
 40
0.0
 40
0.0
 40
0.0
 40
0.3139243158498478
 40
0.6278576296415264
 40
0.9417992702902785
 40
1.0
 40
1.0
 40
1.0
 40
1.0
 10
9.999999999999986
 20
-3.960457705851748
 30
0.0
 10
10.57548791788943
 20
-3.998188106213522
 30
0.0
 10
11.72648024874863
 20
-4.073649988395021
 30
0.0
 10
13.45300566495132
 20
-3.855338611714719
 30
0.0
 10
14.71073755404909
 20
-3.584365639980557
 30
0.0
 10
15.39296310615139
 20
-3.328823088565954
 30
0.0
 10
15.49965889819659
 20
-3.288857838304643
 30
0.0
1001
PE_URL
1000

  0
SPLINE
  5
AA
330
1F
100
AcDbEntity
  8
외형선
  6
Continuous
370
    15
100
AcDbSpline
210
0.0
220
0.0
230
1.0
 70
    24
 71
     3
 72
    20
 73
    16
 74
     0
 42
0.000000001
 43
0.00000001
 40
0.0
 40
0.0
 40
0.0
 40
0.0
 40
0.0095814033561033
 40
0.0924267214715093
 40
0.1729372294027402
 40
0.2557825475181462
 40
0.3362930554493755
 40
0.4191383735647797
 40
0.4996488814960124
 40
0.5824941996114206
 40
0.6630047075426518
 40
0.7458500256580576
 40
0.8263605335891594
 40
0.9092058517046987
 40
1.0
 40
1.0
 40
1.0
 40
1.0
 10
9.999999999999986
 20
-0.4395498599597706
 30
0.0
 10
10.0
 20
-0.4383164968406199
 30
0.0
 10
9.999999999999943
 20
-0.4264188963273947
 30
0.0
 10
10.0
 20
-0.4687656359614463
 30
0.0
 10
10.0
 20
-0.5712142716804327
 30
0.0
 10
9.9999999999999
 20
-0.7433776267430857
 30
0.0
 10
9.999999999999986
 20
-0.9749642597623339
 30
0.0
 10
9.999999999999943
 20
-1.257529418339082
 30
0.0
 10
10.00000000000008
 20
-1.587545292442433
 30
0.0
 10
9.999999999999986
 20
-1.949909980231568
 30
0.0
 10
10.00000000000001
 20
-2.340787266310488
 30
0.0
 10
10.00000000000008
 20
-2.742304397957541
 30
0.0
 10
9.999999999999929
 20
-3.149518283826533
 30
0.0
 10
9.999999999999986
 20
-3.56330347430864
 30
0.0
 10
9.999999999999986
 20
-3.824093498771257
 30
0.0
 10
10.0
 20
-3.960457705851749
 30
0.0
  0
SPLINE
  5
AB
330
1F
100
AcDbEntity
  8
0
  6
Continuous
 62
     1
370
    15
100
AcDbSpline
210
0.0
220
0.0
230
1.0
 70
     8
 71
     3
 72
    20
 73
    16
 74
     0
 42
0.000000001
 43
0.00000001
 40
0.0
 40
0.0
 40
0.0
 40
0.0
 40
0.2500000000000096
 40
0.2500000000000096
 40
0.375000000000008
 40
0.375000000000008
 40
0.5000000000000064
 40
0.5000000000000064
 40
0.6250000000000049
 40
0.6250000000000049
 40
0.7500000000000032
 40
0.7500000000000032
 40
0.8750000000000017
 40
0.8750000000000017
 40
1.0
 40
1.0
 40
1.0
 40
1.0
 10
28.49999999999999
 20
2.407009936693704
 30
0.0
 10
28.68765980268394
 20
2.320851841555195
 30
0.0
 10
28.86595505992518
 20
2.207044516580181
 30
0.0
 10
29.12269010274594
 20
2.009650052965438
 30
0.0
 10
29.20443681058595
 20
1.9409046650475
 30
0.0
 10
29.36171422943907
 20
1.799508044129918
 30
0.0
 10
29.43803043241174
 20
1.726029599725684
 30
0.0
 10
29.58107807887774
 20
1.580763169223627
 30
0.0
 10
29.64719563816001
 20
1.509717071530121
 30
0.0
 10
29.76828232127036
 20
1.373643931997746
 30
0.0
 10
29.8217002442657
 20
1.310323641808501
 30
0.0
 10
29.90983689482239
 20
1.200228169150282
 30
0.0
 10
29.94417677701547
 20
1.153865195665476
 30
0.0
 10
29.98907507313015
 20
1.085156672465591
 30
0.0
 10
29.99999999999999
 20
1.062184905628517
 30
0.0
 10
30.00000000000001
 20
1.050579076666406
 30
0.0
1001
PE_URL
1000

  0
LINE
  5
AC
330
1F
100
AcDbEntity
  8
0
  6
Continuous
 62
     1
370
    15
100
AcDbLine
 10
29.99999999999999
 20
0.167313720642106
 30
0.0
 11
29.99999999999999
 21
1.050579076666404
 31
0.0
1001
PE_URL
1000

  0
SPLINE
  5
AD
330
1F
100
AcDbEntity
  8
0
  6
Continuous
 62
     1
370
    15
100
AcDbSpline
210
0.0
220
0.0
230
1.0
 70
     8
 71
     3
 72
    11
 73
     7
 74
     0
 42
0.000000001
 43
0.00000001
 40
0.0
 40
0.0
 40
0.0
 40
0.0
 40
0.2309174112573768
 40
0.4872731431843428
 40
0.7436338724619156
 40
1.0
 40
1.0
 40
1.0
 40
1.0
 10
22.14913335880116
 20
3.962974903614568
 30
0.0
 10
22.63797205258711
 20
3.949788770067306
 30
0.0
 10
23.6695008815922
 20
3.921963892311073
 30
0.0
 10
25.24373759461447
 20
3.608932945903616
 30
0.0
 10
26.87185332495197
 20
3.114719978924012
 30
0.0
 10
27.95728063233231
 20
2.64291493990847
 30
0.0
 10
28.49999999999993
 20
2.407009936693754
 30
0.0
1001
PE_URL
1000

  0
LINE
  5
AE
330
1F
100
AcDbEntity
  8
0
  6
Continuous
 62
     1
370
    15
100
AcDbLine
 10
29.99999999999999
 20
1.050579076666404
 30
0.0
 11
29.99999999999999
 21
2.465233959491191
 31
0.0
1001
PE_URL
1000

  0
SPLINE
  5
AF
330
1F
100
AcDbEntity
  8
0
  6
Continuous
 62
     1
370
    15
100
AcDbSpline
210
0.0
220
0.0
230
1.0
 70
     8
 71
     3
 72
     9
 73
     5
 74
     0
 42
0.000000001
 43
0.00000001
 40
0.0
 40
0.0
 40
0.0
 40
0.0
 40
0.8100839287401821
 40
1.0
 40
1.0
 40
1.0
 40
1.0
 10
28.49812057503171
 20
3.971008182692386
 30
0.0
 10
27.69872992177738
 20
3.878795914318267
 30
0.0
 10
27.21407560197864
 20
3.54848066916132
 30
0.0
 10
26.50365935819149
 20
3.28425509502342
 30
0.0
 10
26.3687398962123
 20
3.234074412056781
 30
0.0
1001
PE_URL
1000

  0
LINE
  5
B1
330
1F
100
AcDbEntity
  8
0
  6
Continuous
 62
     1
370
    15
100
AcDbLine
 10
29.99999999999999
 20
-2.519610650434945
 30
0.0
 11
29.99999999999999
 21
-2.28294041158583
 31
0.0
1001
PE_URL
1000

  0
LINE
  5
B2
330
1F
100
AcDbEntity
  8
외형선
  6
Continuous
370
    15
100
AcDbLine
 10
-69.20000000000002
 20
-0.0271883454718769
 30
0.0
 11
-69.20000000000002
 21
3.972811654528123
 31
0.0
  0
LINE
  5
B3
330
1F
100
AcDbEntity
  8
외형선
  6
Continuous
370
    15
100
AcDbLine
 10
-69.20000000000002
 20
-4.027188345471877
 30
0.0
 11
-69.20000000000002
 21
-0.0271883454718769
 31
0.0
  0
LINE
  5
B4
330
1F
100
AcDbEntity
  8
외형선
  6
Continuous
370
    15
100
AcDbLine
 10
-70.00000000000003
 20
-0.0271883454718769
 30
0.0
 11
-70.00000000000003
 21
3.172811654528126
 31
0.0
  0
LINE
  5
B5
330
1F
100
AcDbEntity
  8
외형선
  6
Continuous
370
    15
100
AcDbLine
 10
-70.00000000000003
 20
-3.22718834547188
 30
0.0
 11
-70.00000000000003
 21
-0.0271883454718769
 31
0.0
  0
SPLINE
  5
B6
330
1F
100
AcDbEntity
  8
외형선
  6
Continuous
370
    15
100
AcDbSpline
210
0.0
220
0.0
230
1.0
 70
     8
 71
     3
 72
     8
 73
     4
 74
     0
 42
0.000000001
 43
0.00000001
 40
0.0
 40
0.0
 40
0.0
 40
0.0
 40
1.0
 40
1.0
 40
1.0
 40
1.0
 10
9.999999999999972
 20
3.915752090090673
 30
0.0
 10
9.66823072077046
 20
3.948098931749983
 30
0.0
 10
9.334605153858604
 20
3.966820399085441
 30
0.0
 10
8.999965140767749
 20
3.9715878670942
 30
0.0
  0
LINE
  5
B7
330
1F
100
AcDbEntity
  8
외형선
  6
Continuous
370
    15
100
AcDbLine
 10
8.999965140767706
 20
1.258695328569595
 30
0.0
 11
8.99996514076772
 21
3.971588637488261
 31
0.0
  0
SPLINE
  5
B8
330
1F
100
AcDbEntity
  8
외형선
  6
Continuous
370
    15
100
AcDbSpline
210
0.0
220
0.0
230
1.0
 70
     8
 71
     3
 72
     8
 73
     4
 74
     0
 42
0.000000001
 43
0.00000001
 40
0.0
 40
0.0
 40
0.0
 40
0.0
 40
1.0
 40
1.0
 40
1.0
 40
1.0
 10
10.0
 20
0.700405042827457
 30
0.0
 10
9.668230720770502
 20
0.88939150395109
 30
0.0
 10
9.334605153858618
 20
1.076205035504141
 30
0.0
 10
8.99996514076772
 20
1.258718598395148
 30
0.0
  0
SPLINE
  5
B9
330
1F
100
AcDbEntity
  8
외형선
  6
Continuous
370
    15
100
AcDbSpline
210
0.0
220
0.0
230
1.0
 70
     8
 71
     3
 72
     8
 73
     4
 74
     0
 42
0.000000001
 43
0.00000001
 40
0.0
 40
0.0
 40
0.0
 40
0.0
 40
1.0
 40
1.0
 40
1.0
 40
1.0
 10
9.999999999999972
 20
-0.7004050428329782
 30
0.0
 10
9.66823072077046
 20
-0.5109539040820144
 30
0.0
 10
9.334605153858604
 20
-0.3188127007851508
 30
0.0
 10
8.999965140767749
 20
-0.1261267192997474
 30
0.0
  0
LINE
  5
BA
330
1F
100
AcDbEntity
  8
외형선
  6
Continuous
370
    15
100
AcDbLine
 10
8.999965140767706
 20
-3.814866153421436
 30
0.0
 11
8.99996514076772
 21
-0.1260955775037918
 31
0.0
  0
SPLINE
  5
BB
330
1F
100
AcDbEntity
  8
외형선
  6
Continuous
370
    15
100
AcDbSpline
210
0.0
220
0.0
230
1.0
 70
     8
 71
     3
 72
     8
 73
     4
 74
     0
 42
0.000000001
 43
0.00000001
 40
0.0
 40
0.0
 40
0.0
 40
0.0
 40
1.0
 40
1.0
 40
1.0
 40
1.0
 10
10.0
 20
-3.960457705851751
 30
0.0
 10
9.668230720770502
 20
-3.925498162786445
 30
0.0
 10
9.334605153858618
 20
-3.876821271223437
 30
0.0
 10
8.99996514076772
 20
-3.814858253438324
 30
0.0
  0
SPLINE
  5
BC
330
1F
100
AcDbEntity
  8
외형선
  6
Continuous
370
    15
100
AcDbSpline
210
0.0
220
0.0
230
1.0
 70
    24
 71
     3
 72
    19
 73
    15
 74
     0
 42
0.000000001
 43
0.00000001
 40
0.0
 40
0.0
 40
0.0
 40
0.0
 40
0.1521503635133374
 40
0.2337767093178152
 40
0.3154030551222928
 40
0.3970294009268566
 40
0.4786557467314204
 40
0.5602820925359422
 40
0.641908438340464
 40
0.7235347841449846
 40
0.8051611299495053
 40
0.8867874757540204
 40
0.9684138215585354
 40
1.0
 40
1.0
 40
1.0
 40
1.0
 10
10.0
 20
-3.960457705851749
 30
0.0
 10
10.00000000000002
 20
-3.726955981266423
 30
0.0
 10
10.00000000000006
 20
-3.368184148369637
 30
0.0
 10
10.0
 20
-2.844227344978583
 30
0.0
 10
10.0
 20
-2.439776115886663
 30
0.0
 10
9.999999999999957
 20
-2.046115852907434
 30
0.0
 10
9.999999999999915
 20
-1.674595824702849
 30
0.0
 10
9.999999999999972
 20
-1.336697021503833
 30
0.0
 10
9.999999999999986
 20
-1.04041265998696
 30
0.0
 10
9.999999999999972
 20
-0.7964579628371096
 30
0.0
 10
10.0
 20
-0.6080462036363015
 30
0.0
 10
10.00000000000001
 20
-0.4885200489928624
 30
0.0
 10
9.999999999999986
 20
-0.4324647768907476
 30
0.0
 10
9.999999999999986
 20
-0.441722901302912
 30
0.0
 10
10.0
 20
-0.4443059085422925
 30
0.0
  0
SPLINE
  5
BD
330
1F
100
AcDbEntity
  8
외형선
  6
Continuous
370
    15
100
AcDbSpline
210
0.0
220
0.0
230
1.0
 70
    24
 71
     3
 72
    16
 73
    12
 74
     0
 42
0.000000001
 43
0.00000001
 40
0.0
 40
0.0
 40
0.0
 40
0.0
 40
0.0863018152988798
 40
0.198525985489575
 40
0.3107501556802689
 40
0.4229743258709628
 40
0.5351984960616492
 40
0.6474226662523352
 40
0.759646836443038
 40
0.8718710066337411
 40
1.0
 40
1.0
 40
1.0
 40
1.0
 10
9.999999999999929
 20
0.7691112183322347
 30
0.0
 10
9.999999999999915
 20
0.8239702696126733
 30
0.0
 10
9.999999999999957
 20
0.9501663082562958
 30
0.0
 10
9.999999999999986
 20
1.211895290379152
 30
0.0
 10
9.999999999999972
 20
1.535093353722467
 30
0.0
 10
10.00000000000001
 20
1.895913819276142
 30
0.0
 10
9.999999999999957
 20
2.282983334786917
 30
0.0
 10
10.0
 20
2.68529730369714
 30
0.0
 10
10.00000000000002
 20
3.090898748973467
 30
0.0
 10
10.00000000000004
 20
3.510147366489108
 30
0.0
 10
10.00000000000005
 20
3.774714799781712
 30
0.0
 10
10.00000000000005
 20
3.915752090090738
 30
0.0
  0
LINE
  5
BE
330
1F
100
AcDbEntity
  8
중심선
100
AcDbLine
 10
-73.00000000000003
 20
-0.0271883454718769
 30
0.0
 11
32.99999999999999
 21
-0.0271883454718808
 31
0.0
  0
LINE
  5
BF
330
1F
100
AcDbEntity
  8
참조1
100
AcDbLine
 10
-45.00051336755625
 20
-2.527188345471851
 30
0.0
 11
-45.00051336755624
 21
-40.02718834547188
 31
0.0
  0
LINE
  5
C0
330
1F
100
AcDbEntity
  8
참조1
100
AcDbLine
 10
-45.00051336755624
 20
-40.02718834547188
 30
0.0
 11
-60.1588568143087
 21
-40.02718834547188
 31
0.0
  0
CIRCLE
  5
C1
330
1F
100
AcDbEntity
  8
해칭선
100
AcDbCircle
 10
0.0
 20
0.0
 30
0.0
 40
3.000000000000001
  0
INSERT
  5
C2
330
1F
100
AcDbEntity
  8
0
  6
Continuous
 62
     7
100
AcDbBlockReference
 66
     1
  2
블럭10
 10
-33.92896348222527
 20
-52.07436264711581
 30
0.0
  0
ATTRIB
  5
C3
330
C2
100
AcDbEntity
  8
FORMAT
 62
     2
100
AcDbText
 10
-50.04822452166081
 20
-49.99899573428362
 30
0.0
 40
4.233333333333333
  1
SEME0108015E [ 4 FLUTE ]
 41
0.75
  7
SLDTEXTSTYLE0
 11
-50.04822452166081
 21
-52.11566240095028
 31
0.0
100
AcDbAttribute
  2
AUTOATTR0
 70
     0
 74
     1
  0
SEQEND
  5
C4
330
C2
100
AcDbEntity
  8
0
  6
Continuous
 62
     7
  0
HATCH
  5
C5
330
1F
100
AcDbEntity
  8
중심선
100
AcDbHatch
 10
0.0
 20
0.0
 30
0.0
210
0.0
220
0.0
230
1.0
  2
SOLID
 70
     1
 71
     0
 91
        1
 92
        0
 93
        4
 72
     1
 10
-28.21405417784442
 20
-35.82718834547187
 11
-31.6603294216817
 21
-35.82718834547187
 72
     1
 10
-31.66032942168169
 20
-35.82718834547187
 11
-33.78855928088572
 21
-38.36351392604447
 72
     1
 10
-33.78855928088572
 20
-38.36351392604447
 11
-30.34225095193529
 21
-38.36347449674198
 72
     1
 10
-30.34225095193529
 20
-38.36347449674198
 11
-28.21405417784442
 21
-35.82718834547187
 97
        0
 75
     0
 76
     1
 98
        1
 10
-4.213048313140256
 20
-0.0271883454718769
  0
HATCH
  5
C6
330
1F
100
AcDbEntity
  8
중심선
100
AcDbHatch
 10
0.0
 20
0.0
 30
0.0
210
0.0
220
0.0
230
1.0
  2
SOLID
 70
     1
 71
     0
 91
        1
 92
        0
 93
        4
 72
     1
 10
-23.20129018680846
 20
-35.82718834547187
 11
-26.64756543064575
 21
-35.82718834547187
 72
     1
 10
-26.64756543064575
 20
-35.82718834547187
 11
-31.17870343900314
 21
-41.22718834547189
 72
     1
 10
-31.17870343900314
 20
-41.22718834547189
 11
-27.73242819516586
 21
-41.22718834547189
 72
     1
 10
-27.73242819516585
 20
-41.22718834547189
 11
-23.20129018680846
 21
-35.82718834547187
 97
        0
 75
     0
 76
     1
 98
        1
 10
-4.213048313140256
 20
-0.0271883454718769
  0
HATCH
  5
C7
330
1F
100
AcDbEntity
  8
중심선
100
AcDbHatch
 10
0.0
 20
0.0
 30
0.0
210
0.0
220
0.0
230
1.0
  2
SOLID
 70
     1
 71
     0
 91
        1
 92
        0
 93
        4
 72
     1
 10
-18.18852619577257
 20
-35.8271883454719
 11
-21.63480143960968
 21
-35.82718834547187
 72
     1
 10
-21.63480143960969
 20
-35.82718834547187
 11
-28.68323834149894
 21
-44.22718834547189
 72
     1
 10
-28.68323834149894
 20
-44.22718834547189
 11
-25.23696309766165
 21
-44.22718834547189
 72
     1
 10
-25.23696309766166
 20
-44.22718834547189
 11
-18.18852619577257
 21
-35.8271883454719
 97
        0
 75
     0
 76
     1
 98
        1
 10
-4.213048313140256
 20
-0.0271883454718769
  0
HATCH
  5
C8
330
1F
100
AcDbEntity
  8
중심선
100
AcDbHatch
 10
0.0
 20
0.0
 30
0.0
210
0.0
220
0.0
230
1.0
  2
SOLID
 70
     1
 71
     0
 91
        1
 92
        0
 93
        6
 72
     3
 10
-13.38863576476037
 20
-40.02718834552315
 11
3.960054785062283
 21
1.540882976769353E-10
 40
0.3939339440162628
 50
17.09539180608439
 51
320.0019657685082
 73
     0
 72
     1
 10
-11.70563610905977
 20
-38.61508235011018
 11
-9.400334235358738
 21
-36.68075564006226
 72
     3
 10
-13.38863576481322
 20
-40.02718834547203
 11
6.600054785286829
 21
-1.278976924368180E-13
 40
0.636358354079598
 50
39.99873849337413
 51
368.4976242363725
 73
     1
 72
     1
 10
-6.963303272912608
 20
-39.0671883454019
 11
-14.70856845797729
 21
-39.06718834540187
 72
     1
 10
-14.70856845797729
 20
-39.06718834540187
 11
-14.70859350242323
 21
-40.98718834540179
 72
     1
 10
-14.70859350242323
 20
-40.98718834540179
 11
-10.26721373295119
 21
-40.98718834540176
 97
        0
 75
     0
 76
     1
 98
        1
 10
-4.213048313140256
 20
-0.0271883454718769
  0
DIMENSION
  5
C9
330
1F
100
AcDbEntity
  8
치수문자_일반주서
100
AcDbDimension
  2
_D
 10
40.0
 20
-4.027188345471846
 30
0.0
 11
39.99999999999994
 21
13.63931165452819
 31
0.0
 70
   160
  1
%%c<>
 71
     2
 42
7.999999999999999
 52
-270.0
  3
SLDDIMSTYLE0
100
AcDbAlignedDimension
 13
29.99999999999999
 23
3.972811654528119
 33
0.0
 14
29.99999999999999
 24
-4.02718834547188
 34
0.0
 50
90.0000000000002
100
AcDbRotatedDimension
  0
DIMENSION
  5
D7
330
1F
100
AcDbEntity
  8
치수문자_일반주서
100
AcDbDimension
  2
_D_1
 10
-80.0
 20
-4.027188345471922
 30
0.0
 11
-80.00000000000006
 21
13.63931165452809
 31
0.0
 70
   160
  1
%%c<>
 71
     2
 42
8.000000000000007
 52
-270.0
  3
SLDDIMSTYLE0
100
AcDbAlignedDimension
 13
-69.20000000000002
 23
3.972811654528127
 33
0.0
 14
-69.20000000000002
 24
-4.02718834547188
 34
0.0
 50
90.0000000000002
100
AcDbRotatedDimension
  0
DIMENSION
  5
E4
330
1F
100
AcDbEntity
  8
치수문자_일반주서
100
AcDbDimension
  2
_D_2
 10
10.0
 20
13.97281165452812
 30
0.0
 11
19.99999999999998
 21
13.97281165452812
 31
0.0
 70
   160
  1
<>
 71
     2
 42
19.99999999999999
  3
SLDDIMSTYLE0
100
AcDbAlignedDimension
 13
29.99999999999999
 23
3.972811654528119
 33
0.0
 14
10.0
 24
3.915752090079947
 34
0.0
100
AcDbRotatedDimension
  0
DIMENSION
  5
EE
330
1F
100
AcDbEntity
  8
치수문자_일반주서
100
AcDbDimension
  2
_D_3
 10
-70.00000000000003
 20
23.97281165452812
 30
0.0
 11
-19.20000000000002
 21
23.97281165452812
 31
0.0
 70
   160
  1
<>
 71
     2
 42
100.0
  3
SLDDIMSTYLE1
100
AcDbAlignedDimension
 13
29.99999999999999
 23
3.972811654528119
 33
0.0
 14
-70.00000000000003
 24
3.172811654528126
 34
0.0
 50
0.0000000000000041
100
AcDbRotatedDimension
  0
LINE
  5
F9
330
1F
100
AcDbEntity
  8
참조1
100
AcDbLine
 10
37.81348381534557
 20
7.412811654528126
 30
0.0
 11
37.81348381534557
 21
-7.467188345471879
 31
0.0
  0
LINE
  5
FA
330
1F
100
AcDbEntity
  8
참조1
100
AcDbLine
 10
50.51348381534557
 20
5.412811654528126
 30
0.0
 11
37.81348381534557
 21
5.412811654528126
 31
0.0
  0
SOLID
  5
FB
330
1F
100
AcDbEntity
  8
참조1
100
AcDbTrace
 10
37.81348381534557
 20
5.412811654528126
 30
0.0
 11
44.16348381534556
 21
4.396811654528126
 31
0.0
 12
44.16348381534556
 22
6.428811654528126
 32
0.0
 13
44.16348381534556
 23
6.428811654528126
 33
0.0
  0
LINE
  5
FC
330
1F
100
AcDbEntity
  8
참조1
100
AcDbLine
 10
50.51348381534557
 20
-5.467188345471879
 30
0.0
 11
37.81348381534557
 21
-5.467188345471879
 31
0.0
  0
SOLID
  5
FD
330
1F
100
AcDbEntity
  8
참조1
100
AcDbTrace
 10
37.81348381534557
 20
-5.467188345471879
 30
0.0
 11
44.16348381534556
 21
-6.483188345471879
 31
0.0
 12
44.16348381534556
 22
-4.451188345471879
 32
0.0
 13
44.16348381534556
 23
-4.451188345471879
 33
0.0
  0
MTEXT
  5
FE
330
1F
100
AcDbEntity
  8
참조1
100
AcDbMText
 10
47.21097390781585
 20
10.96102829917806
 30
0.0
 40
3.5
 41
0.0
 71
     1
 72
     1
  1
A
  7
SLDTEXTSTYLE0
 73
     1
 44
1.0
  0
MTEXT
  5
FF
330
1F
100
AcDbEntity
  8
참조1
100
AcDbMText
 10
47.21097390781585
 20
0.0810282991780559
 30
0.0
 40
3.5
 41
0.0
 71
     1
 72
     1
  1
A
  7
SLDTEXTSTYLE0
 73
     1
 44
1.0
  0
INSERT
  5
106
330
1F
100
AcDbEntity
  8
해칭선
100
AcDbBlockReference
  2
SW_DOWELSYMBOL_0
 10
0.0
 20
0.0
 30
0.0
  0
ARC
  5
1B8
330
1F
100
AcDbEntity
  8
0
  6
Continuous
 62
     1
370
    15
100
AcDbCircle
 10
28.50000000000002
 20
2.471009360105586
 30
0.0
 40
1.499999999999999
100
AcDbArc
 50
0.0
 51
90.07178876451401
1001
PE_URL
1000

  0
ARC
  5
1B9
102
{ACAD_REACTORS
102
}
330
1F
100
AcDbEntity
  8
0
  6
Continuous
 62
     1
370
    15
100
AcDbCircle
 10
28.50000000000002
 20
-2.525386051049347
 30
0.0
 40
1.499999999999999
100
AcDbArc
 50
269.928211235486
 51
0.0
1001
PE_URL
1000

  0
DIMENSION
  5
1BA
102
{ACAD_REACTORS
102
}
102
{ACAD_XDICTIONARY
360
1BB
102
}
330
1F
100
AcDbEntity
  8
치수문자_일반주서
100
AcDbDimension
  2
*D12
 10
28.50000000000002
 20
-2.525386051049347
 30
0.0
 11
39.38987459647407
 21
-17.84450846385692
 31
0.0
 70
   164
 71
     5
 42
1.499999999999998
  3
SLDDIMSTYLE1
100
AcDbRadialDimension
 15
29.36908830444454
 25
-3.747959369536932
 35
0.0
 40
0.0
1001
ACAD
1000
DSTYLE
1002
{
1070
    78
1070
     8
1002
}
1001
ACAD_DSTYLE_DIMRADIAL_EXTENSION
1070
   387
1070
     1
1070
   388
1040
4.711136030077982
1070
   390
1040
0.0
1001
PE_URL
1000

  0
ENDSEC
  0
SECTION
  2
OBJECTS
  0
DICTIONARY
  5
C
330
0
100
AcDbDictionary
281
     1
  3
ACAD_DETAILVIEWSTYLE
350
1A3
  3
ACAD_GROUP
350
D
  3
ACAD_LAYOUT
350
1A
  3
ACAD_MLINESTYLE
350
17
  3
ACAD_PLOTSETTINGS
350
19
  3
ACAD_PLOTSTYLENAME
350
E
  3
ACAD_SCALELIST
350
47
  3
ACAD_SECTIONVIEWSTYLE
350
1A4
  3
AcDbVariableDictionary
350
19E
  3
APPDATA
350
128
  3
DWGPROPS
350
1C8
  0
DICTIONARY
  5
16E
330
2
100
AcDbDictionary
280
     1
281
     1
  3
ACAD_LAYERSTATES
360
16F
  0
DICTIONARY
  5
1BB
330
1BA
100
AcDbDictionary
280
     1
281
     1
  0
DICTIONARY
  5
1A3
102
{ACAD_REACTORS
330
C
102
}
330
C
100
AcDbDictionary
281
     1
  0
DICTIONARY
  5
D
102
{ACAD_REACTORS
330
C
102
}
330
C
100
AcDbDictionary
281
     1
  0
DICTIONARY
  5
1A
102
{ACAD_REACTORS
330
C
102
}
330
C
100
AcDbDictionary
281
     1
  3
Layout1
350
1E
  3
Layout2
350
26
  3
Model
350
22
  0
DICTIONARY
  5
17
102
{ACAD_REACTORS
330
C
102
}
330
C
100
AcDbDictionary
281
     1
  3
Standard
350
18
  0
DICTIONARY
  5
19
102
{ACAD_REACTORS
330
C
102
}
330
C
100
AcDbDictionary
281
     1
  0
ACDBDICTIONARYWDFLT
  5
E
102
{ACAD_REACTORS
330
C
102
}
330
C
100
AcDbDictionary
281
     1
  3
Normal
350
F
100
AcDbDictionaryWithDefault
340
F
  0
DICTIONARY
  5
47
102
{ACAD_REACTORS
330
C
102
}
330
C
100
AcDbDictionary
281
     1
  3
A0
350
48
  3
A1
350
49
  3
A2
350
4A
  3
A3
350
4B
  3
A4
350
4C
  3
A5
350
4D
  3
A6
350
4E
  3
A7
350
4F
  3
A8
350
50
  3
A9
350
51
  3
B0
350
52
  3
B1
350
53
  3
B2
350
54
  3
B3
350
55
  3
B4
350
56
  3
B5
350
57
  3
B6
350
58
  3
B7
350
59
  3
B8
350
5A
  3
B9
350
5B
  3
C0
350
5C
  3
C1
350
5D
  3
C2
350
5E
  3
C3
350
5F
  3
C4
350
60
  3
C5
350
61
  3
C6
350
62
  3
C7
350
63
  3
C8
350
64
  3
C9
350
65
  3
D0
350
66
  3
D1
350
67
  3
D2
350
68
  0
DICTIONARY
  5
1A4
102
{ACAD_REACTORS
330
C
102
}
330
C
100
AcDbDictionary
281
     1
  0
DICTIONARY
  5
19E
102
{ACAD_REACTORS
330
C
102
}
330
C
100
AcDbDictionary
281
     1
  0
DICTIONARY
  5
128
102
{ACAD_REACTORS
330
C
102
}
330
C
100
AcDbDictionary
281
     1
  0
XRECORD
  5
1C8
102
{ACAD_REACTORS
330
C
102
}
330
C
100
AcDbXrecord
280
     1
  1
DWGPROPS COOKIE
  2

  3

  4

  6

  7

  8
12017044
  9

300
=
301
=
302
=
303
=
304
=
305
=
306
=
307
=
308
=
309
=
 40
0.0
 41
2458269.440693044
 42
2458270.460672639
  1

 90
        0
  0
DICTIONARY
  5
16F
102
{ACAD_REACTORS
330
16E
102
}
330
16E
100
AcDbDictionary
281
     1
  0
LAYOUT
  5
1E
102
{ACAD_REACTORS
330
1A
102
}
330
1A
100
AcDbPlotSettings
  1

  2
none_device
  4

  6

 40
0.0
 41
0.0
 42
0.0
 43
0.0
 44
0.0
 45
0.0
 46
0.0
 47
0.0
 48
0.0
 49
0.0
140
0.0
141
0.0
142
1.0
143
1.0
 70
   688
 72
     1
 73
     0
 74
     5
  7

 75
    16
147
1.0
148
0.0
149
0.0
100
AcDbLayout
  1
Layout1
 70
     1
 71
     1
 10
0.0
 20
0.0
 11
420.0
 21
297.0
 12
0.0
 22
0.0
 32
0.0
 14
1.000000000000000E+20
 24
1.000000000000000E+20
 34
1.000000000000000E+20
 15
-1.000000000000000E+20
 25
-1.000000000000000E+20
 35
-1.000000000000000E+20
146
0.0
 13
0.0
 23
0.0
 33
0.0
 16
1.0
 26
0.0
 36
0.0
 17
0.0
 27
1.0
 37
0.0
 76
     0
330
1B
  0
LAYOUT
  5
26
102
{ACAD_REACTORS
330
1A
102
}
330
1A
100
AcDbPlotSettings
  1

  2
none_device
  4

  6

 40
0.0
 41
0.0
 42
0.0
 43
0.0
 44
0.0
 45
0.0
 46
0.0
 47
0.0
 48
0.0
 49
0.0
140
0.0
141
0.0
142
1.0
143
1.0
 70
   688
 72
     1
 73
     0
 74
     5
  7

 75
    16
147
1.0
148
0.0
149
0.0
100
AcDbLayout
  1
Layout2
 70
     1
 71
     2
 10
0.0
 20
0.0
 11
0.0
 21
0.0
 12
0.0
 22
0.0
 32
0.0
 14
0.0
 24
0.0
 34
0.0
 15
0.0
 25
0.0
 35
0.0
146
0.0
 13
0.0
 23
0.0
 33
0.0
 16
1.0
 26
0.0
 36
0.0
 17
0.0
 27
1.0
 37
0.0
 76
     0
330
23
  0
LAYOUT
  5
22
102
{ACAD_REACTORS
330
1A
102
}
330
1A
100
AcDbPlotSettings
  1

  2
none_device
  4
ANSI_A_(11.00_x_8.50_Inches)
  6

 40
6.35
 41
19.05
 42
6.35000508
 43
19.05000254
 44
279.4
 45
215.9
 46
110.9593412050573
 47
107.7472285918643
 48
0.0
 49
0.0
140
0.0
141
0.0
142
0.0787616753210067
143
1.0
 70
  1696
 72
     0
 73
     0
 74
     0
  7

 75
     0
147
0.0235690232323232
148
0.0
149
0.0
100
AcDbLayout
  1
Model
 70
     1
 71
     0
 10
0.0
 20
0.0
 11
420.0
 21
297.0
 12
0.0
 22
0.0
 32
0.0
 14
-84.37500000000007
 24
-49.99899573428362
 34
0.0
 15
50.51348381534557
 25
28.34781165452813
 35
0.0
146
0.0
 13
0.0
 23
0.0
 33
0.0
 16
1.0
 26
0.0
 36
0.0
 17
0.0
 27
1.0
 37
0.0
 76
     0
330
1F
331
29
  0
MLINESTYLE
  5
18
102
{ACAD_REACTORS
330
17
102
}
330
17
100
AcDbMlineStyle
  2
Standard
 70
     0
  3

 62
   256
 51
90.0
 52
90.0
 71
     2
 49
0.5
 62
   256
  6
BYLAYER
 49
-0.5
 62
   256
  6
BYLAYER
  0
ACDBPLACEHOLDER
  5
F
102
{ACAD_REACTORS
330
E
102
}
330
E
  0
SCALE
  5
48
102
{ACAD_REACTORS
330
47
102
}
330
47
100
AcDbScale
 70
     0
300
1:1
140
1.0
141
1.0
290
     1
  0
SCALE
  5
49
102
{ACAD_REACTORS
330
47
102
}
330
47
100
AcDbScale
 70
     0
300
1:2
140
1.0
141
2.0
290
     0
  0
SCALE
  5
4A
102
{ACAD_REACTORS
330
47
102
}
330
47
100
AcDbScale
 70
     0
300
1:4
140
1.0
141
4.0
290
     0
  0
SCALE
  5
4B
102
{ACAD_REACTORS
330
47
102
}
330
47
100
AcDbScale
 70
     0
300
1:5
140
1.0
141
5.0
290
     0
  0
SCALE
  5
4C
102
{ACAD_REACTORS
330
47
102
}
330
47
100
AcDbScale
 70
     0
300
1:8
140
1.0
141
8.0
290
     0
  0
SCALE
  5
4D
102
{ACAD_REACTORS
330
47
102
}
330
47
100
AcDbScale
 70
     0
300
1:10
140
1.0
141
10.0
290
     0
  0
SCALE
  5
4E
102
{ACAD_REACTORS
330
47
102
}
330
47
100
AcDbScale
 70
     0
300
1:16
140
1.0
141
16.0
290
     0
  0
SCALE
  5
4F
102
{ACAD_REACTORS
330
47
102
}
330
47
100
AcDbScale
 70
     0
300
1:20
140
1.0
141
20.0
290
     0
  0
SCALE
  5
50
102
{ACAD_REACTORS
330
47
102
}
330
47
100
AcDbScale
 70
     0
300
1:30
140
1.0
141
30.0
290
     0
  0
SCALE
  5
51
102
{ACAD_REACTORS
330
47
102
}
330
47
100
AcDbScale
 70
     0
300
1:40
140
1.0
141
40.0
290
     0
  0
SCALE
  5
52
102
{ACAD_REACTORS
330
47
102
}
330
47
100
AcDbScale
 70
     0
300
1:50
140
1.0
141
50.0
290
     0
  0
SCALE
  5
53
102
{ACAD_REACTORS
330
47
102
}
330
47
100
AcDbScale
 70
     0
300
1:100
140
1.0
141
100.0
290
     0
  0
SCALE
  5
54
102
{ACAD_REACTORS
330
47
102
}
330
47
100
AcDbScale
 70
     0
300
2:1
140
2.0
141
1.0
290
     0
  0
SCALE
  5
55
102
{ACAD_REACTORS
330
47
102
}
330
47
100
AcDbScale
 70
     0
300
4:1
140
4.0
141
1.0
290
     0
  0
SCALE
  5
56
102
{ACAD_REACTORS
330
47
102
}
330
47
100
AcDbScale
 70
     0
300
8:1
140
8.0
141
1.0
290
     0
  0
SCALE
  5
57
102
{ACAD_REACTORS
330
47
102
}
330
47
100
AcDbScale
 70
     0
300
10:1
140
10.0
141
1.0
290
     0
  0
SCALE
  5
58
102
{ACAD_REACTORS
330
47
102
}
330
47
100
AcDbScale
 70
     0
300
100:1
140
100.0
141
1.0
290
     0
  0
SCALE
  5
59
102
{ACAD_REACTORS
330
47
102
}
330
47
100
AcDbScale
 70
     0
300
1/128" = 1'-0"
140
0.0078125
141
12.0
290
     0
  0
SCALE
  5
5A
102
{ACAD_REACTORS
330
47
102
}
330
47
100
AcDbScale
 70
     0
300
1/64" = 1'-0"
140
0.015625
141
12.0
290
     0
  0
SCALE
  5
5B
102
{ACAD_REACTORS
330
47
102
}
330
47
100
AcDbScale
 70
     0
300
1/32" = 1'-0"
140
0.03125
141
12.0
290
     0
  0
SCALE
  5
5C
102
{ACAD_REACTORS
330
47
102
}
330
47
100
AcDbScale
 70
     0
300
1/16" = 1'-0"
140
0.0625
141
12.0
290
     0
  0
SCALE
  5
5D
102
{ACAD_REACTORS
330
47
102
}
330
47
100
AcDbScale
 70
     0
300
3/32" = 1'-0"
140
0.09375
141
12.0
290
     0
  0
SCALE
  5
5E
102
{ACAD_REACTORS
330
47
102
}
330
47
100
AcDbScale
 70
     0
300
1/8" = 1'-0"
140
0.125
141
12.0
290
     0
  0
SCALE
  5
5F
102
{ACAD_REACTORS
330
47
102
}
330
47
100
AcDbScale
 70
     0
300
3/16" = 1'-0"
140
0.1875
141
12.0
290
     0
  0
SCALE
  5
60
102
{ACAD_REACTORS
330
47
102
}
330
47
100
AcDbScale
 70
     0
300
1/4" = 1'-0"
140
0.25
141
12.0
290
     0
  0
SCALE
  5
61
102
{ACAD_REACTORS
330
47
102
}
330
47
100
AcDbScale
 70
     0
300
3/8" = 1'-0"
140
0.375
141
12.0
290
     0
  0
SCALE
  5
62
102
{ACAD_REACTORS
330
47
102
}
330
47
100
AcDbScale
 70
     0
300
1/2" = 1'-0"
140
0.5
141
12.0
290
     0
  0
SCALE
  5
63
102
{ACAD_REACTORS
330
47
102
}
330
47
100
AcDbScale
 70
     0
300
3/4" = 1'-0"
140
0.75
141
12.0
290
     0
  0
SCALE
  5
64
102
{ACAD_REACTORS
330
47
102
}
330
47
100
AcDbScale
 70
     0
300
1" = 1'-0"
140
1.0
141
12.0
290
     0
  0
SCALE
  5
65
102
{ACAD_REACTORS
330
47
102
}
330
47
100
AcDbScale
 70
     0
300
1-1/2" = 1'-0"
140
1.5
141
12.0
290
     0
  0
SCALE
  5
66
102
{ACAD_REACTORS
330
47
102
}
330
47
100
AcDbScale
 70
     0
300
3" = 1'-0"
140
3.0
141
12.0
290
     0
  0
SCALE
  5
67
102
{ACAD_REACTORS
330
47
102
}
330
47
100
AcDbScale
 70
     0
300
6" = 1'-0"
140
6.0
141
12.0
290
     0
  0
SCALE
  5
68
102
{ACAD_REACTORS
330
47
102
}
330
47
100
AcDbScale
 70
     0
300
1'-0" = 1'-0"
140
12.0
141
12.0
290
     0
  0
ENDSEC
  0
EOF
