  0
SECTION
  2
HEADER
  9
$ACADVER
  1
AC1015
  9
$ACADMAINTVER
 70
     6
  9
$DWGCODEPAGE
  3
ANSI_949
  9
$INSBASE
 10
0.0
 20
0.0
 30
0.0
  9
$EXTMIN
 10
-87.9089745962155
 20
-49.97180738881174
 30
0.0
  9
$EXTMAX
 10
79.73835494594202
 20
34.12496595351915
 30
0.0
  9
$LIMMIN
 10
0.0
 20
0.0
  9
$LIMMAX
 10
420.0
 20
297.0
  9
$ORTHOMODE
 70
     0
  9
$REGENMODE
 70
     1
  9
$FILLMODE
 70
     1
  9
$QTEXTMODE
 70
     0
  9
$MIRRTEXT
 70
     1
  9
$LTSCALE
 40
1.0
  9
$ATTMODE
 70
     1
  9
$TEXTSIZE
 40
3.5
  9
$TRACEWID
 40
1.0
  9
$TEXTSTYLE
  7
Standard
  9
$CLAYER
  8
0
  9
$CELTYPE
  6
ByLayer
  9
$CECOLOR
 62
   256
  9
$CELTSCALE
 40
1.0
  9
$DISPSILH
 70
     0
  9
$DIMSCALE
 40
1.0
  9
$DIMASZ
 40
3.302
  9
$DIMEXO
 40
1.0
  9
$DIMDLI
 40
3.75
  9
$DIMRND
 40
0.0
  9
$DIMDLE
 40
0.0
  9
$DIMEXE
 40
1.0
  9
$DIMTP
 40
0.0
  9
$DIMTM
 40
0.0
  9
$DIMTXT
 40
3.5
  9
$DIMCEN
 40
2.5
  9
$DIMTSZ
 40
0.0
  9
$DIMTOL
 70
     0
  9
$DIMLIM
 70
     0
  9
$DIMTIH
 70
     1
  9
$DIMTOH
 70
     1
  9
$DIMSE1
 70
     0
  9
$DIMSE2
 70
     0
  9
$DIMTAD
 70
     1
  9
$DIMZIN
 70
     0
  9
$DIMBLK
  1

  9
$DIMASO
 70
     1
  9
$DIMSHO
 70
     1
  9
$DIMPOST
  1

  9
$DIMAPOST
  1

  9
$DIMALT
 70
     0
  9
$DIMALTD
 70
     3
  9
$DIMALTF
 40
0.0393700787401575
  9
$DIMLFAC
 40
1.0
  9
$DIMTOFL
 70
     1
  9
$DIMTVP
 40
0.0
  9
$DIMTIX
 70
     0
  9
$DIMSOXD
 70
     0
  9
$DIMSAH
 70
     0
  9
$DIMBLK1
  1

  9
$DIMBLK2
  1

  9
$DIMSTYLE
  2
ISO-25
  9
$DIMCLRD
 70
     0
  9
$DIMCLRE
 70
     0
  9
$DIMCLRT
 70
     0
  9
$DIMTFAC
 40
1.0
  9
$DIMGAP
 40
1.524
  9
$DIMJUST
 70
     0
  9
$DIMSD1
 70
     0
  9
$DIMSD2
 70
     0
  9
$DIMTOLJ
 70
     0
  9
$DIMTZIN
 70
     0
  9
$DIMALTZ
 70
     0
  9
$DIMALTTZ
 70
     0
  9
$DIMUPT
 70
     0
  9
$DIMDEC
 70
     2
  9
$DIMTDEC
 70
     2
  9
$DIMALTU
 70
     2
  9
$DIMALTTD
 70
     3
  9
$DIMTXSTY
  7
Standard
  9
$DIMAUNIT
 70
     0
  9
$DIMADEC
 70
     2
  9
$DIMALTRND
 40
0.0
  9
$DIMAZIN
 70
     0
  9
$DIMDSEP
 70
    44
  9
$DIMATFIT
 70
     3
  9
$DIMFRAC
 70
     0
  9
$DIMLDRBLK
  1

  9
$DIMLUNIT
 70
     2
  9
$DIMLWD
 70
    -2
  9
$DIMLWE
 70
    -2
  9
$DIMTMOVE
 70
     0
  9
$LUNITS
 70
     2
  9
$LUPREC
 70
     2
  9
$SKETCHINC
 40
1.0
  9
$FILLETRAD
 40
10.0
  9
$AUNITS
 70
     0
  9
$AUPREC
 70
     2
  9
$MENU
  1
.
  9
$ELEVATION
 40
0.0
  9
$PELEVATION
 40
0.0
  9
$THICKNESS
 40
0.0
  9
$LIMCHECK
 70
     0
  9
$CHAMFERA
 40
0.0
  9
$CHAMFERB
 40
0.0
  9
$CHAMFERC
 40
0.0
  9
$CHAMFERD
 40
0.0
  9
$SKPOLY
 70
     0
  9
$TDCREATE
 40
2458269.819284491
  9
$TDUCREATE
 40
2458269.444284491
  9
$TDUPDATE
 40
2459702.563171516
  9
$TDUUPDATE
 40
2459702.188171516
  9
$TDINDWG
 40
0.0000970023
  9
$TDUSRTIMER
 40
0.0000969907
  9
$USRTIMER
 70
     1
  9
$ANGBASE
 50
0.0
  9
$ANGDIR
 70
     0
  9
$PDMODE
 70
     0
  9
$PDSIZE
 40
-1.0
  9
$PLINEWID
 40
0.0
  9
$SPLFRAME
 70
     0
  9
$SPLINETYPE
 70
     6
  9
$SPLINESEGS
 70
     8
  9
$HANDSEED
  5
326
  9
$SURFTAB1
 70
     6
  9
$SURFTAB2
 70
     6
  9
$SURFTYPE
 70
     6
  9
$SURFU
 70
     6
  9
$SURFV
 70
     6
  9
$UCSBASE
  2

  9
$UCSNAME
  2

  9
$UCSORG
 10
0.0
 20
0.0
 30
0.0
  9
$UCSXDIR
 10
1.0
 20
0.0
 30
0.0
  9
$UCSYDIR
 10
0.0
 20
1.0
 30
0.0
  9
$UCSORTHOREF
  2

  9
$UCSORTHOVIEW
 70
     0
  9
$UCSORGTOP
 10
0.0
 20
0.0
 30
0.0
  9
$UCSORGBOTTOM
 10
0.0
 20
0.0
 30
0.0
  9
$UCSORGLEFT
 10
0.0
 20
0.0
 30
0.0
  9
$UCSORGRIGHT
 10
0.0
 20
0.0
 30
0.0
  9
$UCSORGFRONT
 10
0.0
 20
0.0
 30
0.0
  9
$UCSORGBACK
 10
0.0
 20
0.0
 30
0.0
  9
$PUCSBASE
  2

  9
$PUCSNAME
  2

  9
$PUCSORG
 10
0.0
 20
0.0
 30
0.0
  9
$PUCSXDIR
 10
1.0
 20
0.0
 30
0.0
  9
$PUCSYDIR
 10
0.0
 20
1.0
 30
0.0
  9
$PUCSORTHOREF
  2

  9
$PUCSORTHOVIEW
 70
     0
  9
$PUCSORGTOP
 10
0.0
 20
0.0
 30
0.0
  9
$PUCSORGBOTTOM
 10
0.0
 20
0.0
 30
0.0
  9
$PUCSORGLEFT
 10
0.0
 20
0.0
 30
0.0
  9
$PUCSORGRIGHT
 10
0.0
 20
0.0
 30
0.0
  9
$PUCSORGFRONT
 10
0.0
 20
0.0
 30
0.0
  9
$PUCSORGBACK
 10
0.0
 20
0.0
 30
0.0
  9
$USERI1
 70
     0
  9
$USERI2
 70
     0
  9
$USERI3
 70
     0
  9
$USERI4
 70
     0
  9
$USERI5
 70
     0
  9
$USERR1
 40
0.0
  9
$USERR2
 40
0.0
  9
$USERR3
 40
0.0
  9
$USERR4
 40
0.0
  9
$USERR5
 40
0.0
  9
$WORLDVIEW
 70
     1
  9
$SHADEDGE
 70
     3
  9
$SHADEDIF
 70
    70
  9
$TILEMODE
 70
     1
  9
$MAXACTVP
 70
    64
  9
$PINSBASE
 10
0.0
 20
0.0
 30
0.0
  9
$PLIMCHECK
 70
     0
  9
$PEXTMIN
 10
1.000000000000000E+20
 20
1.000000000000000E+20
 30
1.000000000000000E+20
  9
$PEXTMAX
 10
-1.000000000000000E+20
 20
-1.000000000000000E+20
 30
-1.000000000000000E+20
  9
$PLIMMIN
 10
0.0
 20
0.0
  9
$PLIMMAX
 10
0.0
 20
0.0
  9
$UNITMODE
 70
     0
  9
$VISRETAIN
 70
     1
  9
$PLINEGEN
 70
     0
  9
$PSLTSCALE
 70
     1
  9
$TREEDEPTH
 70
  3020
  9
$CMLSTYLE
  2
Standard
  9
$CMLJUST
 70
     0
  9
$CMLSCALE
 40
20.0
  9
$PROXYGRAPHICS
 70
     1
  9
$MEASUREMENT
 70
     1
  9
$CELWEIGHT
370
    -1
  9
$ENDCAPS
280
     0
  9
$JOINSTYLE
280
     0
  9
$LWDISPLAY
290
     1
  9
$INSUNITS
 70
     4
  9
$HYPERLINKBASE
  1

  9
$STYLESHEET
  1

  9
$XEDIT
290
     1
  9
$CEPSNTYPE
380
     0
  9
$PSTYLEMODE
290
     1
  9
$FINGERPRINTGUID
  2
{ADAD71BD-7531-452E-93D9-DD35977BEBA2}
  9
$VERSIONGUID
  2
{FAEB1C32-E019-11D5-929B-00C0DF256EC4}
  9
$EXTNAMES
290
     1
  9
$PSVPSCALE
 40
0.0
  9
$OLESTARTUP
290
     0
  0
ENDSEC
  0
SECTION
  2
CLASSES
  0
CLASS
  1
ACDBDICTIONARYWDFLT
  2
AcDbDictionaryWithDefault
  3
ObjectDBX Classes
 90
        0
280
     0
281
     0
  0
CLASS
  1
VISUALSTYLE
  2
AcDbVisualStyle
  3
ObjectDBX Classes
 90
     4095
280
     0
281
     0
  0
CLASS
  1
MATERIAL
  2
AcDbMaterial
  3
ObjectDBX Classes
 90
     1153
280
     0
281
     0
  0
CLASS
  1
SCALE
  2
AcDbScale
  3
ObjectDBX Classes
 90
     1153
280
     0
281
     0
  0
CLASS
  1
SUN
  2
AcDbSun
  3
SCENEOE
 90
     1153
280
     0
281
     0
  0
CLASS
  1
ACDBPLACEHOLDER
  2
AcDbPlaceHolder
  3
ObjectDBX Classes
 90
        0
280
     0
281
     0
  0
CLASS
  1
LAYOUT
  2
AcDbLayout
  3
ObjectDBX Classes
 90
        0
280
     0
281
     0
  0
CLASS
  1
TABLESTYLE
  2
AcDbTableStyle
  3
ObjectDBX Classes
 90
     4095
280
     0
281
     0
  0
CLASS
  1
MLEADERSTYLE
  2
AcDbMLeaderStyle
  3
ACDB_MLEADERSTYLE_CLASS
 90
     4095
280
     0
281
     0
  0
CLASS
  1
DICTIONARYVAR
  2
AcDbDictionaryVar
  3
ObjectDBX Classes
 90
        0
280
     0
281
     0
  0
CLASS
  1
SORTENTSTABLE
  2
AcDbSortentsTable
  3
ObjectDBX Classes
 90
        0
280
     0
281
     0
  0
CLASS
  1
DIMASSOC
  2
AcDbDimAssoc
  3
"AcDbDimAssoc|Product Desc:     AcDim ARX App For Dimension|Company:          Autodesk, Inc.|WEB Address:      www.autodesk.com"
 90
        0
280
     0
281
     0
  0
ENDSEC
  0
SECTION
  2
TABLES
  0
TABLE
  2
VPORT
  5
8
330
0
100
AcDbSymbolTable
 70
     1
  0
VPORT
  5
29
330
8
100
AcDbSymbolTableRecord
100
AcDbViewportTableRecord
  2
*Active
 70
     0
 10
0.0
 20
0.0
 11
1.0
 21
1.0
 12
150.5415178643491
 22
-4.449310428565596
 13
0.0
 23
0.0
 14
10.0
 24
10.0
 15
10.0
 25
10.0
 16
0.0
 26
0.0
 36
1.0
 17
0.0
 27
0.0
 37
0.0
 40
91.95383224946605
 41
1.531481481481481
 42
50.0
 43
0.0
 44
0.0
 50
0.0
 51
0.0
 71
    16
 72
  2000
 73
     1
 74
     3
 75
     0
 76
     0
 77
     0
 78
     0
281
     0
 65
     1
110
0.0
120
0.0
130
0.0
111
1.0
121
0.0
131
0.0
112
0.0
122
1.0
132
0.0
 79
     0
146
0.0
  0
ENDTAB
  0
TABLE
  2
LTYPE
  5
5
330
0
100
AcDbSymbolTable
 70
     6
  0
LTYPE
  5
14
330
5
100
AcDbSymbolTableRecord
100
AcDbLinetypeTableRecord
  2
ByBlock
 70
     0
  3

 72
    65
 73
     0
 40
0.0
  0
LTYPE
  5
15
330
5
100
AcDbSymbolTableRecord
100
AcDbLinetypeTableRecord
  2
ByLayer
 70
     0
  3

 72
    65
 73
     0
 40
0.0
  0
LTYPE
  5
16
330
5
100
AcDbSymbolTableRecord
100
AcDbLinetypeTableRecord
  2
Continuous
 70
     0
  3
Solid line
 72
    65
 73
     0
 40
0.0
  0
LTYPE
  5
6A
330
5
100
AcDbSymbolTableRecord
100
AcDbLinetypeTableRecord
  2
HIDDEN
 70
     0
  3
Hidden __ __ __ __ __ __ __ __ __ __ __ __ __ __
 72
    65
 73
     2
 40
1.905
 49
1.27
 74
     0
 49
-0.635
 74
     0
  0
LTYPE
  5
6B
330
5
100
AcDbSymbolTableRecord
100
AcDbLinetypeTableRecord
  2
PHANTOM
 70
     0
  3
Phantom ______  __  __  ______  __  __  ______
 72
    65
 73
     6
 40
12.7
 49
6.35
 74
     0
 49
-1.27
 74
     0
 49
1.27
 74
     0
 49
-1.27
 74
     0
 49
1.27
 74
     0
 49
-1.27
 74
     0
  0
LTYPE
  5
6C
330
5
100
AcDbSymbolTableRecord
100
AcDbLinetypeTableRecord
  2
CENTER
 70
     0
  3
Center ____ _ ____ _ ____ _ ____ _ ____ _ ____
 72
    65
 73
     4
 40
10.16
 49
6.35
 74
     0
 49
-1.27
 74
     0
 49
1.27
 74
     0
 49
-1.27
 74
     0
  0
LTYPE
  5
6D
330
5
100
AcDbSymbolTableRecord
100
AcDbLinetypeTableRecord
  2
CENTERX2
 70
     0
  3
Center (2x) ________  __  ________  __  _____
 72
    65
 73
     4
 40
20.32
 49
12.7
 74
     0
 49
-2.54
 74
     0
 49
2.54
 74
     0
 49
-2.54
 74
     0
  0
LTYPE
  5
6E
330
5
100
AcDbSymbolTableRecord
100
AcDbLinetypeTableRecord
  2
DOT2
 70
     0
  3
Dot (.5x) ........................................
 72
    65
 73
     2
 40
0.635
 49
0.0
 74
     0
 49
-0.635
 74
     0
  0
ENDTAB
  0
TABLE
  2
LAYER
  5
2
102
{ACAD_XDICTIONARY
360
1B1
102
}
330
0
100
AcDbSymbolTable
 70
    18
  0
LAYER
  5
10
330
2
100
AcDbSymbolTableRecord
100
AcDbLayerTableRecord
  2
0
 70
     0
 62
     7
  6
Continuous
370
    -3
390
F
  0
LAYER
  5
6F
330
2
100
AcDbSymbolTableRecord
100
AcDbLayerTableRecord
  2
FORMAT
 70
     0
 62
     2
  6
Continuous
370
    -3
390
F
  0
LAYER
  5
70
330
2
100
AcDbSymbolTableRecord
100
AcDbLayerTableRecord
  2
외형선
 70
     0
 62
     4
  6
Continuous
370
    30
390
F
  0
LAYER
  5
71
330
2
100
AcDbSymbolTableRecord
100
AcDbLayerTableRecord
  2
숨은선
 70
     0
 62
     2
  6
HIDDEN
370
    15
390
F
  0
LAYER
  5
72
330
2
100
AcDbSymbolTableRecord
100
AcDbLayerTableRecord
  2
중심선
 70
     0
 62
     1
  6
CENTERX2
370
    -3
390
F
  0
LAYER
  5
73
330
2
100
AcDbSymbolTableRecord
100
AcDbLayerTableRecord
  2
파단선
 70
     0
 62
     4
  6
Continuous
370
    -3
390
F
  0
LAYER
  5
74
330
2
100
AcDbSymbolTableRecord
100
AcDbLayerTableRecord
  2
해칭선
 70
     0
 62
   100
  6
Continuous
370
    -3
390
F
  0
LAYER
  5
75
330
2
100
AcDbSymbolTableRecord
100
AcDbLayerTableRecord
  2
가는실선
 70
     0
 62
     4
  6
Continuous
370
    -3
390
F
  0
LAYER
  5
76
330
2
100
AcDbSymbolTableRecord
100
AcDbLayerTableRecord
  2
치수_보조선
 70
     0
 62
     4
  6
Continuous
370
    -3
390
F
  0
LAYER
  5
77
330
2
100
AcDbSymbolTableRecord
100
AcDbLayerTableRecord
  2
치수문자_일반주서
 70
     0
 62
     7
  6
Continuous
370
    15
390
F
  0
LAYER
  5
78
330
2
100
AcDbSymbolTableRecord
100
AcDbLayerTableRecord
  2
개별주서
 70
     0
 62
   100
  6
Continuous
370
    30
390
F
  0
LAYER
  5
79
330
2
100
AcDbSymbolTableRecord
100
AcDbLayerTableRecord
  2
중간선
 70
     0
 62
     2
  6
Continuous
370
    15
390
F
  0
LAYER
  5
7A
330
2
100
AcDbSymbolTableRecord
100
AcDbLayerTableRecord
  2
윤곽선
 70
     0
 62
     3
  6
Continuous
370
    40
390
F
  0
LAYER
  5
7B
330
2
100
AcDbSymbolTableRecord
100
AcDbLayerTableRecord
  2
중심마크
 70
     0
 62
   100
  6
Continuous
370
    30
390
F
  0
LAYER
  5
7C
330
2
100
AcDbSymbolTableRecord
100
AcDbLayerTableRecord
  2
가상선
 70
     0
 62
     4
  6
PHANTOM
370
    -3
390
F
  0
LAYER
  5
7D
330
2
100
AcDbSymbolTableRecord
100
AcDbLayerTableRecord
  2
특수지정선
 70
     0
 62
     5
  6
CENTERX2
370
    60
390
F
  0
LAYER
  5
7E
330
2
100
AcDbSymbolTableRecord
100
AcDbLayerTableRecord
  2
참조1
 70
     0
 62
    -4
  6
Continuous
370
    -3
390
F
  0
LAYER
  5
12A
330
2
100
AcDbSymbolTableRecord
100
AcDbLayerTableRecord
  2
Defpoints
 70
     0
 62
     7
  6
Continuous
290
     0
370
    -3
390
F
  0
ENDTAB
  0
TABLE
  2
STYLE
  5
3
330
0
100
AcDbSymbolTable
 70
     2
  0
STYLE
  5
11
330
3
100
AcDbSymbolTableRecord
100
AcDbTextStyleTableRecord
  2
Standard
 70
     0
 40
0.0
 41
1.0
 50
0.0
 71
     0
 42
3.5
  3
txt
  4

  0
STYLE
  5
94
330
3
100
AcDbSymbolTableRecord
100
AcDbTextStyleTableRecord
  2
SLDTEXTSTYLE0
 70
     0
 40
0.0
 41
0.75
 50
0.0
 71
     0
 42
3.5
  3
TXT
  4

  0
ENDTAB
  0
TABLE
  2
VIEW
  5
6
330
0
100
AcDbSymbolTable
 70
     0
  0
ENDTAB
  0
TABLE
  2
UCS
  5
7
330
0
100
AcDbSymbolTable
 70
     0
  0
ENDTAB
  0
TABLE
  2
APPID
  5
9
330
0
100
AcDbSymbolTable
 70
     3
  0
APPID
  5
12
330
9
100
AcDbSymbolTableRecord
100
AcDbRegAppTableRecord
  2
ACAD
 70
     0
  0
APPID
  5
137
330
9
100
AcDbSymbolTableRecord
100
AcDbRegAppTableRecord
  2
PE_URL
 70
     0
  0
APPID
  5
138
330
9
100
AcDbSymbolTableRecord
100
AcDbRegAppTableRecord
  2
ACAD_DSTYLE_DIMRADIAL_EXTENSION
 70
     0
  0
ENDTAB
  0
TABLE
  2
DIMSTYLE
  5
A
330
0
100
AcDbSymbolTable
 70
     3
100
AcDbDimStyleTable
  0
DIMSTYLE
105
27
330
A
100
AcDbSymbolTableRecord
100
AcDbDimStyleTableRecord
  2
ISO-25
 70
     0
 41
2.5
 42
0.625
 43
3.75
 44
1.25
 73
     0
 74
     0
 77
     1
 78
     8
140
2.5
141
2.5
143
0.03937007874016
147
0.625
171
     3
172
     1
178
     0
271
     2
272
     2
274
     3
278
    44
283
     0
284
     8
340
11
  0
DIMSTYLE
105
CB
102
{ACAD_REACTORS
330
166
330
173
330
266
330
273
330
2DC
330
2DD
102
}
330
A
100
AcDbSymbolTableRecord
100
AcDbDimStyleTableRecord
  2
SLDDIMSTYLE0
 70
     0
 41
3.302
 44
0.0
 45
0.000000001
 73
     0
 74
     0
 77
     1
 78
    12
 79
     3
140
3.5
147
0.875
172
     1
173
     1
178
     0
271
     2
272
     2
276
     2
284
    12
289
     0
340
94
  0
DIMSTYLE
105
E6
102
{ACAD_REACTORS
330
180
330
18D
330
1A6
330
280
330
28D
330
2A6
330
2DE
330
2DF
330
2E6
102
}
330
A
100
AcDbSymbolTableRecord
100
AcDbDimStyleTableRecord
  2
SLDDIMSTYLE1
 70
     0
 41
3.302
 44
0.0
 45
0.000000001
 73
     0
 74
     0
 77
     1
 78
    12
 79
     3
140
3.5
147
0.875
173
     1
178
     0
271
     2
272
     2
276
     2
284
    12
340
94
  0
ENDTAB
  0
TABLE
  2
BLOCK_RECORD
  5
1
330
0
100
AcDbSymbolTable
 70
    27
  0
BLOCK_RECORD
  5
1F
102
{ACAD_XDICTIONARY
360
323
102
}
330
1
100
AcDbSymbolTableRecord
100
AcDbBlockTableRecord
  2
*Model_Space
340
22
  0
BLOCK_RECORD
  5
1B
330
1
100
AcDbSymbolTableRecord
100
AcDbBlockTableRecord
  2
*Paper_Space
340
1E
  0
BLOCK_RECORD
  5
23
330
1
100
AcDbSymbolTableRecord
100
AcDbBlockTableRecord
  2
*Paper_Space0
340
26
  0
BLOCK_RECORD
  5
7F
330
1
100
AcDbSymbolTableRecord
100
AcDbBlockTableRecord
  2
블럭10
340
0
102
{BLKREFS
331
C3
102
}
  0
BLOCK_RECORD
  5
CC
330
1
100
AcDbSymbolTableRecord
100
AcDbBlockTableRecord
  2
_D
340
0
  0
BLOCK_RECORD
  5
D9
330
1
100
AcDbSymbolTableRecord
100
AcDbBlockTableRecord
  2
_D_1
340
0
  0
BLOCK_RECORD
  5
E7
330
1
100
AcDbSymbolTableRecord
100
AcDbBlockTableRecord
  2
_D_2
340
0
  0
BLOCK_RECORD
  5
F1
330
1
100
AcDbSymbolTableRecord
100
AcDbBlockTableRecord
  2
_D_3
340
0
  0
BLOCK_RECORD
  5
101
330
1
100
AcDbSymbolTableRecord
100
AcDbBlockTableRecord
  2
SW_DOWELSYMBOL_0
340
0
102
{BLKREFS
331
0
331
19A
331
0
331
29A
331
2E0
102
}
  0
BLOCK_RECORD
  5
167
330
1
100
AcDbSymbolTableRecord
100
AcDbBlockTableRecord
  2
*D8
340
0
  0
BLOCK_RECORD
  5
174
330
1
100
AcDbSymbolTableRecord
100
AcDbBlockTableRecord
  2
*D9
340
0
  0
BLOCK_RECORD
  5
181
330
1
100
AcDbSymbolTableRecord
100
AcDbBlockTableRecord
  2
*D10
340
0
  0
BLOCK_RECORD
  5
18E
330
1
100
AcDbSymbolTableRecord
100
AcDbBlockTableRecord
  2
*D11
340
0
  0
BLOCK_RECORD
  5
1A7
330
1
100
AcDbSymbolTableRecord
100
AcDbBlockTableRecord
  2
*D12
340
0
  0
BLOCK_RECORD
  5
1E7
330
1
100
AcDbSymbolTableRecord
100
AcDbBlockTableRecord
  2
*D13
340
0
  0
BLOCK_RECORD
  5
1F3
330
1
100
AcDbSymbolTableRecord
100
AcDbBlockTableRecord
  2
*D14
340
0
  0
BLOCK_RECORD
  5
1FF
330
1
100
AcDbSymbolTableRecord
100
AcDbBlockTableRecord
  2
*D15
340
0
  0
BLOCK_RECORD
  5
20B
330
1
100
AcDbSymbolTableRecord
100
AcDbBlockTableRecord
  2
*D16
340
0
  0
BLOCK_RECORD
  5
217
330
1
100
AcDbSymbolTableRecord
100
AcDbBlockTableRecord
  2
*D17
340
0
  0
BLOCK_RECORD
  5
267
330
1
100
AcDbSymbolTableRecord
100
AcDbBlockTableRecord
  2
*D19
340
0
  0
BLOCK_RECORD
  5
274
330
1
100
AcDbSymbolTableRecord
100
AcDbBlockTableRecord
  2
*D20
340
0
  0
BLOCK_RECORD
  5
281
330
1
100
AcDbSymbolTableRecord
100
AcDbBlockTableRecord
  2
*D21
340
0
  0
BLOCK_RECORD
  5
28E
330
1
100
AcDbSymbolTableRecord
100
AcDbBlockTableRecord
  2
*D22
340
0
  0
BLOCK_RECORD
  5
2A9
330
1
100
AcDbSymbolTableRecord
100
AcDbBlockTableRecord
  2
*D23
340
0
  0
BLOCK_RECORD
  5
2E9
330
1
100
AcDbSymbolTableRecord
100
AcDbBlockTableRecord
  2
*D24
340
0
  0
BLOCK_RECORD
  5
2F5
330
1
100
AcDbSymbolTableRecord
100
AcDbBlockTableRecord
  2
*D25
340
0
  0
BLOCK_RECORD
  5
301
330
1
100
AcDbSymbolTableRecord
100
AcDbBlockTableRecord
  2
*D26
340
0
  0
BLOCK_RECORD
  5
30D
330
1
100
AcDbSymbolTableRecord
100
AcDbBlockTableRecord
  2
*D27
340
0
  0
BLOCK_RECORD
  5
319
330
1
100
AcDbSymbolTableRecord
100
AcDbBlockTableRecord
  2
*D28
340
0
  0
ENDTAB
  0
ENDSEC
  0
SECTION
  2
BLOCKS
  0
BLOCK
  5
20
330
1F
100
AcDbEntity
  8
0
100
AcDbBlockBegin
  2
*Model_Space
 70
     0
 10
0.0
 20
0.0
 30
0.0
  3
*Model_Space
  1

  0
ENDBLK
  5
21
330
1F
100
AcDbEntity
  8
0
100
AcDbBlockEnd
  0
BLOCK
  5
1C
330
1B
100
AcDbEntity
 67
     1
  8
0
100
AcDbBlockBegin
  2
*Paper_Space
 70
     0
 10
0.0
 20
0.0
 30
0.0
  3
*Paper_Space
  1

  0
ENDBLK
  5
1D
330
1B
100
AcDbEntity
 67
     1
  8
0
100
AcDbBlockEnd
  0
BLOCK
  5
24
330
23
100
AcDbEntity
  8
0
100
AcDbBlockBegin
  2
*Paper_Space0
 70
     0
 10
0.0
 20
0.0
 30
0.0
  3
*Paper_Space0
  1

  0
ENDBLK
  5
25
330
23
100
AcDbEntity
  8
0
100
AcDbBlockEnd
  0
BLOCK
  5
80
330
7F
100
AcDbEntity
  8
0
100
AcDbBlockBegin
  2
블럭10
 70
     2
 10
0.0
 20
0.0
 30
0.0
  3
블럭10
  1

  0
ELLIPSE
  5
82
330
7F
100
AcDbEntity
  8
중심선
100
AcDbEllipse
 10
20.54032771741204
 20
12.0471743016438
 30
0.0
 11
6.600054785286829
 21
-1.261213355974178E-13
 31
0.0
210
0.0
220
0.0
230
1.0
 40
0.636358354079598
 41
0.9219305317359503
 42
6.513795318482858
  0
ELLIPSE
  5
83
330
7F
100
AcDbEntity
  8
중심선
100
AcDbEllipse
 10
20.54032771746488
 20
12.04717430159265
 30
0.0
 11
3.960054785062283
 21
1.540847449632565E-10
 31
0.0
210
0.0
220
0.0
230
1.0
 40
0.3939339440162632
 41
1.131841032648279
 42
5.62031148352944
  0
LINE
  5
84
330
7F
100
AcDbEntity
  8
중심선
100
AcDbLine
 10
2.268634060543552
 20
16.24717430164393
 30
0.0
 11
5.714909304380834
 21
16.24717430164393
 31
0.0
  0
LINE
  5
85
330
7F
100
AcDbEntity
  8
중심선
100
AcDbLine
 10
5.245725140726316
 20
7.84717430164391
 30
0.0
 11
8.692000384563599
 21
7.84717430164391
 31
0.0
  0
LINE
  5
86
330
7F
100
AcDbEntity
  8
중심선
100
AcDbLine
 10
15.74043728645272
 20
16.24717430164393
 30
0.0
 11
8.692000384563599
 21
7.84717430164391
 31
0.0
  0
LINE
  5
87
330
7F
100
AcDbEntity
  8
중심선
100
AcDbLine
 10
0.1404042013395286
 20
13.71084872107135
 30
0.0
 11
3.58671253028996
 21
13.71088815037384
 31
0.0
  0
LINE
  5
88
330
7F
100
AcDbEntity
  8
중심선
100
AcDbLine
 10
2.750260043222114
 20
10.84717430164391
 30
0.0
 11
6.196535287059397
 21
10.84717430164391
 31
0.0
  0
LINE
  5
89
330
7F
100
AcDbEntity
  8
중심선
100
AcDbLine
 10
12.29416204261559
 20
16.24717430164393
 30
0.0
 11
5.245725140726316
 21
7.84717430164391
 31
0.0
  0
LINE
  5
8A
330
7F
100
AcDbEntity
  8
중심선
100
AcDbLine
 10
10.72767329541681
 20
16.24717430164393
 30
0.0
 11
6.196535287059397
 21
10.84717430164391
 31
0.0
  0
LINE
  5
8B
330
7F
100
AcDbEntity
  8
중심선
100
AcDbLine
 10
7.28139805157953
 20
16.24717430164393
 30
0.0
 11
2.750260043222114
 21
10.84717430164391
 31
0.0
  0
LINE
  5
8C
330
7F
100
AcDbEntity
  8
중심선
100
AcDbLine
 10
5.714909304380834
 20
16.24717430164393
 30
0.0
 11
3.58671253028996
 21
13.71088815037384
 31
0.0
  0
LINE
  5
8D
330
7F
100
AcDbEntity
  8
중심선
100
AcDbLine
 10
2.268634060543552
 20
16.24717430164393
 30
0.0
 11
0.1404042013395286
 21
13.71084872107135
 31
0.0
  0
LINE
  5
8E
330
7F
100
AcDbEntity
  8
중심선
100
AcDbLine
 10
7.28139805157953
 20
16.24717430164393
 30
0.0
 11
10.72767329541681
 21
16.24717430164393
 31
0.0
  0
LINE
  5
8F
330
7F
100
AcDbEntity
  8
중심선
100
AcDbLine
 10
12.29416204261559
 20
16.24717430164393
 30
0.0
 11
15.74043728645272
 21
16.24717430164393
 31
0.0
  0
LINE
  5
90
330
7F
100
AcDbEntity
  8
중심선
100
AcDbLine
 10
19.22036997980202
 20
11.08717430171403
 30
0.0
 11
23.66174974927406
 21
11.08717430171406
 31
0.0
  0
LINE
  5
91
330
7F
100
AcDbEntity
  8
중심선
100
AcDbLine
 10
19.22039502424796
 20
13.00717430171391
 30
0.0
 11
19.22036997980202
 21
11.08717430171403
 31
0.0
  0
LINE
  5
92
330
7F
100
AcDbEntity
  8
중심선
100
AcDbLine
 10
19.22039502424796
 20
13.00717430171391
 30
0.0
 11
26.96566020931264
 21
13.00717430171391
 31
0.0
  0
LINE
  5
93
330
7F
100
AcDbEntity
  8
중심선
100
AcDbLine
 10
22.22332737316547
 20
13.45928029700563
 30
0.0
 11
24.52862924686651
 21
15.39360700705356
 31
0.0
  0
ATTDEF
  5
95
330
7F
100
AcDbEntity
  8
FORMAT
 62
     2
100
AcDbText
 10
-16.11926103943555
 20
2.075366912832191
 30
0.0
 40
4.233333333333333
  1
SEME0110030E [ 4 FLUTE ]
 41
0.75
  7
SLDTEXTSTYLE0
 11
-16.11926103943555
 21
-0.0412997538344756
 31
0.0
100
AcDbAttributeDefinition
  3

  2
AUTOATTR0
 70
     0
 74
     1
  0
ENDBLK
  5
81
330
7F
100
AcDbEntity
  8
0
100
AcDbBlockEnd
  0
BLOCK
  5
CD
330
CC
100
AcDbEntity
  8
0
100
AcDbBlockBegin
  2
_D
 70
     0
 10
0.0
 20
0.0
 30
0.0
  3
_D
  1

  0
SOLID
  5
CF
330
CC
100
AcDbEntity
  8
치수문자_일반주서
100
AcDbTrace
 10
79.32487721999401
 20
4.999999999999997
 30
0.0
 11
79.832877219994
 21
8.301999999999996
 31
0.0
 12
78.81687721999401
 22
8.301999999999996
 32
0.0
 13
78.81687721999401
 23
8.301999999999996
 33
0.0
  0
SOLID
  5
D0
330
CC
100
AcDbEntity
  8
치수문자_일반주서
100
AcDbTrace
 10
79.32487721999401
 20
-5.000000000000001
 30
0.0
 11
78.81687721999401
 21
-8.302
 31
0.0
 12
79.832877219994
 22
-8.302
 32
0.0
 13
79.832877219994
 23
-8.302
 33
0.0
  0
LINE
  5
D1
330
CC
100
AcDbEntity
  8
치수문자_일반주서
100
AcDbLine
 10
50.41328400762048
 20
4.999999999999999
 30
0.0
 11
80.32487721999401
 21
4.999999999999997
 31
0.0
  0
LINE
  5
D2
330
CC
100
AcDbEntity
  8
치수문자_일반주서
100
AcDbLine
 10
50.41328400762048
 20
-4.999999999999999
 30
0.0
 11
80.32487721999401
 21
-5.000000000000001
 31
0.0
  0
LINE
  5
D3
330
CC
100
AcDbEntity
  8
치수문자_일반주서
100
AcDbLine
 10
79.32487721999401
 20
4.999999999999997
 30
0.0
 11
79.32487721999401
 21
11.35
 31
0.0
  0
LINE
  5
D4
330
CC
100
AcDbEntity
  8
치수문자_일반주서
100
AcDbLine
 10
79.32487721999401
 20
4.999999999999997
 30
0.0
 11
79.32487721999401
 21
-5.000000000000001
 31
0.0
  0
LINE
  5
D5
330
CC
100
AcDbEntity
  8
치수문자_일반주서
100
AcDbLine
 10
79.32487721999401
 20
-5.000000000000001
 30
0.0
 11
79.32487721999401
 21
-11.35
 31
0.0
  0
MTEXT
  5
D6
330
CC
100
AcDbEntity
  8
치수문자_일반주서
100
AcDbMText
 10
74.81314013079216
 20
-5.225330125540515
 30
0.0
 40
3.5
 41
0.0
 71
     1
 72
     1
  1
%%c
  7
SLDTEXTSTYLE0
 11
-7.044195017643634E-15
 21
1.0
 31
0.0
 73
     1
 44
1.0
  0
MTEXT
  5
D7
330
CC
100
AcDbEntity
  8
치수문자_일반주서
100
AcDbMText
 10
74.75966795413227
 20
0.0531072728335651
 30
0.0
 40
3.5
 41
0.0
 71
     1
 72
     1
  1
10
  7
SLDTEXTSTYLE0
 11
-7.044195017643634E-15
 21
1.0
 31
0.0
 73
     1
 44
1.0
  0
ENDBLK
  5
CE
330
CC
100
AcDbEntity
  8
0
100
AcDbBlockEnd
  0
BLOCK
  5
DA
330
D9
100
AcDbEntity
  8
0
100
AcDbBlockBegin
  2
_D_1
 70
     0
 10
0.0
 20
0.0
 30
0.0
  3
_D_1
  1

  0
SOLID
  5
DC
330
D9
100
AcDbEntity
  8
치수문자_일반주서
100
AcDbTrace
 10
-53.17512886940359
 20
5.000000000000004
 30
0.0
 11
-52.66712886940359
 21
8.302000000000003
 31
0.0
 12
-53.6831288694036
 22
8.302000000000003
 32
0.0
 13
-53.6831288694036
 23
8.302000000000003
 33
0.0
  0
SOLID
  5
DD
330
D9
100
AcDbEntity
  8
치수문자_일반주서
100
AcDbTrace
 10
-53.17512886940359
 20
-5.000000000000005
 30
0.0
 11
-53.6831288694036
 21
-8.302000000000005
 31
0.0
 12
-52.66712886940359
 22
-8.302000000000005
 32
0.0
 13
-52.66712886940359
 23
-8.302000000000005
 33
0.0
  0
LINE
  5
DE
330
D9
100
AcDbEntity
  8
치수문자_일반주서
100
AcDbLine
 10
-40.77512886940357
 20
5.000000000000004
 30
0.0
 11
-54.17512886940359
 21
5.000000000000004
 31
0.0
  0
LINE
  5
DF
330
D9
100
AcDbEntity
  8
치수문자_일반주서
100
AcDbLine
 10
-40.77512886940357
 20
-5.000000000000004
 30
0.0
 11
-54.17512886940359
 21
-5.000000000000005
 31
0.0
  0
LINE
  5
E0
330
D9
100
AcDbEntity
  8
치수문자_일반주서
100
AcDbLine
 10
-53.17512886940359
 20
5.000000000000004
 30
0.0
 11
-53.17512886940359
 21
11.35
 31
0.0
  0
LINE
  5
E1
330
D9
100
AcDbEntity
  8
치수문자_일반주서
100
AcDbLine
 10
-53.17512886940359
 20
5.000000000000004
 30
0.0
 11
-53.17512886940359
 21
-5.000000000000005
 31
0.0
  0
LINE
  5
E2
330
D9
100
AcDbEntity
  8
치수문자_일반주서
100
AcDbLine
 10
-53.17512886940359
 20
-5.000000000000005
 30
0.0
 11
-53.17512886940359
 21
-11.35000000000001
 31
0.0
  0
MTEXT
  5
E3
330
D9
100
AcDbEntity
  8
치수문자_일반주서
100
AcDbMText
 10
-57.68686595860543
 20
-5.225330125540515
 30
0.0
 40
3.5
 41
0.0
 71
     1
 72
     1
  1
%%c
  7
SLDTEXTSTYLE0
 11
-7.044195017643634E-15
 21
1.0
 31
0.0
 73
     1
 44
1.0
  0
MTEXT
  5
E4
330
D9
100
AcDbEntity
  8
치수문자_일반주서
100
AcDbMText
 10
-57.74033813526532
 20
0.0531072728335651
 30
0.0
 40
3.5
 41
0.0
 71
     1
 72
     1
  1
10
  7
SLDTEXTSTYLE0
 11
-7.044195017643634E-15
 21
1.0
 31
0.0
 73
     1
 44
1.0
  0
ENDBLK
  5
DB
330
D9
100
AcDbEntity
  8
0
100
AcDbBlockEnd
  0
BLOCK
  5
E8
330
E7
100
AcDbEntity
  8
0
100
AcDbBlockBegin
  2
_D_2
 70
     0
 10
0.0
 20
0.0
 30
0.0
  3
_D_2
  1

  0
SOLID
  5
EA
330
E7
100
AcDbEntity
  8
치수문자_일반주서
100
AcDbTrace
 10
59.22487113059643
 20
19.95002763342214
 30
0.0
 11
55.92287113059643
 21
20.45802763342214
 31
0.0
 12
55.92287113059643
 22
19.44202763342214
 32
0.0
 13
55.92287113059643
 23
19.44202763342214
 33
0.0
  0
SOLID
  5
EB
330
E7
100
AcDbEntity
  8
치수문자_일반주서
100
AcDbTrace
 10
34.22487113059644
 20
19.95002763342214
 30
0.0
 11
37.52687113059644
 21
19.44202763342214
 31
0.0
 12
37.52687113059644
 22
20.45802763342214
 32
0.0
 13
37.52687113059644
 23
20.45802763342214
 33
0.0
  0
LINE
  5
EC
330
E7
100
AcDbEntity
  8
치수문자_일반주서
100
AcDbLine
 10
59.22487113059643
 20
3.496857179179275
 30
0.0
 11
59.22487113059643
 21
20.95002763342215
 31
0.0
  0
LINE
  5
ED
330
E7
100
AcDbEntity
  8
치수문자_일반주서
100
AcDbLine
 10
34.22487113059644
 20
5.928653348988244
 30
0.0
 11
34.22487113059644
 21
20.95002763342215
 31
0.0
  0
LINE
  5
EE
330
E7
100
AcDbEntity
  8
치수문자_일반주서
100
AcDbLine
 10
59.22487113059643
 20
19.95002763342214
 30
0.0
 11
34.22487113059644
 21
19.95002763342214
 31
0.0
  0
MTEXT
  5
EF
330
E7
100
AcDbEntity
  8
치수문자_일반주서
100
AcDbMText
 10
44.13875993707361
 20
24.46176454800104
 30
0.0
 40
3.5
 41
0.0
 71
     1
 72
     1
  1
25
  7
SLDTEXTSTYLE0
 73
     1
 44
1.0
  0
ENDBLK
  5
E9
330
E7
100
AcDbEntity
  8
0
100
AcDbBlockEnd
  0
BLOCK
  5
F2
330
F1
100
AcDbEntity
  8
0
100
AcDbBlockBegin
  2
_D_3
 70
     0
 10
0.0
 20
0.0
 30
0.0
  3
_D_3
  1

  0
SOLID
  5
F4
330
F1
100
AcDbEntity
  8
치수문자_일반주서
100
AcDbTrace
 10
59.22487113059643
 20
27.36639032378908
 30
0.0
 11
55.92287113059643
 21
27.87439032378908
 31
0.0
 12
55.92287113059643
 22
26.85839032378908
 32
0.0
 13
55.92287113059643
 23
26.85839032378908
 33
0.0
  0
SOLID
  5
F5
330
F1
100
AcDbEntity
  8
치수문자_일반주서
100
AcDbTrace
 10
-40.77512886940357
 20
27.36639032378907
 30
0.0
 11
-37.47312886940357
 21
26.85839032378907
 31
0.0
 12
-37.47312886940357
 22
27.87439032378906
 32
0.0
 13
-37.47312886940357
 23
27.87439032378906
 33
0.0
  0
LINE
  5
F6
330
F1
100
AcDbEntity
  8
치수문자_일반주서
100
AcDbLine
 10
59.22487113059643
 20
3.496857179179275
 30
0.0
 11
59.22487113059643
 21
28.36639032378908
 31
0.0
  0
LINE
  5
F7
330
F1
100
AcDbEntity
  8
치수문자_일반주서
100
AcDbLine
 10
-40.77512886940357
 20
5.000000000000003
 30
0.0
 11
-40.77512886940357
 21
28.36639032378907
 31
0.0
  0
LINE
  5
F8
330
F1
100
AcDbEntity
  8
치수문자_일반주서
100
AcDbLine
 10
59.22487113059643
 20
27.36639032378908
 30
0.0
 11
-40.77512886940357
 21
27.36639032378907
 31
0.0
  0
MTEXT
  5
F9
330
F1
100
AcDbEntity
  8
치수문자_일반주서
100
AcDbMText
 10
5.34570445672753
 20
31.87812723836796
 30
0.0
 40
3.5
 41
0.0
 71
     1
 72
     1
  1
100
  7
SLDTEXTSTYLE0
 73
     1
 44
1.0
  0
ENDBLK
  5
F3
330
F1
100
AcDbEntity
  8
0
100
AcDbBlockEnd
  0
BLOCK
  5
102
330
101
100
AcDbEntity
  8
0
100
AcDbBlockBegin
  2
SW_DOWELSYMBOL_0
 70
     0
 10
0.0
 20
0.0
 30
0.0
  3
SW_DOWELSYMBOL_0
  1

  0
CIRCLE
  5
104
330
101
100
AcDbEntity
  8
해칭선
 62
     0
100
AcDbCircle
 10
0.0
 20
0.0
 30
0.0
 40
3.000000000000001
  0
HATCH
  5
105
330
101
100
AcDbEntity
  8
0
  6
Continuous
 62
     0
370
     0
100
AcDbHatch
 10
0.0
 20
0.0
 30
0.0
210
0.0
220
0.0
230
1.0
  2
SOLID
 70
     1
 71
     0
 91
        1
 92
        0
 93
        3
 72
     2
 10
0.0
 20
0.0
 40
3.000000000000001
 50
0.0
 51
90.0
 73
     1
 72
     1
 10
0.0
 20
3.000000000000001
 11
0.0
 21
0.0
 72
     1
 10
0.0
 20
0.0
 11
3.000000000000003
 21
0.0
 97
        0
 75
     0
 76
     1
 98
        1
 10
0.0
 20
0.0
  0
HATCH
  5
106
330
101
100
AcDbEntity
  8
0
  6
Continuous
 62
     0
370
     0
100
AcDbHatch
 10
0.0
 20
0.0
 30
0.0
210
0.0
220
0.0
230
1.0
  2
SOLID
 70
     1
 71
     0
 91
        1
 92
        0
 93
        3
 72
     2
 10
0.0
 20
0.0
 40
3.000000000000001
 50
180.0
 51
270.0000000000008
 73
     1
 72
     1
 10
0.0
 20
-3.000000000000001
 11
0.0
 21
0.0
 72
     1
 10
0.0
 20
0.0
 11
-3.000000000000003
 21
0.0
 97
        0
 75
     0
 76
     1
 98
        1
 10
0.0
 20
0.0
  0
ENDBLK
  5
103
330
101
100
AcDbEntity
  8
0
100
AcDbBlockEnd
  0
BLOCK
  5
168
330
167
100
AcDbEntity
  8
0
100
AcDbBlockBegin
  2
*D8
 70
     1
 10
0.0
 20
0.0
 30
0.0
  3
*D8
  1

  0
LINE
  5
169
330
167
100
AcDbEntity
  8
치수문자_일반주서
 62
     0
370
    -2
100
AcDbLine
 10
107.0259128770241
 20
25.35327052757709
 30
0.0
 11
136.8750060893975
 21
25.3532705275772
 31
0.0
  0
LINE
  5
16A
330
167
100
AcDbEntity
  8
치수문자_일반주서
 62
     0
370
    -2
100
AcDbLine
 10
107.0259128770241
 20
15.35327052757711
 30
0.0
 11
136.8750060893976
 21
15.35327052757722
 31
0.0
  0
LINE
  5
16B
330
167
100
AcDbEntity
  8
치수문자_일반주서
 62
     0
370
    -2
100
AcDbLine
 10
136.8750060893975
 20
22.0512705275772
 30
0.0
 11
136.8750060893976
 21
18.65527052757722
 31
0.0
  0
SOLID
  5
16C
330
167
100
AcDbEntity
  8
치수문자_일반주서
 62
     0
100
AcDbTrace
 10
137.4253394227309
 20
22.0512705275772
 30
0.0
 11
136.3246727560642
 21
22.0512705275772
 31
0.0
 12
136.8750060893975
 22
25.3532705275772
 32
0.0
 13
136.8750060893975
 23
25.3532705275772
 33
0.0
  0
SOLID
  5
16D
330
167
100
AcDbEntity
  8
치수문자_일반주서
 62
     0
100
AcDbTrace
 10
136.3246727560642
 20
18.65527052757722
 30
0.0
 11
137.4253394227309
 21
18.65527052757722
 31
0.0
 12
136.8750060893976
 22
15.35327052757722
 32
0.0
 13
136.8750060893976
 23
15.35327052757722
 33
0.0
  0
MTEXT
  5
16E
330
167
100
AcDbEntity
  8
치수문자_일반주서
 62
     0
100
AcDbMText
 10
132.5000060893976
 20
20.35327052757708
 30
0.0
 40
3.5
 41
0.0
 71
     2
 72
     1
  1
\A1;%%c10
  7
SLDTEXTSTYLE0
 11
-2.842170943040407E-15
 21
1.0
 31
0.0
 73
     1
 44
1.0
  0
POINT
  5
16F
330
167
100
AcDbEntity
  8
Defpoints
 62
     0
100
AcDbPoint
 10
106.9634128770241
 20
25.35327052757709
 30
0.0
  0
POINT
  5
170
330
167
100
AcDbEntity
  8
Defpoints
 62
     0
100
AcDbPoint
 10
106.9634128770241
 20
15.35327052757711
 30
0.0
  0
POINT
  5
171
330
167
100
AcDbEntity
  8
Defpoints
 62
     0
100
AcDbPoint
 10
136.8750060893976
 20
15.35327052757722
 30
0.0
  0
ENDBLK
  5
172
330
167
100
AcDbEntity
  8
0
100
AcDbBlockEnd
  0
BLOCK
  5
175
330
174
100
AcDbEntity
  8
0
100
AcDbBlockBegin
  2
*D9
 70
     1
 10
0.0
 20
0.0
 30
0.0
  3
*D9
  1

  0
LINE
  5
176
330
174
100
AcDbEntity
  8
치수문자_일반주서
 62
     0
370
    -2
100
AcDbLine
 10
17.71250000000001
 20
25.35327052757711
 30
0.0
 11
4.374999999999983
 21
25.35327052757706
 31
0.0
  0
LINE
  5
177
330
174
100
AcDbEntity
  8
치수문자_일반주서
 62
     0
370
    -2
100
AcDbLine
 10
17.71250000000001
 20
15.3532705275771
 30
0.0
 11
4.375000000000018
 21
15.35327052757705
 31
0.0
  0
LINE
  5
178
330
174
100
AcDbEntity
  8
치수문자_일반주서
 62
     0
370
    -2
100
AcDbLine
 10
4.374999999999995
 20
22.05127052757706
 30
0.0
 11
4.375000000000006
 21
18.65527052757705
 31
0.0
  0
SOLID
  5
179
330
174
100
AcDbEntity
  8
치수문자_일반주서
 62
     0
100
AcDbTrace
 10
4.925333333333328
 20
22.05127052757706
 30
0.0
 11
3.824666666666662
 21
22.05127052757705
 31
0.0
 12
4.374999999999983
 22
25.35327052757706
 32
0.0
 13
4.374999999999983
 23
25.35327052757706
 33
0.0
  0
SOLID
  5
17A
330
174
100
AcDbEntity
  8
치수문자_일반주서
 62
     0
100
AcDbTrace
 10
3.824666666666673
 20
18.65527052757704
 30
0.0
 11
4.92533333333334
 21
18.65527052757705
 31
0.0
 12
4.375000000000018
 22
15.35327052757705
 32
0.0
 13
4.375000000000018
 23
15.35327052757705
 33
0.0
  0
MTEXT
  5
17B
330
174
100
AcDbEntity
  8
치수문자_일반주서
 62
     0
100
AcDbMText
 10
0.0
 20
20.35327052757709
 30
0.0
 40
3.5
 41
0.0
 71
     2
 72
     1
  1
\A1;%%c10
  7
SLDTEXTSTYLE0
 11
-3.463895836830486E-15
 21
1.0
 31
0.0
 73
     1
 44
1.0
  0
POINT
  5
17C
330
174
100
AcDbEntity
  8
Defpoints
 62
     0
100
AcDbPoint
 10
17.77500000000001
 20
25.35327052757711
 30
0.0
  0
POINT
  5
17D
330
174
100
AcDbEntity
  8
Defpoints
 62
     0
100
AcDbPoint
 10
17.77500000000001
 20
15.3532705275771
 30
0.0
  0
POINT
  5
17E
330
174
100
AcDbEntity
  8
Defpoints
 62
     0
100
AcDbPoint
 10
4.375000000000014
 20
15.35327052757705
 30
0.0
  0
ENDBLK
  5
17F
330
174
100
AcDbEntity
  8
0
100
AcDbBlockEnd
  0
BLOCK
  5
182
330
181
100
AcDbEntity
  8
0
100
AcDbBlockBegin
  2
*D10
 70
     1
 10
0.0
 20
0.0
 30
0.0
  3
*D10
  1

  0
LINE
  5
183
330
181
100
AcDbEntity
  8
치수문자_일반주서
 62
     0
370
    -2
100
AcDbLine
 10
116.775
 20
25.29512840776257
 30
0.0
 11
116.775
 21
42.68579886200549
 31
0.0
  0
LINE
  5
184
330
181
100
AcDbEntity
  8
치수문자_일반주서
 62
     0
370
    -2
100
AcDbLine
 10
91.77500000000005
 20
25.34442387656534
 30
0.0
 11
91.77500000000005
 21
42.68579886200549
 31
0.0
  0
LINE
  5
185
330
181
100
AcDbEntity
  8
치수문자_일반주서
 62
     0
370
    -2
100
AcDbLine
 10
113.473
 20
42.68579886200549
 30
0.0
 11
95.07700000000006
 21
42.68579886200549
 31
0.0
  0
SOLID
  5
186
330
181
100
AcDbEntity
  8
치수문자_일반주서
 62
     0
100
AcDbTrace
 10
113.473
 20
42.13546552867216
 30
0.0
 11
113.473
 21
43.23613219533883
 31
0.0
 12
116.775
 22
42.68579886200549
 32
0.0
 13
116.775
 23
42.68579886200549
 33
0.0
  0
SOLID
  5
187
330
181
100
AcDbEntity
  8
치수문자_일반주서
 62
     0
100
AcDbTrace
 10
95.07700000000006
 20
43.23613219533883
 30
0.0
 11
95.07700000000006
 21
42.13546552867216
 31
0.0
 12
91.77500000000005
 22
42.68579886200549
 32
0.0
 13
91.77500000000005
 23
42.68579886200549
 33
0.0
  0
MTEXT
  5
188
330
181
100
AcDbEntity
  8
치수문자_일반주서
 62
     0
100
AcDbMText
 10
104.275
 20
47.06079886200549
 30
0.0
 40
3.5
 41
0.0
 71
     2
 72
     1
  1
\A1;25
  7
SLDTEXTSTYLE0
 73
     1
 44
1.0
  0
POINT
  5
189
330
181
100
AcDbEntity
  8
Defpoints
 62
     0
100
AcDbPoint
 10
116.775
 20
25.23262840776257
 30
0.0
  0
POINT
  5
18A
330
181
100
AcDbEntity
  8
Defpoints
 62
     0
100
AcDbPoint
 10
91.77500000000005
 20
25.28192387656534
 30
0.0
  0
POINT
  5
18B
330
181
100
AcDbEntity
  8
Defpoints
 62
     0
100
AcDbPoint
 10
91.77500000000005
 20
42.68579886200549
 30
0.0
  0
ENDBLK
  5
18C
330
181
100
AcDbEntity
  8
0
100
AcDbBlockEnd
  0
BLOCK
  5
18F
330
18E
100
AcDbEntity
  8
0
100
AcDbBlockBegin
  2
*D11
 70
     1
 10
0.0
 20
0.0
 30
0.0
  3
*D11
  1

  0
LINE
  5
190
330
18E
100
AcDbEntity
  8
치수문자_일반주서
 62
     0
370
    -2
100
AcDbLine
 10
116.775
 20
25.29512840776257
 30
0.0
 11
116.775
 21
50.10216155237235
 31
0.0
  0
LINE
  5
191
330
18E
100
AcDbEntity
  8
치수문자_일반주서
 62
     0
370
    -2
100
AcDbLine
 10
16.77500000000001
 20
24.41577052757711
 30
0.0
 11
16.77500000000001
 21
50.10216155237235
 31
0.0
  0
LINE
  5
192
330
18E
100
AcDbEntity
  8
치수문자_일반주서
 62
     0
370
    -2
100
AcDbLine
 10
113.473
 20
50.10216155237235
 30
0.0
 11
20.07700000000001
 21
50.10216155237235
 31
0.0
  0
SOLID
  5
193
330
18E
100
AcDbEntity
  8
치수문자_일반주서
 62
     0
100
AcDbTrace
 10
113.473
 20
49.55182821903902
 30
0.0
 11
113.473
 21
50.65249488570569
 31
0.0
 12
116.775
 22
50.10216155237235
 32
0.0
 13
116.775
 23
50.10216155237235
 33
0.0
  0
SOLID
  5
194
330
18E
100
AcDbEntity
  8
치수문자_일반주서
 62
     0
100
AcDbTrace
 10
20.07700000000001
 20
50.65249488570569
 30
0.0
 11
20.07700000000001
 21
49.55182821903902
 31
0.0
 12
16.77500000000001
 22
50.10216155237235
 32
0.0
 13
16.77500000000001
 23
50.10216155237235
 33
0.0
  0
MTEXT
  5
195
330
18E
100
AcDbEntity
  8
치수문자_일반주서
 62
     0
100
AcDbMText
 10
66.77499999999998
 20
54.47716155237235
 30
0.0
 40
3.5
 41
0.0
 71
     2
 72
     1
  1
\A1;100
  7
SLDTEXTSTYLE0
 73
     1
 44
1.0
  0
POINT
  5
196
330
18E
100
AcDbEntity
  8
Defpoints
 62
     0
100
AcDbPoint
 10
116.775
 20
25.23262840776257
 30
0.0
  0
POINT
  5
197
330
18E
100
AcDbEntity
  8
Defpoints
 62
     0
100
AcDbPoint
 10
16.77500000000001
 20
24.35327052757711
 30
0.0
  0
POINT
  5
198
330
18E
100
AcDbEntity
  8
Defpoints
 62
     0
100
AcDbPoint
 10
16.77500000000001
 20
50.10216155237235
 30
0.0
  0
ENDBLK
  5
199
330
18E
100
AcDbEntity
  8
0
100
AcDbBlockEnd
  0
BLOCK
  5
1A8
330
1A7
100
AcDbEntity
  8
0
100
AcDbBlockBegin
  2
*D12
 70
     1
 10
0.0
 20
0.0
 30
0.0
  3
*D12
  1

  0
LINE
  5
1A9
330
1A7
100
AcDbEntity
  8
치수문자_일반주서
 62
     0
370
    -2
100
AcDbLine
 10
118.0798779898275
 20
13.47307561381738
 30
0.0
 11
129.7833318012683
 21
-0.0000000000000004
 31
0.0
  0
MTEXT
  5
1AA
330
1A7
100
AcDbEntity
  8
치수문자_일반주서
 62
     0
100
AcDbMText
 10
128.6090878030909
 20
5.354617846564241
 30
0.0
 40
3.5
 41
0.0
 71
     5
 72
     1
  1
\A1;R2.5
  7
SLDTEXTSTYLE0
 11
0.6557873129657822
 21
-0.7549456935125328
 31
0.0
 73
     1
 44
1.0
  0
SOLID
  5
1AB
330
1A7
100
AcDbEntity
  8
치수문자_일반주서
 62
     0
100
AcDbTrace
 10
118.4953497698239
 20
13.83397723171955
 30
0.0
 11
117.6644062098311
 21
13.11217399591521
 31
0.0
 12
115.9144682824144
 22
15.96590629379576
 32
0.0
 13
115.9144682824144
 23
15.96590629379576
 33
0.0
  0
LINE
  5
1AC
330
1A7
100
AcDbEntity
  8
치수문자_일반주서
 62
     0
100
AcDbLine
 10
114.185
 20
17.85327052757709
 30
0.0
 11
114.365
 21
17.85327052757709
 31
0.0
  0
LINE
  5
1AD
330
1A7
100
AcDbEntity
  8
치수문자_일반주서
 62
     0
100
AcDbLine
 10
114.275
 20
17.76327052757709
 30
0.0
 11
114.275
 21
17.94327052757709
 31
0.0
  0
POINT
  5
1AE
330
1A7
100
AcDbEntity
  8
Defpoints
 62
     0
100
AcDbPoint
 10
115.9144682824144
 20
15.96590629379576
 30
0.0
  0
POINT
  5
1AF
330
1A7
100
AcDbEntity
  8
Defpoints
 62
     0
100
AcDbPoint
 10
114.275
 20
17.85327052757709
 30
0.0
  0
ENDBLK
  5
1B0
330
1A7
100
AcDbEntity
  8
0
100
AcDbBlockEnd
  0
BLOCK
  5
1E8
330
1E7
100
AcDbEntity
  8
0
100
AcDbBlockBegin
  2
*D13
 70
     1
 10
0.0
 20
0.0
 30
0.0
  3
*D13
  1

  0
LINE
  5
1EA
330
1E7
100
AcDbEntity
  8
치수문자_일반주서
 62
     0
370
    -2
100
AcDbLine
 10
19.11693828080854
 20
5.001074928723877
 30
0.0
 11
48.96603149318204
 21
5.001074928723989
 31
0.0
  0
LINE
  5
1EB
330
1E7
100
AcDbEntity
  8
치수문자_일반주서
 62
     0
370
    -2
100
AcDbLine
 10
19.11693828080854
 20
-4.998925071276098
 30
0.0
 11
48.96603149318207
 21
-4.998925071275986
 31
0.0
  0
LINE
  5
1EC
330
1E7
100
AcDbEntity
  8
치수문자_일반주서
 62
     0
370
    -2
100
AcDbLine
 10
48.96603149318205
 20
1.69907492872399
 30
0.0
 11
48.96603149318206
 21
-1.696925071275986
 31
0.0
  0
SOLID
  5
1ED
330
1E7
100
AcDbEntity
  8
치수문자_일반주서
 62
     0
100
AcDbTrace
 10
49.51636482651539
 20
1.699074928723992
 30
0.0
 11
48.41569815984872
 21
1.699074928723988
 31
0.0
 12
48.96603149318204
 22
5.001074928723989
 32
0.0
 13
48.96603149318204
 23
5.001074928723989
 33
0.0
  0
SOLID
  5
1EE
330
1E7
100
AcDbEntity
  8
치수문자_일반주서
 62
     0
100
AcDbTrace
 10
48.41569815984872
 20
-1.696925071275988
 30
0.0
 11
49.51636482651539
 21
-1.696925071275984
 31
0.0
 12
48.96603149318207
 22
-4.998925071275986
 32
0.0
 13
48.96603149318207
 23
-4.998925071275986
 33
0.0
  0
MTEXT
  5
1EF
330
1E7
100
AcDbEntity
  8
치수문자_일반주서
 62
     0
100
AcDbMText
 10
44.59103149318206
 20
0.0010749287238655
 30
0.0
 40
3.5
 41
0.0
 71
     2
 72
     1
  1
\A1;%%c10
  7
SLDTEXTSTYLE0
 11
-3.552713678800510E-15
 21
1.0
 31
0.0
 73
     1
 44
1.0
  0
POINT
  5
1F0
330
1E7
100
AcDbEntity
  8
Defpoints
 62
     0
100
AcDbPoint
 10
19.05443828080854
 20
5.001074928723877
 30
0.0
  0
POINT
  5
1F1
330
1E7
100
AcDbEntity
  8
Defpoints
 62
     0
100
AcDbPoint
 10
19.05443828080854
 20
-4.998925071276098
 30
0.0
  0
POINT
  5
1F2
330
1E7
100
AcDbEntity
  8
Defpoints
 62
     0
100
AcDbPoint
 10
48.96603149318207
 20
-4.998925071275986
 30
0.0
  0
ENDBLK
  5
1E9
330
1E7
100
AcDbEntity
  8
0
100
AcDbBlockEnd
  0
BLOCK
  5
1F4
330
1F3
100
AcDbEntity
  8
0
100
AcDbBlockBegin
  2
*D14
 70
     1
 10
0.0
 20
0.0
 30
0.0
  3
*D14
  1

  0
LINE
  5
1F6
330
1F3
100
AcDbEntity
  8
치수문자_일반주서
 62
     0
370
    -2
100
AcDbLine
 10
-70.19647459621551
 20
5.001074928723892
 30
0.0
 11
-83.53397459621553
 21
5.001074928723842
 31
0.0
  0
LINE
  5
1F7
330
1F3
100
AcDbEntity
  8
치수문자_일반주서
 62
     0
370
    -2
100
AcDbLine
 10
-70.19647459621551
 20
-4.998925071276112
 30
0.0
 11
-83.5339745962155
 21
-4.998925071276162
 31
0.0
  0
LINE
  5
1F8
330
1F3
100
AcDbEntity
  8
치수문자_일반주서
 62
     0
370
    -2
100
AcDbLine
 10
-83.53397459621551
 20
1.699074928723842
 30
0.0
 11
-83.53397459621551
 21
-1.696925071276162
 31
0.0
  0
SOLID
  5
1F9
330
1F3
100
AcDbEntity
  8
치수문자_일반주서
 62
     0
100
AcDbTrace
 10
-82.98364126288219
 20
1.699074928723844
 30
0.0
 11
-84.08430792954884
 21
1.699074928723841
 31
0.0
 12
-83.53397459621553
 22
5.001074928723842
 32
0.0
 13
-83.53397459621553
 23
5.001074928723842
 33
0.0
  0
SOLID
  5
1FA
330
1F3
100
AcDbEntity
  8
치수문자_일반주서
 62
     0
100
AcDbTrace
 10
-84.08430792954884
 20
-1.696925071276164
 30
0.0
 11
-82.98364126288219
 21
-1.696925071276161
 31
0.0
 12
-83.5339745962155
 22
-4.998925071276162
 32
0.0
 13
-83.5339745962155
 23
-4.998925071276162
 33
0.0
  0
MTEXT
  5
1FB
330
1F3
100
AcDbEntity
  8
치수문자_일반주서
 62
     0
100
AcDbMText
 10
-87.90897459621551
 20
0.0010749287238827
 30
0.0
 40
3.5
 41
0.0
 71
     2
 72
     1
  1
\A1;%%c10
  7
SLDTEXTSTYLE0
 11
-2.842170943040400E-15
 21
1.0
 31
0.0
 73
     1
 44
1.0
  0
POINT
  5
1FC
330
1F3
100
AcDbEntity
  8
Defpoints
 62
     0
100
AcDbPoint
 10
-70.13397459621551
 20
5.001074928723892
 30
0.0
  0
POINT
  5
1FD
330
1F3
100
AcDbEntity
  8
Defpoints
 62
     0
100
AcDbPoint
 10
-70.13397459621551
 20
-4.998925071276112
 30
0.0
  0
POINT
  5
1FE
330
1F3
100
AcDbEntity
  8
Defpoints
 62
     0
100
AcDbPoint
 10
-83.5339745962155
 20
-4.998925071276162
 30
0.0
  0
ENDBLK
  5
1F5
330
1F3
100
AcDbEntity
  8
0
100
AcDbBlockEnd
  0
BLOCK
  5
200
330
1FF
100
AcDbEntity
  8
0
100
AcDbBlockBegin
  2
*D15
 70
     1
 10
0.0
 20
0.0
 30
0.0
  3
*D15
  1

  0
LINE
  5
202
330
1FF
100
AcDbEntity
  8
치수문자_일반주서
 62
     0
370
    -2
100
AcDbLine
 10
28.86602540378448
 20
4.942932808909358
 30
0.0
 11
28.86602540378448
 21
22.33360326315228
 31
0.0
  0
LINE
  5
203
330
1FF
100
AcDbEntity
  8
치수문자_일반주서
 62
     0
370
    -2
100
AcDbLine
 10
3.866025403784533
 20
4.992228277712126
 30
0.0
 11
3.866025403784533
 21
22.33360326315228
 31
0.0
  0
LINE
  5
204
330
1FF
100
AcDbEntity
  8
치수문자_일반주서
 62
     0
370
    -2
100
AcDbLine
 10
25.56402540378448
 20
22.33360326315228
 30
0.0
 11
7.168025403784533
 21
22.33360326315228
 31
0.0
  0
SOLID
  5
205
330
1FF
100
AcDbEntity
  8
치수문자_일반주서
 62
     0
100
AcDbTrace
 10
25.56402540378448
 20
21.78326992981895
 30
0.0
 11
25.56402540378448
 21
22.88393659648561
 31
0.0
 12
28.86602540378448
 22
22.33360326315228
 32
0.0
 13
28.86602540378448
 23
22.33360326315228
 33
0.0
  0
SOLID
  5
206
330
1FF
100
AcDbEntity
  8
치수문자_일반주서
 62
     0
100
AcDbTrace
 10
7.168025403784533
 20
22.88393659648561
 30
0.0
 11
7.168025403784533
 21
21.78326992981895
 31
0.0
 12
3.866025403784533
 22
22.33360326315228
 32
0.0
 13
3.866025403784533
 23
22.33360326315228
 33
0.0
  0
MTEXT
  5
207
330
1FF
100
AcDbEntity
  8
치수문자_일반주서
 62
     0
100
AcDbMText
 10
16.36602540378453
 20
26.70860326315228
 30
0.0
 40
3.5
 41
0.0
 71
     2
 72
     1
  1
\A1;25
  7
SLDTEXTSTYLE0
 73
     1
 44
1.0
  0
POINT
  5
208
330
1FF
100
AcDbEntity
  8
Defpoints
 62
     0
100
AcDbPoint
 10
28.86602540378448
 20
4.880432808909358
 30
0.0
  0
POINT
  5
209
330
1FF
100
AcDbEntity
  8
Defpoints
 62
     0
100
AcDbPoint
 10
3.866025403784533
 20
4.929728277712126
 30
0.0
  0
POINT
  5
20A
330
1FF
100
AcDbEntity
  8
Defpoints
 62
     0
100
AcDbPoint
 10
3.866025403784533
 20
22.33360326315228
 30
0.0
  0
ENDBLK
  5
201
330
1FF
100
AcDbEntity
  8
0
100
AcDbBlockEnd
  0
BLOCK
  5
20C
330
20B
100
AcDbEntity
  8
0
100
AcDbBlockBegin
  2
*D16
 70
     1
 10
0.0
 20
0.0
 30
0.0
  3
*D16
  1

  0
LINE
  5
20E
330
20B
100
AcDbEntity
  8
치수문자_일반주서
 62
     0
370
    -2
100
AcDbLine
 10
28.86602540378448
 20
4.942932808909358
 30
0.0
 11
28.86602540378448
 21
29.74996595351914
 31
0.0
  0
LINE
  5
20F
330
20B
100
AcDbEntity
  8
치수문자_일반주서
 62
     0
370
    -2
100
AcDbLine
 10
-71.13397459621551
 20
4.063574928723892
 30
0.0
 11
-71.13397459621551
 21
29.74996595351914
 31
0.0
  0
LINE
  5
210
330
20B
100
AcDbEntity
  8
치수문자_일반주서
 62
     0
370
    -2
100
AcDbLine
 10
25.56402540378448
 20
29.74996595351914
 30
0.0
 11
-67.8319745962155
 21
29.74996595351914
 31
0.0
  0
SOLID
  5
211
330
20B
100
AcDbEntity
  8
치수문자_일반주서
 62
     0
100
AcDbTrace
 10
25.56402540378448
 20
29.19963262018581
 30
0.0
 11
25.56402540378448
 21
30.30029928685247
 31
0.0
 12
28.86602540378448
 22
29.74996595351914
 32
0.0
 13
28.86602540378448
 23
29.74996595351914
 33
0.0
  0
SOLID
  5
212
330
20B
100
AcDbEntity
  8
치수문자_일반주서
 62
     0
100
AcDbTrace
 10
-67.8319745962155
 20
30.30029928685247
 30
0.0
 11
-67.8319745962155
 21
29.19963262018581
 31
0.0
 12
-71.13397459621551
 22
29.74996595351914
 32
0.0
 13
-71.13397459621551
 23
29.74996595351914
 33
0.0
  0
MTEXT
  5
213
330
20B
100
AcDbEntity
  8
치수문자_일반주서
 62
     0
100
AcDbMText
 10
-21.13397459621554
 20
34.12496595351914
 30
0.0
 40
3.5
 41
0.0
 71
     2
 72
     1
  1
\A1;100
  7
SLDTEXTSTYLE0
 73
     1
 44
1.0
  0
POINT
  5
214
330
20B
100
AcDbEntity
  8
Defpoints
 62
     0
100
AcDbPoint
 10
28.86602540378448
 20
4.880432808909358
 30
0.0
  0
POINT
  5
215
330
20B
100
AcDbEntity
  8
Defpoints
 62
     0
100
AcDbPoint
 10
-71.13397459621551
 20
4.001074928723892
 30
0.0
  0
POINT
  5
216
330
20B
100
AcDbEntity
  8
Defpoints
 62
     0
100
AcDbPoint
 10
-71.13397459621551
 20
29.74996595351914
 30
0.0
  0
ENDBLK
  5
20D
330
20B
100
AcDbEntity
  8
0
100
AcDbBlockEnd
  0
BLOCK
  5
218
330
217
100
AcDbEntity
  8
0
100
AcDbBlockBegin
  2
*D17
 70
     1
 10
0.0
 20
0.0
 30
0.0
  3
*D17
  1

  0
LINE
  5
21A
330
217
100
AcDbEntity
  8
치수문자_일반주서
 62
     0
370
    -2
100
AcDbLine
 10
30.17090339361194
 20
-6.879119985035832
 30
0.0
 11
41.8743572050528
 21
-20.3521955988532
 31
0.0
  0
MTEXT
  5
21B
330
217
100
AcDbEntity
  8
치수문자_일반주서
 62
     0
100
AcDbMText
 10
40.70011320687536
 20
-14.99757775228896
 30
0.0
 40
3.5
 41
0.0
 71
     5
 72
     1
  1
\A1;R2.5
  7
SLDTEXTSTYLE0
 11
0.6557873129657826
 21
-0.7549456935125326
 31
0.0
 73
     1
 44
1.0
  0
SOLID
  5
21C
330
217
100
AcDbEntity
  8
치수문자_일반주서
 62
     0
100
AcDbTrace
 10
30.58637517360834
 20
-6.518218367133663
 30
0.0
 11
29.75543161361555
 21
-7.240021602938
 31
0.0
 12
28.00549368619893
 22
-4.386289305057449
 32
0.0
 13
28.00549368619893
 23
-4.386289305057449
 33
0.0
  0
LINE
  5
21D
330
217
100
AcDbEntity
  8
치수문자_일반주서
 62
     0
100
AcDbLine
 10
26.27602540378448
 20
-2.498925071276119
 30
0.0
 11
26.45602540378448
 21
-2.498925071276119
 31
0.0
  0
LINE
  5
21E
330
217
100
AcDbEntity
  8
치수문자_일반주서
 62
     0
100
AcDbLine
 10
26.36602540378448
 20
-2.588925071276119
 30
0.0
 11
26.36602540378448
 21
-2.408925071276119
 31
0.0
  0
POINT
  5
21F
330
217
100
AcDbEntity
  8
Defpoints
 62
     0
100
AcDbPoint
 10
28.00549368619893
 20
-4.386289305057449
 30
0.0
  0
POINT
  5
220
330
217
100
AcDbEntity
  8
Defpoints
 62
     0
100
AcDbPoint
 10
26.36602540378448
 20
-2.498925071276119
 30
0.0
  0
ENDBLK
  5
219
330
217
100
AcDbEntity
  8
0
100
AcDbBlockEnd
  0
BLOCK
  5
268
330
267
100
AcDbEntity
  8
0
100
AcDbBlockBegin
  2
*D19
 70
     1
 10
0.0
 20
0.0
 30
0.0
  3
*D19
  1

  0
LINE
  5
269
330
267
100
AcDbEntity
  8
치수문자_일반주서
 62
     0
370
    -2
100
AcDbLine
 10
107.025912877024
 20
23.41701310683167
 30
0.0
 11
136.8750060893975
 21
23.41701310683178
 31
0.0
  0
LINE
  5
26A
330
267
100
AcDbEntity
  8
치수문자_일반주서
 62
     0
370
    -2
100
AcDbLine
 10
107.025912877024
 20
13.41701310683169
 30
0.0
 11
136.8750060893976
 21
13.4170131068318
 31
0.0
  0
LINE
  5
26B
330
267
100
AcDbEntity
  8
치수문자_일반주서
 62
     0
370
    -2
100
AcDbLine
 10
136.8750060893975
 20
20.11501310683178
 30
0.0
 11
136.8750060893976
 21
16.7190131068318
 31
0.0
  0
SOLID
  5
26C
330
267
100
AcDbEntity
  8
치수문자_일반주서
 62
     0
100
AcDbTrace
 10
137.4253394227309
 20
20.11501310683178
 30
0.0
 11
136.3246727560642
 21
20.11501310683178
 31
0.0
 12
136.8750060893975
 22
23.41701310683178
 32
0.0
 13
136.8750060893975
 23
23.41701310683178
 33
0.0
  0
SOLID
  5
26D
330
267
100
AcDbEntity
  8
치수문자_일반주서
 62
     0
100
AcDbTrace
 10
136.3246727560642
 20
16.7190131068318
 30
0.0
 11
137.4253394227309
 21
16.7190131068318
 31
0.0
 12
136.8750060893976
 22
13.4170131068318
 32
0.0
 13
136.8750060893976
 23
13.4170131068318
 33
0.0
  0
MTEXT
  5
26E
330
267
100
AcDbEntity
  8
치수문자_일반주서
 62
     0
100
AcDbMText
 10
132.5000060893976
 20
18.41701310683166
 30
0.0
 40
3.5
 41
0.0
 71
     2
 72
     1
  1
\A1;%%c10
  7
SLDTEXTSTYLE0
 11
-2.842170943040405E-15
 21
1.0
 31
0.0
 73
     1
 44
1.0
  0
POINT
  5
26F
330
267
100
AcDbEntity
  8
Defpoints
 62
     0
100
AcDbPoint
 10
106.963412877024
 20
23.41701310683167
 30
0.0
  0
POINT
  5
270
330
267
100
AcDbEntity
  8
Defpoints
 62
     0
100
AcDbPoint
 10
106.963412877024
 20
13.41701310683169
 30
0.0
  0
POINT
  5
271
330
267
100
AcDbEntity
  8
Defpoints
 62
     0
100
AcDbPoint
 10
136.8750060893976
 20
13.4170131068318
 30
0.0
  0
ENDBLK
  5
272
330
267
100
AcDbEntity
  8
0
100
AcDbBlockEnd
  0
BLOCK
  5
275
330
274
100
AcDbEntity
  8
0
100
AcDbBlockBegin
  2
*D20
 70
     1
 10
0.0
 20
0.0
 30
0.0
  3
*D20
  1

  0
LINE
  5
276
330
274
100
AcDbEntity
  8
치수문자_일반주서
 62
     0
370
    -2
100
AcDbLine
 10
17.71250000000001
 20
23.41701310683169
 30
0.0
 11
4.374999999999983
 21
23.41701310683164
 31
0.0
  0
LINE
  5
277
330
274
100
AcDbEntity
  8
치수문자_일반주서
 62
     0
370
    -2
100
AcDbLine
 10
17.71250000000001
 20
13.41701310683167
 30
0.0
 11
4.375000000000018
 21
13.41701310683162
 31
0.0
  0
LINE
  5
278
330
274
100
AcDbEntity
  8
치수문자_일반주서
 62
     0
370
    -2
100
AcDbLine
 10
4.374999999999995
 20
20.11501310683164
 30
0.0
 11
4.375000000000006
 21
16.71901310683162
 31
0.0
  0
SOLID
  5
279
330
274
100
AcDbEntity
  8
치수문자_일반주서
 62
     0
100
AcDbTrace
 10
4.925333333333328
 20
20.11501310683164
 30
0.0
 11
3.824666666666662
 21
20.11501310683163
 31
0.0
 12
4.374999999999983
 22
23.41701310683164
 32
0.0
 13
4.374999999999983
 23
23.41701310683164
 33
0.0
  0
SOLID
  5
27A
330
274
100
AcDbEntity
  8
치수문자_일반주서
 62
     0
100
AcDbTrace
 10
3.824666666666673
 20
16.71901310683162
 30
0.0
 11
4.92533333333334
 21
16.71901310683162
 31
0.0
 12
4.375000000000018
 22
13.41701310683162
 32
0.0
 13
4.375000000000018
 23
13.41701310683162
 33
0.0
  0
MTEXT
  5
27B
330
274
100
AcDbEntity
  8
치수문자_일반주서
 62
     0
100
AcDbMText
 10
0.0
 20
18.41701310683167
 30
0.0
 40
3.5
 41
0.0
 71
     2
 72
     1
  1
\A1;%%c10
  7
SLDTEXTSTYLE0
 11
-3.463895836830484E-15
 21
1.0
 31
0.0
 73
     1
 44
1.0
  0
POINT
  5
27C
330
274
100
AcDbEntity
  8
Defpoints
 62
     0
100
AcDbPoint
 10
17.77500000000001
 20
23.41701310683169
 30
0.0
  0
POINT
  5
27D
330
274
100
AcDbEntity
  8
Defpoints
 62
     0
100
AcDbPoint
 10
17.77500000000001
 20
13.41701310683167
 30
0.0
  0
POINT
  5
27E
330
274
100
AcDbEntity
  8
Defpoints
 62
     0
100
AcDbPoint
 10
4.375000000000014
 20
13.41701310683162
 30
0.0
  0
ENDBLK
  5
27F
330
274
100
AcDbEntity
  8
0
100
AcDbBlockEnd
  0
BLOCK
  5
282
330
281
100
AcDbEntity
  8
0
100
AcDbBlockBegin
  2
*D21
 70
     1
 10
0.0
 20
0.0
 30
0.0
  3
*D21
  1

  0
LINE
  5
283
330
281
100
AcDbEntity
  8
치수문자_일반주서
 62
     0
370
    -2
100
AcDbLine
 10
116.775
 20
23.35887098701715
 30
0.0
 11
116.775
 21
40.74954144126006
 31
0.0
  0
LINE
  5
284
330
281
100
AcDbEntity
  8
치수문자_일반주서
 62
     0
370
    -2
100
AcDbLine
 10
91.77500000000003
 20
23.40816645581992
 30
0.0
 11
91.77500000000003
 21
40.74954144126006
 31
0.0
  0
LINE
  5
285
330
281
100
AcDbEntity
  8
치수문자_일반주서
 62
     0
370
    -2
100
AcDbLine
 10
113.473
 20
40.74954144126006
 30
0.0
 11
95.07700000000003
 21
40.74954144126006
 31
0.0
  0
SOLID
  5
286
330
281
100
AcDbEntity
  8
치수문자_일반주서
 62
     0
100
AcDbTrace
 10
113.473
 20
40.19920810792673
 30
0.0
 11
113.473
 21
41.2998747745934
 31
0.0
 12
116.775
 22
40.74954144126006
 32
0.0
 13
116.775
 23
40.74954144126006
 33
0.0
  0
SOLID
  5
287
330
281
100
AcDbEntity
  8
치수문자_일반주서
 62
     0
100
AcDbTrace
 10
95.07700000000003
 20
41.2998747745934
 30
0.0
 11
95.07700000000003
 21
40.19920810792673
 31
0.0
 12
91.77500000000003
 22
40.74954144126006
 32
0.0
 13
91.77500000000003
 23
40.74954144126006
 33
0.0
  0
MTEXT
  5
288
330
281
100
AcDbEntity
  8
치수문자_일반주서
 62
     0
100
AcDbMText
 10
104.275
 20
45.12454144126006
 30
0.0
 40
3.5
 41
0.0
 71
     2
 72
     1
  1
\A1;25
  7
SLDTEXTSTYLE0
 73
     1
 44
1.0
  0
POINT
  5
289
330
281
100
AcDbEntity
  8
Defpoints
 62
     0
100
AcDbPoint
 10
116.775
 20
23.29637098701715
 30
0.0
  0
POINT
  5
28A
330
281
100
AcDbEntity
  8
Defpoints
 62
     0
100
AcDbPoint
 10
91.77500000000003
 20
23.34566645581992
 30
0.0
  0
POINT
  5
28B
330
281
100
AcDbEntity
  8
Defpoints
 62
     0
100
AcDbPoint
 10
91.77500000000003
 20
40.74954144126006
 30
0.0
  0
ENDBLK
  5
28C
330
281
100
AcDbEntity
  8
0
100
AcDbBlockEnd
  0
BLOCK
  5
28F
330
28E
100
AcDbEntity
  8
0
100
AcDbBlockBegin
  2
*D22
 70
     1
 10
0.0
 20
0.0
 30
0.0
  3
*D22
  1

  0
LINE
  5
290
330
28E
100
AcDbEntity
  8
치수문자_일반주서
 62
     0
370
    -2
100
AcDbLine
 10
116.775
 20
23.35887098701715
 30
0.0
 11
116.775
 21
48.16590413162693
 31
0.0
  0
LINE
  5
291
330
28E
100
AcDbEntity
  8
치수문자_일반주서
 62
     0
370
    -2
100
AcDbLine
 10
16.77500000000001
 20
22.47951310683169
 30
0.0
 11
16.77500000000001
 21
48.16590413162693
 31
0.0
  0
LINE
  5
292
330
28E
100
AcDbEntity
  8
치수문자_일반주서
 62
     0
370
    -2
100
AcDbLine
 10
113.473
 20
48.16590413162693
 30
0.0
 11
20.07700000000001
 21
48.16590413162693
 31
0.0
  0
SOLID
  5
293
330
28E
100
AcDbEntity
  8
치수문자_일반주서
 62
     0
100
AcDbTrace
 10
113.473
 20
47.6155707982936
 30
0.0
 11
113.473
 21
48.71623746496027
 31
0.0
 12
116.775
 22
48.16590413162693
 32
0.0
 13
116.775
 23
48.16590413162693
 33
0.0
  0
SOLID
  5
294
330
28E
100
AcDbEntity
  8
치수문자_일반주서
 62
     0
100
AcDbTrace
 10
20.07700000000001
 20
48.71623746496027
 30
0.0
 11
20.07700000000001
 21
47.6155707982936
 31
0.0
 12
16.77500000000001
 22
48.16590413162693
 32
0.0
 13
16.77500000000001
 23
48.16590413162693
 33
0.0
  0
MTEXT
  5
295
330
28E
100
AcDbEntity
  8
치수문자_일반주서
 62
     0
100
AcDbMText
 10
66.77499999999998
 20
52.54090413162693
 30
0.0
 40
3.5
 41
0.0
 71
     2
 72
     1
  1
\A1;100
  7
SLDTEXTSTYLE0
 73
     1
 44
1.0
  0
POINT
  5
296
330
28E
100
AcDbEntity
  8
Defpoints
 62
     0
100
AcDbPoint
 10
116.775
 20
23.29637098701715
 30
0.0
  0
POINT
  5
297
330
28E
100
AcDbEntity
  8
Defpoints
 62
     0
100
AcDbPoint
 10
16.77500000000001
 20
22.41701310683169
 30
0.0
  0
POINT
  5
298
330
28E
100
AcDbEntity
  8
Defpoints
 62
     0
100
AcDbPoint
 10
16.77500000000001
 20
48.16590413162693
 30
0.0
  0
ENDBLK
  5
299
330
28E
100
AcDbEntity
  8
0
100
AcDbBlockEnd
  0
BLOCK
  5
2AA
330
2A9
100
AcDbEntity
  8
0
100
AcDbBlockBegin
  2
*D23
 70
     1
 10
0.0
 20
0.0
 30
0.0
  3
*D23
  1

  0
LINE
  5
2AB
330
2A9
100
AcDbEntity
  8
치수문자_일반주서
 62
     0
370
    -2
100
AcDbLine
 10
118.8338990644726
 20
12.65898912400802
 30
0.0
 11
135.8749154415144
 21
-0.0000000000000073
 31
0.0
  0
MTEXT
  5
2AC
330
2A9
100
AcDbEntity
  8
치수문자_일반주서
 62
     0
100
AcDbMText
 10
134.9818552336383
 20
3.933443111970501
 30
0.0
 40
3.5
 41
0.0
 71
     5
 72
     1
  1
\A1;R3
  7
SLDTEXTSTYLE0
 11
0.8027450118173036
 21
-0.5963224345959467
 31
0.0
 73
     1
 44
1.0
  0
SOLID
  5
2AD
330
2A9
100
AcDbEntity
  8
치수문자_일반주서
 62
     0
100
AcDbTrace
 10
119.1620751776452
 20
13.10076646217814
 30
0.0
 11
118.5057229513
 21
12.21721178583789
 31
0.0
 12
116.1832350354519
 22
14.62804580304383
 32
0.0
 13
116.1832350354519
 23
14.62804580304383
 33
0.0
  0
LINE
  5
2AE
330
2A9
100
AcDbEntity
  8
치수문자_일반주서
 62
     0
100
AcDbLine
 10
113.685
 20
16.41701310683167
 30
0.0
 11
113.865
 21
16.41701310683167
 31
0.0
  0
LINE
  5
2AF
330
2A9
100
AcDbEntity
  8
치수문자_일반주서
 62
     0
100
AcDbLine
 10
113.775
 20
16.32701310683167
 30
0.0
 11
113.775
 21
16.50701310683167
 31
0.0
  0
POINT
  5
2B0
330
2A9
100
AcDbEntity
  8
Defpoints
 62
     0
100
AcDbPoint
 10
116.1832350354519
 20
14.62804580304383
 30
0.0
  0
POINT
  5
2B1
330
2A9
100
AcDbEntity
  8
Defpoints
 62
     0
100
AcDbPoint
 10
113.775
 20
16.41701310683167
 30
0.0
  0
ENDBLK
  5
2B2
330
2A9
100
AcDbEntity
  8
0
100
AcDbBlockEnd
  0
BLOCK
  5
2EA
330
2E9
100
AcDbEntity
  8
0
100
AcDbBlockBegin
  2
*D24
 70
     1
 10
0.0
 20
0.0
 30
0.0
  3
*D24
  1

  0
LINE
  5
2EC
330
2E9
100
AcDbEntity
  8
치수문자_일반주서
 62
     0
370
    -2
100
AcDbLine
 10
19.11693828080854
 20
5.001074928723881
 30
0.0
 11
48.96603149318205
 21
5.001074928723993
 31
0.0
  0
LINE
  5
2ED
330
2E9
100
AcDbEntity
  8
치수문자_일반주서
 62
     0
370
    -2
100
AcDbLine
 10
19.11693828080854
 20
-4.998925071276105
 30
0.0
 11
48.96603149318209
 21
-4.998925071275993
 31
0.0
  0
LINE
  5
2EE
330
2E9
100
AcDbEntity
  8
치수문자_일반주서
 62
     0
370
    -2
100
AcDbLine
 10
48.96603149318207
 20
1.699074928723993
 30
0.0
 11
48.96603149318207
 21
-1.696925071275993
 31
0.0
  0
SOLID
  5
2EF
330
2E9
100
AcDbEntity
  8
치수문자_일반주서
 62
     0
100
AcDbTrace
 10
49.5163648265154
 20
1.699074928723995
 30
0.0
 11
48.41569815984873
 21
1.699074928723991
 31
0.0
 12
48.96603149318205
 22
5.001074928723993
 32
0.0
 13
48.96603149318205
 23
5.001074928723993
 33
0.0
  0
SOLID
  5
2F0
330
2E9
100
AcDbEntity
  8
치수문자_일반주서
 62
     0
100
AcDbTrace
 10
48.41569815984874
 20
-1.696925071275995
 30
0.0
 11
49.51636482651541
 21
-1.696925071275991
 31
0.0
 12
48.96603149318209
 22
-4.998925071275993
 32
0.0
 13
48.96603149318209
 23
-4.998925071275993
 33
0.0
  0
MTEXT
  5
2F1
330
2E9
100
AcDbEntity
  8
치수문자_일반주서
 62
     0
100
AcDbMText
 10
44.59103149318207
 20
0.0010749287238655
 30
0.0
 40
3.5
 41
0.0
 71
     2
 72
     1
  1
\A1;%%c10
  7
SLDTEXTSTYLE0
 11
-3.552713678800506E-15
 21
1.0
 31
0.0
 73
     1
 44
1.0
  0
POINT
  5
2F2
330
2E9
100
AcDbEntity
  8
Defpoints
 62
     0
100
AcDbPoint
 10
19.05443828080854
 20
5.001074928723881
 30
0.0
  0
POINT
  5
2F3
330
2E9
100
AcDbEntity
  8
Defpoints
 62
     0
100
AcDbPoint
 10
19.05443828080854
 20
-4.998925071276105
 30
0.0
  0
POINT
  5
2F4
330
2E9
100
AcDbEntity
  8
Defpoints
 62
     0
100
AcDbPoint
 10
48.96603149318207
 20
-4.998925071275993
 30
0.0
  0
ENDBLK
  5
2EB
330
2E9
100
AcDbEntity
  8
0
100
AcDbBlockEnd
  0
BLOCK
  5
2F6
330
2F5
100
AcDbEntity
  8
0
100
AcDbBlockBegin
  2
*D25
 70
     1
 10
0.0
 20
0.0
 30
0.0
  3
*D25
  1

  0
LINE
  5
2F8
330
2F5
100
AcDbEntity
  8
치수문자_일반주서
 62
     0
370
    -2
100
AcDbLine
 10
-70.1964745962155
 20
5.001074928723895
 30
0.0
 11
-83.53397459621551
 21
5.001074928723845
 31
0.0
  0
LINE
  5
2F9
330
2F5
100
AcDbEntity
  8
치수문자_일반주서
 62
     0
370
    -2
100
AcDbLine
 10
-70.1964745962155
 20
-4.998925071276119
 30
0.0
 11
-83.53397459621549
 21
-4.998925071276169
 31
0.0
  0
LINE
  5
2FA
330
2F5
100
AcDbEntity
  8
치수문자_일반주서
 62
     0
370
    -2
100
AcDbLine
 10
-83.5339745962155
 20
1.699074928723846
 30
0.0
 11
-83.5339745962155
 21
-1.696925071276169
 31
0.0
  0
SOLID
  5
2FB
330
2F5
100
AcDbEntity
  8
치수문자_일반주서
 62
     0
100
AcDbTrace
 10
-82.98364126288217
 20
1.699074928723847
 30
0.0
 11
-84.08430792954883
 21
1.699074928723844
 31
0.0
 12
-83.53397459621551
 22
5.001074928723845
 32
0.0
 13
-83.53397459621551
 23
5.001074928723845
 33
0.0
  0
SOLID
  5
2FC
330
2F5
100
AcDbEntity
  8
치수문자_일반주서
 62
     0
100
AcDbTrace
 10
-84.08430792954883
 20
-1.696925071276171
 30
0.0
 11
-82.98364126288217
 21
-1.696925071276168
 31
0.0
 12
-83.53397459621549
 22
-4.998925071276169
 32
0.0
 13
-83.53397459621549
 23
-4.998925071276169
 33
0.0
  0
MTEXT
  5
2FD
330
2F5
100
AcDbEntity
  8
치수문자_일반주서
 62
     0
100
AcDbMText
 10
-87.9089745962155
 20
0.0010749287238827
 30
0.0
 40
3.5
 41
0.0
 71
     2
 72
     1
  1
\A1;%%c10
  7
SLDTEXTSTYLE0
 11
-2.842170943040397E-15
 21
1.0
 31
0.0
 73
     1
 44
1.0
  0
POINT
  5
2FE
330
2F5
100
AcDbEntity
  8
Defpoints
 62
     0
100
AcDbPoint
 10
-70.1339745962155
 20
5.001074928723895
 30
0.0
  0
POINT
  5
2FF
330
2F5
100
AcDbEntity
  8
Defpoints
 62
     0
100
AcDbPoint
 10
-70.1339745962155
 20
-4.998925071276119
 30
0.0
  0
POINT
  5
300
330
2F5
100
AcDbEntity
  8
Defpoints
 62
     0
100
AcDbPoint
 10
-83.53397459621549
 20
-4.998925071276169
 30
0.0
  0
ENDBLK
  5
2F7
330
2F5
100
AcDbEntity
  8
0
100
AcDbBlockEnd
  0
BLOCK
  5
302
330
301
100
AcDbEntity
  8
0
100
AcDbBlockBegin
  2
*D26
 70
     1
 10
0.0
 20
0.0
 30
0.0
  3
*D26
  1

  0
LINE
  5
304
330
301
100
AcDbEntity
  8
치수문자_일반주서
 62
     0
370
    -2
100
AcDbLine
 10
28.86602540378448
 20
4.942932808909362
 30
0.0
 11
28.86602540378448
 21
22.33360326315228
 31
0.0
  0
LINE
  5
305
330
301
100
AcDbEntity
  8
치수문자_일반주서
 62
     0
370
    -2
100
AcDbLine
 10
3.866025403784533
 20
4.99222827771213
 30
0.0
 11
3.866025403784533
 21
22.33360326315228
 31
0.0
  0
LINE
  5
306
330
301
100
AcDbEntity
  8
치수문자_일반주서
 62
     0
370
    -2
100
AcDbLine
 10
25.56402540378448
 20
22.33360326315228
 30
0.0
 11
7.168025403784533
 21
22.33360326315228
 31
0.0
  0
SOLID
  5
307
330
301
100
AcDbEntity
  8
치수문자_일반주서
 62
     0
100
AcDbTrace
 10
25.56402540378448
 20
21.78326992981894
 30
0.0
 11
25.56402540378448
 21
22.88393659648561
 31
0.0
 12
28.86602540378448
 22
22.33360326315228
 32
0.0
 13
28.86602540378448
 23
22.33360326315228
 33
0.0
  0
SOLID
  5
308
330
301
100
AcDbEntity
  8
치수문자_일반주서
 62
     0
100
AcDbTrace
 10
7.168025403784533
 20
22.88393659648561
 30
0.0
 11
7.168025403784533
 21
21.78326992981894
 31
0.0
 12
3.866025403784533
 22
22.33360326315228
 32
0.0
 13
3.866025403784533
 23
22.33360326315228
 33
0.0
  0
MTEXT
  5
309
330
301
100
AcDbEntity
  8
치수문자_일반주서
 62
     0
100
AcDbMText
 10
16.36602540378453
 20
26.70860326315228
 30
0.0
 40
3.5
 41
0.0
 71
     2
 72
     1
  1
\A1;25
  7
SLDTEXTSTYLE0
 73
     1
 44
1.0
  0
POINT
  5
30A
330
301
100
AcDbEntity
  8
Defpoints
 62
     0
100
AcDbPoint
 10
28.86602540378448
 20
4.880432808909362
 30
0.0
  0
POINT
  5
30B
330
301
100
AcDbEntity
  8
Defpoints
 62
     0
100
AcDbPoint
 10
3.866025403784533
 20
4.92972827771213
 30
0.0
  0
POINT
  5
30C
330
301
100
AcDbEntity
  8
Defpoints
 62
     0
100
AcDbPoint
 10
3.866025403784533
 20
22.33360326315228
 30
0.0
  0
ENDBLK
  5
303
330
301
100
AcDbEntity
  8
0
100
AcDbBlockEnd
  0
BLOCK
  5
30E
330
30D
100
AcDbEntity
  8
0
100
AcDbBlockBegin
  2
*D27
 70
     1
 10
0.0
 20
0.0
 30
0.0
  3
*D27
  1

  0
LINE
  5
310
330
30D
100
AcDbEntity
  8
치수문자_일반주서
 62
     0
370
    -2
100
AcDbLine
 10
28.86602540378448
 20
4.942932808909362
 30
0.0
 11
28.86602540378448
 21
29.74996595351914
 31
0.0
  0
LINE
  5
311
330
30D
100
AcDbEntity
  8
치수문자_일반주서
 62
     0
370
    -2
100
AcDbLine
 10
-71.1339745962155
 20
4.063574928723895
 30
0.0
 11
-71.1339745962155
 21
29.74996595351914
 31
0.0
  0
LINE
  5
312
330
30D
100
AcDbEntity
  8
치수문자_일반주서
 62
     0
370
    -2
100
AcDbLine
 10
25.56402540378448
 20
29.74996595351914
 30
0.0
 11
-67.8319745962155
 21
29.74996595351914
 31
0.0
  0
SOLID
  5
313
330
30D
100
AcDbEntity
  8
치수문자_일반주서
 62
     0
100
AcDbTrace
 10
25.56402540378448
 20
29.19963262018581
 30
0.0
 11
25.56402540378448
 21
30.30029928685248
 31
0.0
 12
28.86602540378448
 22
29.74996595351914
 32
0.0
 13
28.86602540378448
 23
29.74996595351914
 33
0.0
  0
SOLID
  5
314
330
30D
100
AcDbEntity
  8
치수문자_일반주서
 62
     0
100
AcDbTrace
 10
-67.8319745962155
 20
30.30029928685248
 30
0.0
 11
-67.8319745962155
 21
29.19963262018581
 31
0.0
 12
-71.1339745962155
 22
29.74996595351914
 32
0.0
 13
-71.1339745962155
 23
29.74996595351914
 33
0.0
  0
MTEXT
  5
315
330
30D
100
AcDbEntity
  8
치수문자_일반주서
 62
     0
100
AcDbMText
 10
-21.13397459621552
 20
34.12496595351914
 30
0.0
 40
3.5
 41
0.0
 71
     2
 72
     1
  1
\A1;100
  7
SLDTEXTSTYLE0
 73
     1
 44
1.0
  0
POINT
  5
316
330
30D
100
AcDbEntity
  8
Defpoints
 62
     0
100
AcDbPoint
 10
28.86602540378448
 20
4.880432808909362
 30
0.0
  0
POINT
  5
317
330
30D
100
AcDbEntity
  8
Defpoints
 62
     0
100
AcDbPoint
 10
-71.1339745962155
 20
4.001074928723895
 30
0.0
  0
POINT
  5
318
330
30D
100
AcDbEntity
  8
Defpoints
 62
     0
100
AcDbPoint
 10
-71.1339745962155
 20
29.74996595351914
 30
0.0
  0
ENDBLK
  5
30F
330
30D
100
AcDbEntity
  8
0
100
AcDbBlockEnd
  0
BLOCK
  5
31A
330
319
100
AcDbEntity
  8
0
100
AcDbBlockBegin
  2
*D28
 70
     1
 10
0.0
 20
0.0
 30
0.0
  3
*D28
  1

  0
LINE
  5
31C
330
319
100
AcDbEntity
  8
치수문자_일반주서
 62
     0
370
    -2
100
AcDbLine
 10
30.92492446825714
 20
-5.756949054099766
 30
0.0
 11
47.96594084529893
 21
-18.41593817810774
 31
0.0
  0
MTEXT
  5
31D
330
319
100
AcDbEntity
  8
치수문자_일반주서
 62
     0
100
AcDbMText
 10
47.07288063742279
 20
-14.48249506613723
 30
0.0
 40
3.5
 41
0.0
 71
     5
 72
     1
  1
\A1;R3
  7
SLDTEXTSTYLE0
 11
0.8027450118173053
 21
-0.5963224345959445
 31
0.0
 73
     1
 44
1.0
  0
SOLID
  5
31E
330
319
100
AcDbEntity
  8
치수문자_일반주서
 62
     0
100
AcDbTrace
 10
31.25310058142978
 20
-5.315171715929642
 30
0.0
 11
30.59674835508451
 21
-6.19872639226989
 31
0.0
 12
28.2742604392364
 22
-3.787892375063958
 32
0.0
 13
28.2742604392364
 23
-3.787892375063958
 33
0.0
  0
LINE
  5
31F
330
319
100
AcDbEntity
  8
치수문자_일반주서
 62
     0
100
AcDbLine
 10
25.77602540378448
 20
-1.998925071276119
 30
0.0
 11
25.95602540378448
 21
-1.998925071276119
 31
0.0
  0
LINE
  5
320
330
319
100
AcDbEntity
  8
치수문자_일반주서
 62
     0
100
AcDbLine
 10
25.86602540378448
 20
-2.088925071276119
 30
0.0
 11
25.86602540378448
 21
-1.908925071276119
 31
0.0
  0
POINT
  5
321
330
319
100
AcDbEntity
  8
Defpoints
 62
     0
100
AcDbPoint
 10
28.2742604392364
 20
-3.787892375063958
 30
0.0
  0
POINT
  5
322
330
319
100
AcDbEntity
  8
Defpoints
 62
     0
100
AcDbPoint
 10
25.86602540378448
 20
-1.998925071276119
 30
0.0
  0
ENDBLK
  5
31B
330
319
100
AcDbEntity
  8
0
100
AcDbBlockEnd
  0
ENDSEC
  0
SECTION
  2
ENTITIES
  0
LINE
  5
C0
330
1F
100
AcDbEntity
  8
참조1
100
AcDbLine
 10
-15.77564223695981
 20
-2.499999999999974
 30
0.0
 11
-15.7756422369598
 21
-40.0
 31
0.0
  0
LINE
  5
C1
330
1F
100
AcDbEntity
  8
참조1
100
AcDbLine
 10
-15.7756422369598
 20
-40.0
 30
0.0
 11
-30.93398568371225
 21
-40.0
 31
0.0
  0
INSERT
  5
C3
330
1F
100
AcDbEntity
  8
0
  6
Continuous
 62
     7
100
AcDbBlockReference
 66
     1
  2
블럭10
 10
-29.71591516908501
 20
-52.04717430164393
 30
0.0
  0
ATTRIB
  5
C4
330
C3
100
AcDbEntity
  8
FORMAT
 62
     2
100
AcDbText
 10
-45.83517620852056
 20
-49.97180738881174
 30
0.0
 40
4.233333333333333
  1
SEME0110030E [ 4 FLUTE ]
 41
0.75
  7
SLDTEXTSTYLE0
 11
-45.83517620852056
 21
-52.08847405547841
 31
0.0
100
AcDbAttribute
  2
AUTOATTR0
 70
     0
 74
     1
  0
SEQEND
  5
C5
330
C3
100
AcDbEntity
  8
0
  6
Continuous
 62
     7
  0
HATCH
  5
C6
330
1F
100
AcDbEntity
  8
중심선
100
AcDbHatch
 10
0.0
 20
0.0
 30
0.0
210
0.0
220
0.0
230
1.0
  2
SOLID
 70
     1
 71
     0
 91
        1
 92
        0
 93
        4
 72
     1
 10
-24.00100586470416
 20
-35.8
 11
-27.44728110854144
 21
-35.8
 72
     1
 10
-27.44728110854144
 20
-35.8
 11
-29.57551096774547
 21
-38.33632558057259
 72
     1
 10
-29.57551096774547
 20
-38.33632558057259
 11
-26.12920263879504
 21
-38.3362861512701
 72
     1
 10
-26.12920263879504
 20
-38.3362861512701
 11
-24.00100586470416
 21
-35.8
 97
        0
 75
     0
 76
     1
 98
        1
 10
0.0
 20
0.0
  0
HATCH
  5
C7
330
1F
100
AcDbEntity
  8
중심선
100
AcDbHatch
 10
0.0
 20
0.0
 30
0.0
210
0.0
220
0.0
230
1.0
  2
SOLID
 70
     1
 71
     0
 91
        1
 92
        0
 93
        4
 72
     1
 10
-18.98824187366821
 20
-35.8
 11
-22.43451711750549
 21
-35.8
 72
     1
 10
-22.43451711750549
 20
-35.8
 11
-26.96565512586288
 21
-41.20000000000002
 72
     1
 10
-26.96565512586288
 20
-41.20000000000002
 11
-23.5193798820256
 21
-41.20000000000002
 72
     1
 10
-23.5193798820256
 20
-41.20000000000002
 11
-18.98824187366821
 21
-35.8
 97
        0
 75
     0
 76
     1
 98
        1
 10
0.0
 20
0.0
  0
HATCH
  5
C8
330
1F
100
AcDbEntity
  8
중심선
100
AcDbHatch
 10
0.0
 20
0.0
 30
0.0
210
0.0
220
0.0
230
1.0
  2
SOLID
 70
     1
 71
     0
 91
        1
 92
        0
 93
        4
 72
     1
 10
-13.97547788263232
 20
-35.80000000000003
 11
-17.42175312646943
 21
-35.8
 72
     1
 10
-17.42175312646943
 20
-35.8
 11
-24.47019002835868
 21
-44.20000000000002
 72
     1
 10
-24.47019002835868
 20
-44.20000000000002
 11
-21.0239147845214
 21
-44.20000000000002
 72
     1
 10
-21.0239147845214
 20
-44.20000000000002
 11
-13.97547788263232
 21
-35.80000000000003
 97
        0
 75
     0
 76
     1
 98
        1
 10
0.0
 20
0.0
  0
HATCH
  5
C9
330
1F
100
AcDbEntity
  8
중심선
100
AcDbHatch
 10
0.0
 20
0.0
 30
0.0
210
0.0
220
0.0
230
1.0
  2
SOLID
 70
     1
 71
     0
 91
        1
 92
        0
 93
        6
 72
     3
 10
-9.175587451620116
 20
-40.00000000005127
 11
3.960054785062284
 21
1.540850780301639E-10
 40
0.3939339440162633
 50
17.09539180608433
 51
320.0019657685079
 73
     0
 72
     1
 10
-7.49258779591952
 20
-38.5878940046383
 11
-5.187285922218482
 21
-36.65356729459038
 72
     3
 10
-9.175587451672962
 20
-40.00000000000015
 11
6.600054785286829
 21
-1.249000902703301E-13
 40
0.6363583540795982
 50
39.99873849337408
 51
368.4976242363725
 73
     1
 72
     1
 10
-2.750254959772352
 20
-39.03999999993002
 11
-10.49552014483704
 21
-39.03999999992999
 72
     1
 10
-10.49552014483704
 20
-39.03999999992999
 11
-10.49554518928297
 21
-40.95999999992991
 72
     1
 10
-10.49554518928297
 20
-40.95999999992991
 11
-6.054165419810936
 21
-40.95999999992988
 97
        0
 75
     0
 76
     1
 98
        1
 10
0.0
 20
0.0
  0
LINE
  5
FA
330
1F
100
AcDbEntity
  8
참조1
100
AcDbLine
 10
67.03835494594202
 20
7.440000000000002
 30
0.0
 11
67.03835494594202
 21
-7.440000000000002
 31
0.0
  0
LINE
  5
FB
330
1F
100
AcDbEntity
  8
참조1
100
AcDbLine
 10
79.73835494594202
 20
5.440000000000002
 30
0.0
 11
67.03835494594202
 21
5.440000000000002
 31
0.0
  0
SOLID
  5
FC
330
1F
100
AcDbEntity
  8
참조1
100
AcDbTrace
 10
67.03835494594202
 20
5.440000000000002
 30
0.0
 11
73.38835494594201
 21
4.424000000000002
 31
0.0
 12
73.38835494594201
 22
6.456000000000002
 32
0.0
 13
73.38835494594201
 23
6.456000000000002
 33
0.0
  0
LINE
  5
FD
330
1F
100
AcDbEntity
  8
참조1
100
AcDbLine
 10
79.73835494594202
 20
-5.440000000000002
 30
0.0
 11
67.03835494594202
 21
-5.440000000000002
 31
0.0
  0
SOLID
  5
FE
330
1F
100
AcDbEntity
  8
참조1
100
AcDbTrace
 10
67.03835494594202
 20
-5.440000000000002
 30
0.0
 11
73.38835494594201
 21
-6.456000000000002
 31
0.0
 12
73.38835494594201
 22
-4.424000000000002
 32
0.0
 13
73.38835494594201
 23
-4.424000000000002
 33
0.0
  0
MTEXT
  5
FF
330
1F
100
AcDbEntity
  8
참조1
100
AcDbMText
 10
76.4358450384123
 20
10.98821664464994
 30
0.0
 40
3.5
 41
0.0
 71
     1
 72
     1
  1
A
  7
SLDTEXTSTYLE0
 73
     1
 44
1.0
  0
MTEXT
  5
100
330
1F
100
AcDbEntity
  8
참조1
100
AcDbMText
 10
76.4358450384123
 20
0.1082166446499328
 30
0.0
 40
3.5
 41
0.0
 71
     1
 72
     1
  1
A
  7
SLDTEXTSTYLE0
 73
     1
 44
1.0
  0
LINE
  5
2B6
330
1F
100
AcDbEntity
  8
외형선
  6
Continuous
 62
     1
370
    15
100
AcDbLine
 10
5.450715130791991
 20
5.001074928723881
 30
0.0
 11
3.866025403784477
 21
5.001074928723881
 31
0.0
1001
PE_URL
1000

  0
LINE
  5
2B7
330
1F
100
AcDbEntity
  8
외형선
  6
Continuous
 62
     1
370
    15
100
AcDbLine
 10
16.00659108531352
 20
-4.998925071276105
 30
0.0
 11
19.05389653470843
 21
-4.998925071276105
 31
0.0
1001
PE_URL
1000

  0
LINE
  5
2B8
330
1F
100
AcDbEntity
  8
외형선
  6
Continuous
 62
     1
370
    15
100
AcDbLine
 10
19.05389653470843
 20
5.001074928723881
 30
0.0
 11
16.00659108531357
 21
5.001074928723881
 31
0.0
1001
PE_URL
1000

  0
LINE
  5
2B9
330
1F
100
AcDbEntity
  8
외형선
  6
Continuous
 62
     1
370
    15
100
AcDbLine
 10
3.866025403784477
 20
-4.998925071276105
 30
0.0
 11
5.450715130791934
 21
-4.998925071276105
 31
0.0
1001
PE_URL
1000

  0
LINE
  5
2BA
330
1F
100
AcDbEntity
  8
외형선
  6
Continuous
370
    15
100
AcDbLine
 10
-70.1339745962155
 20
5.001074928723895
 30
0.0
 11
-71.1339745962155
 21
4.001074928723895
 31
0.0
  0
LINE
  5
2BB
330
1F
100
AcDbEntity
  8
외형선
  6
Continuous
370
    15
100
AcDbLine
 10
-71.1339745962155
 20
-3.998925071276119
 30
0.0
 11
-70.1339745962155
 21
-4.998925071276105
 31
0.0
  0
LINE
  5
2BC
330
1F
100
AcDbEntity
  8
외형선
  6
Continuous
370
    15
100
AcDbLine
 10
-70.1339745962155
 20
-4.998925071276105
 30
0.0
 11
3.866025403784477
 21
-4.998925071276105
 31
0.0
  0
LINE
  5
2BD
330
1F
100
AcDbEntity
  8
외형선
  6
Continuous
370
    15
100
AcDbLine
 10
3.866025403784477
 20
5.001074928723895
 30
0.0
 11
-70.1339745962155
 21
5.001074928723895
 31
0.0
  0
SPLINE
  5
2BE
330
1F
100
AcDbEntity
  8
외형선
  6
Continuous
 62
     1
370
    15
100
AcDbSpline
210
0.0
220
0.0
230
1.0
 70
     8
 71
     3
 72
    19
 73
    15
 74
     0
 42
0.000000001
 43
0.00000001
 40
0.0
 40
0.0
 40
0.0
 40
0.0
 40
0.0852055335698349
 40
0.1704260392466529
 40
0.2556225122429274
 40
0.3407981863150429
 40
0.4259595957817477
 40
0.5111133112343589
 40
0.5962659228599125
 40
0.6814240236585446
 40
0.7706478535939691
 40
0.8598771475839511
 40
0.949113220291406
 40
0.9543399827827886
 40
0.9543399827827886
 40
0.9543399827827886
 40
0.9543399827827886
 10
3.866025403784477
 20
0.9104369968126491
 30
0.0
 10
4.447208658616319
 20
0.5770022389978777
 30
0.0
 10
5.609677292373362
 20
-0.0899258669679455
 30
0.0
 10
7.353399650959943
 20
-1.096193753483988
 30
0.0
 10
9.096755989859105
 20
-2.055685480680594
 30
0.0
 10
10.83963761124977
 20
-2.932744832368272
 30
0.0
 10
12.58216630620603
 20
-3.691154816122534
 30
0.0
 10
14.32450431935564
 20
-4.300529303856763
 30
0.0
 10
16.06682560606168
 20
-4.73643019838633
 30
0.0
 10
17.83688856629306
 20
-4.98445709747007
 30
0.0
 10
19.63496363588467
 20
-5.026167159209336
 30
0.0
 10
21.46082461888977
 20
-4.837428514346669
 30
0.0
 10
22.71378112014509
 20
-4.582479059000731
 30
0.0
 10
23.35811790240487
 20
-4.392493171625183
 30
0.0
 10
23.39376999586008
 20
-4.381819235933715
 30
0.0
1001
PE_URL
1000

  0
SPLINE
  5
2BF
330
1F
100
AcDbEntity
  8
외형선
  6
Continuous
370
    15
100
AcDbSpline
210
0.0
220
0.0
230
1.0
 70
    24
 71
     3
 72
    17
 73
    13
 74
     0
 42
0.000000001
 43
0.00000001
 40
0.0
 40
0.0
 40
0.0
 40
0.0
 40
0.1046729426302764
 40
0.2120820928759803
 40
0.3220621357521649
 40
0.4352316073223365
 40
0.5452116501985251
 40
0.6583811217687012
 40
0.7683611646448905
 40
0.881530636215066
 40
0.9915106790912536
 40
1.0
 40
1.0
 40
1.0
 40
1.0
 10
3.866025403784533
 20
4.92972827771213
 30
0.0
 10
3.866025403784533
 20
4.785624282851003
 30
0.0
 10
3.866025403784533
 20
4.493649336375228
 30
0.0
 10
3.866025403784477
 20
4.016518402354492
 30
0.0
 10
3.866025403784477
 20
3.516842493708751
 30
0.0
 10
3.866025403784533
 20
3.013644388164749
 30
0.0
 10
3.86602540378442
 20
2.521497327459855
 30
0.0
 10
3.866025403784533
 20
2.063708733988847
 30
0.0
 10
3.866025403784477
 20
1.64223513960664
 30
0.0
 10
3.866025403784477
 20
1.287098625469113
 30
0.0
 10
3.86602540378442
 20
1.063606892277392
 30
0.0
 10
3.866025403784477
 20
0.9850237914765074
 30
0.0
 10
3.866025403784477
 20
0.9793926549582608
 30
0.0
  0
SPLINE
  5
2C0
330
1F
100
AcDbEntity
  8
외형선
  6
Continuous
 62
     1
370
    15
100
AcDbSpline
210
0.0
220
0.0
230
1.0
 70
     8
 71
     3
 72
     8
 73
     4
 74
     0
 42
0.000000001
 43
0.00000001
 40
0.02200353546337
 40
0.02200353546337
 40
0.02200353546337
 40
0.02200353546337
 40
0.0220504713747389
 40
0.0220504713747389
 40
0.0220504713747389
 40
0.0220504713747389
 10
27.88410820293333
 20
-4.998925071276073
 30
0.0
 10
27.88375120180643
 20
-4.998876835779299
 30
0.0
 10
27.88339416054072
 20
-4.998828599444504
 30
0.0
 10
27.88303707918635
 20
-4.998780362255811
 30
0.0
1001
PE_URL
1000

  0
SPLINE
  5
2C1
330
1F
100
AcDbEntity
  8
외형선
  6
Continuous
 62
     1
370
    15
100
AcDbSpline
210
0.0
220
0.0
230
1.0
 70
     8
 71
     3
 72
    48
 73
    44
 74
     0
 42
0.000000001
 43
0.00000001
 40
0.06627144834352
 40
0.06627144834352
 40
0.06627144834352
 40
0.06627144834352
 40
0.0937499999999995
 40
0.0937499999999995
 40
0.1249999999999998
 40
0.1249999999999998
 40
0.1874999999999991
 40
0.1874999999999991
 40
0.2187499999999993
 40
0.2187499999999993
 40
0.2499999999999996
 40
0.2499999999999996
 40
0.3125000000000014
 40
0.3125000000000014
 40
0.3750000000000032
 40
0.3750000000000032
 40
0.4062500000000036
 40
0.4062500000000036
 40
0.4375000000000038
 40
0.4375000000000038
 40
0.5000000000000057
 40
0.5000000000000057
 40
0.531250000000006
 40
0.531250000000006
 40
0.5625000000000062
 40
0.5625000000000062
 40
0.6250000000000056
 40
0.6250000000000056
 40
0.6875000000000048
 40
0.6875000000000048
 40
0.7187500000000044
 40
0.7187500000000044
 40
0.750000000000004
 40
0.750000000000004
 40
0.8125000000000033
 40
0.8125000000000033
 40
0.8437500000000024
 40
0.8437500000000024
 40
0.8750000000000014
 40
0.8750000000000014
 40
0.9375000000000008
 40
0.9375000000000008
 40
0.9527578160300556
 40
0.9527578160300556
 40
0.9527578160300556
 40
0.9527578160300556
 10
25.93612384167417
 20
-4.998105994295839
 30
0.0
 10
25.70871852657936
 20
-4.960750302613461
 30
0.0
 10
25.48221829243963
 20
-4.918471489024192
 30
0.0
 10
24.9943938697848
 20
-4.817498950299566
 30
0.0
 10
24.73384508497969
 20
-4.757408320742059
 30
0.0
 10
23.95400907019882
 20
-4.559114324729705
 30
0.0
 10
23.43919036431282
 20
-4.403208092207933
 30
0.0
 10
22.65872351482358
 20
-4.135941730292345
 30
0.0
 10
22.39838806640927
 20
-4.041401184060575
 30
0.0
 10
21.88050172395964
 20
-3.842608472243569
 30
0.0
 10
21.6231742405098
 20
-3.738408067337986
 30
0.0
 10
20.84441936059267
 20
-3.411061405927427
 30
0.0
 10
20.32334572815148
 20
-3.174028981953867
 30
0.0
 10
19.29038946289484
 20
-2.672100088107044
 30
0.0
 10
18.76693365446596
 20
-2.405308864841132
 30
0.0
 10
17.99014351344499
 20
-1.990945552095098
 30
0.0
 10
17.73280273068855
 20
-1.850526024105889
 30
0.0
 10
17.21361471249088
 20
-1.564822106712697
 30
0.0
 10
16.95306256462743
 20
-1.419766496543772
 30
0.0
 10
16.17326107727405
 20
-0.9806151227051743
 30
0.0
 10
15.65841975470073
 20
-0.6830380456437553
 30
0.0
 10
14.8779430766582
 20
-0.2336439768340028
 30
0.0
 10
14.61761926551901
 20
-0.0835726103835555
 30
0.0
 10
14.09978555774677
 20
0.2153028031413271
 30
0.0
 10
13.84243102401064
 20
0.3640790756730894
 30
0.0
 10
13.06362205782318
 20
0.8088072717460761
 30
0.0
 10
12.54268751130957
 20
1.101731743207353
 30
0.0
 10
11.50960083982329
 20
1.668839155622862
 30
0.0
 10
10.98613863344877
 20
1.945048276459659
 30
0.0
 10
10.20942785782682
 20
2.338353026855501
 30
0.0
 10
9.952059121449963
 20
2.465964447298106
 30
0.0
 10
9.432835323739255
 20
2.714399479794764
 30
0.0
 10
9.172280094234793
 20
2.834997957408973
 30
0.0
 10
8.39251397191282
 20
3.183732688768885
 30
0.0
 10
7.877648496452082
 20
3.398506604112384
 30
0.0
 10
7.09716282988154
 20
3.691030008030367
 30
0.0
 10
6.836850936611427
 20
3.7834262984708
 30
0.0
 10
6.319070414646717
 20
3.956930529258869
 30
0.0
 10
6.06168702398071
 20
4.038054172326781
 30
0.0
 10
5.282824805572261
 20
4.264683217624452
 30
0.0
 10
4.76202783056533
 20
4.39254466772654
 30
0.0
 10
4.119302882937291
 20
4.519744187447476
 30
0.0
 10
3.992777089487419
 20
4.543215238047072
 30
0.0
 10
3.866025403784562
 20
4.565170124830939
 30
0.0
  0
LINE
  5
2C2
330
1F
100
AcDbEntity
  8
외형선
  6
Continuous
 62
     1
370
    15
100
AcDbLine
 10
28.86602540378448
 20
-1.998925071276119
 30
0.0
 11
28.86602540378448
 21
0.4503706855167309
 31
0.0
1001
PE_URL
1000

  0
SPLINE
  5
2C3
330
1F
100
AcDbEntity
  8
외형선
  6
Continuous
 62
     1
370
    15
100
AcDbSpline
210
0.0
220
0.0
230
1.0
 70
     8
 71
     3
 72
    21
 73
    17
 74
     0
 42
0.000000001
 43
0.00000001
 40
0.0
 40
0.0
 40
0.0
 40
0.0
 40
0.006814229611464
 40
0.0816067193089885
 40
0.1563781170874072
 40
0.2311312610041681
 40
0.3058718858054341
 40
0.3806057580714344
 40
0.45533866158029
 40
0.5300763825789938
 40
0.6083823293487295
 40
0.6866930715634223
 40
0.7650097630171249
 40
0.8433335522926754
 40
0.9216655817672434
 40
0.9610909214545941
 40
0.9610909214545941
 40
0.9610909214545941
 40
0.9610909214545941
 10
5.450715130791991
 20
4.992707917145509
 30
0.0
 10
5.503675705298804
 20
4.995446050385027
 30
0.0
 10
6.137927702171794
 20
5.028237735351553
 30
0.0
 10
7.353405258879206
 20
4.900722066440125
 30
0.0
 10
9.096754487897329
 20
4.599096908658765
 30
0.0
 10
10.8396380132225
 20
4.090679370437087
 30
0.0
 10
12.58216619986473
 20
3.422905515676447
 30
0.0
 10
14.32450434281589
 20
2.615532844217981
 30
0.0
 10
16.06682561855609
 20
1.703049526101253
 30
0.0
 10
17.83688849148035
 20
0.7061968369265799
 30
0.0
 10
19.63496393795344
 20
-0.3370202934535058
 30
0.0
 10
21.46082349112891
 20
-1.381109553473934
 30
0.0
 10
23.28686456320401
 20
-2.365036929776082
 30
0.0
 10
25.11309747818763
 20
-3.240367495629656
 30
0.0
 10
26.63710402156801
 20
-3.862909379914008
 30
0.0
 10
27.55235417920727
 20
-4.15011829801608
 30
0.0
 10
27.85878136068445
 20
-4.241451257575779
 30
0.0
1001
PE_URL
1000

  0
SPLINE
  5
2C4
330
1F
100
AcDbEntity
  8
외형선
  6
Continuous
 62
     1
370
    15
100
AcDbSpline
210
0.0
220
0.0
230
1.0
 70
     8
 71
     3
 72
    18
 73
    14
 74
     0
 42
0.000000001
 43
0.00000001
 40
0.0
 40
0.0
 40
0.0
 40
0.0
 40
0.0967700030715863
 40
0.1935167430679598
 40
0.2902385270625205
 40
0.386942765382859
 40
0.4836369129549705
 40
0.5803284503991866
 40
0.6770248649874431
 40
0.773733631564634
 40
0.8750575014291794
 40
0.9763896598988228
 40
1.0
 40
1.0
 40
1.0
 40
1.0
 10
28.76602540378457
 20
0.4871805354855638
 30
0.0
 10
28.18469911645644
 20
0.8191651471071424
 30
0.0
 10
27.02218629003534
 20
1.483054562736953
 30
0.0
 10
25.27873887798859
 20
2.41384542051405
 30
0.0
 10
23.53578013760756
 20
3.248573230074356
 30
0.0
 10
21.79319968785137
 20
3.951797944046675
 30
0.0
 10
20.05083703388817
 20
4.495572775714308
 30
0.0
 10
18.30853277975808
 20
4.858186095538684
 30
0.0
 10
16.56611544444581
 20
5.023801440729059
 30
0.0
 10
14.79585868936624
 20
4.989825759835611
 30
0.0
 10
12.9975692502793
 20
4.728158074175965
 30
0.0
 10
11.63840452973085
 20
4.415198702397277
 30
0.0
 10
10.88785992004961
 20
4.142509012726606
 30
0.0
 10
10.7460297685929
 20
4.090978937781301
 30
0.0
  0
SPLINE
  5
2C5
330
1F
100
AcDbEntity
  8
외형선
  6
Continuous
 62
     1
370
    15
100
AcDbSpline
210
0.0
220
0.0
230
1.0
 70
     8
 71
     3
 72
    23
 73
    19
 74
     0
 42
0.000000001
 43
0.00000001
 40
0.0
 40
0.0
 40
0.0
 40
0.0
 40
0.0000297137793984
 40
0.0000297137793984
 40
0.0000297137793984
 40
0.0000595376446384
 40
0.0000595376446384
 40
0.0000595376446384
 40
0.0000881513784631
 40
0.0000881513784631
 40
0.0000881513784631
 40
0.0001174575803818
 40
0.0001174575803818
 40
0.0001174575803818
 40
0.0001499997242418
 40
0.0001499997242418
 40
0.0001499997242418
 40
0.0001636812627398
 40
0.0001636812627398
 40
0.0001636812627398
 40
0.0001636812627398
 10
28.86602540378448
 20
0.4503706855167309
 30
0.0
 10
28.86602540378448
 20
0.4485573827778069
 30
0.0
 10
28.86461877896613
 20
0.4474231702994445
 30
0.0
 10
28.86178326164816
 20
0.4471482810308771
 30
0.0
 10
28.85894117531268
 20
0.4468727549288047
 30
0.0
 10
28.85457320772247
 20
0.4474625502404734
 30
0.0
 10
28.84905396367583
 20
0.4489022015075079
 30
0.0
 10
28.84374941060202
 20
0.4502858523280224
 30
0.0
 10
28.83725104765989
 20
0.4524863438263793
 30
0.0
 10
28.83014036721067
 20
0.455295823907349
 30
0.0
 10
28.82284892793012
 20
0.4581767230796032
 30
0.0
 10
28.81474724377455
 20
0.4617598821973132
 30
0.0
 10
28.80644683374726
 20
0.4657423668821963
 30
0.0
 10
28.79723113066308
 20
0.4701640034366221
 30
0.0
 10
28.78756469845968
 20
0.4751730514825141
 30
0.0
 10
28.7780641739497
 20
0.4803992057070161
 30
0.0
 10
28.77403594211319
 20
0.4826151002934012
 30
0.0
 10
28.77001120891248
 20
0.4848834167616332
 30
0.0
 10
28.76602540378457
 20
0.4871805354855354
 30
0.0
1001
PE_URL
1000

  0
SPLINE
  5
2C6
330
1F
100
AcDbEntity
  8
외형선
  6
Continuous
 62
     1
370
    15
100
AcDbSpline
210
0.0
220
0.0
230
1.0
 70
     8
 71
     3
 72
    14
 73
    10
 74
     0
 42
0.000000001
 43
0.00000001
 40
0.0
 40
0.0
 40
0.0
 40
0.0
 40
0.0974540714463277
 40
0.2478558250685515
 40
0.398269882018149
 40
0.5486984436658997
 40
0.6991425248514842
 40
0.8495790559451218
 40
1.0
 40
1.0
 40
1.0
 40
1.0
 10
16.00659108531352
 20
-4.976879039243727
 30
0.0
 10
15.61224925472101
 20
-4.976543640014327
 30
0.0
 10
14.60931609523391
 20
-4.975690616107826
 30
0.0
 10
12.99756967089922
 20
-4.730053109009773
 30
0.0
 10
11.17146835995726
 20
-4.272712400558433
 30
0.0
 10
9.34514947023763
 20
-3.618053891536533
 30
0.0
 10
7.51868782063832
 20
-2.804598536738695
 30
0.0
 10
5.692284963075792
 20
-1.868940032078328
 30
0.0
 10
4.474757564038043
 20
-1.183352123201473
 30
0.0
 10
3.86602540378334
 20
-0.8405759284768521
 30
0.0
1001
PE_URL
1000

  0
LINE
  5
2C7
330
1F
100
AcDbEntity
  8
외형선
  6
Continuous
370
    15
100
AcDbLine
 10
3.866025403784533
 20
-0.8405759284733989
 30
0.0
 11
3.866025403784477
 21
0.9104369968126491
 31
0.0
  0
SPLINE
  5
2C8
330
1F
100
AcDbEntity
  8
외형선
  6
Continuous
 62
     1
370
    15
100
AcDbSpline
210
0.0
220
0.0
230
1.0
 70
     8
 71
     3
 72
    17
 73
    13
 74
     0
 42
0.000000001
 43
0.00000001
 40
0.0000000000000004
 40
0.0000000000000004
 40
0.0000000000000004
 40
0.0000000000000004
 40
0.0000509241269374
 40
0.0000509241269374
 40
0.0000509241269374
 40
0.0000965377487639
 40
0.0000965377487639
 40
0.0000965377487639
 40
0.0001435661318019
 40
0.0001435661318019
 40
0.0001435661318019
 40
0.0001791246677151
 40
0.0001791246677151
 40
0.0001791246677151
 40
0.0001791246677151
 10
28.76602540378451
 20
2.17320375795812
 30
0.0
 10
28.78071499435623
 20
2.165542093222228
 30
0.0
 10
28.79517472053573
 20
2.155620942007943
 30
0.0
 10
28.80805538866196
 20
2.144652967960752
 30
0.0
 10
28.81963566704968
 20
2.134792284371102
 30
0.0
 10
28.83030336002412
 20
2.123789760114519
 30
0.0
 10
28.83916642313324
 20
2.112509374620572
 30
0.0
 10
28.84827206073248
 20
2.100920254581226
 30
0.0
 10
28.85575860633401
 20
2.088640097668744
 30
0.0
 10
28.86044179134535
 20
2.07699005886461
 30
0.0
 10
28.8640005569568
 20
2.068137161238781
 30
0.0
 10
28.86602540378448
 20
2.059397781458401
 30
0.0
 10
28.86602540378448
 20
2.051652329621504
 30
0.0
1001
PE_URL
1000

  0
LINE
  5
2C9
330
1F
100
AcDbEntity
  8
외형선
  6
Continuous
 62
     1
370
    15
100
AcDbLine
 10
28.86602540378448
 20
0.4503706855167309
 30
0.0
 11
28.86602540378448
 21
2.051652329621504
 31
0.0
1001
PE_URL
1000

  0
SPLINE
  5
2CA
330
1F
100
AcDbEntity
  8
외형선
  6
Continuous
 62
     1
370
    15
100
AcDbSpline
210
0.0
220
0.0
230
1.0
 70
     8
 71
     3
 72
    13
 73
     9
 74
     0
 42
0.000000001
 43
0.00000001
 40
0.0
 40
0.0
 40
0.0
 40
0.0
 40
0.059827191569949
 40
0.2478310431729392
 40
0.4358491773611308
 40
0.6238843515850503
 40
0.8119393083970277
 40
1.0
 40
1.0
 40
1.0
 40
1.0
 10
19.05389653470843
 20
4.97699651210246
 30
0.0
 10
19.24757126019034
 20
4.983764378645532
 30
0.0
 10
20.04985878184851
 20
5.011799915354032
 30
0.0
 10
21.46082677719437
 20
4.834891543406499
 30
0.0
 10
23.28686368289402
 20
4.451256919777691
 30
0.0
 10
25.11309771297334
 20
3.852869108384397
 30
0.0
 10
26.93951797741386
 20
3.094990687936743
 30
0.0
 10
28.15718340624466
 20
2.480469191239351
 30
0.0
 10
28.76602540378445
 20
2.173203757958831
 30
0.0
1001
PE_URL
1000

  0
SPLINE
  5
2CB
330
1F
100
AcDbEntity
  8
외형선
  6
Continuous
 62
     1
370
    15
100
AcDbSpline
210
0.0
220
0.0
230
1.0
 70
     8
 71
     3
 72
    11
 73
     7
 74
     0
 42
0.000000001
 43
0.00000001
 40
0.0
 40
0.0
 40
0.0
 40
0.0
 40
0.2534226096139339
 40
0.5068897500260934
 40
0.7602854112236505
 40
1.0
 40
1.0
 40
1.0
 40
1.0
 10
3.866025403784477
 20
-4.915535756404765
 30
0.0
 10
4.447208729147292
 20
-4.957501372966959
 30
0.0
 10
5.609677503978787
 20
-5.041439980186382
 30
0.0
 10
7.353398804464405
 20
-4.907194319326209
 30
0.0
 10
9.065526199078477
 20
-4.60797393993839
 30
0.0
 10
10.19631965943449
 20
-4.258646736552379
 30
0.0
 10
10.74602976859279
 20
-4.088829080333511
 30
0.0
1001
PE_URL
1000

  0
SPLINE
  5
2CC
330
1F
100
AcDbEntity
  8
외형선
  6
Continuous
370
    15
100
AcDbSpline
210
0.0
220
0.0
230
1.0
 70
    24
 71
     3
 72
    17
 73
    13
 74
     0
 42
0.000000001
 43
0.00000001
 40
0.0
 40
0.0
 40
0.0
 40
0.0
 40
0.0002925371898917
 40
0.1084543068168033
 40
0.2197527750902939
 40
0.3279145447172037
 40
0.4392130129906924
 40
0.5473747826176053
 40
0.6586732508910977
 40
0.7668350205180083
 40
0.8781334887914978
 40
1.0
 40
1.0
 40
1.0
 40
1.0
 10
3.866025403784533
 20
-0.9082871393648446
 30
0.0
 10
3.866025403784533
 20
-0.9084767342605033
 30
0.0
 10
3.866025403780725
 20
-0.9787665425110816
 30
0.0
 10
3.866025403786296
 20
-1.190167872148592
 30
0.0
 10
3.866025403783965
 20
-1.535660003342954
 30
0.0
 10
3.86602540378459
 20
-1.9502794447599
 30
0.0
 10
3.866025403784533
 20
-2.402710227817195
 30
0.0
 10
3.866025403784363
 20
-2.891475639531379
 30
0.0
 10
3.86602540378459
 20
-3.393340936284858
 30
0.0
 10
3.866025403784533
 20
-3.90236567705152
 30
0.0
 10
3.86602540378442
 20
-4.419409443657443
 30
0.0
 10
3.866025403784477
 20
-4.745237671759753
 30
0.0
 10
3.866025403784477
 20
-4.915535756404765
 30
0.0
  0
SPLINE
  5
2CD
330
1F
100
AcDbEntity
  8
외형선
  6
Continuous
 62
     1
370
    15
100
AcDbSpline
210
0.0
220
0.0
230
1.0
 70
     8
 71
     3
 72
    10
 73
     6
 74
     0
 42
0.000000001
 43
0.00000001
 40
0.2056587442331491
 40
0.2056587442331491
 40
0.2056587442331491
 40
0.2056587442331491
 40
0.3929541653809929
 40
0.78581386634104
 40
0.8103533570111344
 40
0.8103533570111344
 40
0.8103533570111344
 40
0.8103533570111344
 10
25.86602540378448
 20
5.001074928723881
 30
0.0
 10
25.54329830964383
 20
4.956549452462909
 30
0.0
 10
24.68504427848671
 20
4.848917881126923
 30
0.0
 10
23.79052141694535
 20
4.652894569677581
 30
0.0
 10
23.17309148500047
 20
4.466317218913606
 30
0.0
 10
23.13660681085247
 20
4.455153249881032
 30
0.0
  0
LINE
  5
2CE
330
1F
100
AcDbEntity
  8
외형선
  6
Continuous
370
    15
100
AcDbLine
 10
-70.1339745962155
 20
0.0010749287238809
 30
0.0
 11
-70.1339745962155
 21
5.001074928723895
 31
0.0
  0
LINE
  5
2CF
330
1F
100
AcDbEntity
  8
외형선
  6
Continuous
370
    15
100
AcDbLine
 10
-70.1339745962155
 20
-4.998925071276105
 30
0.0
 11
-70.1339745962155
 21
0.0010749287238809
 31
0.0
  0
LINE
  5
2D0
330
1F
100
AcDbEntity
  8
외형선
  6
Continuous
370
    15
100
AcDbLine
 10
-71.1339745962155
 20
0.0010749287238809
 30
0.0
 11
-71.1339745962155
 21
4.001074928723895
 31
0.0
  0
LINE
  5
2D1
330
1F
100
AcDbEntity
  8
외형선
  6
Continuous
370
    15
100
AcDbLine
 10
-71.1339745962155
 20
-3.998925071276119
 30
0.0
 11
-71.1339745962155
 21
0.0010749287238809
 31
0.0
  0
SPLINE
  5
2D2
330
1F
100
AcDbEntity
  8
외형선
  6
Continuous
370
    15
100
AcDbSpline
210
0.0
220
0.0
230
1.0
 70
     8
 71
     3
 72
     8
 73
     4
 74
     0
 42
0.000000001
 43
0.00000001
 40
0.0
 40
0.0
 40
0.0
 40
0.0
 40
1.0
 40
1.0
 40
1.0
 40
1.0
 10
3.866025403784477
 20
4.929728277720159
 30
0.0
 10
3.532761873742459
 20
4.962156846389718
 30
0.0
 10
3.200870930239489
 20
4.983584652325931
 30
0.0
 10
2.866119219944892
 20
4.99390980688942
 30
0.0
  0
LINE
  5
2D3
330
1F
100
AcDbEntity
  8
외형선
  6
Continuous
370
    15
100
AcDbLine
 10
2.866119219944892
 20
1.471423297861151
 30
0.0
 11
2.866119219944892
 21
4.993911033079044
 31
0.0
  0
SPLINE
  5
2D4
330
1F
100
AcDbEntity
  8
외형선
  6
Continuous
370
    15
100
AcDbSpline
210
0.0
220
0.0
230
1.0
 70
     8
 71
     3
 72
     8
 73
     4
 74
     0
 42
0.000000001
 43
0.00000001
 40
0.0
 40
0.0
 40
0.0
 40
0.0
 40
1.0
 40
1.0
 40
1.0
 40
1.0
 10
3.866025403784533
 20
0.9104369968126207
 30
0.0
 10
3.532761873742459
 20
1.0998726111888
 30
0.0
 10
3.200870930239546
 20
1.287028154610809
 30
0.0
 10
2.866119219944892
 20
1.471431980524088
 30
0.0
  0
SPLINE
  5
2D5
330
1F
100
AcDbEntity
  8
외형선
  6
Continuous
370
    15
100
AcDbSpline
210
0.0
220
0.0
230
1.0
 70
     8
 71
     3
 72
     8
 73
     4
 74
     0
 42
0.000000001
 43
0.00000001
 40
0.0
 40
0.0
 40
0.0
 40
0.0
 40
1.0
 40
1.0
 40
1.0
 40
1.0
 10
3.866025403784477
 20
-0.8405759284775058
 30
0.0
 10
3.532761873742459
 20
-0.6506763136801936
 30
0.0
 10
3.200870930239489
 20
-0.4591648628973957
 30
0.0
 10
2.866119219944892
 20
-0.2665066090805226
 30
0.0
  0
LINE
  5
2D6
330
1F
100
AcDbEntity
  8
외형선
  6
Continuous
370
    15
100
AcDbLine
 10
2.866119219944892
 20
-4.777844998767605
 30
0.0
 11
2.866119219944892
 21
-0.2664837284853547
 31
0.0
  0
SPLINE
  5
2D7
330
1F
100
AcDbEntity
  8
외형선
  6
Continuous
370
    15
100
AcDbSpline
210
0.0
220
0.0
230
1.0
 70
     8
 71
     3
 72
     8
 73
     4
 74
     0
 42
0.000000001
 43
0.00000001
 40
0.0
 40
0.0
 40
0.0
 40
0.0
 40
1.0
 40
1.0
 40
1.0
 40
1.0
 10
3.866025403784533
 20
-4.915535756404779
 30
0.0
 10
3.532761873742459
 20
-4.880498293995998
 30
0.0
 10
3.200870930239546
 20
-4.834578916663673
 30
0.0
 10
2.866119219944892
 20
-4.777842327331228
 30
0.0
  0
SPLINE
  5
2D8
330
1F
100
AcDbEntity
  8
외형선
  6
Continuous
370
    15
100
AcDbSpline
210
0.0
220
0.0
230
1.0
 70
    24
 71
     3
 72
    17
 73
    13
 74
     0
 42
0.000000001
 43
0.00000001
 40
0.0
 40
0.0
 40
0.0
 40
0.0
 40
0.1022992766203953
 40
0.2045985532407905
 40
0.3139599727545205
 40
0.4233213922682508
 40
0.5326828117820958
 40
0.6420442312959407
 40
0.7514056508097272
 40
0.8607670703235136
 40
0.9701284898373006
 40
1.0
 40
1.0
 40
1.0
 40
1.0
 10
3.866025403784533
 20
-4.915535756404779
 30
0.0
 10
3.866025403784533
 20
-4.772738822806645
 30
0.0
 10
3.866025403784533
 20
-4.487144955610404
 30
0.0
 10
3.866025403784533
 20
-4.014824919974885
 30
0.0
 10
3.866025403784533
 20
-3.520322044367276
 30
0.0
 10
3.866025403784477
 20
-3.013950711030631
 30
0.0
 10
3.866025403784533
 20
-2.522038377496486
 30
0.0
 10
3.866025403784477
 20
-2.057956334804359
 30
0.0
 10
3.86602540378459
 20
-1.634414409825169
 30
0.0
 10
3.866025403784533
 20
-1.268778906159113
 30
0.0
 10
3.86602540378459
 20
-1.024639813945981
 30
0.0
 10
3.866025403784533
 20
-0.9288402963636315
 30
0.0
 10
3.866025403784533
 20
-0.9082871393648446
 30
0.0
  0
SPLINE
  5
2D9
330
1F
100
AcDbEntity
  8
외형선
  6
Continuous
370
    15
100
AcDbSpline
210
0.0
220
0.0
230
1.0
 70
    24
 71
     3
 72
    16
 73
    12
 74
     0
 42
0.000000001
 43
0.00000001
 40
0.0
 40
0.0
 40
0.0
 40
0.0
 40
0.0926001170818372
 40
0.2040660984700111
 40
0.3155320798581855
 40
0.4269980612463599
 40
0.5384640426345285
 40
0.649930024022697
 40
0.7613960054108789
 40
0.8728619867990608
 40
1.0
 40
1.0
 40
1.0
 40
1.0
 10
3.866025403784533
 20
0.9793926549582608
 30
0.0
 10
3.866025403784533
 20
1.053354344831291
 30
0.0
 10
3.866025403784533
 20
1.216346293052055
 30
0.0
 10
3.86602540378459
 20
1.550163411737913
 30
0.0
 10
3.866025403784533
 20
1.954429844853166
 30
0.0
 10
3.866025403784533
 20
2.405451882186526
 30
0.0
 10
3.866025403784533
 20
2.889336637067501
 30
0.0
 10
3.866025403784533
 20
3.392240757418918
 30
0.0
 10
3.866025403784533
 20
3.899240449591446
 30
0.0
 10
3.866025403784533
 20
4.423090474349863
 30
0.0
 10
3.866025403784533
 20
4.753612539410057
 30
0.0
 10
3.866025403784477
 20
4.929728277720244
 30
0.0
  0
LINE
  5
2DA
330
1F
100
AcDbEntity
  8
중심선
100
AcDbLine
 10
-74.1339745962155
 20
0.0010749287238809
 30
0.0
 11
31.86602540378453
 21
0.0010749287238809
 31
0.0
  0
CIRCLE
  5
2DB
330
1F
100
AcDbEntity
  8
해칭선
100
AcDbCircle
 10
0.0
 20
0.0
 30
0.0
 40
3.000000000000001
  0
DIMENSION
  5
2DC
330
1F
100
AcDbEntity
  8
치수문자_일반주서
100
AcDbDimension
  2
*D24
 10
48.96603149318209
 20
-4.998925071275993
 30
0.0
 11
48.96603149318207
 21
0.0010749287238809
 31
0.0
 70
   160
  1
%%c<>
 71
     2
 42
9.999999999999986
 52
-270.0
  3
SLDDIMSTYLE0
100
AcDbAlignedDimension
 13
19.05443828080854
 23
5.001074928723881
 33
0.0
 14
19.05443828080854
 24
-4.998925071276105
 34
0.0
 50
90.0000000000002
100
AcDbRotatedDimension
  0
DIMENSION
  5
2DD
330
1F
100
AcDbEntity
  8
치수문자_일반주서
100
AcDbDimension
  2
*D25
 10
-83.53397459621549
 20
-4.998925071276169
 30
0.0
 11
-83.5339745962155
 21
0.0010749287238951
 31
0.0
 70
   160
  1
%%c<>
 71
     2
 42
10.00000000000001
 52
-270.0
  3
SLDDIMSTYLE0
100
AcDbAlignedDimension
 13
-70.1339745962155
 23
5.001074928723895
 33
0.0
 14
-70.1339745962155
 24
-4.998925071276119
 34
0.0
 50
90.0000000000002
100
AcDbRotatedDimension
  0
DIMENSION
  5
2DE
330
1F
100
AcDbEntity
  8
치수문자_일반주서
100
AcDbDimension
  2
*D26
 10
3.866025403784533
 20
22.33360326315228
 30
0.0
 11
16.36602540378453
 21
22.33360326315228
 31
0.0
 70
   160
  1
<>
 71
     2
 42
24.99999999999994
  3
SLDDIMSTYLE1
100
AcDbAlignedDimension
 13
28.86602540378448
 23
4.880432808909362
 33
0.0
 14
3.866025403784533
 24
4.92972827771213
 34
0.0
 50
-0.0000000000002443
100
AcDbRotatedDimension
  0
DIMENSION
  5
2DF
330
1F
100
AcDbEntity
  8
치수문자_일반주서
100
AcDbDimension
  2
*D27
 10
-71.1339745962155
 20
29.74996595351914
 30
0.0
 11
-21.13397459621552
 21
29.74996595351914
 31
0.0
 70
   160
  1
<>
 71
     2
 42
99.99999999999997
  3
SLDDIMSTYLE1
100
AcDbAlignedDimension
 13
28.86602540378448
 23
4.880432808909362
 33
0.0
 14
-71.1339745962155
 24
4.001074928723895
 34
0.0
 50
0.0000000000000041
100
AcDbRotatedDimension
  0
INSERT
  5
2E0
330
1F
100
AcDbEntity
  8
해칭선
100
AcDbBlockReference
  2
SW_DOWELSYMBOL_0
 10
0.0
 20
0.0
 30
0.0
  0
LINE
  5
2E1
330
1F
100
AcDbEntity
  8
0
100
AcDbLine
 10
28.86602540378448
 20
5.001074928723924
 30
0.0
 11
28.63921916778861
 21
5.001074928723924
 31
0.0
  0
LINE
  5
2E2
330
1F
100
AcDbEntity
  8
0
100
AcDbLine
 10
28.86602540378448
 20
5.001074928723924
 30
0.0
 11
28.13049696481266
 21
5.001074928723916
 31
0.0
  0
LINE
  5
2E3
330
1F
100
AcDbEntity
  8
0
100
AcDbLine
 10
28.86602540378448
 20
5.001074928723924
 30
0.0
 11
27.98681424894829
 21
5.001074928723913
 31
0.0
  0
ARC
  5
2E4
330
1F
100
AcDbEntity
  8
외형선
  6
Continuous
 62
     1
370
    15
100
AcDbCircle
 10
25.86602540378448
 20
2.001074928723881
 30
0.0
 40
2.999999999999999
100
AcDbArc
 50
0.0
 51
90.0
1001
PE_URL
1000

  0
ARC
  5
2E5
102
{ACAD_REACTORS
102
}
330
1F
100
AcDbEntity
  8
외형선
  6
Continuous
 62
     1
370
    15
100
AcDbCircle
 10
25.86602540378448
 20
-1.998925071276119
 30
0.0
 40
2.999999999999999
100
AcDbArc
 50
270.0
 51
0.0
1001
PE_URL
1000

  0
DIMENSION
  5
2E6
102
{ACAD_REACTORS
102
}
102
{ACAD_XDICTIONARY
360
2E7
102
}
330
1F
100
AcDbEntity
  8
치수문자_일반주서
100
AcDbDimension
  2
*D28
 10
25.86602540378448
 20
-1.998925071276119
 30
0.0
 11
45.50753424660844
 21
-16.58970072215766
 31
0.0
 70
   164
 71
     5
 42
3.000000000000009
  3
SLDDIMSTYLE1
100
AcDbRadialDimension
 15
28.2742604392364
 25
-3.787892375063958
 35
0.0
 40
0.0
1001
ACAD
1000
DSTYLE
1002
{
1070
    78
1070
     8
1002
}
1001
ACAD_DSTYLE_DIMRADIAL_EXTENSION
1070
   387
1070
     1
1070
   388
1040
4.71238898038469
1070
   390
1040
0.0
1001
PE_URL
1000

  0
ENDSEC
  0
SECTION
  2
OBJECTS
  0
DICTIONARY
  5
C
330
0
100
AcDbDictionary
281
     1
  3
ACAD_DETAILVIEWSTYLE
350
228
  3
ACAD_GROUP
350
D
  3
ACAD_LAYOUT
350
1A
  3
ACAD_MLINESTYLE
350
17
  3
ACAD_PLOTSETTINGS
350
19
  3
ACAD_PLOTSTYLENAME
350
E
  3
ACAD_SCALELIST
350
47
  3
ACAD_SECTIONVIEWSTYLE
350
229
  3
AcDbVariableDictionary
350
223
  3
APPDATA
350
129
  3
DWGPROPS
350
325
  0
DICTIONARY
  5
1B1
330
2
100
AcDbDictionary
280
     1
281
     1
  3
ACAD_LAYERSTATES
360
1B2
  0
DICTIONARY
  5
323
330
1F
100
AcDbDictionary
280
     1
281
     1
  3
DIM_BOUNDING_BOXES_V1
360
324
  0
DICTIONARY
  5
2E7
330
2E6
100
AcDbDictionary
280
     1
281
     1
  0
DICTIONARY
  5
228
102
{ACAD_REACTORS
330
C
102
}
330
C
100
AcDbDictionary
281
     1
  0
DICTIONARY
  5
D
102
{ACAD_REACTORS
330
C
102
}
330
C
100
AcDbDictionary
281
     1
  0
DICTIONARY
  5
1A
102
{ACAD_REACTORS
330
C
102
}
330
C
100
AcDbDictionary
281
     1
  3
Layout1
350
1E
  3
Layout2
350
26
  3
Model
350
22
  0
DICTIONARY
  5
17
102
{ACAD_REACTORS
330
C
102
}
330
C
100
AcDbDictionary
281
     1
  3
Standard
350
18
  0
DICTIONARY
  5
19
102
{ACAD_REACTORS
330
C
102
}
330
C
100
AcDbDictionary
281
     1
  0
ACDBDICTIONARYWDFLT
  5
E
102
{ACAD_REACTORS
330
C
102
}
330
C
100
AcDbDictionary
281
     1
  3
Normal
350
F
100
AcDbDictionaryWithDefault
340
F
  0
DICTIONARY
  5
47
102
{ACAD_REACTORS
330
C
102
}
330
C
100
AcDbDictionary
281
     1
  3
A0
350
48
  3
A1
350
49
  3
A2
350
4A
  3
A3
350
4B
  3
A4
350
4C
  3
A5
350
4D
  3
A6
350
4E
  3
A7
350
4F
  3
A8
350
50
  3
A9
350
51
  3
B0
350
52
  3
B1
350
53
  3
B2
350
54
  3
B3
350
55
  3
B4
350
56
  3
B5
350
57
  3
B6
350
58
  3
B7
350
59
  3
B8
350
5A
  3
B9
350
5B
  3
C0
350
5C
  3
C1
350
5D
  3
C2
350
5E
  3
C3
350
5F
  3
C4
350
60
  3
C5
350
61
  3
C6
350
62
  3
C7
350
63
  3
C8
350
64
  3
C9
350
65
  3
D0
350
66
  3
D1
350
67
  3
D2
350
68
  0
DICTIONARY
  5
229
102
{ACAD_REACTORS
330
C
102
}
330
C
100
AcDbDictionary
281
     1
  0
DICTIONARY
  5
223
102
{ACAD_REACTORS
330
C
102
}
330
C
100
AcDbDictionary
281
     1
  0
DICTIONARY
  5
129
102
{ACAD_REACTORS
330
C
102
}
330
C
100
AcDbDictionary
281
     1
  0
XRECORD
  5
325
102
{ACAD_REACTORS
330
C
102
}
330
C
100
AcDbXrecord
280
     1
  1
DWGPROPS COOKIE
  2

  3

  4

  6

  7

  8
12016016
  9

300
=
301
=
302
=
303
=
304
=
305
=
306
=
307
=
308
=
309
=
 40
0.0
 41
2458269.444284491
 42
2459702.188171516
  1

 90
        0
  0
DICTIONARY
  5
1B2
102
{ACAD_REACTORS
330
1B1
102
}
330
1B1
100
AcDbDictionary
281
     1
  0
DICTIONARY
  5
324
102
{ACAD_REACTORS
330
323
102
}
330
323
100
AcDbDictionary
281
     1
  0
LAYOUT
  5
1E
102
{ACAD_REACTORS
330
1A
102
}
330
1A
100
AcDbPlotSettings
  1

  2
none_device
  4

  6

 40
0.0
 41
0.0
 42
0.0
 43
0.0
 44
0.0
 45
0.0
 46
0.0
 47
0.0
 48
0.0
 49
0.0
140
0.0
141
0.0
142
1.0
143
1.0
 70
   688
 72
     1
 73
     0
 74
     5
  7

 75
    16
147
1.0
148
0.0
149
0.0
100
AcDbLayout
  1
Layout1
 70
     1
 71
     1
 10
0.0
 20
0.0
 11
420.0
 21
297.0
 12
0.0
 22
0.0
 32
0.0
 14
1.000000000000000E+20
 24
1.000000000000000E+20
 34
1.000000000000000E+20
 15
-1.000000000000000E+20
 25
-1.000000000000000E+20
 35
-1.000000000000000E+20
146
0.0
 13
0.0
 23
0.0
 33
0.0
 16
1.0
 26
0.0
 36
0.0
 17
0.0
 27
1.0
 37
0.0
 76
     0
330
1B
  0
LAYOUT
  5
26
102
{ACAD_REACTORS
330
1A
102
}
330
1A
100
AcDbPlotSettings
  1

  2
none_device
  4

  6

 40
0.0
 41
0.0
 42
0.0
 43
0.0
 44
0.0
 45
0.0
 46
0.0
 47
0.0
 48
0.0
 49
0.0
140
0.0
141
0.0
142
1.0
143
1.0
 70
   688
 72
     1
 73
     0
 74
     5
  7

 75
    16
147
1.0
148
0.0
149
0.0
100
AcDbLayout
  1
Layout2
 70
     1
 71
     2
 10
0.0
 20
0.0
 11
0.0
 21
0.0
 12
0.0
 22
0.0
 32
0.0
 14
0.0
 24
0.0
 34
0.0
 15
0.0
 25
0.0
 35
0.0
146
0.0
 13
0.0
 23
0.0
 33
0.0
 16
1.0
 26
0.0
 36
0.0
 17
0.0
 27
1.0
 37
0.0
 76
     0
330
23
  0
LAYOUT
  5
22
102
{ACAD_REACTORS
330
1A
102
}
330
1A
100
AcDbPlotSettings
  1

  2
none_device
  4
ANSI_A_(11.00_x_8.50_Inches)
  6

 40
6.35
 41
19.05
 42
6.35000508
 43
19.05000254
 44
279.4
 45
215.9
 46
110.7265618538769
 47
107.7700880033065
 48
0.0
 49
0.0
140
0.0
141
0.0
142
0.0788757687588336
143
1.0
 70
  1696
 72
     0
 73
     0
 74
     0
  7

 75
     0
147
0.0235690232323232
148
0.0
149
0.0
100
AcDbLayout
  1
Model
 70
     1
 71
     0
 10
0.0
 20
0.0
 11
420.0
 21
297.0
 12
0.0
 22
0.0
 32
0.0
 14
-87.9089745962155
 24
-49.97180738881174
 34
0.0
 15
79.73835494594202
 25
34.12496595351915
 35
0.0
146
0.0
 13
0.0
 23
0.0
 33
0.0
 16
1.0
 26
0.0
 36
0.0
 17
0.0
 27
1.0
 37
0.0
 76
     0
330
1F
331
29
  0
MLINESTYLE
  5
18
102
{ACAD_REACTORS
330
17
102
}
330
17
100
AcDbMlineStyle
  2
Standard
 70
     0
  3

 62
   256
 51
90.0
 52
90.0
 71
     2
 49
0.5
 62
   256
  6
BYLAYER
 49
-0.5
 62
   256
  6
BYLAYER
  0
ACDBPLACEHOLDER
  5
F
102
{ACAD_REACTORS
330
E
102
}
330
E
  0
SCALE
  5
48
102
{ACAD_REACTORS
330
47
102
}
330
47
100
AcDbScale
 70
     0
300
1:1
140
1.0
141
1.0
290
     1
  0
SCALE
  5
49
102
{ACAD_REACTORS
330
47
102
}
330
47
100
AcDbScale
 70
     0
300
1:2
140
1.0
141
2.0
290
     0
  0
SCALE
  5
4A
102
{ACAD_REACTORS
330
47
102
}
330
47
100
AcDbScale
 70
     0
300
1:4
140
1.0
141
4.0
290
     0
  0
SCALE
  5
4B
102
{ACAD_REACTORS
330
47
102
}
330
47
100
AcDbScale
 70
     0
300
1:5
140
1.0
141
5.0
290
     0
  0
SCALE
  5
4C
102
{ACAD_REACTORS
330
47
102
}
330
47
100
AcDbScale
 70
     0
300
1:8
140
1.0
141
8.0
290
     0
  0
SCALE
  5
4D
102
{ACAD_REACTORS
330
47
102
}
330
47
100
AcDbScale
 70
     0
300
1:10
140
1.0
141
10.0
290
     0
  0
SCALE
  5
4E
102
{ACAD_REACTORS
330
47
102
}
330
47
100
AcDbScale
 70
     0
300
1:16
140
1.0
141
16.0
290
     0
  0
SCALE
  5
4F
102
{ACAD_REACTORS
330
47
102
}
330
47
100
AcDbScale
 70
     0
300
1:20
140
1.0
141
20.0
290
     0
  0
SCALE
  5
50
102
{ACAD_REACTORS
330
47
102
}
330
47
100
AcDbScale
 70
     0
300
1:30
140
1.0
141
30.0
290
     0
  0
SCALE
  5
51
102
{ACAD_REACTORS
330
47
102
}
330
47
100
AcDbScale
 70
     0
300
1:40
140
1.0
141
40.0
290
     0
  0
SCALE
  5
52
102
{ACAD_REACTORS
330
47
102
}
330
47
100
AcDbScale
 70
     0
300
1:50
140
1.0
141
50.0
290
     0
  0
SCALE
  5
53
102
{ACAD_REACTORS
330
47
102
}
330
47
100
AcDbScale
 70
     0
300
1:100
140
1.0
141
100.0
290
     0
  0
SCALE
  5
54
102
{ACAD_REACTORS
330
47
102
}
330
47
100
AcDbScale
 70
     0
300
2:1
140
2.0
141
1.0
290
     0
  0
SCALE
  5
55
102
{ACAD_REACTORS
330
47
102
}
330
47
100
AcDbScale
 70
     0
300
4:1
140
4.0
141
1.0
290
     0
  0
SCALE
  5
56
102
{ACAD_REACTORS
330
47
102
}
330
47
100
AcDbScale
 70
     0
300
8:1
140
8.0
141
1.0
290
     0
  0
SCALE
  5
57
102
{ACAD_REACTORS
330
47
102
}
330
47
100
AcDbScale
 70
     0
300
10:1
140
10.0
141
1.0
290
     0
  0
SCALE
  5
58
102
{ACAD_REACTORS
330
47
102
}
330
47
100
AcDbScale
 70
     0
300
100:1
140
100.0
141
1.0
290
     0
  0
SCALE
  5
59
102
{ACAD_REACTORS
330
47
102
}
330
47
100
AcDbScale
 70
     0
300
1/128" = 1'-0"
140
0.0078125
141
12.0
290
     0
  0
SCALE
  5
5A
102
{ACAD_REACTORS
330
47
102
}
330
47
100
AcDbScale
 70
     0
300
1/64" = 1'-0"
140
0.015625
141
12.0
290
     0
  0
SCALE
  5
5B
102
{ACAD_REACTORS
330
47
102
}
330
47
100
AcDbScale
 70
     0
300
1/32" = 1'-0"
140
0.03125
141
12.0
290
     0
  0
SCALE
  5
5C
102
{ACAD_REACTORS
330
47
102
}
330
47
100
AcDbScale
 70
     0
300
1/16" = 1'-0"
140
0.0625
141
12.0
290
     0
  0
SCALE
  5
5D
102
{ACAD_REACTORS
330
47
102
}
330
47
100
AcDbScale
 70
     0
300
3/32" = 1'-0"
140
0.09375
141
12.0
290
     0
  0
SCALE
  5
5E
102
{ACAD_REACTORS
330
47
102
}
330
47
100
AcDbScale
 70
     0
300
1/8" = 1'-0"
140
0.125
141
12.0
290
     0
  0
SCALE
  5
5F
102
{ACAD_REACTORS
330
47
102
}
330
47
100
AcDbScale
 70
     0
300
3/16" = 1'-0"
140
0.1875
141
12.0
290
     0
  0
SCALE
  5
60
102
{ACAD_REACTORS
330
47
102
}
330
47
100
AcDbScale
 70
     0
300
1/4" = 1'-0"
140
0.25
141
12.0
290
     0
  0
SCALE
  5
61
102
{ACAD_REACTORS
330
47
102
}
330
47
100
AcDbScale
 70
     0
300
3/8" = 1'-0"
140
0.375
141
12.0
290
     0
  0
SCALE
  5
62
102
{ACAD_REACTORS
330
47
102
}
330
47
100
AcDbScale
 70
     0
300
1/2" = 1'-0"
140
0.5
141
12.0
290
     0
  0
SCALE
  5
63
102
{ACAD_REACTORS
330
47
102
}
330
47
100
AcDbScale
 70
     0
300
3/4" = 1'-0"
140
0.75
141
12.0
290
     0
  0
SCALE
  5
64
102
{ACAD_REACTORS
330
47
102
}
330
47
100
AcDbScale
 70
     0
300
1" = 1'-0"
140
1.0
141
12.0
290
     0
  0
SCALE
  5
65
102
{ACAD_REACTORS
330
47
102
}
330
47
100
AcDbScale
 70
     0
300
1-1/2" = 1'-0"
140
1.5
141
12.0
290
     0
  0
SCALE
  5
66
102
{ACAD_REACTORS
330
47
102
}
330
47
100
AcDbScale
 70
     0
300
3" = 1'-0"
140
3.0
141
12.0
290
     0
  0
SCALE
  5
67
102
{ACAD_REACTORS
330
47
102
}
330
47
100
AcDbScale
 70
     0
300
6" = 1'-0"
140
6.0
141
12.0
290
     0
  0
SCALE
  5
68
102
{ACAD_REACTORS
330
47
102
}
330
47
100
AcDbScale
 70
     0
300
1'-0" = 1'-0"
140
12.0
141
12.0
290
     0
  0
ENDSEC
  0
EOF
