  0
SECTION
  2
HEADER
  9
$ACADVER
  1
AC1015
  9
$ACADMAINTVER
 70
     6
  9
$DWGCODEPAGE
  3
ANSI_949
  9
$INSBASE
 10
0.0
 20
0.0
 30
0.0
  9
$EXTMIN
 10
-98.70897459621554
 20
-49.97180738881174
 30
0.0
  9
$EXTMAX
 10
79.73835494594202
 20
34.51993858199378
 30
0.0
  9
$LIMMIN
 10
0.0
 20
0.0
  9
$LIMMAX
 10
420.0
 20
297.0
  9
$ORTHOMODE
 70
     0
  9
$REGENMODE
 70
     1
  9
$FILLMODE
 70
     1
  9
$QTEXTMODE
 70
     0
  9
$MIRRTEXT
 70
     1
  9
$LTSCALE
 40
1.0
  9
$ATTMODE
 70
     1
  9
$TEXTSIZE
 40
3.5
  9
$TRACEWID
 40
1.0
  9
$TEXTSTYLE
  7
Standard
  9
$CLAYER
  8
0
  9
$CELTYPE
  6
ByLayer
  9
$CECOLOR
 62
   256
  9
$CELTSCALE
 40
1.0
  9
$DISPSILH
 70
     0
  9
$DIMSCALE
 40
1.0
  9
$DIMASZ
 40
3.302
  9
$DIMEXO
 40
1.0
  9
$DIMDLI
 40
3.75
  9
$DIMRND
 40
0.0
  9
$DIMDLE
 40
0.0
  9
$DIMEXE
 40
1.0
  9
$DIMTP
 40
0.0
  9
$DIMTM
 40
0.0
  9
$DIMTXT
 40
3.5
  9
$DIMCEN
 40
2.5
  9
$DIMTSZ
 40
0.0
  9
$DIMTOL
 70
     0
  9
$DIMLIM
 70
     0
  9
$DIMTIH
 70
     1
  9
$DIMTOH
 70
     1
  9
$DIMSE1
 70
     0
  9
$DIMSE2
 70
     0
  9
$DIMTAD
 70
     1
  9
$DIMZIN
 70
     0
  9
$DIMBLK
  1

  9
$DIMASO
 70
     1
  9
$DIMSHO
 70
     1
  9
$DIMPOST
  1

  9
$DIMAPOST
  1

  9
$DIMALT
 70
     0
  9
$DIMALTD
 70
     3
  9
$DIMALTF
 40
0.0393700787401575
  9
$DIMLFAC
 40
1.0
  9
$DIMTOFL
 70
     1
  9
$DIMTVP
 40
0.0
  9
$DIMTIX
 70
     0
  9
$DIMSOXD
 70
     0
  9
$DIMSAH
 70
     0
  9
$DIMBLK1
  1

  9
$DIMBLK2
  1

  9
$DIMSTYLE
  2
ISO-25
  9
$DIMCLRD
 70
     0
  9
$DIMCLRE
 70
     0
  9
$DIMCLRT
 70
     0
  9
$DIMTFAC
 40
1.0
  9
$DIMGAP
 40
1.524
  9
$DIMJUST
 70
     0
  9
$DIMSD1
 70
     0
  9
$DIMSD2
 70
     0
  9
$DIMTOLJ
 70
     0
  9
$DIMTZIN
 70
     0
  9
$DIMALTZ
 70
     0
  9
$DIMALTTZ
 70
     0
  9
$DIMUPT
 70
     0
  9
$DIMDEC
 70
     2
  9
$DIMTDEC
 70
     2
  9
$DIMALTU
 70
     2
  9
$DIMALTTD
 70
     3
  9
$DIMTXSTY
  7
Standard
  9
$DIMAUNIT
 70
     0
  9
$DIMADEC
 70
     2
  9
$DIMALTRND
 40
0.0
  9
$DIMAZIN
 70
     0
  9
$DIMDSEP
 70
    44
  9
$DIMATFIT
 70
     3
  9
$DIMFRAC
 70
     0
  9
$DIMLDRBLK
  1

  9
$DIMLUNIT
 70
     2
  9
$DIMLWD
 70
    -2
  9
$DIMLWE
 70
    -2
  9
$DIMTMOVE
 70
     0
  9
$LUNITS
 70
     2
  9
$LUPREC
 70
     2
  9
$SKETCHINC
 40
1.0
  9
$FILLETRAD
 40
10.0
  9
$AUNITS
 70
     0
  9
$AUPREC
 70
     2
  9
$MENU
  1
.
  9
$ELEVATION
 40
0.0
  9
$PELEVATION
 40
0.0
  9
$THICKNESS
 40
0.0
  9
$LIMCHECK
 70
     0
  9
$CHAMFERA
 40
0.0
  9
$CHAMFERB
 40
0.0
  9
$CHAMFERC
 40
0.0
  9
$CHAMFERD
 40
0.0
  9
$SKPOLY
 70
     0
  9
$TDCREATE
 40
2458269.819851968
  9
$TDUCREATE
 40
2458269.444851968
  9
$TDUPDATE
 40
2459702.607924386
  9
$TDUUPDATE
 40
2459702.232924386
  9
$TDINDWG
 40
0.0002957986
  9
$TDUSRTIMER
 40
0.000295787
  9
$USRTIMER
 70
     1
  9
$ANGBASE
 50
0.0
  9
$ANGDIR
 70
     0
  9
$PDMODE
 70
     0
  9
$PDSIZE
 40
-1.0
  9
$PLINEWID
 40
0.0
  9
$SPLFRAME
 70
     0
  9
$SPLINETYPE
 70
     6
  9
$SPLINESEGS
 70
     8
  9
$HANDSEED
  5
364
  9
$SURFTAB1
 70
     6
  9
$SURFTAB2
 70
     6
  9
$SURFTYPE
 70
     6
  9
$SURFU
 70
     6
  9
$SURFV
 70
     6
  9
$UCSBASE
  2

  9
$UCSNAME
  2

  9
$UCSORG
 10
0.0
 20
0.0
 30
0.0
  9
$UCSXDIR
 10
1.0
 20
0.0
 30
0.0
  9
$UCSYDIR
 10
0.0
 20
1.0
 30
0.0
  9
$UCSORTHOREF
  2

  9
$UCSORTHOVIEW
 70
     0
  9
$UCSORGTOP
 10
0.0
 20
0.0
 30
0.0
  9
$UCSORGBOTTOM
 10
0.0
 20
0.0
 30
0.0
  9
$UCSORGLEFT
 10
0.0
 20
0.0
 30
0.0
  9
$UCSORGRIGHT
 10
0.0
 20
0.0
 30
0.0
  9
$UCSORGFRONT
 10
0.0
 20
0.0
 30
0.0
  9
$UCSORGBACK
 10
0.0
 20
0.0
 30
0.0
  9
$PUCSBASE
  2

  9
$PUCSNAME
  2

  9
$PUCSORG
 10
0.0
 20
0.0
 30
0.0
  9
$PUCSXDIR
 10
1.0
 20
0.0
 30
0.0
  9
$PUCSYDIR
 10
0.0
 20
1.0
 30
0.0
  9
$PUCSORTHOREF
  2

  9
$PUCSORTHOVIEW
 70
     0
  9
$PUCSORGTOP
 10
0.0
 20
0.0
 30
0.0
  9
$PUCSORGBOTTOM
 10
0.0
 20
0.0
 30
0.0
  9
$PUCSORGLEFT
 10
0.0
 20
0.0
 30
0.0
  9
$PUCSORGRIGHT
 10
0.0
 20
0.0
 30
0.0
  9
$PUCSORGFRONT
 10
0.0
 20
0.0
 30
0.0
  9
$PUCSORGBACK
 10
0.0
 20
0.0
 30
0.0
  9
$USERI1
 70
     0
  9
$USERI2
 70
     0
  9
$USERI3
 70
     0
  9
$USERI4
 70
     0
  9
$USERI5
 70
     0
  9
$USERR1
 40
0.0
  9
$USERR2
 40
0.0
  9
$USERR3
 40
0.0
  9
$USERR4
 40
0.0
  9
$USERR5
 40
0.0
  9
$WORLDVIEW
 70
     1
  9
$SHADEDGE
 70
     3
  9
$SHADEDIF
 70
    70
  9
$TILEMODE
 70
     1
  9
$MAXACTVP
 70
    64
  9
$PINSBASE
 10
0.0
 20
0.0
 30
0.0
  9
$PLIMCHECK
 70
     0
  9
$PEXTMIN
 10
1.000000000000000E+20
 20
1.000000000000000E+20
 30
1.000000000000000E+20
  9
$PEXTMAX
 10
-1.000000000000000E+20
 20
-1.000000000000000E+20
 30
-1.000000000000000E+20
  9
$PLIMMIN
 10
0.0
 20
0.0
  9
$PLIMMAX
 10
0.0
 20
0.0
  9
$UNITMODE
 70
     0
  9
$VISRETAIN
 70
     1
  9
$PLINEGEN
 70
     0
  9
$PSLTSCALE
 70
     1
  9
$TREEDEPTH
 70
  3020
  9
$CMLSTYLE
  2
Standard
  9
$CMLJUST
 70
     0
  9
$CMLSCALE
 40
20.0
  9
$PROXYGRAPHICS
 70
     1
  9
$MEASUREMENT
 70
     1
  9
$CELWEIGHT
370
    -1
  9
$ENDCAPS
280
     0
  9
$JOINSTYLE
280
     0
  9
$LWDISPLAY
290
     1
  9
$INSUNITS
 70
     4
  9
$HYPERLINKBASE
  1

  9
$STYLESHEET
  1

  9
$XEDIT
290
     1
  9
$CEPSNTYPE
380
     0
  9
$PSTYLEMODE
290
     1
  9
$FINGERPRINTGUID
  2
{13220EB3-A05A-495B-9833-02AB4D88C5B3}
  9
$VERSIONGUID
  2
{FAEB1C32-E019-11D5-929B-00C0DF256EC4}
  9
$EXTNAMES
290
     1
  9
$PSVPSCALE
 40
0.0
  9
$OLESTARTUP
290
     0
  0
ENDSEC
  0
SECTION
  2
CLASSES
  0
CLASS
  1
ACDBDICTIONARYWDFLT
  2
AcDbDictionaryWithDefault
  3
ObjectDBX Classes
 90
        0
280
     0
281
     0
  0
CLASS
  1
VISUALSTYLE
  2
AcDbVisualStyle
  3
ObjectDBX Classes
 90
     4095
280
     0
281
     0
  0
CLASS
  1
MATERIAL
  2
AcDbMaterial
  3
ObjectDBX Classes
 90
     1153
280
     0
281
     0
  0
CLASS
  1
SCALE
  2
AcDbScale
  3
ObjectDBX Classes
 90
     1153
280
     0
281
     0
  0
CLASS
  1
SUN
  2
AcDbSun
  3
SCENEOE
 90
     1153
280
     0
281
     0
  0
CLASS
  1
ACDBPLACEHOLDER
  2
AcDbPlaceHolder
  3
ObjectDBX Classes
 90
        0
280
     0
281
     0
  0
CLASS
  1
LAYOUT
  2
AcDbLayout
  3
ObjectDBX Classes
 90
        0
280
     0
281
     0
  0
CLASS
  1
TABLESTYLE
  2
AcDbTableStyle
  3
ObjectDBX Classes
 90
     4095
280
     0
281
     0
  0
CLASS
  1
MLEADERSTYLE
  2
AcDbMLeaderStyle
  3
ACDB_MLEADERSTYLE_CLASS
 90
     4095
280
     0
281
     0
  0
CLASS
  1
SORTENTSTABLE
  2
AcDbSortentsTable
  3
ObjectDBX Classes
 90
        0
280
     0
281
     0
  0
CLASS
  1
DIMASSOC
  2
AcDbDimAssoc
  3
"AcDbDimAssoc|Product Desc:     AcDim ARX App For Dimension|Company:          Autodesk, Inc.|WEB Address:      www.autodesk.com"
 90
        0
280
     0
281
     0
  0
ENDSEC
  0
SECTION
  2
TABLES
  0
TABLE
  2
VPORT
  5
8
330
0
100
AcDbSymbolTable
 70
     1
  0
VPORT
  5
29
330
8
100
AcDbSymbolTableRecord
100
AcDbViewportTableRecord
  2
*Active
 70
     0
 10
0.0
 20
0.0
 11
1.0
 21
1.0
 12
-4.12588582292539
 22
-3.422829696533725
 13
0.0
 23
0.0
 14
10.0
 24
10.0
 15
10.0
 25
10.0
 16
0.0
 26
0.0
 36
1.0
 17
0.0
 27
0.0
 37
0.0
 40
143.4697310880978
 41
1.531481481481481
 42
50.0
 43
0.0
 44
0.0
 50
0.0
 51
0.0
 71
    16
 72
  2000
 73
     1
 74
     3
 75
     0
 76
     0
 77
     0
 78
     0
281
     0
 65
     1
110
0.0
120
0.0
130
0.0
111
1.0
121
0.0
131
0.0
112
0.0
122
1.0
132
0.0
 79
     0
146
0.0
  0
ENDTAB
  0
TABLE
  2
LTYPE
  5
5
330
0
100
AcDbSymbolTable
 70
     6
  0
LTYPE
  5
14
330
5
100
AcDbSymbolTableRecord
100
AcDbLinetypeTableRecord
  2
ByBlock
 70
     0
  3

 72
    65
 73
     0
 40
0.0
  0
LTYPE
  5
15
330
5
100
AcDbSymbolTableRecord
100
AcDbLinetypeTableRecord
  2
ByLayer
 70
     0
  3

 72
    65
 73
     0
 40
0.0
  0
LTYPE
  5
16
330
5
100
AcDbSymbolTableRecord
100
AcDbLinetypeTableRecord
  2
Continuous
 70
     0
  3
Solid line
 72
    65
 73
     0
 40
0.0
  0
LTYPE
  5
6A
330
5
100
AcDbSymbolTableRecord
100
AcDbLinetypeTableRecord
  2
HIDDEN
 70
     0
  3
Hidden __ __ __ __ __ __ __ __ __ __ __ __ __ __
 72
    65
 73
     2
 40
1.905
 49
1.27
 74
     0
 49
-0.635
 74
     0
  0
LTYPE
  5
6B
330
5
100
AcDbSymbolTableRecord
100
AcDbLinetypeTableRecord
  2
PHANTOM
 70
     0
  3
Phantom ______  __  __  ______  __  __  ______
 72
    65
 73
     6
 40
12.7
 49
6.35
 74
     0
 49
-1.27
 74
     0
 49
1.27
 74
     0
 49
-1.27
 74
     0
 49
1.27
 74
     0
 49
-1.27
 74
     0
  0
LTYPE
  5
6C
330
5
100
AcDbSymbolTableRecord
100
AcDbLinetypeTableRecord
  2
CENTER
 70
     0
  3
Center ____ _ ____ _ ____ _ ____ _ ____ _ ____
 72
    65
 73
     4
 40
10.16
 49
6.35
 74
     0
 49
-1.27
 74
     0
 49
1.27
 74
     0
 49
-1.27
 74
     0
  0
LTYPE
  5
6D
330
5
100
AcDbSymbolTableRecord
100
AcDbLinetypeTableRecord
  2
CENTERX2
 70
     0
  3
Center (2x) ________  __  ________  __  _____
 72
    65
 73
     4
 40
20.32
 49
12.7
 74
     0
 49
-2.54
 74
     0
 49
2.54
 74
     0
 49
-2.54
 74
     0
  0
LTYPE
  5
6E
330
5
100
AcDbSymbolTableRecord
100
AcDbLinetypeTableRecord
  2
DOT2
 70
     0
  3
Dot (.5x) ........................................
 72
    65
 73
     2
 40
0.635
 49
0.0
 74
     0
 49
-0.635
 74
     0
  0
ENDTAB
  0
TABLE
  2
LAYER
  5
2
102
{ACAD_XDICTIONARY
360
2E4
102
}
330
0
100
AcDbSymbolTable
 70
    18
  0
LAYER
  5
10
330
2
100
AcDbSymbolTableRecord
100
AcDbLayerTableRecord
  2
0
 70
     0
 62
     7
  6
Continuous
370
    -3
390
F
  0
LAYER
  5
6F
330
2
100
AcDbSymbolTableRecord
100
AcDbLayerTableRecord
  2
FORMAT
 70
     0
 62
     2
  6
Continuous
370
    -3
390
F
  0
LAYER
  5
70
330
2
100
AcDbSymbolTableRecord
100
AcDbLayerTableRecord
  2
외형선
 70
     0
 62
     4
  6
Continuous
370
    30
390
F
  0
LAYER
  5
71
330
2
100
AcDbSymbolTableRecord
100
AcDbLayerTableRecord
  2
숨은선
 70
     0
 62
     2
  6
HIDDEN
370
    15
390
F
  0
LAYER
  5
72
330
2
100
AcDbSymbolTableRecord
100
AcDbLayerTableRecord
  2
중심선
 70
     0
 62
     1
  6
CENTERX2
370
    -3
390
F
  0
LAYER
  5
73
330
2
100
AcDbSymbolTableRecord
100
AcDbLayerTableRecord
  2
파단선
 70
     0
 62
     4
  6
Continuous
370
    -3
390
F
  0
LAYER
  5
74
330
2
100
AcDbSymbolTableRecord
100
AcDbLayerTableRecord
  2
해칭선
 70
     0
 62
   100
  6
Continuous
370
    -3
390
F
  0
LAYER
  5
75
330
2
100
AcDbSymbolTableRecord
100
AcDbLayerTableRecord
  2
가는실선
 70
     0
 62
     4
  6
Continuous
370
    -3
390
F
  0
LAYER
  5
76
330
2
100
AcDbSymbolTableRecord
100
AcDbLayerTableRecord
  2
치수_보조선
 70
     0
 62
     4
  6
Continuous
370
    -3
390
F
  0
LAYER
  5
77
330
2
100
AcDbSymbolTableRecord
100
AcDbLayerTableRecord
  2
치수문자_일반주서
 70
     0
 62
     7
  6
Continuous
370
    15
390
F
  0
LAYER
  5
78
330
2
100
AcDbSymbolTableRecord
100
AcDbLayerTableRecord
  2
개별주서
 70
     0
 62
   100
  6
Continuous
370
    30
390
F
  0
LAYER
  5
79
330
2
100
AcDbSymbolTableRecord
100
AcDbLayerTableRecord
  2
중간선
 70
     0
 62
     2
  6
Continuous
370
    15
390
F
  0
LAYER
  5
7A
330
2
100
AcDbSymbolTableRecord
100
AcDbLayerTableRecord
  2
윤곽선
 70
     0
 62
     3
  6
Continuous
370
    40
390
F
  0
LAYER
  5
7B
330
2
100
AcDbSymbolTableRecord
100
AcDbLayerTableRecord
  2
중심마크
 70
     0
 62
   100
  6
Continuous
370
    30
390
F
  0
LAYER
  5
7C
330
2
100
AcDbSymbolTableRecord
100
AcDbLayerTableRecord
  2
가상선
 70
     0
 62
     4
  6
PHANTOM
370
    -3
390
F
  0
LAYER
  5
7D
330
2
100
AcDbSymbolTableRecord
100
AcDbLayerTableRecord
  2
특수지정선
 70
     0
 62
     5
  6
CENTERX2
370
    60
390
F
  0
LAYER
  5
7E
330
2
100
AcDbSymbolTableRecord
100
AcDbLayerTableRecord
  2
참조1
 70
     0
 62
    -4
  6
Continuous
370
    -3
390
F
  0
LAYER
  5
133
330
2
100
AcDbSymbolTableRecord
100
AcDbLayerTableRecord
  2
Defpoints
 70
     0
 62
     7
  6
Continuous
290
     0
370
    -3
390
F
  0
ENDTAB
  0
TABLE
  2
STYLE
  5
3
330
0
100
AcDbSymbolTable
 70
     2
  0
STYLE
  5
11
330
3
100
AcDbSymbolTableRecord
100
AcDbTextStyleTableRecord
  2
Standard
 70
     0
 40
0.0
 41
1.0
 50
0.0
 71
     0
 42
3.5
  3
txt
  4

  0
STYLE
  5
94
330
3
100
AcDbSymbolTableRecord
100
AcDbTextStyleTableRecord
  2
SLDTEXTSTYLE0
 70
     0
 40
0.0
 41
0.75
 50
0.0
 71
     0
 42
3.5
  3
TXT
  4

  0
ENDTAB
  0
TABLE
  2
VIEW
  5
6
330
0
100
AcDbSymbolTable
 70
     0
  0
ENDTAB
  0
TABLE
  2
UCS
  5
7
330
0
100
AcDbSymbolTable
 70
     0
  0
ENDTAB
  0
TABLE
  2
APPID
  5
9
330
0
100
AcDbSymbolTable
 70
     3
  0
APPID
  5
12
330
9
100
AcDbSymbolTableRecord
100
AcDbRegAppTableRecord
  2
ACAD
 70
     0
  0
APPID
  5
13F
330
9
100
AcDbSymbolTableRecord
100
AcDbRegAppTableRecord
  2
PE_URL
 70
     0
  0
APPID
  5
251
330
9
100
AcDbSymbolTableRecord
100
AcDbRegAppTableRecord
  2
ACAD_DSTYLE_DIMRADIAL_EXTENSION
 70
     0
  0
ENDTAB
  0
TABLE
  2
DIMSTYLE
  5
A
330
0
100
AcDbSymbolTable
 70
     3
100
AcDbDimStyleTable
  0
DIMSTYLE
105
27
330
A
100
AcDbSymbolTableRecord
100
AcDbDimStyleTableRecord
  2
ISO-25
 70
     0
 41
2.5
 42
0.625
 43
3.75
 44
1.25
 73
     0
 74
     0
 77
     1
 78
     8
140
2.5
141
2.5
143
0.03937007874016
147
0.625
171
     3
172
     1
178
     0
271
     2
272
     2
274
     3
278
    44
283
     0
284
     8
340
11
  0
DIMSTYLE
105
D3
102
{ACAD_REACTORS
330
179
330
186
330
21A
330
21B
330
299
330
2A6
102
}
330
A
100
AcDbSymbolTableRecord
100
AcDbDimStyleTableRecord
  2
SLDDIMSTYLE0
 70
     0
 41
3.302
 44
0.0
 45
0.000000001
 73
     0
 74
     0
 77
     1
 78
    12
 79
     3
140
3.5
147
0.875
172
     1
173
     1
178
     0
271
     2
272
     2
276
     2
284
    12
289
     0
340
94
  0
DIMSTYLE
105
EE
102
{ACAD_REACTORS
330
193
330
1A0
330
21C
330
21D
330
2B3
330
2C0
330
2D9
330
353
102
}
330
A
100
AcDbSymbolTableRecord
100
AcDbDimStyleTableRecord
  2
SLDDIMSTYLE1
 70
     0
 41
3.302
 44
0.0
 45
0.000000001
 73
     0
 74
     0
 77
     1
 78
    12
 79
     3
140
3.5
147
0.875
173
     1
178
     0
271
     2
272
     2
276
     2
284
    12
340
94
  0
ENDTAB
  0
TABLE
  2
BLOCK_RECORD
  5
1
330
0
100
AcDbSymbolTable
 70
    27
  0
BLOCK_RECORD
  5
1F
102
{ACAD_XDICTIONARY
360
360
102
}
330
1
100
AcDbSymbolTableRecord
100
AcDbBlockTableRecord
  2
*Model_Space
340
22
  0
BLOCK_RECORD
  5
1B
330
1
100
AcDbSymbolTableRecord
100
AcDbBlockTableRecord
  2
*Paper_Space
340
1E
  0
BLOCK_RECORD
  5
23
330
1
100
AcDbSymbolTableRecord
100
AcDbBlockTableRecord
  2
*Paper_Space0
340
26
  0
BLOCK_RECORD
  5
7F
330
1
100
AcDbSymbolTableRecord
100
AcDbBlockTableRecord
  2
블럭10
340
0
102
{BLKREFS
331
CB
102
}
  0
BLOCK_RECORD
  5
D4
330
1
100
AcDbSymbolTableRecord
100
AcDbBlockTableRecord
  2
_D
340
0
  0
BLOCK_RECORD
  5
E1
330
1
100
AcDbSymbolTableRecord
100
AcDbBlockTableRecord
  2
_D_1
340
0
  0
BLOCK_RECORD
  5
EF
330
1
100
AcDbSymbolTableRecord
100
AcDbBlockTableRecord
  2
_D_2
340
0
  0
BLOCK_RECORD
  5
F9
330
1
100
AcDbSymbolTableRecord
100
AcDbBlockTableRecord
  2
_D_3
340
0
  0
BLOCK_RECORD
  5
109
330
1
100
AcDbSymbolTableRecord
100
AcDbBlockTableRecord
  2
SW_DOWELSYMBOL_0
340
0
102
{BLKREFS
331
0
331
1AD
331
21E
331
2CD
331
0
102
}
  0
BLOCK_RECORD
  5
1B8
330
1
100
AcDbSymbolTableRecord
100
AcDbBlockTableRecord
  2
*D8
340
0
  0
BLOCK_RECORD
  5
1C4
330
1
100
AcDbSymbolTableRecord
100
AcDbBlockTableRecord
  2
*D9
340
0
  0
BLOCK_RECORD
  5
1D0
330
1
100
AcDbSymbolTableRecord
100
AcDbBlockTableRecord
  2
*D10
340
0
  0
BLOCK_RECORD
  5
1DC
330
1
100
AcDbSymbolTableRecord
100
AcDbBlockTableRecord
  2
*D11
340
0
  0
BLOCK_RECORD
  5
221
330
1
100
AcDbSymbolTableRecord
100
AcDbBlockTableRecord
  2
*D12
340
0
  0
BLOCK_RECORD
  5
22D
330
1
100
AcDbSymbolTableRecord
100
AcDbBlockTableRecord
  2
*D13
340
0
  0
BLOCK_RECORD
  5
239
330
1
100
AcDbSymbolTableRecord
100
AcDbBlockTableRecord
  2
*D14
340
0
  0
BLOCK_RECORD
  5
245
330
1
100
AcDbSymbolTableRecord
100
AcDbBlockTableRecord
  2
*D15
340
0
  0
BLOCK_RECORD
  5
255
330
1
100
AcDbSymbolTableRecord
100
AcDbBlockTableRecord
  2
*D16
340
0
  0
BLOCK_RECORD
  5
29A
330
1
100
AcDbSymbolTableRecord
100
AcDbBlockTableRecord
  2
*D18
340
0
  0
BLOCK_RECORD
  5
2A7
330
1
100
AcDbSymbolTableRecord
100
AcDbBlockTableRecord
  2
*D19
340
0
  0
BLOCK_RECORD
  5
2B4
330
1
100
AcDbSymbolTableRecord
100
AcDbBlockTableRecord
  2
*D20
340
0
  0
BLOCK_RECORD
  5
2C1
330
1
100
AcDbSymbolTableRecord
100
AcDbBlockTableRecord
  2
*D21
340
0
  0
BLOCK_RECORD
  5
2DA
330
1
100
AcDbSymbolTableRecord
100
AcDbBlockTableRecord
  2
*D22
340
0
  0
BLOCK_RECORD
  5
319
330
1
100
AcDbSymbolTableRecord
100
AcDbBlockTableRecord
  2
*D23
340
0
  0
BLOCK_RECORD
  5
325
330
1
100
AcDbSymbolTableRecord
100
AcDbBlockTableRecord
  2
*D24
340
0
  0
BLOCK_RECORD
  5
331
330
1
100
AcDbSymbolTableRecord
100
AcDbBlockTableRecord
  2
*D25
340
0
  0
BLOCK_RECORD
  5
33D
330
1
100
AcDbSymbolTableRecord
100
AcDbBlockTableRecord
  2
*D26
340
0
  0
BLOCK_RECORD
  5
349
330
1
100
AcDbSymbolTableRecord
100
AcDbBlockTableRecord
  2
*D27
340
0
  0
BLOCK_RECORD
  5
356
330
1
100
AcDbSymbolTableRecord
100
AcDbBlockTableRecord
  2
*D28
340
0
  0
ENDTAB
  0
ENDSEC
  0
SECTION
  2
BLOCKS
  0
BLOCK
  5
20
330
1F
100
AcDbEntity
  8
0
100
AcDbBlockBegin
  2
*Model_Space
 70
     0
 10
0.0
 20
0.0
 30
0.0
  3
*Model_Space
  1

  0
ENDBLK
  5
21
330
1F
100
AcDbEntity
  8
0
100
AcDbBlockEnd
  0
BLOCK
  5
1C
330
1B
100
AcDbEntity
 67
     1
  8
0
100
AcDbBlockBegin
  2
*Paper_Space
 70
     0
 10
0.0
 20
0.0
 30
0.0
  3
*Paper_Space
  1

  0
ENDBLK
  5
1D
330
1B
100
AcDbEntity
 67
     1
  8
0
100
AcDbBlockEnd
  0
BLOCK
  5
24
330
23
100
AcDbEntity
  8
0
100
AcDbBlockBegin
  2
*Paper_Space0
 70
     0
 10
0.0
 20
0.0
 30
0.0
  3
*Paper_Space0
  1

  0
ENDBLK
  5
25
330
23
100
AcDbEntity
  8
0
100
AcDbBlockEnd
  0
BLOCK
  5
80
330
7F
100
AcDbEntity
  8
0
100
AcDbBlockBegin
  2
블럭10
 70
     2
 10
0.0
 20
0.0
 30
0.0
  3
블럭10
  1

  0
ELLIPSE
  5
82
330
7F
100
AcDbEntity
  8
중심선
100
AcDbEllipse
 10
20.54032771741204
 20
12.0471743016438
 30
0.0
 11
6.600054785286829
 21
-1.261213355974178E-13
 31
0.0
210
0.0
220
0.0
230
1.0
 40
0.636358354079598
 41
0.9219305317359503
 42
6.513795318482858
  0
ELLIPSE
  5
83
330
7F
100
AcDbEntity
  8
중심선
100
AcDbEllipse
 10
20.54032771746488
 20
12.04717430159265
 30
0.0
 11
3.960054785062283
 21
1.540847449632565E-10
 31
0.0
210
0.0
220
0.0
230
1.0
 40
0.3939339440162632
 41
1.131841032648279
 42
5.62031148352944
  0
LINE
  5
84
330
7F
100
AcDbEntity
  8
중심선
100
AcDbLine
 10
2.268634060543552
 20
16.24717430164393
 30
0.0
 11
5.714909304380834
 21
16.24717430164393
 31
0.0
  0
LINE
  5
85
330
7F
100
AcDbEntity
  8
중심선
100
AcDbLine
 10
5.245725140726316
 20
7.84717430164391
 30
0.0
 11
8.692000384563599
 21
7.84717430164391
 31
0.0
  0
LINE
  5
86
330
7F
100
AcDbEntity
  8
중심선
100
AcDbLine
 10
15.74043728645272
 20
16.24717430164393
 30
0.0
 11
8.692000384563599
 21
7.84717430164391
 31
0.0
  0
LINE
  5
87
330
7F
100
AcDbEntity
  8
중심선
100
AcDbLine
 10
0.1404042013395286
 20
13.71084872107135
 30
0.0
 11
3.58671253028996
 21
13.71088815037384
 31
0.0
  0
LINE
  5
88
330
7F
100
AcDbEntity
  8
중심선
100
AcDbLine
 10
2.750260043222114
 20
10.84717430164391
 30
0.0
 11
6.196535287059397
 21
10.84717430164391
 31
0.0
  0
LINE
  5
89
330
7F
100
AcDbEntity
  8
중심선
100
AcDbLine
 10
12.29416204261559
 20
16.24717430164393
 30
0.0
 11
5.245725140726316
 21
7.84717430164391
 31
0.0
  0
LINE
  5
8A
330
7F
100
AcDbEntity
  8
중심선
100
AcDbLine
 10
10.72767329541681
 20
16.24717430164393
 30
0.0
 11
6.196535287059397
 21
10.84717430164391
 31
0.0
  0
LINE
  5
8B
330
7F
100
AcDbEntity
  8
중심선
100
AcDbLine
 10
7.28139805157953
 20
16.24717430164393
 30
0.0
 11
2.750260043222114
 21
10.84717430164391
 31
0.0
  0
LINE
  5
8C
330
7F
100
AcDbEntity
  8
중심선
100
AcDbLine
 10
5.714909304380834
 20
16.24717430164393
 30
0.0
 11
3.58671253028996
 21
13.71088815037384
 31
0.0
  0
LINE
  5
8D
330
7F
100
AcDbEntity
  8
중심선
100
AcDbLine
 10
2.268634060543552
 20
16.24717430164393
 30
0.0
 11
0.1404042013395286
 21
13.71084872107135
 31
0.0
  0
LINE
  5
8E
330
7F
100
AcDbEntity
  8
중심선
100
AcDbLine
 10
7.28139805157953
 20
16.24717430164393
 30
0.0
 11
10.72767329541681
 21
16.24717430164393
 31
0.0
  0
LINE
  5
8F
330
7F
100
AcDbEntity
  8
중심선
100
AcDbLine
 10
12.29416204261559
 20
16.24717430164393
 30
0.0
 11
15.74043728645272
 21
16.24717430164393
 31
0.0
  0
LINE
  5
90
330
7F
100
AcDbEntity
  8
중심선
100
AcDbLine
 10
19.22036997980202
 20
11.08717430171403
 30
0.0
 11
23.66174974927406
 21
11.08717430171406
 31
0.0
  0
LINE
  5
91
330
7F
100
AcDbEntity
  8
중심선
100
AcDbLine
 10
19.22039502424796
 20
13.00717430171391
 30
0.0
 11
19.22036997980202
 21
11.08717430171403
 31
0.0
  0
LINE
  5
92
330
7F
100
AcDbEntity
  8
중심선
100
AcDbLine
 10
19.22039502424796
 20
13.00717430171391
 30
0.0
 11
26.96566020931264
 21
13.00717430171391
 31
0.0
  0
LINE
  5
93
330
7F
100
AcDbEntity
  8
중심선
100
AcDbLine
 10
22.22332737316547
 20
13.45928029700563
 30
0.0
 11
24.52862924686651
 21
15.39360700705356
 31
0.0
  0
ATTDEF
  5
95
330
7F
100
AcDbEntity
  8
FORMAT
 62
     2
100
AcDbText
 10
-16.11926103943555
 20
2.075366912832191
 30
0.0
 40
4.233333333333333
  1
SEME0111003E [ 4 FLUTE ]
 41
0.75
  7
SLDTEXTSTYLE0
 11
-16.11926103943555
 21
-0.0412997538344756
 31
0.0
100
AcDbAttributeDefinition
  3

  2
AUTOATTR0
 70
     0
 74
     1
  0
ENDBLK
  5
81
330
7F
100
AcDbEntity
  8
0
100
AcDbBlockEnd
  0
BLOCK
  5
D5
330
D4
100
AcDbEntity
  8
0
100
AcDbBlockBegin
  2
_D
 70
     0
 10
0.0
 20
0.0
 30
0.0
  3
_D
  1

  0
SOLID
  5
D7
330
D4
100
AcDbEntity
  8
치수문자_일반주서
100
AcDbTrace
 10
79.32487721999401
 20
5.499999999999999
 30
0.0
 11
79.832877219994
 21
8.802
 31
0.0
 12
78.81687721999401
 22
8.802
 32
0.0
 13
78.81687721999401
 23
8.802
 33
0.0
  0
SOLID
  5
D8
330
D4
100
AcDbEntity
  8
치수문자_일반주서
100
AcDbTrace
 10
79.32487721999401
 20
-5.500000000000002
 30
0.0
 11
78.81687721999401
 21
-8.802000000000001
 31
0.0
 12
79.832877219994
 22
-8.802000000000001
 32
0.0
 13
79.832877219994
 23
-8.802000000000001
 33
0.0
  0
LINE
  5
D9
330
D4
100
AcDbEntity
  8
치수문자_일반주서
100
AcDbLine
 10
59.43212529532289
 20
5.500000000000001
 30
0.0
 11
80.32487721999401
 21
5.499999999999999
 31
0.0
  0
LINE
  5
DA
330
D4
100
AcDbEntity
  8
치수문자_일반주서
100
AcDbLine
 10
59.43212529532289
 20
-5.500000000000001
 30
0.0
 11
80.32487721999401
 21
-5.500000000000002
 31
0.0
  0
LINE
  5
DB
330
D4
100
AcDbEntity
  8
치수문자_일반주서
100
AcDbLine
 10
79.32487721999401
 20
5.499999999999999
 30
0.0
 11
79.32487721999401
 21
11.85
 31
0.0
  0
LINE
  5
DC
330
D4
100
AcDbEntity
  8
치수문자_일반주서
100
AcDbLine
 10
79.32487721999401
 20
5.499999999999999
 30
0.0
 11
79.32487721999401
 21
-5.500000000000002
 31
0.0
  0
LINE
  5
DD
330
D4
100
AcDbEntity
  8
치수문자_일반주서
100
AcDbLine
 10
79.32487721999401
 20
-5.500000000000002
 30
0.0
 11
79.32487721999401
 21
-11.85
 31
0.0
  0
MTEXT
  5
DE
330
D4
100
AcDbEntity
  8
치수문자_일반주서
100
AcDbMText
 10
74.81314013079216
 20
-5.225330125540515
 30
0.0
 40
3.5
 41
0.0
 71
     1
 72
     1
  1
%%c
  7
SLDTEXTSTYLE0
 11
-7.044195017643634E-15
 21
1.0
 31
0.0
 73
     1
 44
1.0
  0
MTEXT
  5
DF
330
D4
100
AcDbEntity
  8
치수문자_일반주서
100
AcDbMText
 10
74.75966795413227
 20
0.0531072728335651
 30
0.0
 40
3.5
 41
0.0
 71
     1
 72
     1
  1
11
  7
SLDTEXTSTYLE0
 11
-7.044195017643634E-15
 21
1.0
 31
0.0
 73
     1
 44
1.0
  0
ENDBLK
  5
D6
330
D4
100
AcDbEntity
  8
0
100
AcDbBlockEnd
  0
BLOCK
  5
E2
330
E1
100
AcDbEntity
  8
0
100
AcDbBlockBegin
  2
_D_1
 70
     0
 10
0.0
 20
0.0
 30
0.0
  3
_D_1
  1

  0
SOLID
  5
E4
330
E1
100
AcDbEntity
  8
치수문자_일반주서
100
AcDbTrace
 10
-52.97512886940358
 20
6.000000000000004
 30
0.0
 11
-52.46712886940357
 21
9.302000000000003
 31
0.0
 12
-53.48312886940358
 22
9.302000000000003
 32
0.0
 13
-53.48312886940358
 23
9.302000000000003
 33
0.0
  0
SOLID
  5
E5
330
E1
100
AcDbEntity
  8
치수문자_일반주서
100
AcDbTrace
 10
-52.97512886940358
 20
-6.000000000000006
 30
0.0
 11
-53.48312886940358
 21
-9.302000000000007
 31
0.0
 12
-52.46712886940357
 22
-9.302000000000007
 32
0.0
 13
-52.46712886940357
 23
-9.302000000000007
 33
0.0
  0
LINE
  5
E6
330
E1
100
AcDbEntity
  8
치수문자_일반주서
100
AcDbLine
 10
-40.57512886940356
 20
6.000000000000005
 30
0.0
 11
-53.97512886940358
 21
6.000000000000004
 31
0.0
  0
LINE
  5
E7
330
E1
100
AcDbEntity
  8
치수문자_일반주서
100
AcDbLine
 10
-40.57512886940356
 20
-6.000000000000005
 30
0.0
 11
-53.97512886940358
 21
-6.000000000000006
 31
0.0
  0
LINE
  5
E8
330
E1
100
AcDbEntity
  8
치수문자_일반주서
100
AcDbLine
 10
-52.97512886940358
 20
6.000000000000004
 30
0.0
 11
-52.97512886940358
 21
12.35
 31
0.0
  0
LINE
  5
E9
330
E1
100
AcDbEntity
  8
치수문자_일반주서
100
AcDbLine
 10
-52.97512886940358
 20
6.000000000000004
 30
0.0
 11
-52.97512886940358
 21
-6.000000000000006
 31
0.0
  0
LINE
  5
EA
330
E1
100
AcDbEntity
  8
치수문자_일반주서
100
AcDbLine
 10
-52.97512886940358
 20
-6.000000000000006
 30
0.0
 11
-52.97512886940358
 21
-12.35000000000001
 31
0.0
  0
MTEXT
  5
EB
330
E1
100
AcDbEntity
  8
치수문자_일반주서
100
AcDbMText
 10
-57.48686595860541
 20
-5.225330125540515
 30
0.0
 40
3.5
 41
0.0
 71
     1
 72
     1
  1
%%c
  7
SLDTEXTSTYLE0
 11
-7.044195017643634E-15
 21
1.0
 31
0.0
 73
     1
 44
1.0
  0
MTEXT
  5
EC
330
E1
100
AcDbEntity
  8
치수문자_일반주서
100
AcDbMText
 10
-57.54033813526529
 20
0.0531072728335651
 30
0.0
 40
3.5
 41
0.0
 71
     1
 72
     1
  1
12
  7
SLDTEXTSTYLE0
 11
-7.044195017643634E-15
 21
1.0
 31
0.0
 73
     1
 44
1.0
  0
ENDBLK
  5
E3
330
E1
100
AcDbEntity
  8
0
100
AcDbBlockEnd
  0
BLOCK
  5
F0
330
EF
100
AcDbEntity
  8
0
100
AcDbBlockBegin
  2
_D_2
 70
     0
 10
0.0
 20
0.0
 30
0.0
  3
_D_2
  1

  0
SOLID
  5
F2
330
EF
100
AcDbEntity
  8
치수문자_일반주서
100
AcDbTrace
 10
69.22487113059651
 20
22.62666232454446
 30
0.0
 11
65.92287113059652
 21
23.13466232454448
 31
0.0
 12
65.92287113059652
 22
22.11866232454448
 32
0.0
 13
65.92287113059652
 23
22.11866232454448
 33
0.0
  0
SOLID
  5
F3
330
EF
100
AcDbEntity
  8
치수문자_일반주서
100
AcDbTrace
 10
44.22487113059654
 20
22.62666232454455
 30
0.0
 11
47.52687113059654
 21
22.11866232454454
 31
0.0
 12
47.52687113059654
 22
23.13466232454454
 32
0.0
 13
47.52687113059654
 23
23.13466232454454
 33
0.0
  0
LINE
  5
F4
330
EF
100
AcDbEntity
  8
치수문자_일반주서
100
AcDbLine
 10
69.22487113059644
 20
6.173491870301604
 30
0.0
 11
69.22487113059651
 21
23.62666232454447
 31
0.0
  0
LINE
  5
F5
330
EF
100
AcDbEntity
  8
치수문자_일반주서
100
AcDbLine
 10
44.22487113059648
 20
6.482611499511361
 30
0.0
 11
44.22487113059655
 21
23.62666232454455
 31
0.0
  0
LINE
  5
F6
330
EF
100
AcDbEntity
  8
치수문자_일반주서
100
AcDbLine
 10
69.22487113059651
 20
22.62666232454446
 30
0.0
 11
44.22487113059654
 21
22.62666232454455
 31
0.0
  0
MTEXT
  5
F7
330
EF
100
AcDbEntity
  8
치수문자_일반주서
100
AcDbMText
 10
54.13875993707369
 20
27.1383992391234
 30
0.0
 40
3.5
 41
0.0
 71
     1
 72
     1
  1
25
  7
SLDTEXTSTYLE0
 73
     1
 44
1.0
  0
ENDBLK
  5
F1
330
EF
100
AcDbEntity
  8
0
100
AcDbBlockEnd
  0
BLOCK
  5
FA
330
F9
100
AcDbEntity
  8
0
100
AcDbBlockBegin
  2
_D_3
 70
     0
 10
0.0
 20
0.0
 30
0.0
  3
_D_3
  1

  0
SOLID
  5
FC
330
F9
100
AcDbEntity
  8
치수문자_일반주서
100
AcDbTrace
 10
69.22487113059644
 20
30.0430250149114
 30
0.0
 11
65.92287113059643
 21
30.5510250149114
 31
0.0
 12
65.92287113059643
 22
29.5350250149114
 32
0.0
 13
65.92287113059643
 23
29.5350250149114
 33
0.0
  0
SOLID
  5
FD
330
F9
100
AcDbEntity
  8
치수문자_일반주서
100
AcDbTrace
 10
-40.77512886940357
 20
30.04302501491139
 30
0.0
 11
-37.47312886940357
 21
29.53502501491139
 31
0.0
 12
-37.47312886940357
 22
30.55102501491139
 32
0.0
 13
-37.47312886940357
 23
30.55102501491139
 33
0.0
  0
LINE
  5
FE
330
F9
100
AcDbEntity
  8
치수문자_일반주서
100
AcDbLine
 10
69.22487113059644
 20
6.173491870301604
 30
0.0
 11
69.22487113059644
 21
31.0430250149114
 31
0.0
  0
LINE
  5
FF
330
F9
100
AcDbEntity
  8
치수문자_일반주서
100
AcDbLine
 10
-40.77512886940357
 20
5.800000000000004
 30
0.0
 11
-40.77512886940357
 21
31.04302501491139
 31
0.0
  0
LINE
  5
100
330
F9
100
AcDbEntity
  8
치수문자_일반주서
100
AcDbLine
 10
69.22487113059644
 20
30.0430250149114
 30
0.0
 11
-40.77512886940357
 21
30.04302501491139
 31
0.0
  0
MTEXT
  5
101
330
F9
100
AcDbEntity
  8
치수문자_일반주서
100
AcDbMText
 10
10.34570445672753
 20
34.55476192949029
 30
0.0
 40
3.5
 41
0.0
 71
     1
 72
     1
  1
110
  7
SLDTEXTSTYLE0
 73
     1
 44
1.0
  0
ENDBLK
  5
FB
330
F9
100
AcDbEntity
  8
0
100
AcDbBlockEnd
  0
BLOCK
  5
10A
330
109
100
AcDbEntity
  8
0
100
AcDbBlockBegin
  2
SW_DOWELSYMBOL_0
 70
     0
 10
0.0
 20
0.0
 30
0.0
  3
SW_DOWELSYMBOL_0
  1

  0
CIRCLE
  5
10C
330
109
100
AcDbEntity
  8
해칭선
 62
     0
100
AcDbCircle
 10
0.0
 20
0.0
 30
0.0
 40
3.000000000000001
  0
HATCH
  5
10D
330
109
100
AcDbEntity
  8
0
  6
Continuous
 62
     0
370
     0
100
AcDbHatch
 10
0.0
 20
0.0
 30
0.0
210
0.0
220
0.0
230
1.0
  2
SOLID
 70
     1
 71
     0
 91
        1
 92
        0
 93
        3
 72
     2
 10
0.0
 20
0.0
 40
3.000000000000001
 50
0.0
 51
90.0
 73
     1
 72
     1
 10
0.0
 20
3.000000000000001
 11
0.0
 21
0.0
 72
     1
 10
0.0
 20
0.0
 11
3.000000000000003
 21
0.0
 97
        0
 75
     0
 76
     1
 98
        1
 10
0.0
 20
0.0
  0
HATCH
  5
10E
330
109
100
AcDbEntity
  8
0
  6
Continuous
 62
     0
370
     0
100
AcDbHatch
 10
0.0
 20
0.0
 30
0.0
210
0.0
220
0.0
230
1.0
  2
SOLID
 70
     1
 71
     0
 91
        1
 92
        0
 93
        3
 72
     2
 10
0.0
 20
0.0
 40
3.000000000000001
 50
180.0
 51
270.0000000000008
 73
     1
 72
     1
 10
0.0
 20
-3.000000000000001
 11
0.0
 21
0.0
 72
     1
 10
0.0
 20
0.0
 11
-3.000000000000003
 21
0.0
 97
        0
 75
     0
 76
     1
 98
        1
 10
0.0
 20
0.0
  0
ENDBLK
  5
10B
330
109
100
AcDbEntity
  8
0
100
AcDbBlockEnd
  0
BLOCK
  5
1B9
330
1B8
100
AcDbEntity
  8
0
100
AcDbBlockBegin
  2
*D8
 70
     1
 10
0.0
 20
0.0
 30
0.0
  3
*D8
  1

  0
LINE
  5
1BB
330
1B8
100
AcDbEntity
  8
치수문자_일반주서
 62
     0
370
    -2
100
AcDbLine
 10
115.8447541647265
 20
11.50000000000006
 30
0.0
 11
136.6750060893976
 21
11.50000000000014
 31
0.0
  0
LINE
  5
1BC
330
1B8
100
AcDbEntity
  8
치수문자_일반주서
 62
     0
370
    -2
100
AcDbLine
 10
115.8447541647265
 20
0.5000000000000517
 30
0.0
 11
136.6750060893976
 21
0.5000000000001297
 31
0.0
  0
LINE
  5
1BD
330
1B8
100
AcDbEntity
  8
치수문자_일반주서
 62
     0
370
    -2
100
AcDbLine
 10
136.6750060893976
 20
8.198000000000137
 30
0.0
 11
136.6750060893976
 21
3.802000000000129
 31
0.0
  0
SOLID
  5
1BE
330
1B8
100
AcDbEntity
  8
치수문자_일반주서
 62
     0
100
AcDbTrace
 10
137.2253394227309
 20
8.198000000000139
 30
0.0
 11
136.1246727560643
 21
8.198000000000135
 31
0.0
 12
136.6750060893976
 22
11.50000000000014
 32
0.0
 13
136.6750060893976
 23
11.50000000000014
 33
0.0
  0
SOLID
  5
1BF
330
1B8
100
AcDbEntity
  8
치수문자_일반주서
 62
     0
100
AcDbTrace
 10
136.1246727560643
 20
3.802000000000128
 30
0.0
 11
137.225339422731
 21
3.802000000000131
 31
0.0
 12
136.6750060893976
 22
0.5000000000001297
 32
0.0
 13
136.6750060893976
 23
0.5000000000001297
 33
0.0
  0
MTEXT
  5
1C0
330
1B8
100
AcDbEntity
  8
치수문자_일반주서
 62
     0
100
AcDbMText
 10
132.3000060893976
 20
6.000000000000039
 30
0.0
 40
3.5
 41
0.0
 71
     2
 72
     1
  1
\A1;%%c11
  7
SLDTEXTSTYLE0
 11
-2.583791766400363E-15
 21
1.0
 31
0.0
 73
     1
 44
1.0
  0
POINT
  5
1C1
330
1B8
100
AcDbEntity
  8
Defpoints
 62
     0
100
AcDbPoint
 10
115.7822541647265
 20
11.50000000000006
 30
0.0
  0
POINT
  5
1C2
330
1B8
100
AcDbEntity
  8
Defpoints
 62
     0
100
AcDbPoint
 10
115.7822541647265
 20
0.5000000000000515
 30
0.0
  0
POINT
  5
1C3
330
1B8
100
AcDbEntity
  8
Defpoints
 62
     0
100
AcDbPoint
 10
136.6750060893976
 20
0.5000000000001296
 30
0.0
  0
ENDBLK
  5
1BA
330
1B8
100
AcDbEntity
  8
0
100
AcDbBlockEnd
  0
BLOCK
  5
1C5
330
1C4
100
AcDbEntity
  8
0
100
AcDbBlockBegin
  2
*D9
 70
     1
 10
0.0
 20
0.0
 30
0.0
  3
*D9
  1

  0
LINE
  5
1C7
330
1C4
100
AcDbEntity
  8
치수문자_일반주서
 62
     0
370
    -2
100
AcDbLine
 10
17.71250000000003
 20
12.00000000000006
 30
0.0
 11
4.375000000000008
 21
12.00000000000001
 31
0.0
  0
LINE
  5
1C8
330
1C4
100
AcDbEntity
  8
치수문자_일반주서
 62
     0
370
    -2
100
AcDbLine
 10
17.71250000000003
 20
0.0000000000000495
 30
0.0
 11
4.37500000000005
 21
0.0
 31
0.0
  0
LINE
  5
1C9
330
1C4
100
AcDbEntity
  8
치수문자_일반주서
 62
     0
370
    -2
100
AcDbLine
 10
4.37500000000002
 20
8.698000000000011
 30
0.0
 11
4.375000000000038
 21
3.302
 31
0.0
  0
SOLID
  5
1CA
330
1C4
100
AcDbEntity
  8
치수문자_일반주서
 62
     0
100
AcDbTrace
 10
4.925333333333353
 20
8.698000000000013
 30
0.0
 11
3.824666666666686
 21
8.69800000000001
 31
0.0
 12
4.375000000000008
 22
12.00000000000001
 32
0.0
 13
4.375000000000008
 23
12.00000000000001
 33
0.0
  0
SOLID
  5
1CB
330
1C4
100
AcDbEntity
  8
치수문자_일반주서
 62
     0
100
AcDbTrace
 10
3.824666666666705
 20
3.301999999999998
 30
0.0
 11
4.925333333333372
 21
3.302000000000001
 31
0.0
 12
4.37500000000005
 22
0.0
 32
0.0
 13
4.37500000000005
 23
0.0
 33
0.0
  0
MTEXT
  5
1CC
330
1C4
100
AcDbEntity
  8
치수문자_일반주서
 62
     0
100
AcDbMText
 10
0.0000000000000284
 20
6.000000000000043
 30
0.0
 40
3.5
 41
0.0
 71
     2
 72
     1
  1
\A1;%%c12
  7
SLDTEXTSTYLE0
 11
-3.478698810492154E-15
 21
1.0
 31
0.0
 73
     1
 44
1.0
  0
POINT
  5
1CD
330
1C4
100
AcDbEntity
  8
Defpoints
 62
     0
100
AcDbPoint
 10
17.77500000000003
 20
12.00000000000006
 30
0.0
  0
POINT
  5
1CE
330
1C4
100
AcDbEntity
  8
Defpoints
 62
     0
100
AcDbPoint
 10
17.77500000000003
 20
0.0000000000000497
 30
0.0
  0
POINT
  5
1CF
330
1C4
100
AcDbEntity
  8
Defpoints
 62
     0
100
AcDbPoint
 10
4.375000000000057
 20
-0.0000000000000003
 30
0.0
  0
ENDBLK
  5
1C6
330
1C4
100
AcDbEntity
  8
0
100
AcDbBlockEnd
  0
BLOCK
  5
1D1
330
1D0
100
AcDbEntity
  8
0
100
AcDbBlockBegin
  2
*D10
 70
     1
 10
0.0
 20
0.0
 30
0.0
  3
*D10
  1

  0
LINE
  5
1D3
330
1D0
100
AcDbEntity
  8
치수문자_일반주서
 62
     0
370
    -2
100
AcDbLine
 10
126.575
 20
11.33790543738406
 30
0.0
 11
126.575
 21
28.72857589162697
 31
0.0
  0
LINE
  5
1D4
330
1D0
100
AcDbEntity
  8
치수문자_일반주서
 62
     0
370
    -2
100
AcDbLine
 10
101.5750000000001
 20
11.54511149951142
 30
0.0
 11
101.5750000000001
 21
28.72857589162697
 31
0.0
  0
LINE
  5
1D5
330
1D0
100
AcDbEntity
  8
치수문자_일반주서
 62
     0
370
    -2
100
AcDbLine
 10
123.2730000000001
 20
28.72857589162697
 30
0.0
 11
104.8770000000001
 21
28.72857589162697
 31
0.0
  0
SOLID
  5
1D6
330
1D0
100
AcDbEntity
  8
치수문자_일반주서
 62
     0
100
AcDbTrace
 10
123.2730000000001
 20
28.17824255829363
 30
0.0
 11
123.2730000000001
 21
29.2789092249603
 31
0.0
 12
126.575
 22
28.72857589162697
 32
0.0
 13
126.575
 23
28.72857589162697
 33
0.0
  0
SOLID
  5
1D7
330
1D0
100
AcDbEntity
  8
치수문자_일반주서
 62
     0
100
AcDbTrace
 10
104.8770000000001
 20
29.2789092249603
 30
0.0
 11
104.8770000000001
 21
28.17824255829363
 31
0.0
 12
101.5750000000001
 22
28.72857589162697
 32
0.0
 13
101.5750000000001
 23
28.72857589162697
 33
0.0
  0
MTEXT
  5
1D8
330
1D0
100
AcDbEntity
  8
치수문자_일반주서
 62
     0
100
AcDbMText
 10
114.0750000000001
 20
33.10357589162697
 30
0.0
 40
3.5
 41
0.0
 71
     2
 72
     1
  1
\A1;25
  7
SLDTEXTSTYLE0
 73
     1
 44
1.0
  0
POINT
  5
1D9
330
1D0
100
AcDbEntity
  8
Defpoints
 62
     0
100
AcDbPoint
 10
126.575
 20
11.27540543738406
 30
0.0
  0
POINT
  5
1DA
330
1D0
100
AcDbEntity
  8
Defpoints
 62
     0
100
AcDbPoint
 10
101.5750000000001
 20
11.48261149951142
 30
0.0
  0
POINT
  5
1DB
330
1D0
100
AcDbEntity
  8
Defpoints
 62
     0
100
AcDbPoint
 10
101.5750000000001
 20
28.72857589162697
 30
0.0
  0
ENDBLK
  5
1D2
330
1D0
100
AcDbEntity
  8
0
100
AcDbBlockEnd
  0
BLOCK
  5
1DD
330
1DC
100
AcDbEntity
  8
0
100
AcDbBlockBegin
  2
*D11
 70
     1
 10
0.0
 20
0.0
 30
0.0
  3
*D11
  1

  0
LINE
  5
1DF
330
1DC
100
AcDbEntity
  8
치수문자_일반주서
 62
     0
370
    -2
100
AcDbLine
 10
126.575
 20
11.33790543738406
 30
0.0
 11
126.575
 21
36.14493858199385
 31
0.0
  0
LINE
  5
1E0
330
1DC
100
AcDbEntity
  8
치수문자_일반주서
 62
     0
370
    -2
100
AcDbLine
 10
16.57500000000003
 20
10.86250000000006
 30
0.0
 11
16.57500000000003
 21
36.14493858199385
 31
0.0
  0
LINE
  5
1E1
330
1DC
100
AcDbEntity
  8
치수문자_일반주서
 62
     0
370
    -2
100
AcDbLine
 10
123.2730000000001
 20
36.14493858199385
 30
0.0
 11
19.87700000000003
 21
36.14493858199385
 31
0.0
  0
SOLID
  5
1E2
330
1DC
100
AcDbEntity
  8
치수문자_일반주서
 62
     0
100
AcDbTrace
 10
123.2730000000001
 20
35.59460524866051
 30
0.0
 11
123.2730000000001
 21
36.69527191532718
 31
0.0
 12
126.575
 22
36.14493858199385
 32
0.0
 13
126.575
 23
36.14493858199385
 33
0.0
  0
SOLID
  5
1E3
330
1DC
100
AcDbEntity
  8
치수문자_일반주서
 62
     0
100
AcDbTrace
 10
19.87700000000003
 20
36.69527191532718
 30
0.0
 11
19.87700000000003
 21
35.59460524866051
 31
0.0
 12
16.57500000000003
 22
36.14493858199385
 32
0.0
 13
16.57500000000003
 23
36.14493858199385
 33
0.0
  0
MTEXT
  5
1E4
330
1DC
100
AcDbEntity
  8
치수문자_일반주서
 62
     0
100
AcDbMText
 10
71.57500000000005
 20
40.51993858199385
 30
0.0
 40
3.5
 41
0.0
 71
     2
 72
     1
  1
\A1;110
  7
SLDTEXTSTYLE0
 73
     1
 44
1.0
  0
POINT
  5
1E5
330
1DC
100
AcDbEntity
  8
Defpoints
 62
     0
100
AcDbPoint
 10
126.575
 20
11.27540543738406
 30
0.0
  0
POINT
  5
1E6
330
1DC
100
AcDbEntity
  8
Defpoints
 62
     0
100
AcDbPoint
 10
16.57500000000003
 20
10.80000000000006
 30
0.0
  0
POINT
  5
1E7
330
1DC
100
AcDbEntity
  8
Defpoints
 62
     0
100
AcDbPoint
 10
16.57500000000003
 20
36.14493858199385
 30
0.0
  0
ENDBLK
  5
1DE
330
1DC
100
AcDbEntity
  8
0
100
AcDbBlockEnd
  0
BLOCK
  5
222
330
221
100
AcDbEntity
  8
0
100
AcDbBlockBegin
  2
*D12
 70
     1
 10
0.0
 20
0.0
 30
0.0
  3
*D12
  1

  0
LINE
  5
224
330
221
100
AcDbEntity
  8
치수문자_일반주서
 62
     0
370
    -2
100
AcDbLine
 10
17.13577956851088
 20
5.5
 30
0.0
 11
37.96603149318205
 21
5.500000000000078
 31
0.0
  0
LINE
  5
225
330
221
100
AcDbEntity
  8
치수문자_일반주서
 62
     0
370
    -2
100
AcDbLine
 10
17.13577956851088
 20
-5.5
 30
0.0
 11
37.96603149318209
 21
-5.499999999999922
 31
0.0
  0
LINE
  5
226
330
221
100
AcDbEntity
  8
치수문자_일반주서
 62
     0
370
    -2
100
AcDbLine
 10
37.96603149318207
 20
2.198000000000079
 30
0.0
 11
37.96603149318207
 21
-2.197999999999922
 31
0.0
  0
SOLID
  5
227
330
221
100
AcDbEntity
  8
치수문자_일반주서
 62
     0
100
AcDbTrace
 10
38.5163648265154
 20
2.19800000000008
 30
0.0
 11
37.41569815984873
 21
2.198000000000077
 31
0.0
 12
37.96603149318205
 22
5.500000000000078
 32
0.0
 13
37.96603149318205
 23
5.500000000000078
 33
0.0
  0
SOLID
  5
228
330
221
100
AcDbEntity
  8
치수문자_일반주서
 62
     0
100
AcDbTrace
 10
37.41569815984874
 20
-2.197999999999924
 30
0.0
 11
38.51636482651541
 21
-2.19799999999992
 31
0.0
 12
37.96603149318209
 22
-5.499999999999922
 32
0.0
 13
37.96603149318209
 23
-5.499999999999922
 33
0.0
  0
MTEXT
  5
229
330
221
100
AcDbEntity
  8
치수문자_일반주서
 62
     0
100
AcDbMText
 10
33.59103149318207
 20
-0.0000000000000142
 30
0.0
 40
3.5
 41
0.0
 71
     2
 72
     1
  1
\A1;%%c11
  7
SLDTEXTSTYLE0
 11
-3.229739708000455E-15
 21
1.0
 31
0.0
 73
     1
 44
1.0
  0
POINT
  5
22A
330
221
100
AcDbEntity
  8
Defpoints
 62
     0
100
AcDbPoint
 10
17.07327956851088
 20
5.5
 30
0.0
  0
POINT
  5
22B
330
221
100
AcDbEntity
  8
Defpoints
 62
     0
100
AcDbPoint
 10
17.07327956851088
 20
-5.5
 30
0.0
  0
POINT
  5
22C
330
221
100
AcDbEntity
  8
Defpoints
 62
     0
100
AcDbPoint
 10
37.96603149318207
 20
-5.499999999999922
 30
0.0
  0
ENDBLK
  5
223
330
221
100
AcDbEntity
  8
0
100
AcDbBlockEnd
  0
BLOCK
  5
22E
330
22D
100
AcDbEntity
  8
0
100
AcDbBlockBegin
  2
*D13
 70
     1
 10
0.0
 20
0.0
 30
0.0
  3
*D13
  1

  0
LINE
  5
230
330
22D
100
AcDbEntity
  8
치수문자_일반주서
 62
     0
370
    -2
100
AcDbLine
 10
-80.99647459621553
 20
6.0
 30
0.0
 11
-94.33397459621555
 21
5.99999999999995
 31
0.0
  0
LINE
  5
231
330
22D
100
AcDbEntity
  8
치수문자_일반주서
 62
     0
370
    -2
100
AcDbLine
 10
-80.99647459621553
 20
-6.0
 30
0.0
 11
-94.33397459621551
 21
-6.00000000000005
 31
0.0
  0
LINE
  5
232
330
22D
100
AcDbEntity
  8
치수문자_일반주서
 62
     0
370
    -2
100
AcDbLine
 10
-94.33397459621554
 20
2.697999999999951
 30
0.0
 11
-94.33397459621553
 21
-2.69800000000005
 31
0.0
  0
SOLID
  5
233
330
22D
100
AcDbEntity
  8
치수문자_일반주서
 62
     0
100
AcDbTrace
 10
-93.78364126288221
 20
2.697999999999952
 30
0.0
 11
-94.88430792954887
 21
2.697999999999949
 31
0.0
 12
-94.33397459621555
 22
5.99999999999995
 32
0.0
 13
-94.33397459621555
 23
5.99999999999995
 33
0.0
  0
SOLID
  5
234
330
22D
100
AcDbEntity
  8
치수문자_일반주서
 62
     0
100
AcDbTrace
 10
-94.88430792954885
 20
-2.698000000000052
 30
0.0
 11
-93.7836412628822
 21
-2.698000000000048
 31
0.0
 12
-94.33397459621551
 22
-6.00000000000005
 32
0.0
 13
-94.33397459621551
 23
-6.00000000000005
 33
0.0
  0
MTEXT
  5
235
330
22D
100
AcDbEntity
  8
치수문자_일반주서
 62
     0
100
AcDbMText
 10
-98.70897459621554
 20
-0.0000000000000154
 30
0.0
 40
3.5
 41
0.0
 71
     2
 72
     1
  1
\A1;%%c12
  7
SLDTEXTSTYLE0
 11
-3.552713678800501E-15
 21
1.0
 31
0.0
 73
     1
 44
1.0
  0
POINT
  5
236
330
22D
100
AcDbEntity
  8
Defpoints
 62
     0
100
AcDbPoint
 10
-80.93397459621553
 20
6.0
 30
0.0
  0
POINT
  5
237
330
22D
100
AcDbEntity
  8
Defpoints
 62
     0
100
AcDbPoint
 10
-80.93397459621553
 20
-6.0
 30
0.0
  0
POINT
  5
238
330
22D
100
AcDbEntity
  8
Defpoints
 62
     0
100
AcDbPoint
 10
-94.33397459621553
 20
-6.00000000000005
 30
0.0
  0
ENDBLK
  5
22F
330
22D
100
AcDbEntity
  8
0
100
AcDbBlockEnd
  0
BLOCK
  5
23A
330
239
100
AcDbEntity
  8
0
100
AcDbBlockBegin
  2
*D14
 70
     1
 10
0.0
 20
0.0
 30
0.0
  3
*D14
  1

  0
LINE
  5
23C
330
239
100
AcDbEntity
  8
치수문자_일반주서
 62
     0
370
    -2
100
AcDbLine
 10
27.86602540378448
 20
5.337905437384009
 30
0.0
 11
27.86602540378448
 21
22.72857589162691
 31
0.0
  0
LINE
  5
23D
330
239
100
AcDbEntity
  8
치수문자_일반주서
 62
     0
370
    -2
100
AcDbLine
 10
2.866025403784505
 20
5.545111499511357
 30
0.0
 11
2.866025403784505
 21
22.72857589162691
 31
0.0
  0
LINE
  5
23E
330
239
100
AcDbEntity
  8
치수문자_일반주서
 62
     0
370
    -2
100
AcDbLine
 10
24.56402540378448
 20
22.72857589162691
 30
0.0
 11
6.168025403784505
 21
22.72857589162691
 31
0.0
  0
SOLID
  5
23F
330
239
100
AcDbEntity
  8
치수문자_일반주서
 62
     0
100
AcDbTrace
 10
24.56402540378448
 20
22.17824255829358
 30
0.0
 11
24.56402540378448
 21
23.27890922496024
 31
0.0
 12
27.86602540378448
 22
22.72857589162691
 32
0.0
 13
27.86602540378448
 23
22.72857589162691
 33
0.0
  0
SOLID
  5
240
330
239
100
AcDbEntity
  8
치수문자_일반주서
 62
     0
100
AcDbTrace
 10
6.168025403784505
 20
23.27890922496024
 30
0.0
 11
6.168025403784505
 21
22.17824255829358
 31
0.0
 12
2.866025403784505
 22
22.72857589162691
 32
0.0
 13
2.866025403784505
 23
22.72857589162691
 33
0.0
  0
MTEXT
  5
241
330
239
100
AcDbEntity
  8
치수문자_일반주서
 62
     0
100
AcDbMText
 10
15.36602540378453
 20
27.10357589162691
 30
0.0
 40
3.5
 41
0.0
 71
     2
 72
     1
  1
\A1;25
  7
SLDTEXTSTYLE0
 73
     1
 44
1.0
  0
POINT
  5
242
330
239
100
AcDbEntity
  8
Defpoints
 62
     0
100
AcDbPoint
 10
27.86602540378448
 20
5.275405437384009
 30
0.0
  0
POINT
  5
243
330
239
100
AcDbEntity
  8
Defpoints
 62
     0
100
AcDbPoint
 10
2.866025403784505
 20
5.482611499511357
 30
0.0
  0
POINT
  5
244
330
239
100
AcDbEntity
  8
Defpoints
 62
     0
100
AcDbPoint
 10
2.866025403784505
 20
22.72857589162691
 30
0.0
  0
ENDBLK
  5
23B
330
239
100
AcDbEntity
  8
0
100
AcDbBlockEnd
  0
BLOCK
  5
246
330
245
100
AcDbEntity
  8
0
100
AcDbBlockBegin
  2
*D15
 70
     1
 10
0.0
 20
0.0
 30
0.0
  3
*D15
  1

  0
LINE
  5
248
330
245
100
AcDbEntity
  8
치수문자_일반주서
 62
     0
370
    -2
100
AcDbLine
 10
27.86602540378448
 20
5.337905437384009
 30
0.0
 11
27.86602540378448
 21
30.14493858199379
 31
0.0
  0
LINE
  5
249
330
245
100
AcDbEntity
  8
치수문자_일반주서
 62
     0
370
    -2
100
AcDbLine
 10
-82.13397459621555
 20
4.862500000000004
 30
0.0
 11
-82.13397459621555
 21
30.14493858199379
 31
0.0
  0
LINE
  5
24A
330
245
100
AcDbEntity
  8
치수문자_일반주서
 62
     0
370
    -2
100
AcDbLine
 10
24.56402540378448
 20
30.14493858199379
 30
0.0
 11
-78.83197459621556
 21
30.14493858199379
 31
0.0
  0
SOLID
  5
24B
330
245
100
AcDbEntity
  8
치수문자_일반주서
 62
     0
100
AcDbTrace
 10
24.56402540378448
 20
29.59460524866046
 30
0.0
 11
24.56402540378448
 21
30.69527191532713
 31
0.0
 12
27.86602540378448
 22
30.14493858199379
 32
0.0
 13
27.86602540378448
 23
30.14493858199379
 33
0.0
  0
SOLID
  5
24C
330
245
100
AcDbEntity
  8
치수문자_일반주서
 62
     0
100
AcDbTrace
 10
-78.83197459621556
 20
30.69527191532713
 30
0.0
 11
-78.83197459621556
 21
29.59460524866046
 31
0.0
 12
-82.13397459621555
 22
30.14493858199379
 32
0.0
 13
-82.13397459621555
 23
30.14493858199379
 33
0.0
  0
MTEXT
  5
24D
330
245
100
AcDbEntity
  8
치수문자_일반주서
 62
     0
100
AcDbMText
 10
-27.13397459621552
 20
34.51993858199379
 30
0.0
 40
3.5
 41
0.0
 71
     2
 72
     1
  1
\A1;110
  7
SLDTEXTSTYLE0
 73
     1
 44
1.0
  0
POINT
  5
24E
330
245
100
AcDbEntity
  8
Defpoints
 62
     0
100
AcDbPoint
 10
27.86602540378448
 20
5.275405437384009
 30
0.0
  0
POINT
  5
24F
330
245
100
AcDbEntity
  8
Defpoints
 62
     0
100
AcDbPoint
 10
-82.13397459621555
 20
4.800000000000004
 30
0.0
  0
POINT
  5
250
330
245
100
AcDbEntity
  8
Defpoints
 62
     0
100
AcDbPoint
 10
-82.13397459621555
 20
30.14493858199379
 30
0.0
  0
ENDBLK
  5
247
330
245
100
AcDbEntity
  8
0
100
AcDbBlockEnd
  0
BLOCK
  5
256
330
255
100
AcDbEntity
  8
0
100
AcDbBlockBegin
  2
*D16
 70
     1
 10
0.0
 20
0.0
 30
0.0
  3
*D16
  1

  0
LINE
  5
258
330
255
100
AcDbEntity
  8
치수문자_일반주서
 62
     0
370
    -2
100
AcDbLine
 10
30.43724424653816
 20
-7.441109554779219
 30
0.0
 11
43.37857167196078
 21
-17.43988676234356
 31
0.0
  0
MTEXT
  5
259
330
255
100
AcDbEntity
  8
치수문자_일반주서
 62
     0
100
AcDbMText
 10
42.21385055021819
 20
-13.22277285487477
 30
0.0
 40
3.5
 41
0.0
 71
     5
 72
     1
  1
\A1;R.2
  7
SLDTEXTSTYLE0
 11
0.7913246267143644
 21
-0.6113962178124523
 31
0.0
 73
     1
 44
1.0
  0
LINE
  5
25A
330
255
100
AcDbEntity
  8
치수문자_일반주서
 62
     0
370
    -2
100
AcDbLine
 10
27.66602540378446
 20
-5.300000000000011
 30
0.0
 11
27.82429032912733
 21
-5.422279243562502
 31
0.0
  0
SOLID
  5
25B
330
255
100
AcDbEntity
  8
치수문자_일반주서
 62
     0
100
AcDbTrace
 10
30.77371596507428
 20
-7.005617235210747
 30
0.0
 11
30.10077252800204
 21
-7.876601874347691
 31
0.0
 12
27.82429032912733
 22
-5.422279243562502
 32
0.0
 13
27.82429032912733
 23
-5.422279243562502
 33
0.0
  0
POINT
  5
25C
330
255
100
AcDbEntity
  8
Defpoints
 62
     0
100
AcDbPoint
 10
27.82429032912733
 20
-5.422279243562502
 30
0.0
  0
POINT
  5
25D
330
255
100
AcDbEntity
  8
Defpoints
 62
     0
100
AcDbPoint
 10
27.66602540378446
 20
-5.300000000000011
 30
0.0
  0
ENDBLK
  5
257
330
255
100
AcDbEntity
  8
0
100
AcDbBlockEnd
  0
BLOCK
  5
29B
330
29A
100
AcDbEntity
  8
0
100
AcDbBlockBegin
  2
*D18
 70
     1
 10
0.0
 20
0.0
 30
0.0
  3
*D18
  1

  0
LINE
  5
29C
330
29A
100
AcDbEntity
  8
치수문자_일반주서
 62
     0
370
    -2
100
AcDbLine
 10
107.025912877024
 20
22.39679507484853
 30
0.0
 11
136.8750060893975
 21
22.39679507484864
 31
0.0
  0
LINE
  5
29D
330
29A
100
AcDbEntity
  8
치수문자_일반주서
 62
     0
370
    -2
100
AcDbLine
 10
107.025912877024
 20
12.39679507484854
 30
0.0
 11
136.8750060893976
 21
12.39679507484865
 31
0.0
  0
LINE
  5
29E
330
29A
100
AcDbEntity
  8
치수문자_일반주서
 62
     0
370
    -2
100
AcDbLine
 10
136.8750060893975
 20
19.09479507484864
 30
0.0
 11
136.8750060893976
 21
15.69879507484865
 31
0.0
  0
SOLID
  5
29F
330
29A
100
AcDbEntity
  8
치수문자_일반주서
 62
     0
100
AcDbTrace
 10
137.4253394227309
 20
19.09479507484864
 30
0.0
 11
136.3246727560642
 21
19.09479507484864
 31
0.0
 12
136.8750060893975
 22
22.39679507484864
 32
0.0
 13
136.8750060893975
 23
22.39679507484864
 33
0.0
  0
SOLID
  5
2A0
330
29A
100
AcDbEntity
  8
치수문자_일반주서
 62
     0
100
AcDbTrace
 10
136.3246727560642
 20
15.69879507484865
 30
0.0
 11
137.4253394227309
 21
15.69879507484866
 31
0.0
 12
136.8750060893976
 22
12.39679507484865
 32
0.0
 13
136.8750060893976
 23
12.39679507484865
 33
0.0
  0
MTEXT
  5
2A1
330
29A
100
AcDbEntity
  8
치수문자_일반주서
 62
     0
100
AcDbMText
 10
132.5000060893976
 20
17.39679507484852
 30
0.0
 40
3.5
 41
0.0
 71
     2
 72
     1
  1
\A1;%%c10
  7
SLDTEXTSTYLE0
 11
-2.842170943040405E-15
 21
1.0
 31
0.0
 73
     1
 44
1.0
  0
POINT
  5
2A2
330
29A
100
AcDbEntity
  8
Defpoints
 62
     0
100
AcDbPoint
 10
106.963412877024
 20
22.39679507484853
 30
0.0
  0
POINT
  5
2A3
330
29A
100
AcDbEntity
  8
Defpoints
 62
     0
100
AcDbPoint
 10
106.963412877024
 20
12.39679507484854
 30
0.0
  0
POINT
  5
2A4
330
29A
100
AcDbEntity
  8
Defpoints
 62
     0
100
AcDbPoint
 10
136.8750060893976
 20
12.39679507484866
 30
0.0
  0
ENDBLK
  5
2A5
330
29A
100
AcDbEntity
  8
0
100
AcDbBlockEnd
  0
BLOCK
  5
2A8
330
2A7
100
AcDbEntity
  8
0
100
AcDbBlockBegin
  2
*D19
 70
     1
 10
0.0
 20
0.0
 30
0.0
  3
*D19
  1

  0
LINE
  5
2A9
330
2A7
100
AcDbEntity
  8
치수문자_일반주서
 62
     0
370
    -2
100
AcDbLine
 10
17.71250000000001
 20
22.39679507484854
 30
0.0
 11
4.374999999999983
 21
22.39679507484849
 31
0.0
  0
LINE
  5
2AA
330
2A7
100
AcDbEntity
  8
치수문자_일반주서
 62
     0
370
    -2
100
AcDbLine
 10
17.71250000000001
 20
12.39679507484853
 30
0.0
 11
4.375000000000018
 21
12.39679507484848
 31
0.0
  0
LINE
  5
2AB
330
2A7
100
AcDbEntity
  8
치수문자_일반주서
 62
     0
370
    -2
100
AcDbLine
 10
4.374999999999995
 20
19.09479507484849
 30
0.0
 11
4.375000000000006
 21
15.69879507484848
 31
0.0
  0
SOLID
  5
2AC
330
2A7
100
AcDbEntity
  8
치수문자_일반주서
 62
     0
100
AcDbTrace
 10
4.925333333333328
 20
19.0947950748485
 30
0.0
 11
3.824666666666662
 21
19.09479507484849
 31
0.0
 12
4.374999999999983
 22
22.39679507484849
 32
0.0
 13
4.374999999999983
 23
22.39679507484849
 33
0.0
  0
SOLID
  5
2AD
330
2A7
100
AcDbEntity
  8
치수문자_일반주서
 62
     0
100
AcDbTrace
 10
3.824666666666673
 20
15.69879507484848
 30
0.0
 11
4.92533333333334
 21
15.69879507484848
 31
0.0
 12
4.375000000000018
 22
12.39679507484848
 32
0.0
 13
4.375000000000018
 23
12.39679507484848
 33
0.0
  0
MTEXT
  5
2AE
330
2A7
100
AcDbEntity
  8
치수문자_일반주서
 62
     0
100
AcDbMText
 10
0.0
 20
17.39679507484853
 30
0.0
 40
3.5
 41
0.0
 71
     2
 72
     1
  1
\A1;%%c10
  7
SLDTEXTSTYLE0
 11
-3.463895836830484E-15
 21
1.0
 31
0.0
 73
     1
 44
1.0
  0
POINT
  5
2AF
330
2A7
100
AcDbEntity
  8
Defpoints
 62
     0
100
AcDbPoint
 10
17.77500000000001
 20
22.39679507484854
 30
0.0
  0
POINT
  5
2B0
330
2A7
100
AcDbEntity
  8
Defpoints
 62
     0
100
AcDbPoint
 10
17.77500000000001
 20
12.39679507484853
 30
0.0
  0
POINT
  5
2B1
330
2A7
100
AcDbEntity
  8
Defpoints
 62
     0
100
AcDbPoint
 10
4.375000000000014
 20
12.39679507484848
 30
0.0
  0
ENDBLK
  5
2B2
330
2A7
100
AcDbEntity
  8
0
100
AcDbBlockEnd
  0
BLOCK
  5
2B5
330
2B4
100
AcDbEntity
  8
0
100
AcDbBlockBegin
  2
*D20
 70
     1
 10
0.0
 20
0.0
 30
0.0
  3
*D20
  1

  0
LINE
  5
2B6
330
2B4
100
AcDbEntity
  8
치수문자_일반주서
 62
     0
370
    -2
100
AcDbLine
 10
116.775
 20
22.33865295503401
 30
0.0
 11
116.775
 21
39.72932340927692
 31
0.0
  0
LINE
  5
2B7
330
2B4
100
AcDbEntity
  8
치수문자_일반주서
 62
     0
370
    -2
100
AcDbLine
 10
91.77500000000002
 20
22.38794842383678
 30
0.0
 11
91.77500000000002
 21
39.72932340927692
 31
0.0
  0
LINE
  5
2B8
330
2B4
100
AcDbEntity
  8
치수문자_일반주서
 62
     0
370
    -2
100
AcDbLine
 10
113.473
 20
39.72932340927692
 30
0.0
 11
95.07700000000003
 21
39.72932340927692
 31
0.0
  0
SOLID
  5
2B9
330
2B4
100
AcDbEntity
  8
치수문자_일반주서
 62
     0
100
AcDbTrace
 10
113.473
 20
39.17899007594358
 30
0.0
 11
113.473
 21
40.27965674261025
 31
0.0
 12
116.775
 22
39.72932340927692
 32
0.0
 13
116.775
 23
39.72932340927692
 33
0.0
  0
SOLID
  5
2BA
330
2B4
100
AcDbEntity
  8
치수문자_일반주서
 62
     0
100
AcDbTrace
 10
95.07700000000003
 20
40.27965674261025
 30
0.0
 11
95.07700000000003
 21
39.17899007594358
 31
0.0
 12
91.77500000000002
 22
39.72932340927692
 32
0.0
 13
91.77500000000002
 23
39.72932340927692
 33
0.0
  0
MTEXT
  5
2BB
330
2B4
100
AcDbEntity
  8
치수문자_일반주서
 62
     0
100
AcDbMText
 10
104.275
 20
44.10432340927692
 30
0.0
 40
3.5
 41
0.0
 71
     2
 72
     1
  1
\A1;25
  7
SLDTEXTSTYLE0
 73
     1
 44
1.0
  0
POINT
  5
2BC
330
2B4
100
AcDbEntity
  8
Defpoints
 62
     0
100
AcDbPoint
 10
116.775
 20
22.27615295503401
 30
0.0
  0
POINT
  5
2BD
330
2B4
100
AcDbEntity
  8
Defpoints
 62
     0
100
AcDbPoint
 10
91.77500000000002
 20
22.32544842383678
 30
0.0
  0
POINT
  5
2BE
330
2B4
100
AcDbEntity
  8
Defpoints
 62
     0
100
AcDbPoint
 10
91.77500000000002
 20
39.72932340927692
 30
0.0
  0
ENDBLK
  5
2BF
330
2B4
100
AcDbEntity
  8
0
100
AcDbBlockEnd
  0
BLOCK
  5
2C2
330
2C1
100
AcDbEntity
  8
0
100
AcDbBlockBegin
  2
*D21
 70
     1
 10
0.0
 20
0.0
 30
0.0
  3
*D21
  1

  0
LINE
  5
2C3
330
2C1
100
AcDbEntity
  8
치수문자_일반주서
 62
     0
370
    -2
100
AcDbLine
 10
116.775
 20
22.33865295503401
 30
0.0
 11
116.775
 21
47.14568609964379
 31
0.0
  0
LINE
  5
2C4
330
2C1
100
AcDbEntity
  8
치수문자_일반주서
 62
     0
370
    -2
100
AcDbLine
 10
16.77500000000001
 20
21.45929507484854
 30
0.0
 11
16.77500000000001
 21
47.14568609964379
 31
0.0
  0
LINE
  5
2C5
330
2C1
100
AcDbEntity
  8
치수문자_일반주서
 62
     0
370
    -2
100
AcDbLine
 10
113.473
 20
47.14568609964379
 30
0.0
 11
20.07700000000001
 21
47.14568609964379
 31
0.0
  0
SOLID
  5
2C6
330
2C1
100
AcDbEntity
  8
치수문자_일반주서
 62
     0
100
AcDbTrace
 10
113.473
 20
46.59535276631046
 30
0.0
 11
113.473
 21
47.69601943297712
 31
0.0
 12
116.775
 22
47.14568609964379
 32
0.0
 13
116.775
 23
47.14568609964379
 33
0.0
  0
SOLID
  5
2C7
330
2C1
100
AcDbEntity
  8
치수문자_일반주서
 62
     0
100
AcDbTrace
 10
20.07700000000001
 20
47.69601943297712
 30
0.0
 11
20.07700000000001
 21
46.59535276631046
 31
0.0
 12
16.77500000000001
 22
47.14568609964379
 32
0.0
 13
16.77500000000001
 23
47.14568609964379
 33
0.0
  0
MTEXT
  5
2C8
330
2C1
100
AcDbEntity
  8
치수문자_일반주서
 62
     0
100
AcDbMText
 10
66.77499999999996
 20
51.52068609964379
 30
0.0
 40
3.5
 41
0.0
 71
     2
 72
     1
  1
\A1;100
  7
SLDTEXTSTYLE0
 73
     1
 44
1.0
  0
POINT
  5
2C9
330
2C1
100
AcDbEntity
  8
Defpoints
 62
     0
100
AcDbPoint
 10
116.775
 20
22.27615295503401
 30
0.0
  0
POINT
  5
2CA
330
2C1
100
AcDbEntity
  8
Defpoints
 62
     0
100
AcDbPoint
 10
16.77500000000001
 20
21.39679507484854
 30
0.0
  0
POINT
  5
2CB
330
2C1
100
AcDbEntity
  8
Defpoints
 62
     0
100
AcDbPoint
 10
16.77500000000001
 20
47.14568609964379
 30
0.0
  0
ENDBLK
  5
2CC
330
2C1
100
AcDbEntity
  8
0
100
AcDbBlockEnd
  0
BLOCK
  5
2DB
330
2DA
100
AcDbEntity
  8
0
100
AcDbBlockBegin
  2
*D22
 70
     1
 10
0.0
 20
0.0
 30
0.0
  3
*D22
  1

  0
LINE
  5
2DC
330
2DA
100
AcDbEntity
  8
치수문자_일반주서
 62
     0
370
    -2
100
AcDbLine
 10
117.1055217653942
 20
10.51752766815179
 30
0.0
 11
124.8524703789559
 21
-0.000000000000008
 31
0.0
  0
MTEXT
  5
2DD
330
2DA
100
AcDbEntity
  8
치수문자_일반주서
 62
     0
100
AcDbMText
 10
125.1497661932614
 20
4.022579576440514
 30
0.0
 40
3.5
 41
0.0
 71
     5
 72
     1
  1
\A1;R4
  7
SLDTEXTSTYLE0
 11
0.5930596775396137
 21
-0.8051585054364199
 31
0.0
 73
     1
 44
1.0
  0
SOLID
  5
2DE
330
2DA
100
AcDbEntity
  8
치수문자_일반주서
 62
     0
100
AcDbTrace
 10
117.5486273295527
 20
10.84390817735776
 30
0.0
 11
116.6624162012357
 21
10.19114715894582
 31
0.0
 12
115.1472387101584
 22
13.17616105310285
 32
0.0
 13
115.1472387101584
 23
13.17616105310285
 33
0.0
  0
LINE
  5
2DF
330
2DA
100
AcDbEntity
  8
치수문자_일반주서
 62
     0
100
AcDbLine
 10
112.685
 20
16.39679507484853
 30
0.0
 11
112.865
 21
16.39679507484853
 31
0.0
  0
LINE
  5
2E0
330
2DA
100
AcDbEntity
  8
치수문자_일반주서
 62
     0
100
AcDbLine
 10
112.775
 20
16.30679507484853
 30
0.0
 11
112.775
 21
16.48679507484853
 31
0.0
  0
POINT
  5
2E1
330
2DA
100
AcDbEntity
  8
Defpoints
 62
     0
100
AcDbPoint
 10
115.1472387101584
 20
13.17616105310285
 30
0.0
  0
POINT
  5
2E2
330
2DA
100
AcDbEntity
  8
Defpoints
 62
     0
100
AcDbPoint
 10
112.775
 20
16.39679507484853
 30
0.0
  0
ENDBLK
  5
2E3
330
2DA
100
AcDbEntity
  8
0
100
AcDbBlockEnd
  0
BLOCK
  5
31A
330
319
100
AcDbEntity
  8
0
100
AcDbBlockBegin
  2
*D23
 70
     1
 10
0.0
 20
0.0
 30
0.0
  3
*D23
  1

  0
LINE
  5
31C
330
319
100
AcDbEntity
  8
치수문자_일반주서
 62
     0
370
    -2
100
AcDbLine
 10
148.4400453419524
 20
-15.03289766004208
 30
0.0
 11
178.2891385543259
 21
-15.03289766004197
 31
0.0
  0
LINE
  5
31D
330
319
100
AcDbEntity
  8
치수문자_일반주서
 62
     0
370
    -2
100
AcDbLine
 10
148.4400453419524
 20
-25.03289766004206
 30
0.0
 11
178.289138554326
 21
-25.03289766004195
 31
0.0
  0
LINE
  5
31E
330
319
100
AcDbEntity
  8
치수문자_일반주서
 62
     0
370
    -2
100
AcDbLine
 10
178.2891385543259
 20
-18.33489766004197
 30
0.0
 11
178.289138554326
 21
-21.73089766004195
 31
0.0
  0
SOLID
  5
31F
330
319
100
AcDbEntity
  8
치수문자_일반주서
 62
     0
100
AcDbTrace
 10
178.8394718876593
 20
-18.33489766004197
 30
0.0
 11
177.7388052209926
 21
-18.33489766004197
 31
0.0
 12
178.2891385543259
 22
-15.03289766004197
 32
0.0
 13
178.2891385543259
 23
-15.03289766004197
 33
0.0
  0
SOLID
  5
320
330
319
100
AcDbEntity
  8
치수문자_일반주서
 62
     0
100
AcDbTrace
 10
177.7388052209926
 20
-21.73089766004195
 30
0.0
 11
178.8394718876593
 21
-21.73089766004195
 31
0.0
 12
178.289138554326
 22
-25.03289766004195
 32
0.0
 13
178.289138554326
 23
-25.03289766004195
 33
0.0
  0
MTEXT
  5
321
330
319
100
AcDbEntity
  8
치수문자_일반주서
 62
     0
100
AcDbMText
 10
173.914138554326
 20
-20.03289766004209
 30
0.0
 40
3.5
 41
0.0
 71
     2
 72
     1
  1
\A1;%%c10
  7
SLDTEXTSTYLE0
 11
-2.842170943040404E-15
 21
1.0
 31
0.0
 73
     1
 44
1.0
  0
POINT
  5
322
330
319
100
AcDbEntity
  8
Defpoints
 62
     0
100
AcDbPoint
 10
148.3775453419524
 20
-15.03289766004208
 30
0.0
  0
POINT
  5
323
330
319
100
AcDbEntity
  8
Defpoints
 62
     0
100
AcDbPoint
 10
148.3775453419524
 20
-25.03289766004206
 30
0.0
  0
POINT
  5
324
330
319
100
AcDbEntity
  8
Defpoints
 62
     0
100
AcDbPoint
 10
178.289138554326
 20
-25.03289766004195
 30
0.0
  0
ENDBLK
  5
31B
330
319
100
AcDbEntity
  8
0
100
AcDbBlockEnd
  0
BLOCK
  5
326
330
325
100
AcDbEntity
  8
0
100
AcDbBlockBegin
  2
*D24
 70
     1
 10
0.0
 20
0.0
 30
0.0
  3
*D24
  1

  0
LINE
  5
328
330
325
100
AcDbEntity
  8
치수문자_일반주서
 62
     0
370
    -2
100
AcDbLine
 10
59.12663246492842
 20
-15.03289766004206
 30
0.0
 11
45.7891324649284
 21
-15.03289766004211
 31
0.0
  0
LINE
  5
329
330
325
100
AcDbEntity
  8
치수문자_일반주서
 62
     0
370
    -2
100
AcDbLine
 10
59.12663246492842
 20
-25.03289766004208
 30
0.0
 11
45.78913246492844
 21
-25.03289766004213
 31
0.0
  0
LINE
  5
32A
330
325
100
AcDbEntity
  8
치수문자_일반주서
 62
     0
370
    -2
100
AcDbLine
 10
45.78913246492841
 20
-18.33489766004211
 30
0.0
 11
45.78913246492842
 21
-21.73089766004213
 31
0.0
  0
SOLID
  5
32B
330
325
100
AcDbEntity
  8
치수문자_일반주서
 62
     0
100
AcDbTrace
 10
46.33946579826175
 20
-18.33489766004211
 30
0.0
 11
45.23879913159508
 21
-18.33489766004212
 31
0.0
 12
45.7891324649284
 22
-15.03289766004211
 32
0.0
 13
45.7891324649284
 23
-15.03289766004211
 33
0.0
  0
SOLID
  5
32C
330
325
100
AcDbEntity
  8
치수문자_일반주서
 62
     0
100
AcDbTrace
 10
45.23879913159509
 20
-21.73089766004213
 30
0.0
 11
46.33946579826176
 21
-21.73089766004212
 31
0.0
 12
45.78913246492844
 22
-25.03289766004213
 32
0.0
 13
45.78913246492844
 23
-25.03289766004213
 33
0.0
  0
MTEXT
  5
32D
330
325
100
AcDbEntity
  8
치수문자_일반주서
 62
     0
100
AcDbMText
 10
41.41413246492841
 20
-20.03289766004208
 30
0.0
 40
3.5
 41
0.0
 71
     2
 72
     1
  1
\A1;%%c10
  7
SLDTEXTSTYLE0
 11
-3.552713678800496E-15
 21
1.0
 31
0.0
 73
     1
 44
1.0
  0
POINT
  5
32E
330
325
100
AcDbEntity
  8
Defpoints
 62
     0
100
AcDbPoint
 10
59.18913246492842
 20
-15.03289766004206
 30
0.0
  0
POINT
  5
32F
330
325
100
AcDbEntity
  8
Defpoints
 62
     0
100
AcDbPoint
 10
59.18913246492842
 20
-25.03289766004208
 30
0.0
  0
POINT
  5
330
330
325
100
AcDbEntity
  8
Defpoints
 62
     0
100
AcDbPoint
 10
45.78913246492843
 20
-25.03289766004213
 30
0.0
  0
ENDBLK
  5
327
330
325
100
AcDbEntity
  8
0
100
AcDbBlockEnd
  0
BLOCK
  5
332
330
331
100
AcDbEntity
  8
0
100
AcDbBlockBegin
  2
*D25
 70
     1
 10
0.0
 20
0.0
 30
0.0
  3
*D25
  1

  0
LINE
  5
334
330
331
100
AcDbEntity
  8
치수문자_일반주서
 62
     0
370
    -2
100
AcDbLine
 10
158.1891324649284
 20
-15.0910397798566
 30
0.0
 11
158.1891324649284
 21
2.299630674386307
 31
0.0
  0
LINE
  5
335
330
331
100
AcDbEntity
  8
치수문자_일반주서
 62
     0
370
    -2
100
AcDbLine
 10
133.1891324649284
 20
-15.04174431105383
 30
0.0
 11
133.1891324649284
 21
2.299630674386307
 31
0.0
  0
LINE
  5
336
330
331
100
AcDbEntity
  8
치수문자_일반주서
 62
     0
370
    -2
100
AcDbLine
 10
154.8871324649284
 20
2.299630674386307
 30
0.0
 11
136.4911324649284
 21
2.299630674386307
 31
0.0
  0
SOLID
  5
337
330
331
100
AcDbEntity
  8
치수문자_일반주서
 62
     0
100
AcDbTrace
 10
154.8871324649284
 20
1.749297341052974
 30
0.0
 11
154.8871324649284
 21
2.84996400771964
 31
0.0
 12
158.1891324649284
 22
2.299630674386307
 32
0.0
 13
158.1891324649284
 23
2.299630674386307
 33
0.0
  0
SOLID
  5
338
330
331
100
AcDbEntity
  8
치수문자_일반주서
 62
     0
100
AcDbTrace
 10
136.4911324649284
 20
2.84996400771964
 30
0.0
 11
136.4911324649284
 21
1.749297341052974
 31
0.0
 12
133.1891324649284
 22
2.299630674386307
 32
0.0
 13
133.1891324649284
 23
2.299630674386307
 33
0.0
  0
MTEXT
  5
339
330
331
100
AcDbEntity
  8
치수문자_일반주서
 62
     0
100
AcDbMText
 10
145.6891324649284
 20
6.674630674386307
 30
0.0
 40
3.5
 41
0.0
 71
     2
 72
     1
  1
\A1;25
  7
SLDTEXTSTYLE0
 73
     1
 44
1.0
  0
POINT
  5
33A
330
331
100
AcDbEntity
  8
Defpoints
 62
     0
100
AcDbPoint
 10
158.1891324649284
 20
-15.1535397798566
 30
0.0
  0
POINT
  5
33B
330
331
100
AcDbEntity
  8
Defpoints
 62
     0
100
AcDbPoint
 10
133.1891324649284
 20
-15.10424431105383
 30
0.0
  0
POINT
  5
33C
330
331
100
AcDbEntity
  8
Defpoints
 62
     0
100
AcDbPoint
 10
133.1891324649284
 20
2.299630674386307
 30
0.0
  0
ENDBLK
  5
333
330
331
100
AcDbEntity
  8
0
100
AcDbBlockEnd
  0
BLOCK
  5
33E
330
33D
100
AcDbEntity
  8
0
100
AcDbBlockBegin
  2
*D26
 70
     1
 10
0.0
 20
0.0
 30
0.0
  3
*D26
  1

  0
LINE
  5
340
330
33D
100
AcDbEntity
  8
치수문자_일반주서
 62
     0
370
    -2
100
AcDbLine
 10
158.1891324649284
 20
-15.0910397798566
 30
0.0
 11
158.1891324649284
 21
9.715993364753182
 31
0.0
  0
LINE
  5
341
330
33D
100
AcDbEntity
  8
치수문자_일반주서
 62
     0
370
    -2
100
AcDbLine
 10
58.18913246492842
 20
-15.97039766004206
 30
0.0
 11
58.18913246492842
 21
9.715993364753182
 31
0.0
  0
LINE
  5
342
330
33D
100
AcDbEntity
  8
치수문자_일반주서
 62
     0
370
    -2
100
AcDbLine
 10
154.8871324649284
 20
9.715993364753182
 30
0.0
 11
61.49113246492842
 21
9.715993364753182
 31
0.0
  0
SOLID
  5
343
330
33D
100
AcDbEntity
  8
치수문자_일반주서
 62
     0
100
AcDbTrace
 10
154.8871324649284
 20
9.165660031419849
 30
0.0
 11
154.8871324649284
 21
10.26632669808651
 31
0.0
 12
158.1891324649284
 22
9.715993364753182
 32
0.0
 13
158.1891324649284
 23
9.715993364753182
 33
0.0
  0
SOLID
  5
344
330
33D
100
AcDbEntity
  8
치수문자_일반주서
 62
     0
100
AcDbTrace
 10
61.49113246492842
 20
10.26632669808651
 30
0.0
 11
61.49113246492842
 21
9.165660031419849
 31
0.0
 12
58.18913246492842
 22
9.715993364753182
 32
0.0
 13
58.18913246492842
 23
9.715993364753182
 33
0.0
  0
MTEXT
  5
345
330
33D
100
AcDbEntity
  8
치수문자_일반주서
 62
     0
100
AcDbMText
 10
108.1891324649284
 20
14.09099336475318
 30
0.0
 40
3.5
 41
0.0
 71
     2
 72
     1
  1
\A1;100
  7
SLDTEXTSTYLE0
 73
     1
 44
1.0
  0
POINT
  5
346
330
33D
100
AcDbEntity
  8
Defpoints
 62
     0
100
AcDbPoint
 10
158.1891324649284
 20
-15.1535397798566
 30
0.0
  0
POINT
  5
347
330
33D
100
AcDbEntity
  8
Defpoints
 62
     0
100
AcDbPoint
 10
58.18913246492842
 20
-16.03289766004206
 30
0.0
  0
POINT
  5
348
330
33D
100
AcDbEntity
  8
Defpoints
 62
     0
100
AcDbPoint
 10
58.18913246492842
 20
9.715993364753182
 30
0.0
  0
ENDBLK
  5
33F
330
33D
100
AcDbEntity
  8
0
100
AcDbBlockEnd
  0
BLOCK
  5
34A
330
349
100
AcDbEntity
  8
0
100
AcDbBlockBegin
  2
*D27
 70
     1
 10
0.0
 20
0.0
 30
0.0
  3
*D27
  1

  0
LINE
  5
34C
330
349
100
AcDbEntity
  8
치수문자_일반주서
 62
     0
370
    -2
100
AcDbLine
 10
158.5196542303226
 20
-26.91216506673882
 30
0.0
 11
166.2666028438843
 21
-37.42969273489062
 31
0.0
  0
MTEXT
  5
34D
330
349
100
AcDbEntity
  8
치수문자_일반주서
 62
     0
100
AcDbMText
 10
166.5638986581899
 20
-33.40711315845009
 30
0.0
 40
3.5
 41
0.0
 71
     5
 72
     1
  1
\A1;R4
  7
SLDTEXTSTYLE0
 11
0.5930596775396137
 21
-0.8051585054364199
 31
0.0
 73
     1
 44
1.0
  0
SOLID
  5
34E
330
349
100
AcDbEntity
  8
치수문자_일반주서
 62
     0
100
AcDbTrace
 10
158.9627597944811
 20
-26.58578455753285
 30
0.0
 11
158.0765486661641
 21
-27.23854557594478
 31
0.0
 12
156.5613711750868
 22
-24.25353168178776
 32
0.0
 13
156.5613711750868
 23
-24.25353168178776
 33
0.0
  0
LINE
  5
34F
330
349
100
AcDbEntity
  8
치수문자_일반주서
 62
     0
100
AcDbLine
 10
154.0991324649284
 20
-21.03289766004208
 30
0.0
 11
154.2791324649284
 21
-21.03289766004208
 31
0.0
  0
LINE
  5
350
330
349
100
AcDbEntity
  8
치수문자_일반주서
 62
     0
100
AcDbLine
 10
154.1891324649284
 20
-21.12289766004208
 30
0.0
 11
154.1891324649284
 21
-20.94289766004208
 31
0.0
  0
POINT
  5
351
330
349
100
AcDbEntity
  8
Defpoints
 62
     0
100
AcDbPoint
 10
156.5613711750868
 20
-24.25353168178776
 30
0.0
  0
POINT
  5
352
330
349
100
AcDbEntity
  8
Defpoints
 62
     0
100
AcDbPoint
 10
154.1891324649284
 20
-21.03289766004208
 30
0.0
  0
ENDBLK
  5
34B
330
349
100
AcDbEntity
  8
0
100
AcDbBlockEnd
  0
BLOCK
  5
357
330
356
100
AcDbEntity
  8
0
100
AcDbBlockBegin
  2
*D28
 70
     1
 10
0.0
 20
0.0
 30
0.0
  3
*D28
  1

  0
LINE
  5
359
330
356
100
AcDbEntity
  8
치수문자_일반주서
 62
     0
370
    -2
100
AcDbLine
 10
29.0307967973321
 20
-8.525120624620744
 30
0.0
 11
34.93824508395625
 21
-22.48513868929225
 31
0.0
  0
MTEXT
  5
35A
330
356
100
AcDbEntity
  8
치수문자_일반주서
 62
     0
100
AcDbMText
 10
35.56546468718868
 20
-17.23159135136705
 30
0.0
 40
3.5
 41
0.0
 71
     5
 72
     1
  1
\A1;R0.2
  7
SLDTEXTSTYLE0
 11
0.3897119913042951
 21
-0.9209367860139159
 31
0.0
 73
     1
 44
1.0
  0
SOLID
  5
35B
330
356
100
AcDbEntity
  8
치수문자_일반주서
 62
     0
100
AcDbTrace
 10
29.53761900856843
 20
-8.31064912540628
 30
0.0
 11
28.52397458609578
 21
-8.739592123835207
 31
0.0
 12
27.74396780204532
 22
-5.484187357202795
 32
0.0
 13
27.74396780204532
 23
-5.484187357202795
 33
0.0
  0
LINE
  5
35C
330
356
100
AcDbEntity
  8
치수문자_일반주서
 62
     0
100
AcDbLine
 10
27.57602540378446
 20
-5.300000000000011
 30
0.0
 11
27.75602540378446
 21
-5.300000000000011
 31
0.0
  0
LINE
  5
35D
330
356
100
AcDbEntity
  8
치수문자_일반주서
 62
     0
100
AcDbLine
 10
27.66602540378446
 20
-5.390000000000011
 30
0.0
 11
27.66602540378446
 21
-5.210000000000012
 31
0.0
  0
POINT
  5
35E
330
356
100
AcDbEntity
  8
Defpoints
 62
     0
100
AcDbPoint
 10
27.74396780204532
 20
-5.484187357202795
 30
0.0
  0
POINT
  5
35F
330
356
100
AcDbEntity
  8
Defpoints
 62
     0
100
AcDbPoint
 10
27.66602540378446
 20
-5.300000000000011
 30
0.0
  0
ENDBLK
  5
358
330
356
100
AcDbEntity
  8
0
100
AcDbBlockEnd
  0
ENDSEC
  0
SECTION
  2
ENTITIES
  0
LINE
  5
C8
330
1F
100
AcDbEntity
  8
참조1
100
AcDbLine
 10
-15.77564223695981
 20
-2.499999999999974
 30
0.0
 11
-15.7756422369598
 21
-40.0
 31
0.0
  0
LINE
  5
C9
330
1F
100
AcDbEntity
  8
참조1
100
AcDbLine
 10
-15.7756422369598
 20
-40.0
 30
0.0
 11
-30.93398568371225
 21
-40.0
 31
0.0
  0
INSERT
  5
CB
330
1F
100
AcDbEntity
  8
0
  6
Continuous
 62
     7
100
AcDbBlockReference
 66
     1
  2
블럭10
 10
-29.71591516908501
 20
-52.04717430164393
 30
0.0
  0
ATTRIB
  5
CC
330
CB
100
AcDbEntity
  8
FORMAT
 62
     2
100
AcDbText
 10
-45.83517620852056
 20
-49.97180738881174
 30
0.0
 40
4.233333333333333
  1
SEME0111003E [ 4 FLUTE ]
 41
0.75
  7
SLDTEXTSTYLE0
 11
-45.83517620852056
 21
-52.08847405547841
 31
0.0
100
AcDbAttribute
  2
AUTOATTR0
 70
     0
 74
     1
  0
SEQEND
  5
CD
330
CB
100
AcDbEntity
  8
0
  6
Continuous
 62
     7
  0
HATCH
  5
CE
330
1F
100
AcDbEntity
  8
중심선
100
AcDbHatch
 10
0.0
 20
0.0
 30
0.0
210
0.0
220
0.0
230
1.0
  2
SOLID
 70
     1
 71
     0
 91
        1
 92
        0
 93
        4
 72
     1
 10
-24.00100586470416
 20
-35.8
 11
-27.44728110854144
 21
-35.8
 72
     1
 10
-27.44728110854144
 20
-35.8
 11
-29.57551096774547
 21
-38.33632558057259
 72
     1
 10
-29.57551096774547
 20
-38.33632558057259
 11
-26.12920263879504
 21
-38.3362861512701
 72
     1
 10
-26.12920263879504
 20
-38.3362861512701
 11
-24.00100586470416
 21
-35.8
 97
        0
 75
     0
 76
     1
 98
        1
 10
0.0
 20
0.0
  0
HATCH
  5
CF
330
1F
100
AcDbEntity
  8
중심선
100
AcDbHatch
 10
0.0
 20
0.0
 30
0.0
210
0.0
220
0.0
230
1.0
  2
SOLID
 70
     1
 71
     0
 91
        1
 92
        0
 93
        4
 72
     1
 10
-18.98824187366821
 20
-35.8
 11
-22.43451711750549
 21
-35.8
 72
     1
 10
-22.43451711750549
 20
-35.8
 11
-26.96565512586288
 21
-41.20000000000002
 72
     1
 10
-26.96565512586288
 20
-41.20000000000002
 11
-23.5193798820256
 21
-41.20000000000002
 72
     1
 10
-23.5193798820256
 20
-41.20000000000002
 11
-18.98824187366821
 21
-35.8
 97
        0
 75
     0
 76
     1
 98
        1
 10
0.0
 20
0.0
  0
HATCH
  5
D0
330
1F
100
AcDbEntity
  8
중심선
100
AcDbHatch
 10
0.0
 20
0.0
 30
0.0
210
0.0
220
0.0
230
1.0
  2
SOLID
 70
     1
 71
     0
 91
        1
 92
        0
 93
        4
 72
     1
 10
-13.97547788263232
 20
-35.80000000000003
 11
-17.42175312646943
 21
-35.8
 72
     1
 10
-17.42175312646943
 20
-35.8
 11
-24.47019002835868
 21
-44.20000000000002
 72
     1
 10
-24.47019002835868
 20
-44.20000000000002
 11
-21.0239147845214
 21
-44.20000000000002
 72
     1
 10
-21.0239147845214
 20
-44.20000000000002
 11
-13.97547788263232
 21
-35.80000000000003
 97
        0
 75
     0
 76
     1
 98
        1
 10
0.0
 20
0.0
  0
HATCH
  5
D1
330
1F
100
AcDbEntity
  8
중심선
100
AcDbHatch
 10
0.0
 20
0.0
 30
0.0
210
0.0
220
0.0
230
1.0
  2
SOLID
 70
     1
 71
     0
 91
        1
 92
        0
 93
        6
 72
     3
 10
-9.175587451620116
 20
-40.00000000005127
 11
3.960054785062284
 21
1.540850780301639E-10
 40
0.3939339440162633
 50
17.09539180608433
 51
320.0019657685079
 73
     0
 72
     1
 10
-7.49258779591952
 20
-38.5878940046383
 11
-5.187285922218482
 21
-36.65356729459038
 72
     3
 10
-9.175587451672962
 20
-40.00000000000015
 11
6.600054785286829
 21
-1.249000902703301E-13
 40
0.6363583540795982
 50
39.99873849337408
 51
368.4976242363725
 73
     1
 72
     1
 10
-2.750254959772352
 20
-39.03999999993002
 11
-10.49552014483704
 21
-39.03999999992999
 72
     1
 10
-10.49552014483704
 20
-39.03999999992999
 11
-10.49554518928297
 21
-40.95999999992991
 72
     1
 10
-10.49554518928297
 20
-40.95999999992991
 11
-6.054165419810936
 21
-40.95999999992988
 97
        0
 75
     0
 76
     1
 98
        1
 10
0.0
 20
0.0
  0
LINE
  5
102
330
1F
100
AcDbEntity
  8
참조1
100
AcDbLine
 10
67.03835494594202
 20
7.440000000000002
 30
0.0
 11
67.03835494594202
 21
-7.440000000000002
 31
0.0
  0
LINE
  5
103
330
1F
100
AcDbEntity
  8
참조1
100
AcDbLine
 10
79.73835494594202
 20
5.440000000000002
 30
0.0
 11
67.03835494594202
 21
5.440000000000002
 31
0.0
  0
SOLID
  5
104
330
1F
100
AcDbEntity
  8
참조1
100
AcDbTrace
 10
67.03835494594202
 20
5.440000000000002
 30
0.0
 11
73.38835494594201
 21
4.424000000000002
 31
0.0
 12
73.38835494594201
 22
6.456000000000002
 32
0.0
 13
73.38835494594201
 23
6.456000000000002
 33
0.0
  0
LINE
  5
105
330
1F
100
AcDbEntity
  8
참조1
100
AcDbLine
 10
79.73835494594202
 20
-5.440000000000002
 30
0.0
 11
67.03835494594202
 21
-5.440000000000002
 31
0.0
  0
SOLID
  5
106
330
1F
100
AcDbEntity
  8
참조1
100
AcDbTrace
 10
67.03835494594202
 20
-5.440000000000002
 30
0.0
 11
73.38835494594201
 21
-6.456000000000002
 31
0.0
 12
73.38835494594201
 22
-4.424000000000002
 32
0.0
 13
73.38835494594201
 23
-4.424000000000002
 33
0.0
  0
MTEXT
  5
107
330
1F
100
AcDbEntity
  8
참조1
100
AcDbMText
 10
76.4358450384123
 20
10.98821664464994
 30
0.0
 40
3.5
 41
0.0
 71
     1
 72
     1
  1
A
  7
SLDTEXTSTYLE0
 73
     1
 44
1.0
  0
MTEXT
  5
108
330
1F
100
AcDbEntity
  8
참조1
100
AcDbMText
 10
76.4358450384123
 20
0.1082166446499328
 30
0.0
 40
3.5
 41
0.0
 71
     1
 72
     1
  1
A
  7
SLDTEXTSTYLE0
 73
     1
 44
1.0
  0
LINE
  5
1E9
330
1F
100
AcDbEntity
  8
외형선
  6
Continuous
 62
     1
370
    15
100
AcDbLine
 10
13.71924899630253
 20
-5.5
 30
0.0
 11
17.07291823000418
 21
-5.5
 31
0.0
1001
PE_URL
1000

  0
LINE
  5
1EA
330
1F
100
AcDbEntity
  8
외형선
  6
Continuous
 62
     1
370
    15
100
AcDbLine
 10
17.07291823000415
 20
5.5
 30
0.0
 11
13.71924899630258
 21
5.5
 31
0.0
1001
PE_URL
1000

  0
LINE
  5
1EB
330
1F
100
AcDbEntity
  8
외형선
  6
Continuous
370
    15
100
AcDbLine
 10
-80.93397459621553
 20
-6.0
 30
0.0
 11
0.0
 21
-6.0
 31
0.0
  0
LINE
  5
1EC
330
1F
100
AcDbEntity
  8
외형선
  6
Continuous
370
    15
100
AcDbLine
 10
0.0
 20
6.0
 30
0.0
 11
-80.93397459621553
 21
6.0
 31
0.0
  0
LINE
  5
1ED
330
1F
100
AcDbEntity
  8
외형선
  6
Continuous
370
    15
100
AcDbLine
 10
0.0
 20
-6.000000000000014
 30
0.0
 11
1.866025403784477
 21
-5.5
 31
0.0
  0
LINE
  5
1EE
330
1F
100
AcDbEntity
  8
외형선
  6
Continuous
370
    15
100
AcDbLine
 10
1.866025403784477
 20
5.5
 30
0.0
 11
0.0
 21
6.000000000000007
 31
0.0
  0
LINE
  5
1EF
330
1F
100
AcDbEntity
  8
외형선
  6
Continuous
370
    15
100
AcDbLine
 10
-80.93397459621553
 20
6.0
 30
0.0
 11
-82.13397459621555
 21
4.800000000000004
 31
0.0
  0
LINE
  5
1F0
330
1F
100
AcDbEntity
  8
외형선
  6
Continuous
370
    15
100
AcDbLine
 10
-82.13397459621555
 20
-4.800000000000011
 30
0.0
 11
-80.93397459621553
 21
-6.0
 31
0.0
  0
LINE
  5
1F1
330
1F
100
AcDbEntity
  8
외형선
  6
Continuous
370
    15
100
AcDbLine
 10
2.109239502794708
 20
5.5
 30
0.0
 11
1.866025403784477
 21
5.5
 31
0.0
  0
LINE
  5
1F2
330
1F
100
AcDbEntity
  8
외형선
  6
Continuous
370
    15
100
AcDbLine
 10
1.866025403784477
 20
-5.5
 30
0.0
 11
2.109239502794651
 21
-5.5
 31
0.0
  0
SPLINE
  5
1F3
330
1F
100
AcDbEntity
  8
외형선
  6
Continuous
 62
     1
370
    15
100
AcDbSpline
210
0.0
220
0.0
230
1.0
 70
     8
 71
     3
 72
    17
 73
    13
 74
     0
 42
0.000000001
 43
0.00000001
 40
0.0
 40
0.0
 40
0.0
 40
0.0
 40
0.0990945693940692
 40
0.1981984321306157
 40
0.2973140792883058
 40
0.3964439873439731
 40
0.4955807906804426
 40
0.5947031728973412
 40
0.6938125455315468
 40
0.8028131824254165
 40
0.9118128773271276
 40
0.9958197761060106
 40
0.9958197761060106
 40
0.9958197761060106
 40
0.9958197761060106
 10
2.866025403784477
 20
-0.43700245471382
 30
0.0
 10
3.527244045149956
 20
-0.8157439429378286
 30
0.0
 10
4.849743338658385
 20
-1.573262438732485
 30
0.0
 10
6.833646857517294
 20
-2.636480638579755
 30
0.0
 10
8.817829565832085
 20
-3.587182855960066
 30
0.0
 10
10.80229639194991
 20
-4.382470504994956
 30
0.0
 10
12.78684947357553
 20
-4.988548477192467
 30
0.0
 10
14.7712011811789
 20
-5.378593674189929
 30
0.0
 10
16.82124076815779
 20
-5.543147776482144
 30
0.0
 10
18.93749059313586
 20
-5.4380484841423
 30
0.0
 10
20.95286809068145
 20
-5.099839234676779
 30
0.0
 10
22.24086412719825
 20
-4.694043033555161
 30
0.0
 10
22.80146968812662
 20
-4.515715495403356
 30
0.0
1001
PE_URL
1000

  0
SPLINE
  5
1F4
330
1F
100
AcDbEntity
  8
외형선
  6
Continuous
370
    15
100
AcDbSpline
210
0.0
220
0.0
230
1.0
 70
    24
 71
     3
 72
    20
 73
    16
 74
     0
 42
0.000000001
 43
0.00000001
 40
0.0
 40
0.0
 40
0.0
 40
0.0
 40
0.0485029140898029
 40
0.127975938179955
 40
0.2097536853526066
 40
0.2892267094427585
 40
0.3710044566154101
 40
0.4504774807055612
 40
0.5322552278782116
 40
0.611728251968371
 40
0.6935059991410114
 40
0.7729790232311633
 40
0.8547567704038154
 40
0.9342297944939654
 40
1.0
 40
1.0
 40
1.0
 40
1.0
 10
2.866025403784477
 20
4.995718340569525
 30
0.0
 10
2.866025403784448
 20
4.910810318971734
 30
0.0
 10
2.866025403784334
 20
4.686778754541145
 30
0.0
 10
2.866025403784477
 20
4.271829665087907
 30
0.0
 10
2.866025403784562
 20
3.756808364733416
 30
0.0
 10
2.866025403784448
 20
3.208254700736823
 30
0.0
 10
2.866025403784477
 20
2.652798258455164
 30
0.0
 10
2.86602540378459
 20
2.095829347066442
 30
0.0
 10
2.866025403784306
 20
1.5632434415229
 30
0.0
 10
2.866025403784562
 20
1.060439181563723
 30
0.0
 10
2.866025403784391
 20
0.6109534683759819
 30
0.0
 10
2.866025403784477
 20
0.2184854967053695
 30
0.0
 10
2.866025403784505
 20
-0.0953207575985573
 30
0.0
 10
2.866025403784477
 20
-0.3240817740388735
 30
0.0
 10
2.866025403784505
 20
-0.4018065138948259
 30
0.0
 10
2.866025403784533
 20
-0.4370024547138485
 30
0.0
  0
SPLINE
  5
1F5
330
1F
100
AcDbEntity
  8
외형선
  6
Continuous
 62
     1
370
    15
100
AcDbSpline
210
0.0
220
0.0
230
1.0
 70
     8
 71
     3
 72
    50
 73
    46
 74
     0
 42
0.000000001
 43
0.00000001
 40
0.0
 40
0.0
 40
0.0
 40
0.0
 40
0.0625000000000009
 40
0.0625000000000009
 40
0.0937500000000014
 40
0.0937500000000014
 40
0.1250000000000018
 40
0.1250000000000018
 40
0.1562500000000023
 40
0.1562500000000023
 40
0.1875000000000027
 40
0.1875000000000027
 40
0.2500000000000037
 40
0.2500000000000037
 40
0.3125000000000046
 40
0.3125000000000046
 40
0.3750000000000055
 40
0.3750000000000055
 40
0.4062500000000066
 40
0.4062500000000066
 40
0.4375000000000077
 40
0.4375000000000077
 40
0.5000000000000098
 40
0.5000000000000098
 40
0.5312500000000102
 40
0.5312500000000102
 40
0.5625000000000107
 40
0.5625000000000107
 40
0.6250000000000103
 40
0.6250000000000103
 40
0.6875000000000099
 40
0.6875000000000099
 40
0.7500000000000094
 40
0.7500000000000094
 40
0.7812500000000087
 40
0.7812500000000087
 40
0.8125000000000078
 40
0.8125000000000078
 40
0.8437500000000069
 40
0.8437500000000069
 40
0.875000000000006
 40
0.875000000000006
 40
0.9375000000000031
 40
0.9375000000000031
 40
1.0
 40
1.0
 40
1.0
 40
1.0
 10
27.66602540378446
 20
-5.500000000000014
 30
0.0
 10
27.1509939093732
 20
-5.468223923933763
 30
0.0
 10
26.63021060175922
 20
-5.41209519336492
 30
0.0
 10
25.85581817438054
 20
-5.292949622821808
 30
0.0
 10
25.59969496244983
 20
-5.24751023823849
 30
0.0
 10
25.08342660198403
 20
-5.14501116649096
 30
0.0
 10
24.82416333918246
 20
-5.087983824039156
 30
0.0
 10
24.30594791792308
 20
-4.962897039967757
 30
0.0
 10
24.0469985972868
 20
-4.894838312808886
 30
0.0
 10
23.53197567373033
 20
-4.7484310521683
 30
0.0
 10
23.27530611719698
 20
-4.670044246053266
 30
0.0
 10
22.4994932951374
 20
-4.419202581391346
 30
0.0
 10
21.97901724768147
 20
-4.231386739035457
 30
0.0
 10
20.95203736298092
 20
-3.822255948568127
 30
0.0
 10
20.43185318491621
 20
-3.599140532186837
 30
0.0
 10
19.39722748958013
 20
-3.124174597909743
 30
0.0
 10
18.88442498037264
 20
-2.872705852059298
 30
0.0
 10
18.10713665244108
 20
-2.477072283650912
 30
0.0
 10
17.84784279199758
 20
-2.342308021258148
 30
0.0
 10
17.33142984609657
 20
-2.068361625153472
 30
0.0
 10
17.07529624132638
 20
-1.929364665999174
 30
0.0
 10
16.30112920961827
 20
-1.505530938952901
 30
0.0
 10
15.78032816274191
 20
-1.21433303430463
 30
0.0
 10
15.00750403148191
 20
-0.7732059612818318
 30
0.0
 10
14.75097769365084
 20
-0.6253921424379598
 30
0.0
 10
14.2338840588794
 20
-0.3280082837288205
 30
0.0
 10
13.97447338869688
 20
-0.178658742330768
 30
0.0
 10
13.19751100853296
 20
0.2691405479597933
 30
0.0
 10
12.68509702971875
 20
0.5665960570963762
 30
0.0
 10
11.64954173434637
 20
1.155673496951664
 30
0.0
 10
11.1318737597521
 20
1.446225940877213
 30
0.0
 10
10.10261772402595
 20
2.010683165203915
 30
0.0
 10
9.581889585784864
 20
2.286223511214928
 30
0.0
 10
8.807052091055652
 20
2.681294858774649
 30
0.0
 10
8.55088635757761
 20
2.809787940961314
 30
0.0
 10
8.03493794121681
 20
3.060840124240869
 30
0.0
 10
7.775747577084672
 20
3.183288743234378
 30
0.0
 10
7.257501405971055
 20
3.42078591859071
 30
0.0
 10
6.998448437987378
 20
3.535833182443909
 30
0.0
 10
6.483045084225239
 20
3.757427280291871
 30
0.0
 10
6.22664024430901
 20
3.863998527447826
 30
0.0
 10
5.451181117009412
 20
4.171335501821034
 30
0.0
 10
4.930587450676313
 20
4.35893619503981
 30
0.0
 10
3.902680728086807
 20
4.692376418410888
 30
0.0
 10
3.383538712643286
 20
4.839516951411262
 30
0.0
 10
2.866025403784505
 20
4.96435388984775
 30
0.0
1001
PE_URL
1000

  0
LINE
  5
1F6
330
1F
100
AcDbEntity
  8
외형선
  6
Continuous
 62
     1
370
    15
100
AcDbLine
 10
27.86602540378448
 20
-4.823633884437214
 30
0.0
 11
27.86602540378448
 21
0.5099975208008516
 31
0.0
1001
PE_URL
1000

  0
SPLINE
  5
1F7
330
1F
100
AcDbEntity
  8
외형선
  6
Continuous
 62
     1
370
    15
100
AcDbSpline
210
0.0
220
0.0
230
1.0
 70
     8
 71
     3
 72
    10
 73
     6
 74
     0
 42
0.000000001
 43
0.00000001
 40
0.0
 40
0.0
 40
0.0
 40
0.0
 40
0.5
 40
0.5
 40
1.0
 40
1.0
 40
1.0
 40
1.0
 10
27.66602540378446
 20
-4.93104006224948
 30
0.0
 10
27.71848785591044
 20
-4.944483940450539
 30
0.0
 10
27.76654203353721
 20
-4.941653635075966
 30
0.0
 10
27.84064951908462
 20
-4.905274654436795
 30
0.0
 10
27.86602540378442
 20
-4.870965742915857
 30
0.0
 10
27.86602540378442
 20
-4.823633884437214
 30
0.0
1001
PE_URL
1000

  0
SPLINE
  5
1F8
330
1F
100
AcDbEntity
  8
외형선
  6
Continuous
 62
     1
370
    15
100
AcDbSpline
210
0.0
220
0.0
230
1.0
 70
     8
 71
     3
 72
    50
 73
    46
 74
     0
 42
0.000000001
 43
0.00000001
 40
0.0
 40
0.0
 40
0.0
 40
0.0
 40
0.0624999999999984
 40
0.0624999999999984
 40
0.0937499999999982
 40
0.0937499999999982
 40
0.124999999999998
 40
0.124999999999998
 40
0.1562499999999979
 40
0.1562499999999979
 40
0.1874999999999977
 40
0.1874999999999977
 40
0.2499999999999973
 40
0.2499999999999973
 40
0.312499999999997
 40
0.312499999999997
 40
0.3749999999999967
 40
0.3749999999999967
 40
0.4062499999999958
 40
0.4062499999999958
 40
0.4374999999999951
 40
0.4374999999999951
 40
0.4999999999999934
 40
0.4999999999999934
 40
0.5312499999999933
 40
0.5312499999999933
 40
0.5624999999999931
 40
0.5624999999999931
 40
0.6249999999999941
 40
0.6249999999999941
 40
0.687499999999995
 40
0.687499999999995
 40
0.749999999999996
 40
0.749999999999996
 40
0.7812499999999966
 40
0.7812499999999966
 40
0.812499999999997
 40
0.812499999999997
 40
0.8437499999999976
 40
0.8437499999999976
 40
0.8749999999999981
 40
0.8749999999999981
 40
0.937499999999999
 40
0.937499999999999
 40
1.0
 40
1.0
 40
1.0
 40
1.0
 10
27.66602540378449
 20
-4.93104006224948
 30
0.0
 10
27.15099390937323
 20
-4.799059561910923
 30
0.0
 10
26.63021060175922
 20
-4.644738942319535
 30
0.0
 10
25.85581817438057
 20
-4.384240901264135
 30
0.0
 10
25.59969496244983
 20
-4.292718635835939
 30
0.0
 10
25.08342660198409
 20
-4.099948851305641
 30
0.0
 10
24.82416333918246
 20
-3.998789925254712
 30
0.0
 10
24.30594791792311
 20
-3.787893860636288
 30
0.0
 10
24.0469985972868
 20
-3.67815790005983
 30
0.0
 10
23.53197567373036
 20
-3.451248066605089
 30
0.0
 10
23.27530611719706
 20
-3.334000027238275
 30
0.0
 10
22.49949329513746
 20
-2.970729890834164
 30
0.0
 10
21.97901724768155
 20
-2.713771482803807
 30
0.0
 10
20.952037362981
 20
-2.180610251870903
 30
0.0
 10
20.43185318491624
 20
-1.902057542793472
 30
0.0
 10
19.39722748958019
 20
-1.331616603034618
 30
0.0
 10
18.88442498037267
 20
-1.040099163857221
 30
0.0
 10
18.10713665244123
 20
-0.5963568179602561
 30
0.0
 10
17.84784279199761
 20
-0.4475816577728153
 30
0.0
 10
17.33142984609663
 20
-0.149789120056937
 30
0.0
 10
17.07529624132638
 20
-0.0009626919951273
 30
0.0
 10
16.30112920961827
 20
0.4461371169293642
 30
0.0
 10
15.78032816274191
 20
0.7444390477912037
 30
0.0
 10
15.00750403148191
 20
1.183423760447852
 30
0.0
 10
14.7509776936509
 20
1.328408650533376
 30
0.0
 10
14.23388405887943
 20
1.615885656556017
 30
0.0
 10
13.97447338869694
 20
1.758156690538385
 30
0.0
 10
13.19751100853301
 20
2.178439851417167
 30
0.0
 10
12.68509702971878
 20
2.449257605834006
 30
0.0
 10
11.64954173434643
 20
2.968808026946164
 30
0.0
 10
11.13187375975215
 20
3.2165471060516
 30
0.0
 10
10.10261772402595
 20
3.680660644055585
 30
0.0
 10
9.581889585784921
 20
3.898352104697864
 30
0.0
 10
8.80705209105568
 20
4.1968068494253
 30
0.0
 10
8.550886357577696
 20
4.291514700635652
 30
0.0
 10
8.034937941216839
 20
4.471721594935673
 30
0.0
 10
7.775747577084672
 20
4.5571302112875
 30
0.0
 10
7.257501405971112
 20
4.717666657482752
 30
0.0
 10
6.998448437987435
 20
4.792793619782195
 30
0.0
 10
6.483045084225267
 20
4.932077980642134
 30
0.0
 10
6.226640244309067
 20
4.996261998188885
 30
0.0
 10
5.45118111700944
 20
5.172594028767151
 30
0.0
 10
4.930587450676313
 20
5.267960660975035
 30
0.0
 10
3.902680728086807
 20
5.410823206757321
 30
0.0
 10
3.383538712643315
 20
5.458898618869462
 30
0.0
 10
2.866025403784533
 20
5.482611499511357
 30
0.0
1001
PE_URL
1000

  0
SPLINE
  5
1F9
330
1F
100
AcDbEntity
  8
외형선
  6
Continuous
 62
     1
370
    15
100
AcDbSpline
210
0.0
220
0.0
230
1.0
 70
     8
 71
     3
 72
    17
 73
    13
 74
     0
 42
0.000000001
 43
0.00000001
 40
0.0
 40
0.0
 40
0.0
 40
0.0
 40
0.1004795271507862
 40
0.2009673966052967
 40
0.3014410744469412
 40
0.4019014173367336
 40
0.5023509424895605
 40
0.602792180536964
 40
0.7032276724066631
 40
0.8137195491752891
 40
0.9242110962288159
 40
0.9999999999999999
 40
0.9999999999999999
 40
0.9999999999999999
 40
0.9999999999999999
 10
27.66602540378452
 20
0.586536639239597
 30
0.0
 10
27.00453264693607
 20
0.963735952425111
 30
0.0
 10
25.68149221286242
 20
1.718165895735268
 30
0.0
 10
23.69692541377938
 20
2.768604769191995
 30
0.0
 10
21.71257616350184
 20
3.701296150956637
 30
0.0
 10
19.72852198165484
 20
4.473446671672392
 30
0.0
 10
17.74473508734172
 20
5.052541739547181
 30
0.0
 10
15.76111037101558
 20
5.412705476352585
 30
0.0
 10
13.71153026066261
 20
5.54538637286673
 30
0.0
 10
11.59528397527356
 20
5.405411519758132
 30
0.0
 10
9.641447149424323
 20
5.053203694495799
 30
0.0
 10
8.415027276265107
 20
4.649205749275183
 30
0.0
 10
7.916053726767927
 20
4.48483766202542
 30
0.0
1001
PE_URL
1000

  0
SPLINE
  5
1FA
330
1F
100
AcDbEntity
  8
외형선
  6
Continuous
 62
     1
370
    15
100
AcDbSpline
210
0.0
220
0.0
230
1.0
 70
     8
 71
     3
 72
    10
 73
     6
 74
     0
 42
0.000000001
 43
0.00000001
 40
0.0
 40
0.0
 40
0.0
 40
0.0
 40
0.5
 40
0.5
 40
1.0
 40
1.0
 40
1.0
 40
1.0
 10
27.86602540378448
 20
0.5099975208009511
 30
0.0
 10
27.86602540378436
 20
0.5014214145567308
 30
0.0
 10
27.84235027135588
 20
0.5041669119507901
 30
0.0
 10
27.76454131548695
 20
0.5337160406525214
 30
0.0
 10
27.71376596877707
 20
0.5590742784404199
 30
0.0
 10
27.66602540378446
 20
0.5865366392395828
 30
0.0
1001
PE_URL
1000

  0
LINE
  5
1FB
330
1F
100
AcDbEntity
  8
외형선
  6
Continuous
370
    15
100
AcDbLine
 10
2.866025403784477
 20
4.995718340569525
 30
0.0
 11
2.866025403784505
 21
5.482611499511357
 31
0.0
  0
SPLINE
  5
1FC
330
1F
100
AcDbEntity
  8
외형선
  6
Continuous
 62
     1
370
    15
100
AcDbSpline
210
0.0
220
0.0
230
1.0
 70
     8
 71
     3
 72
    12
 73
     8
 74
     0
 42
0.000000001
 43
0.00000001
 40
0.0
 40
0.0
 40
0.0
 40
0.0
 40
0.1956966163734056
 40
0.3967736433241767
 40
0.5978499578070294
 40
0.7989254474580205
 40
0.9999999999999999
 40
0.9999999999999999
 40
0.9999999999999999
 40
0.9999999999999999
 10
13.71924899630253
 20
-5.496256578018844
 30
0.0
 10
13.01126819253932
 20
-5.471348448247994
 30
0.0
 10
11.57584162197088
 20
-5.420847373775089
 30
0.0
 10
9.412973424303999
 20
-4.987811735142017
 30
0.0
 10
7.230647346755546
 20
-4.309991855747143
 30
0.0
 10
5.048331869251456
 20
-3.40974482526849
 30
0.0
 10
3.59345976220294
 20
-2.670319858965684
 30
0.0
 10
2.866025403784505
 20
-2.300608237335766
 30
0.0
1001
PE_URL
1000

  0
LINE
  5
1FD
330
1F
100
AcDbEntity
  8
외형선
  6
Continuous
370
    15
100
AcDbLine
 10
2.866025403784477
 20
-2.300608237335766
 30
0.0
 11
2.866025403784477
 21
-0.4370024547138058
 31
0.0
  0
SPLINE
  5
1FE
330
1F
100
AcDbEntity
  8
외형선
  6
Continuous
 62
     1
370
    15
100
AcDbSpline
210
0.0
220
0.0
230
1.0
 70
     8
 71
     3
 72
    10
 73
     6
 74
     0
 42
0.000000001
 43
0.00000001
 40
0.0
 40
0.0
 40
0.0
 40
0.0
 40
0.5
 40
0.5
 40
1.0
 40
1.0
 40
1.0
 40
1.0
 10
27.66602540378446
 20
2.436153505937284
 30
0.0
 10
27.71848785591044
 20
2.408941632038591
 30
0.0
 10
27.76654203353721
 20
2.369510835481009
 30
0.0
 10
27.84064951908462
 20
2.282103737385029
 30
0.0
 10
27.86602540378442
 20
2.234265187406294
 30
0.0
 10
27.86602540378442
 20
2.196031909811182
 30
0.0
1001
PE_URL
1000

  0
LINE
  5
1FF
330
1F
100
AcDbEntity
  8
외형선
  6
Continuous
 62
     1
370
    15
100
AcDbLine
 10
27.86602540378448
 20
0.5099975208008516
 30
0.0
 11
27.86602540378448
 21
2.196031909811182
 31
0.0
1001
PE_URL
1000

  0
SPLINE
  5
200
330
1F
100
AcDbEntity
  8
외형선
  6
Continuous
 62
     1
370
    15
100
AcDbSpline
210
0.0
220
0.0
230
1.0
 70
     8
 71
     3
 72
    12
 73
     8
 74
     0
 42
0.000000001
 43
0.00000001
 40
0.0
 40
0.0
 40
0.0
 40
0.0
 40
0.1760159891931317
 40
0.3820149467007288
 40
0.5880120100756933
 40
0.7940070656585473
 40
1.0
 40
1.0
 40
1.0
 40
1.0
 10
17.07291823000415
 20
5.482101898016587
 30
0.0
 10
17.69443953372397
 20
5.468990304057961
 30
0.0
 10
19.04335350910929
 20
5.44053365707817
 30
0.0
 10
21.11964898010606
 20
5.05096387281975
 30
0.0
 10
23.30179807310114
 20
4.403936547305655
 30
0.0
 10
25.48392189332978
 20
3.528305846044567
 30
0.0
 10
26.93866006368211
 20
2.800203036355839
 30
0.0
 10
27.66602540378449
 20
2.436153505937256
 30
0.0
1001
PE_URL
1000

  0
SPLINE
  5
201
330
1F
100
AcDbEntity
  8
외형선
  6
Continuous
 62
     1
370
    15
100
AcDbSpline
210
0.0
220
0.0
230
1.0
 70
     8
 71
     3
 72
    10
 73
     6
 74
     0
 42
0.000000001
 43
0.00000001
 40
0.0
 40
0.0
 40
0.0
 40
0.0
 40
0.3928089041947926
 40
0.7856546470145227
 40
1.0
 40
1.0
 40
1.0
 40
1.0
 10
2.866025403784477
 20
-5.482611499511364
 30
0.0
 10
3.527244552078514
 20
-5.427542570288651
 30
0.0
 10
4.849744859491551
 20
-5.317399547338042
 30
0.0
 10
6.533085227135132
 20
-4.955269651980956
 30
0.0
 10
7.55522631410966
 20
-4.607577086540445
 30
0.0
 10
7.916053726767871
 20
-4.484837662025427
 30
0.0
1001
PE_URL
1000

  0
SPLINE
  5
202
330
1F
100
AcDbEntity
  8
외형선
  6
Continuous
370
    15
100
AcDbSpline
210
0.0
220
0.0
230
1.0
 70
    24
 71
     3
 72
    14
 73
    10
 74
     0
 42
0.000000001
 43
0.00000001
 40
0.0
 40
0.0
 40
0.0
 40
0.0
 40
0.1107676909744121
 40
0.2770221715225024
 40
0.4385911410099905
 40
0.6048456215580807
 40
0.7664145910455742
 40
0.9326690715936657
 40
1.0
 40
1.0
 40
1.0
 40
1.0
 10
2.866025403784448
 20
-2.376581437801519
 30
0.0
 10
2.866025403784448
 20
-2.463831442958067
 30
0.0
 10
2.866025403784477
 20
-2.682037543321798
 30
0.0
 10
2.866025403784477
 20
-3.098749753601084
 30
0.0
 10
2.866025403784505
 20
-3.605545192461747
 30
0.0
 10
2.866025403784533
 20
-4.142535318871722
 30
0.0
 10
2.866025403784562
 20
-4.70061925711417
 30
0.0
 10
2.86602540378442
 20
-5.149337117645189
 30
0.0
 10
2.866025403784448
 20
-5.408040362091882
 30
0.0
 10
2.866025403784477
 20
-5.482611499511364
 30
0.0
  0
SPLINE
  5
203
330
1F
100
AcDbEntity
  8
외형선
  6
Continuous
 62
     1
370
    15
100
AcDbSpline
210
0.0
220
0.0
230
1.0
 70
     8
 71
     3
 72
    10
 73
     6
 74
     0
 42
0.000000001
 43
0.00000001
 40
0.0
 40
0.0
 40
0.0
 40
0.0
 40
0.4150920171440078
 40
0.8302184972654981
 40
0.9999999999999999
 40
0.9999999999999999
 40
0.9999999999999999
 40
0.9999999999999999
 10
27.66602540378446
 20
5.5
 30
0.0
 10
27.00453346083955
 20
5.43416353561966
 30
0.0
 10
25.68149465464052
 20
5.302485140792442
 30
0.0
 10
24.08782183559921
 20
4.941760298351099
 30
0.0
 10
23.15571947138446
 20
4.615232026513368
 30
0.0
 10
22.88117427001484
 20
4.508328865188886
 30
0.0
1001
PE_URL
1000

  0
LINE
  5
204
330
1F
100
AcDbEntity
  8
외형선
  6
Continuous
 62
     1
370
    15
100
AcDbLine
 10
27.86602540378448
 20
2.196031909811182
 30
0.0
 11
27.86602540378448
 21
5.299999999999997
 31
0.0
  0
LINE
  5
205
330
1F
100
AcDbEntity
  8
외형선
  6
Continuous
 62
     1
370
    15
100
AcDbLine
 10
27.86602540378448
 20
-5.300000000000011
 30
0.0
 11
27.86602540378448
 21
-4.823633884437214
 31
0.0
1001
PE_URL
1000

  0
LINE
  5
206
330
1F
100
AcDbEntity
  8
외형선
  6
Continuous
370
    15
100
AcDbLine
 10
0.0
 20
0.0
 30
0.0
 11
0.0
 21
6.0
 31
0.0
  0
LINE
  5
207
330
1F
100
AcDbEntity
  8
외형선
  6
Continuous
370
    15
100
AcDbLine
 10
0.0
 20
-6.0
 30
0.0
 11
0.0
 21
0.0
 31
0.0
  0
LINE
  5
208
330
1F
100
AcDbEntity
  8
외형선
  6
Continuous
370
    15
100
AcDbLine
 10
-80.93397459621553
 20
0.0
 30
0.0
 11
-80.93397459621553
 21
6.0
 31
0.0
  0
LINE
  5
209
330
1F
100
AcDbEntity
  8
외형선
  6
Continuous
370
    15
100
AcDbLine
 10
-80.93397459621553
 20
-6.0
 30
0.0
 11
-80.93397459621553
 21
0.0
 31
0.0
  0
LINE
  5
20A
330
1F
100
AcDbEntity
  8
외형선
  6
Continuous
370
    15
100
AcDbLine
 10
1.866025403784477
 20
5.209536221878366
 30
0.0
 11
1.866025403784477
 21
5.5
 31
0.0
  0
SPLINE
  5
20B
330
1F
100
AcDbEntity
  8
외형선
  6
Continuous
370
    15
100
AcDbSpline
210
0.0
220
0.0
230
1.0
 70
    24
 71
     3
 72
    14
 73
    10
 74
     0
 42
0.000000001
 43
0.00000001
 40
0.0
 40
0.0
 40
0.0
 40
0.0
 40
0.25
 40
0.25
 40
0.5
 40
0.5
 40
0.75
 40
0.75
 40
1.0
 40
1.0
 40
1.0
 40
1.0
 10
1.866025403784477
 20
0.140670072064097
 30
0.0
 10
1.866025403784477
 20
0.6990913406243067
 30
0.0
 10
1.866025403784477
 20
1.255239478630969
 30
0.0
 10
1.866025403784477
 20
2.312066957614519
 30
0.0
 10
1.866025403784477
 20
2.812595157413284
 30
0.0
 10
1.866025403784448
 20
3.712050664499934
 30
0.0
 10
1.866025403784477
 20
4.11084933701278
 30
0.0
 10
1.866025403784477
 20
4.770073357309272
 30
0.0
 10
1.866025403784477
 20
5.030404426795783
 30
0.0
 10
1.866025403784477
 20
5.209536221878366
 30
0.0
  0
LINE
  5
20C
330
1F
100
AcDbEntity
  8
외형선
  6
Continuous
370
    15
100
AcDbLine
 10
1.866025403784477
 20
-1.763726836258158
 30
0.0
 11
1.866025403784477
 21
0.140670072064097
 31
0.0
  0
SPLINE
  5
20D
330
1F
100
AcDbEntity
  8
외형선
  6
Continuous
370
    15
100
AcDbSpline
210
0.0
220
0.0
230
1.0
 70
    24
 71
     3
 72
    14
 73
    10
 74
     0
 42
0.000000001
 43
0.00000001
 40
0.0
 40
0.0
 40
0.0
 40
0.0
 40
0.2499999999999999
 40
0.2499999999999999
 40
0.4999999999999998
 40
0.4999999999999998
 40
0.7499999999999999
 40
0.7499999999999999
 40
1.0
 40
1.0
 40
1.0
 40
1.0
 10
1.866025403784477
 20
-5.498200790333641
 30
0.0
 10
1.866025403784477
 20
-5.483913723875716
 30
0.0
 10
1.866025403784477
 20
-5.383903071632574
 30
0.0
 10
1.86602540378442
 20
-5.021591860850037
 30
0.0
 10
1.866025403784477
 20
-4.759343117904365
 30
0.0
 10
1.866025403784477
 20
-4.096671612130251
 30
0.0
 10
1.866025403784477
 20
-3.696343620637805
 30
0.0
 10
1.866025403784477
 20
-2.794358351990041
 30
0.0
 10
1.866025403784477
 20
-2.292830071401212
 30
0.0
 10
1.866025403784477
 20
-1.763726836258158
 30
0.0
  0
LINE
  5
20E
330
1F
100
AcDbEntity
  8
외형선
  6
Continuous
370
    15
100
AcDbLine
 10
1.866025403784477
 20
-5.5
 30
0.0
 11
1.866025403784477
 21
-5.498200790333641
 31
0.0
  0
LINE
  5
20F
330
1F
100
AcDbEntity
  8
외형선
  6
Continuous
370
    15
100
AcDbLine
 10
-82.13397459621555
 20
0.0
 30
0.0
 11
-82.13397459621555
 21
4.800000000000004
 31
0.0
  0
LINE
  5
210
330
1F
100
AcDbEntity
  8
외형선
  6
Continuous
370
    15
100
AcDbLine
 10
-82.13397459621555
 20
-4.800000000000011
 30
0.0
 11
-82.13397459621555
 21
0.0
 31
0.0
  0
SPLINE
  5
211
330
1F
100
AcDbEntity
  8
외형선
  6
Continuous
370
    15
100
AcDbSpline
210
0.0
220
0.0
230
1.0
 70
     8
 71
     3
 72
     8
 73
     4
 74
     0
 42
0.000000001
 43
0.00000001
 40
0.0
 40
0.0
 40
0.0
 40
0.0
 40
1.0
 40
1.0
 40
1.0
 40
1.0
 10
2.866025403784477
 20
-2.300608237335766
 30
0.0
 10
2.531389365450281
 20
-2.125321292836645
 30
0.0
 10
2.199871408789392
 20
-1.946341789703666
 30
0.0
 10
1.866192416173817
 20
-1.763726836258158
 30
0.0
  0
SPLINE
  5
212
330
1F
100
AcDbEntity
  8
외형선
  6
Continuous
370
    15
100
AcDbSpline
210
0.0
220
0.0
230
1.0
 70
     8
 71
     3
 72
     8
 73
     4
 74
     0
 42
0.000000001
 43
0.00000001
 40
0.0
 40
0.0
 40
0.0
 40
0.0
 40
1.0
 40
1.0
 40
1.0
 40
1.0
 10
2.866025403784477
 20
-0.43700245471382
 30
0.0
 10
2.531389365450252
 20
-0.2446316779587079
 30
0.0
 10
2.199871408789448
 20
-0.0520540550814985
 30
0.0
 10
1.866192416173817
 20
0.1406797303210681
 30
0.0
  0
SPLINE
  5
213
330
1F
100
AcDbEntity
  8
외형선
  6
Continuous
370
    15
100
AcDbSpline
210
0.0
220
0.0
230
1.0
 70
    24
 71
     3
 72
    20
 73
    16
 74
     0
 42
0.000000001
 43
0.00000001
 40
0.0
 40
0.0
 40
0.0
 40
0.0
 40
0.0362259309153344
 40
0.1177981880631485
 40
0.1970715134056923
 40
0.2786437705535271
 40
0.3579170958960633
 40
0.4394893530438897
 40
0.5187626783864243
 40
0.6003349355342493
 40
0.6796082608767771
 40
0.7611805180245944
 40
0.8404538433671374
 40
0.922026100514971
 40
1.0
 40
1.0
 40
1.0
 40
1.0
 10
2.866025403784477
 20
-0.4370024547138343
 30
0.0
 10
2.866025403784477
 20
-0.4220380089066396
 30
0.0
 10
2.866025403784448
 20
-0.3733771586009311
 30
0.0
 10
2.866025403784505
 20
-0.1953721205368737
 30
0.0
 10
2.866025403784448
 20
0.089035384761047
 30
0.0
 10
2.86602540378442
 20
0.4519705549238182
 30
0.0
 10
2.866025403784533
 20
0.883201789503218
 30
0.0
 10
2.866025403784448
 20
1.364499318486835
 30
0.0
 10
2.86602540378442
 20
1.890428842260974
 30
0.0
 10
2.866025403784533
 20
2.436791830472316
 30
0.0
 10
2.866025403784448
 20
2.997814934817967
 30
0.0
 10
2.866025403784477
 20
3.547934893607675
 30
0.0
 10
2.866025403784391
 20
4.079965086960129
 30
0.0
 10
2.866025403784505
 20
4.572233787843324
 30
0.0
 10
2.866025403784477
 20
4.856695377677745
 30
0.0
 10
2.866025403784477
 20
4.995718340569553
 30
0.0
  0
SPLINE
  5
214
330
1F
100
AcDbEntity
  8
외형선
  6
Continuous
370
    15
100
AcDbSpline
210
0.0
220
0.0
230
1.0
 70
     8
 71
     3
 72
     8
 73
     4
 74
     0
 42
0.000000001
 43
0.00000001
 40
0.0
 40
0.0
 40
0.0
 40
0.0
 40
1.0
 40
1.0
 40
1.0
 40
1.0
 10
2.866025403784477
 20
4.995718340569525
 30
0.0
 10
2.531389365450281
 20
5.076440783453705
 30
0.0
 10
2.199871408789392
 20
5.147710585127584
 30
0.0
 10
1.866192416173817
 20
5.209536221878366
 30
0.0
  0
SPLINE
  5
215
330
1F
100
AcDbEntity
  8
외형선
  6
Continuous
370
    15
100
AcDbSpline
210
0.0
220
0.0
230
1.0
 70
     8
 71
     3
 72
     8
 73
     4
 74
     0
 42
0.000000001
 43
0.00000001
 40
0.0
 40
0.0
 40
0.0
 40
0.0
 40
1.0
 40
1.0
 40
1.0
 40
1.0
 10
2.866025403784477
 20
-5.48261149951135
 30
0.0
 10
2.531389365450252
 20
-5.497944794906203
 30
0.0
 10
2.199871408789448
 20
-5.503131926996772
 30
0.0
 10
1.866192416173817
 20
-5.498200543221103
 30
0.0
  0
SPLINE
  5
216
330
1F
100
AcDbEntity
  8
외형선
  6
Continuous
370
    15
100
AcDbSpline
210
0.0
220
0.0
230
1.0
 70
    24
 71
     3
 72
    14
 73
    10
 74
     0
 42
0.000000001
 43
0.00000001
 40
0.0
 40
0.0
 40
0.0
 40
0.0
 40
0.1652482020179429
 40
0.3354961230477344
 40
0.4974523922801794
 40
0.66410540429206
 40
0.8260616735245423
 40
0.9927146855364655
 40
1.0
 40
1.0
 40
1.0
 40
1.0
 10
2.866025403784477
 20
-5.48261149951135
 30
0.0
 10
2.866025403784477
 20
-5.298665892469586
 30
0.0
 10
2.866025403784448
 20
-4.925209254148797
 30
0.0
 10
2.86602540378459
 20
-4.360113937110924
 30
0.0
 10
2.86602540378442
 20
-3.807169104112603
 30
0.0
 10
2.866025403784533
 20
-3.287158717415039
 30
0.0
 10
2.866025403784363
 20
-2.812011408231442
 30
0.0
 10
2.866025403784562
 20
-2.506779416072121
 30
0.0
 10
2.866025403784448
 20
-2.381805887691428
 30
0.0
 10
2.866025403784477
 20
-2.376571437801516
 30
0.0
  0
SPLINE
  5
217
330
1F
100
AcDbEntity
  8
외형선
  6
Continuous
370
    15
100
AcDbSpline
210
0.0
220
0.0
230
1.0
 70
     8
 71
     3
 72
     9
 73
     5
 74
     0
 42
0.000000001
 43
0.00000001
 40
0.0
 40
0.0
 40
0.0
 40
0.0
 40
0.4176613082593156
 40
1.0
 40
1.0
 40
1.0
 40
1.0
 10
2.109239502794708
 20
5.497660775823128
 30
0.0
 10
2.214550555435551
 20
5.49809432914661
 30
0.0
 10
2.466695177305695
 20
5.499132379152449
 30
0.0
 10
2.719062277069554
 20
5.488691580524865
 30
0.0
 10
2.866025403784477
 20
5.48261149951135
 30
0.0
  0
LINE
  5
218
330
1F
100
AcDbEntity
  8
중심선
100
AcDbLine
 10
-85.13397459621555
 20
0.0
 30
0.0
 11
30.86602540378448
 21
0.0
 31
0.0
  0
CIRCLE
  5
219
330
1F
100
AcDbEntity
  8
해칭선
100
AcDbCircle
 10
0.0
 20
-0.0010749287238951
 30
0.0
 40
2.999999999999997
  0
DIMENSION
  5
21A
330
1F
100
AcDbEntity
  8
치수문자_일반주서
100
AcDbDimension
  2
*D12
 10
37.96603149318209
 20
-5.499999999999922
 30
0.0
 11
37.96603149318207
 21
0.0
 31
0.0
 70
   160
  1
%%c<>
 71
     2
 42
11.0
 52
-270.0
  3
SLDDIMSTYLE0
100
AcDbAlignedDimension
 13
17.07327956851088
 23
5.5
 33
0.0
 14
17.07327956851088
 24
-5.5
 34
0.0
 50
90.0000000000002
100
AcDbRotatedDimension
  0
DIMENSION
  5
21B
330
1F
100
AcDbEntity
  8
치수문자_일반주서
100
AcDbDimension
  2
*D13
 10
-94.33397459621551
 20
-6.00000000000005
 30
0.0
 11
-94.33397459621554
 21
0.0
 31
0.0
 70
   160
  1
%%c<>
 71
     2
 42
12.0
 52
-270.0
  3
SLDDIMSTYLE0
100
AcDbAlignedDimension
 13
-80.93397459621553
 23
6.0
 33
0.0
 14
-80.93397459621553
 24
-6.0
 34
0.0
 50
90.0000000000002
100
AcDbRotatedDimension
  0
DIMENSION
  5
21C
330
1F
100
AcDbEntity
  8
치수문자_일반주서
100
AcDbDimension
  2
*D14
 10
2.866025403784505
 20
22.72857589162691
 30
0.0
 11
15.36602540378453
 21
22.72857589162691
 31
0.0
 70
   160
  1
<>
 71
     2
 42
24.99999999999997
  3
SLDDIMSTYLE1
100
AcDbAlignedDimension
 13
27.86602540378448
 23
5.275405437384009
 33
0.0
 14
2.866025403784505
 24
5.482611499511357
 34
0.0
 50
-0.0000000000002117
100
AcDbRotatedDimension
  0
DIMENSION
  5
21D
330
1F
100
AcDbEntity
  8
치수문자_일반주서
100
AcDbDimension
  2
*D15
 10
-82.13397459621555
 20
30.14493858199379
 30
0.0
 11
-27.13397459621552
 21
30.14493858199379
 31
0.0
 70
   160
  1
<>
 71
     2
 42
110.0
  3
SLDDIMSTYLE1
100
AcDbAlignedDimension
 13
27.86602540378448
 23
5.275405437384009
 33
0.0
 14
-82.13397459621555
 24
4.800000000000004
 34
0.0
 50
0.0000000000000037
100
AcDbRotatedDimension
  0
INSERT
  5
21E
330
1F
100
AcDbEntity
  8
해칭선
100
AcDbBlockReference
  2
SW_DOWELSYMBOL_0
 10
0.0
 20
-0.0010749287238951
 30
0.0
  0
ARC
  5
21F
330
1F
100
AcDbEntity
  8
외형선
  6
Continuous
 62
     1
370
    15
100
AcDbCircle
 10
27.66602540378446
 20
5.299999999999997
 30
0.0
 40
0.1999999999999999
100
AcDbArc
 50
0.0
 51
90.0
1001
PE_URL
1000

  0
ARC
  5
220
102
{ACAD_REACTORS
330
254
102
}
330
1F
100
AcDbEntity
  8
외형선
  6
Continuous
 62
     1
370
    15
100
AcDbCircle
 10
27.66602540378446
 20
-5.300000000000011
 30
0.0
 40
0.1999999999999999
100
AcDbArc
 50
270.0
 51
0.0
1001
PE_URL
1000

  0
DIMENSION
  5
353
102
{ACAD_REACTORS
102
}
102
{ACAD_XDICTIONARY
360
354
102
}
330
1F
100
AcDbEntity
  8
치수문자_일반주서
100
AcDbDimension
  2
*D28
 10
27.66602540378446
 20
-5.300000000000011
 30
0.0
 11
33.14800562390215
 21
-18.25458532854082
 31
0.0
 70
   164
 71
     5
 42
0.2000000000000003
  3
SLDDIMSTYLE1
100
AcDbRadialDimension
 15
27.74396780204532
 25
-5.484187357202795
 35
0.0
 40
0.0
1001
ACAD
1000
DSTYLE
1002
{
1070
    78
1070
     8
1002
}
1001
ACAD_DSTYLE_DIMRADIAL_EXTENSION
1070
   387
1070
     1
1070
   388
1040
4.71238898038469
1070
   390
1040
0.0
1001
PE_URL
1000

  0
ENDSEC
  0
SECTION
  2
OBJECTS
  0
DICTIONARY
  5
C
330
0
100
AcDbDictionary
281
     1
  3
ACAD_GROUP
350
D
  3
ACAD_LAYOUT
350
1A
  3
ACAD_MLINESTYLE
350
17
  3
ACAD_PLOTSETTINGS
350
19
  3
ACAD_PLOTSTYLENAME
350
E
  3
ACAD_SCALELIST
350
47
  3
APPDATA
350
131
  3
DWGPROPS
350
363
  0
DICTIONARY
  5
2E4
330
2
100
AcDbDictionary
280
     1
281
     1
  3
ACAD_LAYERSTATES
360
2E5
  0
DICTIONARY
  5
360
330
1F
100
AcDbDictionary
280
     1
281
     1
  3
DIM_BOUNDING_BOXES_V1
360
361
  0
DICTIONARY
  5
354
330
353
100
AcDbDictionary
280
     1
281
     1
  0
DICTIONARY
  5
D
102
{ACAD_REACTORS
330
C
102
}
330
C
100
AcDbDictionary
281
     1
  0
DICTIONARY
  5
1A
102
{ACAD_REACTORS
330
C
102
}
330
C
100
AcDbDictionary
281
     1
  3
Layout1
350
1E
  3
Layout2
350
26
  3
Model
350
22
  0
DICTIONARY
  5
17
102
{ACAD_REACTORS
330
C
102
}
330
C
100
AcDbDictionary
281
     1
  3
Standard
350
18
  0
DICTIONARY
  5
19
102
{ACAD_REACTORS
330
C
102
}
330
C
100
AcDbDictionary
281
     1
  0
ACDBDICTIONARYWDFLT
  5
E
102
{ACAD_REACTORS
330
C
102
}
330
C
100
AcDbDictionary
281
     1
  3
Normal
350
F
100
AcDbDictionaryWithDefault
340
F
  0
DICTIONARY
  5
47
102
{ACAD_REACTORS
330
C
102
}
330
C
100
AcDbDictionary
281
     1
  3
A0
350
48
  3
A1
350
49
  3
A2
350
4A
  3
A3
350
4B
  3
A4
350
4C
  3
A5
350
4D
  3
A6
350
4E
  3
A7
350
4F
  3
A8
350
50
  3
A9
350
51
  3
B0
350
52
  3
B1
350
53
  3
B2
350
54
  3
B3
350
55
  3
B4
350
56
  3
B5
350
57
  3
B6
350
58
  3
B7
350
59
  3
B8
350
5A
  3
B9
350
5B
  3
C0
350
5C
  3
C1
350
5D
  3
C2
350
5E
  3
C3
350
5F
  3
C4
350
60
  3
C5
350
61
  3
C6
350
62
  3
C7
350
63
  3
C8
350
64
  3
C9
350
65
  3
D0
350
66
  3
D1
350
67
  3
D2
350
68
  0
DICTIONARY
  5
131
102
{ACAD_REACTORS
330
C
102
}
330
C
100
AcDbDictionary
281
     1
  0
XRECORD
  5
363
102
{ACAD_REACTORS
330
C
102
}
330
C
100
AcDbXrecord
280
     1
  1
DWGPROPS COOKIE
  2

  3

  4

  6

  7

  8
12016016
  9

300
=
301
=
302
=
303
=
304
=
305
=
306
=
307
=
308
=
309
=
 40
0.0
 41
2458269.444851968
 42
2459702.232924386
  1

 90
        0
  0
DICTIONARY
  5
2E5
102
{ACAD_REACTORS
330
2E4
102
}
330
2E4
100
AcDbDictionary
281
     1
  0
DICTIONARY
  5
361
102
{ACAD_REACTORS
330
360
102
}
330
360
100
AcDbDictionary
281
     1
  0
LAYOUT
  5
1E
102
{ACAD_REACTORS
330
1A
102
}
330
1A
100
AcDbPlotSettings
  1

  2
none_device
  4

  6

 40
0.0
 41
0.0
 42
0.0
 43
0.0
 44
0.0
 45
0.0
 46
0.0
 47
0.0
 48
0.0
 49
0.0
140
0.0
141
0.0
142
1.0
143
1.0
 70
   688
 72
     1
 73
     0
 74
     5
  7

 75
    16
147
1.0
148
0.0
149
0.0
100
AcDbLayout
  1
Layout1
 70
     1
 71
     1
 10
0.0
 20
0.0
 11
420.0
 21
297.0
 12
0.0
 22
0.0
 32
0.0
 14
1.000000000000000E+20
 24
1.000000000000000E+20
 34
1.000000000000000E+20
 15
-1.000000000000000E+20
 25
-1.000000000000000E+20
 35
-1.000000000000000E+20
146
0.0
 13
0.0
 23
0.0
 33
0.0
 16
1.0
 26
0.0
 36
0.0
 17
0.0
 27
1.0
 37
0.0
 76
     0
330
1B
  0
LAYOUT
  5
26
102
{ACAD_REACTORS
330
1A
102
}
330
1A
100
AcDbPlotSettings
  1

  2
none_device
  4

  6

 40
0.0
 41
0.0
 42
0.0
 43
0.0
 44
0.0
 45
0.0
 46
0.0
 47
0.0
 48
0.0
 49
0.0
140
0.0
141
0.0
142
1.0
143
1.0
 70
   688
 72
     1
 73
     0
 74
     5
  7

 75
    16
147
1.0
148
0.0
149
0.0
100
AcDbLayout
  1
Layout2
 70
     1
 71
     2
 10
0.0
 20
0.0
 11
0.0
 21
0.0
 12
0.0
 22
0.0
 32
0.0
 14
0.0
 24
0.0
 34
0.0
 15
0.0
 25
0.0
 35
0.0
146
0.0
 13
0.0
 23
0.0
 33
0.0
 16
1.0
 26
0.0
 36
0.0
 17
0.0
 27
1.0
 37
0.0
 76
     0
330
23
  0
LAYOUT
  5
22
102
{ACAD_REACTORS
330
1A
102
}
330
1A
100
AcDbPlotSettings
  1

  2
none_device
  4
ANSI_A_(11.00_x_8.50_Inches)
  6

 40
6.35
 41
19.05
 42
6.35000508
 43
19.05000254
 44
279.4
 45
215.9
 46
110.4931071202931
 47
105.1123284742807
 48
0.0
 49
0.0
140
0.0
141
0.0
142
0.0789901932255935
143
1.0
 70
  1696
 72
     0
 73
     0
 74
     0
  7

 75
     0
147
0.0235690232323232
148
0.0
149
0.0
100
AcDbLayout
  1
Model
 70
     1
 71
     0
 10
0.0
 20
0.0
 11
420.0
 21
297.0
 12
0.0
 22
0.0
 32
0.0
 14
-98.70897459621554
 24
-49.97180738881174
 34
0.0
 15
79.73835494594202
 25
34.51993858199378
 35
0.0
146
0.0
 13
0.0
 23
0.0
 33
0.0
 16
1.0
 26
0.0
 36
0.0
 17
0.0
 27
1.0
 37
0.0
 76
     0
330
1F
331
29
  0
MLINESTYLE
  5
18
102
{ACAD_REACTORS
330
17
102
}
330
17
100
AcDbMlineStyle
  2
Standard
 70
     0
  3

 62
   256
 51
90.0
 52
90.0
 71
     2
 49
0.5
 62
   256
  6
BYLAYER
 49
-0.5
 62
   256
  6
BYLAYER
  0
ACDBPLACEHOLDER
  5
F
102
{ACAD_REACTORS
330
E
102
}
330
E
  0
SCALE
  5
48
102
{ACAD_REACTORS
330
47
102
}
330
47
100
AcDbScale
 70
     0
300
1:1
140
1.0
141
1.0
290
     1
  0
SCALE
  5
49
102
{ACAD_REACTORS
330
47
102
}
330
47
100
AcDbScale
 70
     0
300
1:2
140
1.0
141
2.0
290
     0
  0
SCALE
  5
4A
102
{ACAD_REACTORS
330
47
102
}
330
47
100
AcDbScale
 70
     0
300
1:4
140
1.0
141
4.0
290
     0
  0
SCALE
  5
4B
102
{ACAD_REACTORS
330
47
102
}
330
47
100
AcDbScale
 70
     0
300
1:5
140
1.0
141
5.0
290
     0
  0
SCALE
  5
4C
102
{ACAD_REACTORS
330
47
102
}
330
47
100
AcDbScale
 70
     0
300
1:8
140
1.0
141
8.0
290
     0
  0
SCALE
  5
4D
102
{ACAD_REACTORS
330
47
102
}
330
47
100
AcDbScale
 70
     0
300
1:10
140
1.0
141
10.0
290
     0
  0
SCALE
  5
4E
102
{ACAD_REACTORS
330
47
102
}
330
47
100
AcDbScale
 70
     0
300
1:16
140
1.0
141
16.0
290
     0
  0
SCALE
  5
4F
102
{ACAD_REACTORS
330
47
102
}
330
47
100
AcDbScale
 70
     0
300
1:20
140
1.0
141
20.0
290
     0
  0
SCALE
  5
50
102
{ACAD_REACTORS
330
47
102
}
330
47
100
AcDbScale
 70
     0
300
1:30
140
1.0
141
30.0
290
     0
  0
SCALE
  5
51
102
{ACAD_REACTORS
330
47
102
}
330
47
100
AcDbScale
 70
     0
300
1:40
140
1.0
141
40.0
290
     0
  0
SCALE
  5
52
102
{ACAD_REACTORS
330
47
102
}
330
47
100
AcDbScale
 70
     0
300
1:50
140
1.0
141
50.0
290
     0
  0
SCALE
  5
53
102
{ACAD_REACTORS
330
47
102
}
330
47
100
AcDbScale
 70
     0
300
1:100
140
1.0
141
100.0
290
     0
  0
SCALE
  5
54
102
{ACAD_REACTORS
330
47
102
}
330
47
100
AcDbScale
 70
     0
300
2:1
140
2.0
141
1.0
290
     0
  0
SCALE
  5
55
102
{ACAD_REACTORS
330
47
102
}
330
47
100
AcDbScale
 70
     0
300
4:1
140
4.0
141
1.0
290
     0
  0
SCALE
  5
56
102
{ACAD_REACTORS
330
47
102
}
330
47
100
AcDbScale
 70
     0
300
8:1
140
8.0
141
1.0
290
     0
  0
SCALE
  5
57
102
{ACAD_REACTORS
330
47
102
}
330
47
100
AcDbScale
 70
     0
300
10:1
140
10.0
141
1.0
290
     0
  0
SCALE
  5
58
102
{ACAD_REACTORS
330
47
102
}
330
47
100
AcDbScale
 70
     0
300
100:1
140
100.0
141
1.0
290
     0
  0
SCALE
  5
59
102
{ACAD_REACTORS
330
47
102
}
330
47
100
AcDbScale
 70
     0
300
1/128" = 1'-0"
140
0.0078125
141
12.0
290
     0
  0
SCALE
  5
5A
102
{ACAD_REACTORS
330
47
102
}
330
47
100
AcDbScale
 70
     0
300
1/64" = 1'-0"
140
0.015625
141
12.0
290
     0
  0
SCALE
  5
5B
102
{ACAD_REACTORS
330
47
102
}
330
47
100
AcDbScale
 70
     0
300
1/32" = 1'-0"
140
0.03125
141
12.0
290
     0
  0
SCALE
  5
5C
102
{ACAD_REACTORS
330
47
102
}
330
47
100
AcDbScale
 70
     0
300
1/16" = 1'-0"
140
0.0625
141
12.0
290
     0
  0
SCALE
  5
5D
102
{ACAD_REACTORS
330
47
102
}
330
47
100
AcDbScale
 70
     0
300
3/32" = 1'-0"
140
0.09375
141
12.0
290
     0
  0
SCALE
  5
5E
102
{ACAD_REACTORS
330
47
102
}
330
47
100
AcDbScale
 70
     0
300
1/8" = 1'-0"
140
0.125
141
12.0
290
     0
  0
SCALE
  5
5F
102
{ACAD_REACTORS
330
47
102
}
330
47
100
AcDbScale
 70
     0
300
3/16" = 1'-0"
140
0.1875
141
12.0
290
     0
  0
SCALE
  5
60
102
{ACAD_REACTORS
330
47
102
}
330
47
100
AcDbScale
 70
     0
300
1/4" = 1'-0"
140
0.25
141
12.0
290
     0
  0
SCALE
  5
61
102
{ACAD_REACTORS
330
47
102
}
330
47
100
AcDbScale
 70
     0
300
3/8" = 1'-0"
140
0.375
141
12.0
290
     0
  0
SCALE
  5
62
102
{ACAD_REACTORS
330
47
102
}
330
47
100
AcDbScale
 70
     0
300
1/2" = 1'-0"
140
0.5
141
12.0
290
     0
  0
SCALE
  5
63
102
{ACAD_REACTORS
330
47
102
}
330
47
100
AcDbScale
 70
     0
300
3/4" = 1'-0"
140
0.75
141
12.0
290
     0
  0
SCALE
  5
64
102
{ACAD_REACTORS
330
47
102
}
330
47
100
AcDbScale
 70
     0
300
1" = 1'-0"
140
1.0
141
12.0
290
     0
  0
SCALE
  5
65
102
{ACAD_REACTORS
330
47
102
}
330
47
100
AcDbScale
 70
     0
300
1-1/2" = 1'-0"
140
1.5
141
12.0
290
     0
  0
SCALE
  5
66
102
{ACAD_REACTORS
330
47
102
}
330
47
100
AcDbScale
 70
     0
300
3" = 1'-0"
140
3.0
141
12.0
290
     0
  0
SCALE
  5
67
102
{ACAD_REACTORS
330
47
102
}
330
47
100
AcDbScale
 70
     0
300
6" = 1'-0"
140
6.0
141
12.0
290
     0
  0
SCALE
  5
68
102
{ACAD_REACTORS
330
47
102
}
330
47
100
AcDbScale
 70
     0
300
1'-0" = 1'-0"
140
12.0
141
12.0
290
     0
  0
ENDSEC
  0
EOF
