  0
SECTION
  2
HEADER
  9
$ACADVER
  1
AC1015
  9
$ACADMAINTVER
 70
     6
  9
$DWGCODEPAGE
  3
ANSI_949
  9
$INSBASE
 10
0.0
 20
0.0
 30
0.0
  9
$EXTMIN
 10
-117.775
 20
-49.97180738881174
 30
0.0
  9
$EXTMAX
 10
79.73835494594202
 20
38.50191477006903
 30
0.0
  9
$LIMMIN
 10
0.0
 20
0.0
  9
$LIMMAX
 10
420.0
 20
297.0
  9
$ORTHOMODE
 70
     0
  9
$REGENMODE
 70
     1
  9
$FILLMODE
 70
     1
  9
$QTEXTMODE
 70
     0
  9
$MIRRTEXT
 70
     1
  9
$LTSCALE
 40
1.0
  9
$ATTMODE
 70
     1
  9
$TEXTSIZE
 40
3.5
  9
$TRACEWID
 40
1.0
  9
$TEXTSTYLE
  7
Standard
  9
$CLAYER
  8
0
  9
$CELTYPE
  6
ByLayer
  9
$CECOLOR
 62
   256
  9
$CELTSCALE
 40
1.0
  9
$DISPSILH
 70
     0
  9
$DIMSCALE
 40
1.0
  9
$DIMASZ
 40
3.302
  9
$DIMEXO
 40
1.0
  9
$DIMDLI
 40
3.75
  9
$DIMRND
 40
0.0
  9
$DIMDLE
 40
0.0
  9
$DIMEXE
 40
1.0
  9
$DIMTP
 40
0.0
  9
$DIMTM
 40
0.0
  9
$DIMTXT
 40
3.5
  9
$DIMCEN
 40
2.5
  9
$DIMTSZ
 40
0.0
  9
$DIMTOL
 70
     0
  9
$DIMLIM
 70
     0
  9
$DIMTIH
 70
     1
  9
$DIMTOH
 70
     1
  9
$DIMSE1
 70
     0
  9
$DIMSE2
 70
     0
  9
$DIMTAD
 70
     1
  9
$DIMZIN
 70
     0
  9
$DIMBLK
  1

  9
$DIMASO
 70
     1
  9
$DIMSHO
 70
     1
  9
$DIMPOST
  1

  9
$DIMAPOST
  1

  9
$DIMALT
 70
     0
  9
$DIMALTD
 70
     3
  9
$DIMALTF
 40
0.0393700787401575
  9
$DIMLFAC
 40
1.0
  9
$DIMTOFL
 70
     1
  9
$DIMTVP
 40
0.0
  9
$DIMTIX
 70
     0
  9
$DIMSOXD
 70
     0
  9
$DIMSAH
 70
     0
  9
$DIMBLK1
  1

  9
$DIMBLK2
  1

  9
$DIMSTYLE
  2
ISO-25
  9
$DIMCLRD
 70
     0
  9
$DIMCLRE
 70
     0
  9
$DIMCLRT
 70
     0
  9
$DIMTFAC
 40
1.0
  9
$DIMGAP
 40
1.524
  9
$DIMJUST
 70
     0
  9
$DIMSD1
 70
     0
  9
$DIMSD2
 70
     0
  9
$DIMTOLJ
 70
     0
  9
$DIMTZIN
 70
     0
  9
$DIMALTZ
 70
     0
  9
$DIMALTTZ
 70
     0
  9
$DIMUPT
 70
     0
  9
$DIMDEC
 70
     2
  9
$DIMTDEC
 70
     2
  9
$DIMALTU
 70
     2
  9
$DIMALTTD
 70
     3
  9
$DIMTXSTY
  7
Standard
  9
$DIMAUNIT
 70
     0
  9
$DIMADEC
 70
     2
  9
$DIMALTRND
 40
0.0
  9
$DIMAZIN
 70
     0
  9
$DIMDSEP
 70
    44
  9
$DIMATFIT
 70
     3
  9
$DIMFRAC
 70
     0
  9
$DIMLDRBLK
  1

  9
$DIMLUNIT
 70
     2
  9
$DIMLWD
 70
    -2
  9
$DIMLWE
 70
    -2
  9
$DIMTMOVE
 70
     0
  9
$LUNITS
 70
     2
  9
$LUPREC
 70
     2
  9
$SKETCHINC
 40
1.0
  9
$FILLETRAD
 40
10.0
  9
$AUNITS
 70
     0
  9
$AUPREC
 70
     2
  9
$MENU
  1
.
  9
$ELEVATION
 40
0.0
  9
$PELEVATION
 40
0.0
  9
$THICKNESS
 40
0.0
  9
$LIMCHECK
 70
     0
  9
$CHAMFERA
 40
0.0
  9
$CHAMFERB
 40
0.0
  9
$CHAMFERC
 40
0.0
  9
$CHAMFERD
 40
0.0
  9
$SKPOLY
 70
     0
  9
$TDCREATE
 40
2458269.825334005
  9
$TDUCREATE
 40
2458269.450334005
  9
$TDUPDATE
 40
2459702.66298691
  9
$TDUUPDATE
 40
2459702.28798691
  9
$TDINDWG
 40
0.0011945949
  9
$TDUSRTIMER
 40
0.0011945833
  9
$USRTIMER
 70
     1
  9
$ANGBASE
 50
0.0
  9
$ANGDIR
 70
     0
  9
$PDMODE
 70
     0
  9
$PDSIZE
 40
-1.0
  9
$PLINEWID
 40
0.0
  9
$SPLFRAME
 70
     0
  9
$SPLINETYPE
 70
     6
  9
$SPLINESEGS
 70
     8
  9
$HANDSEED
  5
244
  9
$SURFTAB1
 70
     6
  9
$SURFTAB2
 70
     6
  9
$SURFTYPE
 70
     6
  9
$SURFU
 70
     6
  9
$SURFV
 70
     6
  9
$UCSBASE
  2

  9
$UCSNAME
  2

  9
$UCSORG
 10
0.0
 20
0.0
 30
0.0
  9
$UCSXDIR
 10
1.0
 20
0.0
 30
0.0
  9
$UCSYDIR
 10
0.0
 20
1.0
 30
0.0
  9
$UCSORTHOREF
  2

  9
$UCSORTHOVIEW
 70
     0
  9
$UCSORGTOP
 10
0.0
 20
0.0
 30
0.0
  9
$UCSORGBOTTOM
 10
0.0
 20
0.0
 30
0.0
  9
$UCSORGLEFT
 10
0.0
 20
0.0
 30
0.0
  9
$UCSORGRIGHT
 10
0.0
 20
0.0
 30
0.0
  9
$UCSORGFRONT
 10
0.0
 20
0.0
 30
0.0
  9
$UCSORGBACK
 10
0.0
 20
0.0
 30
0.0
  9
$PUCSBASE
  2

  9
$PUCSNAME
  2

  9
$PUCSORG
 10
0.0
 20
0.0
 30
0.0
  9
$PUCSXDIR
 10
1.0
 20
0.0
 30
0.0
  9
$PUCSYDIR
 10
0.0
 20
1.0
 30
0.0
  9
$PUCSORTHOREF
  2

  9
$PUCSORTHOVIEW
 70
     0
  9
$PUCSORGTOP
 10
0.0
 20
0.0
 30
0.0
  9
$PUCSORGBOTTOM
 10
0.0
 20
0.0
 30
0.0
  9
$PUCSORGLEFT
 10
0.0
 20
0.0
 30
0.0
  9
$PUCSORGRIGHT
 10
0.0
 20
0.0
 30
0.0
  9
$PUCSORGFRONT
 10
0.0
 20
0.0
 30
0.0
  9
$PUCSORGBACK
 10
0.0
 20
0.0
 30
0.0
  9
$USERI1
 70
     0
  9
$USERI2
 70
     0
  9
$USERI3
 70
     0
  9
$USERI4
 70
     0
  9
$USERI5
 70
     0
  9
$USERR1
 40
0.0
  9
$USERR2
 40
0.0
  9
$USERR3
 40
0.0
  9
$USERR4
 40
0.0
  9
$USERR5
 40
0.0
  9
$WORLDVIEW
 70
     1
  9
$SHADEDGE
 70
     3
  9
$SHADEDIF
 70
    70
  9
$TILEMODE
 70
     1
  9
$MAXACTVP
 70
    64
  9
$PINSBASE
 10
0.0
 20
0.0
 30
0.0
  9
$PLIMCHECK
 70
     0
  9
$PEXTMIN
 10
1.000000000000000E+20
 20
1.000000000000000E+20
 30
1.000000000000000E+20
  9
$PEXTMAX
 10
-1.000000000000000E+20
 20
-1.000000000000000E+20
 30
-1.000000000000000E+20
  9
$PLIMMIN
 10
0.0
 20
0.0
  9
$PLIMMAX
 10
0.0
 20
0.0
  9
$UNITMODE
 70
     0
  9
$VISRETAIN
 70
     1
  9
$PLINEGEN
 70
     0
  9
$PSLTSCALE
 70
     1
  9
$TREEDEPTH
 70
  3020
  9
$CMLSTYLE
  2
Standard
  9
$CMLJUST
 70
     0
  9
$CMLSCALE
 40
20.0
  9
$PROXYGRAPHICS
 70
     1
  9
$MEASUREMENT
 70
     1
  9
$CELWEIGHT
370
    -1
  9
$ENDCAPS
280
     0
  9
$JOINSTYLE
280
     0
  9
$LWDISPLAY
290
     1
  9
$INSUNITS
 70
     4
  9
$HYPERLINKBASE
  1

  9
$STYLESHEET
  1

  9
$XEDIT
290
     1
  9
$CEPSNTYPE
380
     0
  9
$PSTYLEMODE
290
     1
  9
$FINGERPRINTGUID
  2
{BA8AD904-FD1B-44AD-B622-34490AE196E5}
  9
$VERSIONGUID
  2
{FAEB1C32-E019-11D5-929B-00C0DF256EC4}
  9
$EXTNAMES
290
     1
  9
$PSVPSCALE
 40
0.0
  9
$OLESTARTUP
290
     0
  0
ENDSEC
  0
SECTION
  2
CLASSES
  0
CLASS
  1
ACDBDICTIONARYWDFLT
  2
AcDbDictionaryWithDefault
  3
ObjectDBX Classes
 90
        0
280
     0
281
     0
  0
CLASS
  1
VISUALSTYLE
  2
AcDbVisualStyle
  3
ObjectDBX Classes
 90
     4095
280
     0
281
     0
  0
CLASS
  1
MATERIAL
  2
AcDbMaterial
  3
ObjectDBX Classes
 90
     1153
280
     0
281
     0
  0
CLASS
  1
SCALE
  2
AcDbScale
  3
ObjectDBX Classes
 90
     1153
280
     0
281
     0
  0
CLASS
  1
SUN
  2
AcDbSun
  3
SCENEOE
 90
     1153
280
     0
281
     0
  0
CLASS
  1
ACDBPLACEHOLDER
  2
AcDbPlaceHolder
  3
ObjectDBX Classes
 90
        0
280
     0
281
     0
  0
CLASS
  1
LAYOUT
  2
AcDbLayout
  3
ObjectDBX Classes
 90
        0
280
     0
281
     0
  0
CLASS
  1
TABLESTYLE
  2
AcDbTableStyle
  3
ObjectDBX Classes
 90
     4095
280
     0
281
     0
  0
CLASS
  1
MLEADERSTYLE
  2
AcDbMLeaderStyle
  3
ACDB_MLEADERSTYLE_CLASS
 90
     4095
280
     0
281
     0
  0
CLASS
  1
BREAKDATA
  2
AcDbBreakData
  3
ObjectDBX Classes
 90
     1024
280
     0
281
     0
  0
CLASS
  1
DIMASSOC
  2
AcDbDimAssoc
  3
"AcDbDimAssoc|Product Desc:     AcDim ARX App For Dimension|Company:          Autodesk, Inc.|WEB Address:      www.autodesk.com"
 90
        0
280
     0
281
     0
  0
CLASS
  1
SORTENTSTABLE
  2
AcDbSortentsTable
  3
ObjectDBX Classes
 90
        0
280
     0
281
     0
  0
ENDSEC
  0
SECTION
  2
TABLES
  0
TABLE
  2
VPORT
  5
8
330
0
100
AcDbSymbolTable
 70
     1
  0
VPORT
  5
29
330
8
100
AcDbSymbolTableRecord
100
AcDbViewportTableRecord
  2
*Active
 70
     0
 10
0.0
 20
0.0
 11
1.0
 21
1.0
 12
17.30633797894771
 22
-6.979497348983998
 13
0.0
 23
0.0
 14
10.0
 24
10.0
 15
10.0
 25
10.0
 16
0.0
 26
0.0
 36
1.0
 17
0.0
 27
0.0
 37
0.0
 40
112.5339007451851
 41
1.531481481481481
 42
50.0
 43
0.0
 44
0.0
 50
0.0
 51
0.0
 71
    16
 72
  2000
 73
     1
 74
     3
 75
     0
 76
     0
 77
     0
 78
     0
281
     0
 65
     1
110
0.0
120
0.0
130
0.0
111
1.0
121
0.0
131
0.0
112
0.0
122
1.0
132
0.0
 79
     0
146
0.0
  0
ENDTAB
  0
TABLE
  2
LTYPE
  5
5
330
0
100
AcDbSymbolTable
 70
     6
  0
LTYPE
  5
14
330
5
100
AcDbSymbolTableRecord
100
AcDbLinetypeTableRecord
  2
ByBlock
 70
     0
  3

 72
    65
 73
     0
 40
0.0
  0
LTYPE
  5
15
330
5
100
AcDbSymbolTableRecord
100
AcDbLinetypeTableRecord
  2
ByLayer
 70
     0
  3

 72
    65
 73
     0
 40
0.0
  0
LTYPE
  5
16
330
5
100
AcDbSymbolTableRecord
100
AcDbLinetypeTableRecord
  2
Continuous
 70
     0
  3
Solid line
 72
    65
 73
     0
 40
0.0
  0
LTYPE
  5
6A
330
5
100
AcDbSymbolTableRecord
100
AcDbLinetypeTableRecord
  2
HIDDEN
 70
     0
  3
Hidden __ __ __ __ __ __ __ __ __ __ __ __ __ __
 72
    65
 73
     2
 40
1.905
 49
1.27
 74
     0
 49
-0.635
 74
     0
  0
LTYPE
  5
6B
330
5
100
AcDbSymbolTableRecord
100
AcDbLinetypeTableRecord
  2
PHANTOM
 70
     0
  3
Phantom ______  __  __  ______  __  __  ______
 72
    65
 73
     6
 40
12.7
 49
6.35
 74
     0
 49
-1.27
 74
     0
 49
1.27
 74
     0
 49
-1.27
 74
     0
 49
1.27
 74
     0
 49
-1.27
 74
     0
  0
LTYPE
  5
6C
330
5
100
AcDbSymbolTableRecord
100
AcDbLinetypeTableRecord
  2
CENTER
 70
     0
  3
Center ____ _ ____ _ ____ _ ____ _ ____ _ ____
 72
    65
 73
     4
 40
10.16
 49
6.35
 74
     0
 49
-1.27
 74
     0
 49
1.27
 74
     0
 49
-1.27
 74
     0
  0
LTYPE
  5
6D
330
5
100
AcDbSymbolTableRecord
100
AcDbLinetypeTableRecord
  2
CENTERX2
 70
     0
  3
Center (2x) ________  __  ________  __  _____
 72
    65
 73
     4
 40
20.32
 49
12.7
 74
     0
 49
-2.54
 74
     0
 49
2.54
 74
     0
 49
-2.54
 74
     0
  0
LTYPE
  5
6E
330
5
100
AcDbSymbolTableRecord
100
AcDbLinetypeTableRecord
  2
DOT2
 70
     0
  3
Dot (.5x) ........................................
 72
    65
 73
     2
 40
0.635
 49
0.0
 74
     0
 49
-0.635
 74
     0
  0
ENDTAB
  0
TABLE
  2
LAYER
  5
2
102
{ACAD_XDICTIONARY
360
1B4
102
}
330
0
100
AcDbSymbolTable
 70
    18
  0
LAYER
  5
10
330
2
100
AcDbSymbolTableRecord
100
AcDbLayerTableRecord
  2
0
 70
     0
 62
     7
  6
Continuous
370
    -3
390
F
  0
LAYER
  5
6F
330
2
100
AcDbSymbolTableRecord
100
AcDbLayerTableRecord
  2
FORMAT
 70
     0
 62
     2
  6
Continuous
370
    -3
390
F
  0
LAYER
  5
70
330
2
100
AcDbSymbolTableRecord
100
AcDbLayerTableRecord
  2
외형선
 70
     0
 62
     4
  6
Continuous
370
    30
390
F
  0
LAYER
  5
71
330
2
100
AcDbSymbolTableRecord
100
AcDbLayerTableRecord
  2
숨은선
 70
     0
 62
     2
  6
HIDDEN
370
    15
390
F
  0
LAYER
  5
72
330
2
100
AcDbSymbolTableRecord
100
AcDbLayerTableRecord
  2
중심선
 70
     0
 62
     1
  6
CENTERX2
370
    -3
390
F
  0
LAYER
  5
73
330
2
100
AcDbSymbolTableRecord
100
AcDbLayerTableRecord
  2
파단선
 70
     0
 62
     4
  6
Continuous
370
    -3
390
F
  0
LAYER
  5
74
330
2
100
AcDbSymbolTableRecord
100
AcDbLayerTableRecord
  2
해칭선
 70
     0
 62
   100
  6
Continuous
370
    -3
390
F
  0
LAYER
  5
75
330
2
100
AcDbSymbolTableRecord
100
AcDbLayerTableRecord
  2
가는실선
 70
     0
 62
     4
  6
Continuous
370
    -3
390
F
  0
LAYER
  5
76
330
2
100
AcDbSymbolTableRecord
100
AcDbLayerTableRecord
  2
치수_보조선
 70
     0
 62
     4
  6
Continuous
370
    -3
390
F
  0
LAYER
  5
77
330
2
100
AcDbSymbolTableRecord
100
AcDbLayerTableRecord
  2
치수문자_일반주서
 70
     0
 62
     7
  6
Continuous
370
    15
390
F
  0
LAYER
  5
78
330
2
100
AcDbSymbolTableRecord
100
AcDbLayerTableRecord
  2
개별주서
 70
     0
 62
   100
  6
Continuous
370
    30
390
F
  0
LAYER
  5
79
330
2
100
AcDbSymbolTableRecord
100
AcDbLayerTableRecord
  2
중간선
 70
     0
 62
     2
  6
Continuous
370
    15
390
F
  0
LAYER
  5
7A
330
2
100
AcDbSymbolTableRecord
100
AcDbLayerTableRecord
  2
윤곽선
 70
     0
 62
     3
  6
Continuous
370
    40
390
F
  0
LAYER
  5
7B
330
2
100
AcDbSymbolTableRecord
100
AcDbLayerTableRecord
  2
중심마크
 70
     0
 62
   100
  6
Continuous
370
    30
390
F
  0
LAYER
  5
7C
330
2
100
AcDbSymbolTableRecord
100
AcDbLayerTableRecord
  2
가상선
 70
     0
 62
     4
  6
PHANTOM
370
    -3
390
F
  0
LAYER
  5
7D
330
2
100
AcDbSymbolTableRecord
100
AcDbLayerTableRecord
  2
특수지정선
 70
     0
 62
     5
  6
CENTERX2
370
    60
390
F
  0
LAYER
  5
7E
330
2
100
AcDbSymbolTableRecord
100
AcDbLayerTableRecord
  2
참조1
 70
     0
 62
    -4
  6
Continuous
370
    -3
390
F
  0
LAYER
  5
12B
330
2
100
AcDbSymbolTableRecord
100
AcDbLayerTableRecord
  2
Defpoints
 70
     0
 62
     7
  6
Continuous
290
     0
370
    -3
390
F
  0
ENDTAB
  0
TABLE
  2
STYLE
  5
3
330
0
100
AcDbSymbolTable
 70
     2
  0
STYLE
  5
11
330
3
100
AcDbSymbolTableRecord
100
AcDbTextStyleTableRecord
  2
Standard
 70
     0
 40
0.0
 41
1.0
 50
0.0
 71
     0
 42
3.5
  3
txt
  4

  0
STYLE
  5
94
330
3
100
AcDbSymbolTableRecord
100
AcDbTextStyleTableRecord
  2
SLDTEXTSTYLE0
 70
     0
 40
0.0
 41
0.75
 50
0.0
 71
     0
 42
3.5
  3
TXT
  4

  0
ENDTAB
  0
TABLE
  2
VIEW
  5
6
330
0
100
AcDbSymbolTable
 70
     0
  0
ENDTAB
  0
TABLE
  2
UCS
  5
7
330
0
100
AcDbSymbolTable
 70
     0
  0
ENDTAB
  0
TABLE
  2
APPID
  5
9
330
0
100
AcDbSymbolTable
 70
     4
  0
APPID
  5
12
330
9
100
AcDbSymbolTableRecord
100
AcDbRegAppTableRecord
  2
ACAD
 70
     0
  0
APPID
  5
137
330
9
100
AcDbSymbolTableRecord
100
AcDbRegAppTableRecord
  2
PE_URL
 70
     0
  0
APPID
  5
138
330
9
100
AcDbSymbolTableRecord
100
AcDbRegAppTableRecord
  2
ENABLE_CUSTOM_SPLIT
 70
     0
  0
APPID
  5
139
330
9
100
AcDbSymbolTableRecord
100
AcDbRegAppTableRecord
  2
ACAD_DSTYLE_DIMRADIAL_EXTENSION
 70
     0
  0
ENDTAB
  0
TABLE
  2
DIMSTYLE
  5
A
330
0
100
AcDbSymbolTable
 70
     3
100
AcDbDimStyleTable
  0
DIMSTYLE
105
27
330
A
100
AcDbSymbolTableRecord
100
AcDbDimStyleTableRecord
  2
ISO-25
 70
     0
 41
2.5
 42
0.625
 43
3.75
 44
1.25
 73
     0
 74
     0
 77
     1
 78
     8
140
2.5
141
2.5
143
0.03937007874016
147
0.625
171
     3
172
     1
178
     0
271
     2
272
     2
274
     3
278
    44
283
     0
284
     8
340
11
  0
DIMSTYLE
105
CB
102
{ACAD_REACTORS
330
CA
330
D8
330
168
330
177
102
}
330
A
100
AcDbSymbolTableRecord
100
AcDbDimStyleTableRecord
  2
SLDDIMSTYLE0
 70
     0
 41
3.302
 44
0.0
 45
0.000000001
 73
     0
 74
     0
 77
     1
 78
    12
 79
     3
140
3.5
147
0.875
172
     1
173
     1
178
     0
271
     2
272
     2
276
     2
284
    12
289
     0
340
94
  0
DIMSTYLE
105
E6
102
{ACAD_REACTORS
330
E5
330
F0
330
184
330
191
330
1A7
330
234
102
}
330
A
100
AcDbSymbolTableRecord
100
AcDbDimStyleTableRecord
  2
SLDDIMSTYLE1
 70
     0
 41
3.302
 44
0.0
 45
0.000000001
 73
     0
 74
     0
 77
     1
 78
    12
 79
     3
140
3.5
147
0.875
173
     1
178
     0
271
     2
272
     2
276
     2
284
    12
340
94
  0
ENDTAB
  0
TABLE
  2
BLOCK_RECORD
  5
1
330
0
100
AcDbSymbolTable
 70
    18
  0
BLOCK_RECORD
  5
1F
102
{ACAD_XDICTIONARY
360
231
102
}
330
1
100
AcDbSymbolTableRecord
100
AcDbBlockTableRecord
  2
*Model_Space
340
22
  0
BLOCK_RECORD
  5
1B
330
1
100
AcDbSymbolTableRecord
100
AcDbBlockTableRecord
  2
*Paper_Space
340
1E
  0
BLOCK_RECORD
  5
23
330
1
100
AcDbSymbolTableRecord
100
AcDbBlockTableRecord
  2
*Paper_Space0
340
26
  0
BLOCK_RECORD
  5
7F
330
1
100
AcDbSymbolTableRecord
100
AcDbBlockTableRecord
  2
블럭10
340
0
102
{BLKREFS
331
C3
102
}
  0
BLOCK_RECORD
  5
CC
330
1
100
AcDbSymbolTableRecord
100
AcDbBlockTableRecord
  2
_D
340
0
  0
BLOCK_RECORD
  5
D9
330
1
100
AcDbSymbolTableRecord
100
AcDbBlockTableRecord
  2
_D_1
340
0
  0
BLOCK_RECORD
  5
E7
330
1
100
AcDbSymbolTableRecord
100
AcDbBlockTableRecord
  2
_D_2
340
0
  0
BLOCK_RECORD
  5
F1
330
1
100
AcDbSymbolTableRecord
100
AcDbBlockTableRecord
  2
_D_3
340
0
  0
BLOCK_RECORD
  5
101
330
1
100
AcDbSymbolTableRecord
100
AcDbBlockTableRecord
  2
SW_DOWELSYMBOL_0
340
0
102
{BLKREFS
331
107
331
19E
331
0
102
}
  0
BLOCK_RECORD
  5
16B
330
1
100
AcDbSymbolTableRecord
100
AcDbBlockTableRecord
  2
*D8
340
0
  0
BLOCK_RECORD
  5
178
330
1
100
AcDbSymbolTableRecord
100
AcDbBlockTableRecord
  2
*D9
340
0
  0
BLOCK_RECORD
  5
185
330
1
100
AcDbSymbolTableRecord
100
AcDbBlockTableRecord
  2
*D10
340
0
  0
BLOCK_RECORD
  5
192
330
1
100
AcDbSymbolTableRecord
100
AcDbBlockTableRecord
  2
*D11
340
0
  0
BLOCK_RECORD
  5
1AA
330
1
100
AcDbSymbolTableRecord
100
AcDbBlockTableRecord
  2
*D12
340
0
  0
BLOCK_RECORD
  5
1EC
330
1
100
AcDbSymbolTableRecord
100
AcDbBlockTableRecord
  2
*D13
340
0
  0
BLOCK_RECORD
  5
1F8
330
1
100
AcDbSymbolTableRecord
100
AcDbBlockTableRecord
  2
*D14
340
0
  0
BLOCK_RECORD
  5
204
330
1
100
AcDbSymbolTableRecord
100
AcDbBlockTableRecord
  2
*D15
340
0
  0
BLOCK_RECORD
  5
210
330
1
100
AcDbSymbolTableRecord
100
AcDbBlockTableRecord
  2
*D16
340
0
  0
BLOCK_RECORD
  5
21C
330
1
100
AcDbSymbolTableRecord
100
AcDbBlockTableRecord
  2
*D17
340
0
  0
BLOCK_RECORD
  5
237
330
1
100
AcDbSymbolTableRecord
100
AcDbBlockTableRecord
  2
*D18
340
0
  0
ENDTAB
  0
ENDSEC
  0
SECTION
  2
BLOCKS
  0
BLOCK
  5
20
330
1F
100
AcDbEntity
  8
0
100
AcDbBlockBegin
  2
*Model_Space
 70
     0
 10
0.0
 20
0.0
 30
0.0
  3
*Model_Space
  1

  0
ENDBLK
  5
21
330
1F
100
AcDbEntity
  8
0
100
AcDbBlockEnd
  0
BLOCK
  5
1C
330
1B
100
AcDbEntity
 67
     1
  8
0
100
AcDbBlockBegin
  2
*Paper_Space
 70
     0
 10
0.0
 20
0.0
 30
0.0
  3
*Paper_Space
  1

  0
ENDBLK
  5
1D
330
1B
100
AcDbEntity
 67
     1
  8
0
100
AcDbBlockEnd
  0
BLOCK
  5
24
330
23
100
AcDbEntity
  8
0
100
AcDbBlockBegin
  2
*Paper_Space0
 70
     0
 10
0.0
 20
0.0
 30
0.0
  3
*Paper_Space0
  1

  0
ENDBLK
  5
25
330
23
100
AcDbEntity
  8
0
100
AcDbBlockEnd
  0
BLOCK
  5
80
330
7F
100
AcDbEntity
  8
0
100
AcDbBlockBegin
  2
블럭10
 70
     2
 10
0.0
 20
0.0
 30
0.0
  3
블럭10
  1

  0
ELLIPSE
  5
82
330
7F
100
AcDbEntity
  8
중심선
100
AcDbEllipse
 10
20.54032771741204
 20
12.0471743016438
 30
0.0
 11
6.600054785286829
 21
-1.261213355974178E-13
 31
0.0
210
0.0
220
0.0
230
1.0
 40
0.636358354079598
 41
0.9219305317359503
 42
6.513795318482858
  0
ELLIPSE
  5
83
330
7F
100
AcDbEntity
  8
중심선
100
AcDbEllipse
 10
20.54032771746488
 20
12.04717430159265
 30
0.0
 11
3.960054785062283
 21
1.540847449632565E-10
 31
0.0
210
0.0
220
0.0
230
1.0
 40
0.3939339440162632
 41
1.131841032648279
 42
5.62031148352944
  0
LINE
  5
84
330
7F
100
AcDbEntity
  8
중심선
100
AcDbLine
 10
2.268634060543552
 20
16.24717430164393
 30
0.0
 11
5.714909304380834
 21
16.24717430164393
 31
0.0
  0
LINE
  5
85
330
7F
100
AcDbEntity
  8
중심선
100
AcDbLine
 10
5.245725140726316
 20
7.84717430164391
 30
0.0
 11
8.692000384563599
 21
7.84717430164391
 31
0.0
  0
LINE
  5
86
330
7F
100
AcDbEntity
  8
중심선
100
AcDbLine
 10
15.74043728645272
 20
16.24717430164393
 30
0.0
 11
8.692000384563599
 21
7.84717430164391
 31
0.0
  0
LINE
  5
87
330
7F
100
AcDbEntity
  8
중심선
100
AcDbLine
 10
0.1404042013395286
 20
13.71084872107135
 30
0.0
 11
3.58671253028996
 21
13.71088815037384
 31
0.0
  0
LINE
  5
88
330
7F
100
AcDbEntity
  8
중심선
100
AcDbLine
 10
2.750260043222114
 20
10.84717430164391
 30
0.0
 11
6.196535287059397
 21
10.84717430164391
 31
0.0
  0
LINE
  5
89
330
7F
100
AcDbEntity
  8
중심선
100
AcDbLine
 10
12.29416204261559
 20
16.24717430164393
 30
0.0
 11
5.245725140726316
 21
7.84717430164391
 31
0.0
  0
LINE
  5
8A
330
7F
100
AcDbEntity
  8
중심선
100
AcDbLine
 10
10.72767329541681
 20
16.24717430164393
 30
0.0
 11
6.196535287059397
 21
10.84717430164391
 31
0.0
  0
LINE
  5
8B
330
7F
100
AcDbEntity
  8
중심선
100
AcDbLine
 10
7.28139805157953
 20
16.24717430164393
 30
0.0
 11
2.750260043222114
 21
10.84717430164391
 31
0.0
  0
LINE
  5
8C
330
7F
100
AcDbEntity
  8
중심선
100
AcDbLine
 10
5.714909304380834
 20
16.24717430164393
 30
0.0
 11
3.58671253028996
 21
13.71088815037384
 31
0.0
  0
LINE
  5
8D
330
7F
100
AcDbEntity
  8
중심선
100
AcDbLine
 10
2.268634060543552
 20
16.24717430164393
 30
0.0
 11
0.1404042013395286
 21
13.71084872107135
 31
0.0
  0
LINE
  5
8E
330
7F
100
AcDbEntity
  8
중심선
100
AcDbLine
 10
7.28139805157953
 20
16.24717430164393
 30
0.0
 11
10.72767329541681
 21
16.24717430164393
 31
0.0
  0
LINE
  5
8F
330
7F
100
AcDbEntity
  8
중심선
100
AcDbLine
 10
12.29416204261559
 20
16.24717430164393
 30
0.0
 11
15.74043728645272
 21
16.24717430164393
 31
0.0
  0
LINE
  5
90
330
7F
100
AcDbEntity
  8
중심선
100
AcDbLine
 10
19.22036997980202
 20
11.08717430171403
 30
0.0
 11
23.66174974927406
 21
11.08717430171406
 31
0.0
  0
LINE
  5
91
330
7F
100
AcDbEntity
  8
중심선
100
AcDbLine
 10
19.22039502424796
 20
13.00717430171391
 30
0.0
 11
19.22036997980202
 21
11.08717430171403
 31
0.0
  0
LINE
  5
92
330
7F
100
AcDbEntity
  8
중심선
100
AcDbLine
 10
19.22039502424796
 20
13.00717430171391
 30
0.0
 11
26.96566020931264
 21
13.00717430171391
 31
0.0
  0
LINE
  5
93
330
7F
100
AcDbEntity
  8
중심선
100
AcDbLine
 10
22.22332737316547
 20
13.45928029700563
 30
0.0
 11
24.52862924686651
 21
15.39360700705356
 31
0.0
  0
ATTDEF
  5
95
330
7F
100
AcDbEntity
  8
FORMAT
 62
     2
100
AcDbText
 10
-16.11926103943555
 20
2.075366912832191
 30
0.0
 40
4.233333333333333
  1
SEME0120005E [ 4 FLUTE ]
 41
0.75
  7
SLDTEXTSTYLE0
 11
-16.11926103943555
 21
-0.0412997538344756
 31
0.0
100
AcDbAttributeDefinition
  3

  2
AUTOATTR0
 70
     0
 74
     1
  0
ENDBLK
  5
81
330
7F
100
AcDbEntity
  8
0
100
AcDbBlockEnd
  0
BLOCK
  5
CD
330
CC
100
AcDbEntity
  8
0
100
AcDbBlockBegin
  2
_D
 70
     0
 10
0.0
 20
0.0
 30
0.0
  3
_D
  1

  0
LINE
  5
CF
330
CC
100
AcDbEntity
  8
치수문자_일반주서
 62
     0
370
    -2
100
AcDbLine
 10
28.43886578559902
 20
9.804744765757004
 30
0.0
 11
68.27916786961141
 21
9.804744765757176
 31
0.0
  0
LINE
  5
D0
330
CC
100
AcDbEntity
  8
치수문자_일반주서
 62
     0
370
    -2
100
AcDbLine
 10
28.43886578559902
 20
-10.195255234243
 30
0.0
 11
68.27916786961148
 21
-10.19525523424282
 31
0.0
  0
LINE
  5
D1
330
CC
100
AcDbEntity
  8
치수문자_일반주서
 62
     0
370
    -2
100
AcDbLine
 10
68.27916786961143
 20
6.502744765757177
 30
0.0
 11
68.27916786961147
 21
-6.893255234242824
 31
0.0
  0
SOLID
  5
D2
330
CC
100
AcDbEntity
  8
치수문자_일반주서
 62
     0
100
AcDbTrace
 10
68.82950120294475
 20
6.502744765757178
 30
0.0
 11
67.7288345362781
 21
6.502744765757175
 31
0.0
 12
68.27916786961141
 22
9.804744765757176
 32
0.0
 13
68.27916786961141
 23
9.804744765757176
 33
0.0
  0
SOLID
  5
D3
330
CC
100
AcDbEntity
  8
치수문자_일반주서
 62
     0
100
AcDbTrace
 10
67.72883453627814
 20
-6.893255234242826
 30
0.0
 11
68.8295012029448
 21
-6.893255234242822
 31
0.0
 12
68.27916786961148
 22
-10.19525523424282
 32
0.0
 13
68.27916786961148
 23
-10.19525523424282
 33
0.0
  0
MTEXT
  5
D4
330
CC
100
AcDbEntity
  8
치수문자_일반주서
 62
     0
100
AcDbMText
 10
63.90416786961146
 20
-0.1952552342428516
 30
0.0
 40
3.5
 41
0.0
 71
     2
 72
     1
  1
\A1;%%c20
  7
SLDTEXTSTYLE0
 11
-3.552713678800501E-15
 21
1.0
 31
0.0
 73
     1
 44
1.0
  0
POINT
  5
D5
330
CC
100
AcDbEntity
  8
Defpoints
 62
     0
100
AcDbPoint
 10
22.27916786961153
 20
9.804744765757004
 30
0.0
  0
POINT
  5
D6
330
CC
100
AcDbEntity
  8
Defpoints
 62
     0
100
AcDbPoint
 10
22.2791678696114
 20
-10.195255234243
 30
0.0
  0
POINT
  5
D7
330
CC
100
AcDbEntity
  8
Defpoints
 62
     0
100
AcDbPoint
 10
68.27916786961148
 20
-10.19525523424282
 30
0.0
  0
ENDBLK
  5
CE
330
CC
100
AcDbEntity
  8
0
100
AcDbBlockEnd
  0
BLOCK
  5
DA
330
D9
100
AcDbEntity
  8
0
100
AcDbBlockBegin
  2
_D_1
 70
     0
 10
0.0
 20
0.0
 30
0.0
  3
_D_1
  1

  0
LINE
  5
DC
330
D9
100
AcDbEntity
  8
치수문자_일반주서
 62
     0
370
    -2
100
AcDbLine
 10
-100.0625
 20
9.804744765757013
 30
0.0
 11
-113.4
 21
9.804744765756963
 31
0.0
  0
LINE
  5
DD
330
D9
100
AcDbEntity
  8
치수문자_일반주서
 62
     0
370
    -2
100
AcDbLine
 10
-100.0625
 20
-10.195255234243
 30
0.0
 11
-113.4
 21
-10.19525523424305
 31
0.0
  0
LINE
  5
DE
330
D9
100
AcDbEntity
  8
치수문자_일반주서
 62
     0
370
    -2
100
AcDbLine
 10
-113.4
 20
6.502744765756963
 30
0.0
 11
-113.4
 21
-6.893255234243055
 31
0.0
  0
SOLID
  5
DF
330
D9
100
AcDbEntity
  8
치수문자_일반주서
 62
     0
100
AcDbTrace
 10
-112.8496666666667
 20
6.502744765756965
 30
0.0
 11
-113.9503333333333
 21
6.502744765756962
 31
0.0
 12
-113.4
 22
9.804744765756963
 32
0.0
 13
-113.4
 23
9.804744765756963
 33
0.0
  0
SOLID
  5
E0
330
D9
100
AcDbEntity
  8
치수문자_일반주서
 62
     0
100
AcDbTrace
 10
-113.9503333333333
 20
-6.893255234243057
 30
0.0
 11
-112.8496666666666
 21
-6.893255234243053
 31
0.0
 12
-113.4
 22
-10.19525523424305
 32
0.0
 13
-113.4
 23
-10.19525523424305
 33
0.0
  0
MTEXT
  5
E1
330
D9
100
AcDbEntity
  8
치수문자_일반주서
 62
     0
100
AcDbMText
 10
-117.775
 20
-0.1952552342430071
 30
0.0
 40
3.5
 41
0.0
 71
     2
 72
     1
  1
\A1;%%c20
  7
SLDTEXTSTYLE0
 11
-3.552713678800498E-15
 21
1.0
 31
0.0
 73
     1
 44
1.0
  0
POINT
  5
E2
330
D9
100
AcDbEntity
  8
Defpoints
 62
     0
100
AcDbPoint
 10
-100.0
 20
9.804744765757013
 30
0.0
  0
POINT
  5
E3
330
D9
100
AcDbEntity
  8
Defpoints
 62
     0
100
AcDbPoint
 10
-100.0
 20
-10.195255234243
 30
0.0
  0
POINT
  5
E4
330
D9
100
AcDbEntity
  8
Defpoints
 62
     0
100
AcDbPoint
 10
-113.4
 20
-10.19525523424305
 30
0.0
  0
ENDBLK
  5
DB
330
D9
100
AcDbEntity
  8
0
100
AcDbBlockEnd
  0
BLOCK
  5
E8
330
E7
100
AcDbEntity
  8
0
100
AcDbBlockBegin
  2
_D_2
 70
     0
 10
0.0
 20
0.0
 30
0.0
  3
_D_2
  1

  0
LINE
  5
EA
330
E7
100
AcDbEntity
  8
치수문자_일반주서
 62
     0
370
    -2
100
AcDbLine
 10
48.0
 20
9.31988162545923
 30
0.0
 11
48.0
 21
26.71055207970209
 31
0.0
  0
LINE
  5
EB
330
E7
100
AcDbEntity
  8
치수문자_일반주서
 62
     0
370
    -2
100
AcDbLine
 10
10.0
 20
8.59521143670497
 30
0.0
 11
10.0
 21
26.71055207970209
 31
0.0
  0
LINE
  5
EC
330
E7
100
AcDbEntity
  8
치수문자_일반주서
 62
     0
370
    -2
100
AcDbLine
 10
44.698
 20
26.71055207970209
 30
0.0
 11
13.302
 21
26.71055207970209
 31
0.0
  0
SOLID
  5
ED
330
E7
100
AcDbEntity
  8
치수문자_일반주서
 62
     0
100
AcDbTrace
 10
44.698
 20
26.16021874636876
 30
0.0
 11
44.698
 21
27.26088541303543
 31
0.0
 12
48.0
 22
26.71055207970209
 32
0.0
 13
48.0
 23
26.71055207970209
 33
0.0
  0
SOLID
  5
EE
330
E7
100
AcDbEntity
  8
치수문자_일반주서
 62
     0
100
AcDbTrace
 10
13.302
 20
27.26088541303543
 30
0.0
 11
13.302
 21
26.16021874636876
 31
0.0
 12
10.0
 22
26.71055207970209
 32
0.0
 13
10.0
 23
26.71055207970209
 33
0.0
  0
MTEXT
  5
EF
330
E7
100
AcDbEntity
  8
치수문자_일반주서
 62
     0
100
AcDbMText
 10
29.00000000000001
 20
31.08555207970209
 30
0.0
 40
3.5
 41
0.0
 71
     2
 72
     1
  1
\A1;38
  7
SLDTEXTSTYLE0
 73
     1
 44
1.0
  0
POINT
  5
229
330
E7
100
AcDbEntity
  8
Defpoints
 62
     0
100
AcDbPoint
 10
48.0
 20
9.25738162545923
 30
0.0
  0
POINT
  5
22A
330
E7
100
AcDbEntity
  8
Defpoints
 62
     0
100
AcDbPoint
 10
10.0
 20
8.53271143670497
 30
0.0
  0
POINT
  5
22B
330
E7
100
AcDbEntity
  8
Defpoints
 62
     0
100
AcDbPoint
 10
10.0
 20
26.71055207970209
 30
0.0
  0
ENDBLK
  5
E9
330
E7
100
AcDbEntity
  8
0
100
AcDbBlockEnd
  0
BLOCK
  5
F2
330
F1
100
AcDbEntity
  8
0
100
AcDbBlockBegin
  2
_D_3
 70
     0
 10
0.0
 20
0.0
 30
0.0
  3
_D_3
  1

  0
LINE
  5
F4
330
F1
100
AcDbEntity
  8
치수문자_일반주서
 62
     0
370
    -2
100
AcDbLine
 10
48.0
 20
9.31988162545923
 30
0.0
 11
48.0
 21
34.12691477006902
 31
0.0
  0
LINE
  5
F5
330
F1
100
AcDbEntity
  8
치수문자_일반주서
 62
     0
370
    -2
100
AcDbLine
 10
-102.0
 20
7.867244765757011
 30
0.0
 11
-102.0
 21
34.12691477006902
 31
0.0
  0
LINE
  5
F6
330
F1
100
AcDbEntity
  8
치수문자_일반주서
 62
     0
370
    -2
100
AcDbLine
 10
44.698
 20
34.12691477006902
 30
0.0
 11
-98.69800000000001
 21
34.12691477006902
 31
0.0
  0
SOLID
  5
F7
330
F1
100
AcDbEntity
  8
치수문자_일반주서
 62
     0
100
AcDbTrace
 10
44.698
 20
33.57658143673569
 30
0.0
 11
44.698
 21
34.67724810340236
 31
0.0
 12
48.0
 22
34.12691477006902
 32
0.0
 13
48.0
 23
34.12691477006902
 33
0.0
  0
SOLID
  5
F8
330
F1
100
AcDbEntity
  8
치수문자_일반주서
 62
     0
100
AcDbTrace
 10
-98.69800000000001
 20
34.67724810340236
 30
0.0
 11
-98.69800000000001
 21
33.57658143673569
 31
0.0
 12
-102.0
 22
34.12691477006902
 32
0.0
 13
-102.0
 23
34.12691477006902
 33
0.0
  0
MTEXT
  5
F9
330
F1
100
AcDbEntity
  8
치수문자_일반주서
 62
     0
100
AcDbMText
 10
-27.0
 20
38.50191477006902
 30
0.0
 40
3.5
 41
0.0
 71
     2
 72
     1
  1
\A1;150
  7
SLDTEXTSTYLE0
 73
     1
 44
1.0
  0
POINT
  5
22C
330
F1
100
AcDbEntity
  8
Defpoints
 62
     0
100
AcDbPoint
 10
48.0
 20
9.25738162545923
 30
0.0
  0
POINT
  5
22D
330
F1
100
AcDbEntity
  8
Defpoints
 62
     0
100
AcDbPoint
 10
-102.0
 20
7.804744765757011
 30
0.0
  0
POINT
  5
22E
330
F1
100
AcDbEntity
  8
Defpoints
 62
     0
100
AcDbPoint
 10
-102.0
 20
34.12691477006902
 30
0.0
  0
ENDBLK
  5
F3
330
F1
100
AcDbEntity
  8
0
100
AcDbBlockEnd
  0
BLOCK
  5
102
330
101
100
AcDbEntity
  8
0
100
AcDbBlockBegin
  2
SW_DOWELSYMBOL_0
 70
     0
 10
0.0
 20
0.0
 30
0.0
  3
SW_DOWELSYMBOL_0
  1

  0
CIRCLE
  5
104
330
101
100
AcDbEntity
  8
해칭선
 62
     0
100
AcDbCircle
 10
0.0
 20
0.0
 30
0.0
 40
3.000000000000008
  0
HATCH
  5
105
330
101
100
AcDbEntity
  8
0
  6
Continuous
 62
     0
370
     0
100
AcDbHatch
 10
0.0
 20
0.0
 30
0.0
210
0.0
220
0.0
230
1.0
  2
SOLID
 70
     1
 71
     0
 91
        1
 92
        0
 93
        3
 72
     2
 10
0.0
 20
0.0
 40
3.000000000000008
 50
0.0
 51
90.0
 73
     1
 72
     1
 10
0.0
 20
3.000000000000008
 11
0.0
 21
0.0
 72
     1
 10
0.0
 20
0.0
 11
3.000000000000003
 21
0.0
 97
        0
 75
     0
 76
     1
 98
        1
 10
0.0
 20
0.0
  0
HATCH
  5
106
330
101
100
AcDbEntity
  8
0
  6
Continuous
 62
     0
370
     0
100
AcDbHatch
 10
0.0
 20
0.0
 30
0.0
210
0.0
220
0.0
230
1.0
  2
SOLID
 70
     1
 71
     0
 91
        1
 92
        0
 93
        3
 72
     2
 10
0.0
 20
0.0
 40
3.000000000000008
 50
180.0
 51
270.0000000000008
 73
     1
 72
     1
 10
0.0
 20
-3.000000000000008
 11
0.0
 21
0.0
 72
     1
 10
0.0
 20
0.0
 11
-3.000000000000003
 21
0.0
 97
        0
 75
     0
 76
     1
 98
        1
 10
0.0
 20
0.0
  0
ENDBLK
  5
103
330
101
100
AcDbEntity
  8
0
100
AcDbBlockEnd
  0
BLOCK
  5
16C
330
16B
100
AcDbEntity
  8
0
100
AcDbBlockBegin
  2
*D8
 70
     1
 10
0.0
 20
0.0
 30
0.0
  3
*D8
  1

  0
LINE
  5
16D
330
16B
100
AcDbEntity
  8
치수문자_일반주서
 62
     0
370
    -2
100
AcDbLine
 10
150.5393393776391
 20
25.88273793767754
 30
0.0
 11
191.5978290330374
 21
25.88273793767771
 31
0.0
  0
LINE
  5
16E
330
16B
100
AcDbEntity
  8
치수문자_일반주서
 62
     0
370
    -2
100
AcDbLine
 10
150.5393393776392
 20
9.88273793767754
 30
0.0
 11
191.5978290330375
 21
9.88273793767771
 31
0.0
  0
LINE
  5
16F
330
16B
100
AcDbEntity
  8
치수문자_일반주서
 62
     0
370
    -2
100
AcDbLine
 10
191.5978290330374
 20
22.58073793767771
 30
0.0
 11
191.5978290330375
 21
13.18473793767771
 31
0.0
  0
SOLID
  5
170
330
16B
100
AcDbEntity
  8
치수문자_일반주서
 62
     0
100
AcDbTrace
 10
192.1481623663708
 20
22.58073793767771
 30
0.0
 11
191.0474956997041
 21
22.58073793767771
 31
0.0
 12
191.5978290330374
 22
25.88273793767771
 32
0.0
 13
191.5978290330374
 23
25.88273793767771
 33
0.0
  0
SOLID
  5
171
330
16B
100
AcDbEntity
  8
치수문자_일반주서
 62
     0
100
AcDbTrace
 10
191.0474956997042
 20
13.18473793767771
 30
0.0
 11
192.1481623663708
 21
13.18473793767771
 31
0.0
 12
191.5978290330375
 22
9.88273793767771
 32
0.0
 13
191.5978290330375
 23
9.88273793767771
 33
0.0
  0
MTEXT
  5
172
330
16B
100
AcDbEntity
  8
치수문자_일반주서
 62
     0
100
AcDbMText
 10
187.2228290330375
 20
17.88273793767769
 30
0.0
 40
3.5
 41
0.0
 71
     2
 72
     1
  1
\A1;%%c16
  7
SLDTEXTSTYLE0
 11
-3.552713678800502E-15
 21
1.0
 31
0.0
 73
     1
 44
1.0
  0
POINT
  5
173
330
16B
100
AcDbEntity
  8
Defpoints
 62
     0
100
AcDbPoint
 10
145.5978290330376
 20
25.88273793767754
 30
0.0
  0
POINT
  5
174
330
16B
100
AcDbEntity
  8
Defpoints
 62
     0
100
AcDbPoint
 10
145.5978290330375
 20
9.88273793767754
 30
0.0
  0
POINT
  5
175
330
16B
100
AcDbEntity
  8
Defpoints
 62
     0
100
AcDbPoint
 10
191.5978290330375
 20
9.882737937677712
 30
0.0
  0
ENDBLK
  5
176
330
16B
100
AcDbEntity
  8
0
100
AcDbBlockEnd
  0
BLOCK
  5
179
330
178
100
AcDbEntity
  8
0
100
AcDbBlockBegin
  2
*D9
 70
     1
 10
0.0
 20
0.0
 30
0.0
  3
*D9
  1

  0
LINE
  5
17A
330
178
100
AcDbEntity
  8
치수문자_일반주서
 62
     0
370
    -2
100
AcDbLine
 10
17.71250000000006
 20
25.88273793767754
 30
0.0
 11
4.375000000000015
 21
25.88273793767749
 31
0.0
  0
LINE
  5
17B
330
178
100
AcDbEntity
  8
치수문자_일반주서
 62
     0
370
    -2
100
AcDbLine
 10
17.71250000000006
 20
9.882737937677526
 30
0.0
 11
4.375000000000071
 21
9.882737937677476
 31
0.0
  0
LINE
  5
17C
330
178
100
AcDbEntity
  8
치수문자_일반주서
 62
     0
370
    -2
100
AcDbLine
 10
4.375000000000027
 20
22.58073793767749
 30
0.0
 11
4.37500000000006
 21
13.18473793767748
 31
0.0
  0
SOLID
  5
17D
330
178
100
AcDbEntity
  8
치수문자_일반주서
 62
     0
100
AcDbTrace
 10
4.92533333333336
 20
22.58073793767749
 30
0.0
 11
3.824666666666694
 21
22.58073793767749
 31
0.0
 12
4.375000000000015
 22
25.88273793767749
 32
0.0
 13
4.375000000000015
 23
25.88273793767749
 33
0.0
  0
SOLID
  5
17E
330
178
100
AcDbEntity
  8
치수문자_일반주서
 62
     0
100
AcDbTrace
 10
3.824666666666726
 20
13.18473793767747
 30
0.0
 11
4.925333333333393
 21
13.18473793767748
 31
0.0
 12
4.375000000000071
 22
9.882737937677476
 32
0.0
 13
4.375000000000071
 23
9.882737937677476
 33
0.0
  0
MTEXT
  5
17F
330
178
100
AcDbEntity
  8
치수문자_일반주서
 62
     0
100
AcDbMText
 10
0.0000000000000426
 20
17.88273793767752
 30
0.0
 40
3.5
 41
0.0
 71
     2
 72
     1
  1
\A1;%%c16
  7
SLDTEXTSTYLE0
 11
-3.497202527569240E-15
 21
1.0
 31
0.0
 73
     1
 44
1.0
  0
POINT
  5
180
330
178
100
AcDbEntity
  8
Defpoints
 62
     0
100
AcDbPoint
 10
17.77500000000006
 20
25.88273793767754
 30
0.0
  0
POINT
  5
181
330
178
100
AcDbEntity
  8
Defpoints
 62
     0
100
AcDbPoint
 10
17.77500000000006
 20
9.882737937677526
 30
0.0
  0
POINT
  5
182
330
178
100
AcDbEntity
  8
Defpoints
 62
     0
100
AcDbPoint
 10
4.375000000000071
 20
9.882737937677476
 30
0.0
  0
ENDBLK
  5
183
330
178
100
AcDbEntity
  8
0
100
AcDbBlockEnd
  0
BLOCK
  5
186
330
185
100
AcDbEntity
  8
0
100
AcDbBlockBegin
  2
*D10
 70
     1
 10
0.0
 20
0.0
 30
0.0
  3
*D10
  1

  0
LINE
  5
187
330
185
100
AcDbEntity
  8
치수문자_일반주서
 62
     0
370
    -2
100
AcDbLine
 10
166.1750000000001
 20
25.40556386639256
 30
0.0
 11
166.1750000000001
 21
42.79623432063541
 31
0.0
  0
LINE
  5
188
330
185
100
AcDbEntity
  8
치수문자_일반주서
 62
     0
370
    -2
100
AcDbLine
 10
134.1750000000001
 20
25.33093536958032
 30
0.0
 11
134.1750000000001
 21
42.79623432063541
 31
0.0
  0
LINE
  5
189
330
185
100
AcDbEntity
  8
치수문자_일반주서
 62
     0
370
    -2
100
AcDbLine
 10
162.8730000000001
 20
42.79623432063541
 30
0.0
 11
137.4770000000001
 21
42.79623432063541
 31
0.0
  0
SOLID
  5
18A
330
185
100
AcDbEntity
  8
치수문자_일반주서
 62
     0
100
AcDbTrace
 10
162.8730000000001
 20
42.24590098730208
 30
0.0
 11
162.8730000000001
 21
43.34656765396875
 31
0.0
 12
166.1750000000001
 22
42.79623432063541
 32
0.0
 13
166.1750000000001
 23
42.79623432063541
 33
0.0
  0
SOLID
  5
18B
330
185
100
AcDbEntity
  8
치수문자_일반주서
 62
     0
100
AcDbTrace
 10
137.4770000000001
 20
43.34656765396875
 30
0.0
 11
137.4770000000001
 21
42.24590098730208
 31
0.0
 12
134.1750000000001
 22
42.79623432063541
 32
0.0
 13
134.1750000000001
 23
42.79623432063541
 33
0.0
  0
MTEXT
  5
18C
330
185
100
AcDbEntity
  8
치수문자_일반주서
 62
     0
100
AcDbMText
 10
150.1750000000001
 20
47.17123432063541
 30
0.0
 40
3.5
 41
0.0
 71
     2
 72
     1
  1
\A1;32
  7
SLDTEXTSTYLE0
 73
     1
 44
1.0
  0
POINT
  5
18D
330
185
100
AcDbEntity
  8
Defpoints
 62
     0
100
AcDbPoint
 10
166.1750000000001
 20
25.34306386639256
 30
0.0
  0
POINT
  5
18E
330
185
100
AcDbEntity
  8
Defpoints
 62
     0
100
AcDbPoint
 10
134.1750000000001
 20
25.26843536958032
 30
0.0
  0
POINT
  5
18F
330
185
100
AcDbEntity
  8
Defpoints
 62
     0
100
AcDbPoint
 10
134.1750000000001
 20
42.79623432063541
 30
0.0
  0
ENDBLK
  5
190
330
185
100
AcDbEntity
  8
0
100
AcDbBlockEnd
  0
BLOCK
  5
193
330
192
100
AcDbEntity
  8
0
100
AcDbBlockBegin
  2
*D11
 70
     1
 10
0.0
 20
0.0
 30
0.0
  3
*D11
  1

  0
LINE
  5
194
330
192
100
AcDbEntity
  8
치수문자_일반주서
 62
     0
370
    -2
100
AcDbLine
 10
166.1750000000001
 20
25.40556386639256
 30
0.0
 11
166.1750000000001
 21
50.21259701100235
 31
0.0
  0
LINE
  5
195
330
192
100
AcDbEntity
  8
치수문자_일반주서
 62
     0
370
    -2
100
AcDbLine
 10
16.17500000000007
 20
24.34523793767755
 30
0.0
 11
16.17500000000007
 21
50.21259701100235
 31
0.0
  0
LINE
  5
196
330
192
100
AcDbEntity
  8
치수문자_일반주서
 62
     0
370
    -2
100
AcDbLine
 10
162.8730000000001
 20
50.21259701100235
 30
0.0
 11
19.47700000000007
 21
50.21259701100235
 31
0.0
  0
SOLID
  5
197
330
192
100
AcDbEntity
  8
치수문자_일반주서
 62
     0
100
AcDbTrace
 10
162.8730000000001
 20
49.66226367766902
 30
0.0
 11
162.8730000000001
 21
50.76293034433569
 31
0.0
 12
166.1750000000001
 22
50.21259701100235
 32
0.0
 13
166.1750000000001
 23
50.21259701100235
 33
0.0
  0
SOLID
  5
198
330
192
100
AcDbEntity
  8
치수문자_일반주서
 62
     0
100
AcDbTrace
 10
19.47700000000007
 20
50.76293034433569
 30
0.0
 11
19.47700000000007
 21
49.66226367766902
 31
0.0
 12
16.17500000000007
 22
50.21259701100235
 32
0.0
 13
16.17500000000007
 23
50.21259701100235
 33
0.0
  0
MTEXT
  5
199
330
192
100
AcDbEntity
  8
치수문자_일반주서
 62
     0
100
AcDbMText
 10
91.17500000000007
 20
54.58759701100235
 30
0.0
 40
3.5
 41
0.0
 71
     2
 72
     1
  1
\A1;150
  7
SLDTEXTSTYLE0
 73
     1
 44
1.0
  0
POINT
  5
19A
330
192
100
AcDbEntity
  8
Defpoints
 62
     0
100
AcDbPoint
 10
166.1750000000001
 20
25.34306386639256
 30
0.0
  0
POINT
  5
19B
330
192
100
AcDbEntity
  8
Defpoints
 62
     0
100
AcDbPoint
 10
16.17500000000007
 20
24.28273793767755
 30
0.0
  0
POINT
  5
19C
330
192
100
AcDbEntity
  8
Defpoints
 62
     0
100
AcDbPoint
 10
16.17500000000007
 20
50.21259701100235
 30
0.0
  0
ENDBLK
  5
19D
330
192
100
AcDbEntity
  8
0
100
AcDbBlockEnd
  0
BLOCK
  5
1AB
330
1AA
100
AcDbEntity
  8
0
100
AcDbBlockBegin
  2
*D12
 70
     1
 10
0.0
 20
0.0
 30
0.0
  3
*D12
  1

  0
LINE
  5
1AC
330
1AA
100
AcDbEntity
  8
치수문자_일반주서
 62
     0
370
    -2
100
AcDbLine
 10
168.4995757229113
 20
8.81528804944681
 30
0.0
 11
180.927612717216
 21
-0.00000000000004
 31
0.0
  0
MTEXT
  5
1AD
330
1AA
100
AcDbEntity
  8
치수문자_일반주서
 62
     0
100
AcDbMText
 10
179.9483676785872
 20
3.912877509496117
 30
0.0
 40
3.5
 41
0.0
 71
     5
 72
     1
  1
\A1;R2
  7
SLDTEXTSTYLE0
 11
0.8156498911564007
 21
-0.5785458106810139
 31
0.0
 73
     1
 44
1.0
  0
SOLID
  5
1AE
330
1AA
100
AcDbEntity
  8
치수문자_일반주서
 62
     0
100
AcDbTrace
 10
168.8179687673894
 20
9.264167372879882
 30
0.0
 11
168.1811826784332
 21
8.366408726013738
 31
0.0
 12
165.8062997823129
 22
10.72564631631552
 32
0.0
 13
165.8062997823129
 23
10.72564631631552
 33
0.0
  0
LINE
  5
1AF
330
1AA
100
AcDbEntity
  8
치수문자_일반주서
 62
     0
100
AcDbLine
 10
164.0850000000001
 20
11.88273793767754
 30
0.0
 11
164.2650000000001
 21
11.88273793767754
 31
0.0
  0
LINE
  5
1B0
330
1AA
100
AcDbEntity
  8
치수문자_일반주서
 62
     0
100
AcDbLine
 10
164.1750000000001
 20
11.79273793767754
 30
0.0
 11
164.1750000000001
 21
11.97273793767754
 31
0.0
  0
POINT
  5
1B1
330
1AA
100
AcDbEntity
  8
Defpoints
 62
     0
100
AcDbPoint
 10
165.8062997823129
 20
10.72564631631552
 30
0.0
  0
POINT
  5
1B2
330
1AA
100
AcDbEntity
  8
Defpoints
 62
     0
100
AcDbPoint
 10
164.1750000000001
 20
11.88273793767754
 30
0.0
  0
ENDBLK
  5
1B3
330
1AA
100
AcDbEntity
  8
0
100
AcDbBlockEnd
  0
BLOCK
  5
1ED
330
1EC
100
AcDbEntity
  8
0
100
AcDbBlockBegin
  2
*D13
 70
     1
 10
0.0
 20
0.0
 30
0.0
  3
*D13
  1

  0
LINE
  5
1EF
330
1EC
100
AcDbEntity
  8
치수문자_일반주서
 62
     0
370
    -2
100
AcDbLine
 10
354.6077619640957
 20
-96.55361031823682
 30
0.0
 11
395.6662516194941
 21
-96.55361031823665
 31
0.0
  0
LINE
  5
1F0
330
1EC
100
AcDbEntity
  8
치수문자_일반주서
 62
     0
370
    -2
100
AcDbLine
 10
354.6077619640959
 20
-112.5536103182368
 30
0.0
 11
395.6662516194941
 21
-112.5536103182367
 31
0.0
  0
LINE
  5
1F1
330
1EC
100
AcDbEntity
  8
치수문자_일반주서
 62
     0
370
    -2
100
AcDbLine
 10
395.6662516194941
 20
-99.85561031823664
 30
0.0
 11
395.6662516194941
 21
-109.2516103182367
 31
0.0
  0
SOLID
  5
1F2
330
1EC
100
AcDbEntity
  8
치수문자_일반주서
 62
     0
100
AcDbTrace
 10
396.2165849528275
 20
-99.85561031823664
 30
0.0
 11
395.1159182861608
 21
-99.85561031823664
 31
0.0
 12
395.6662516194941
 22
-96.55361031823665
 32
0.0
 13
395.6662516194941
 23
-96.55361031823665
 33
0.0
  0
SOLID
  5
1F3
330
1EC
100
AcDbEntity
  8
치수문자_일반주서
 62
     0
100
AcDbTrace
 10
395.1159182861608
 20
-109.2516103182367
 30
0.0
 11
396.2165849528275
 21
-109.2516103182367
 31
0.0
 12
395.6662516194941
 22
-112.5536103182367
 32
0.0
 13
395.6662516194941
 23
-112.5536103182367
 33
0.0
  0
MTEXT
  5
1F4
330
1EC
100
AcDbEntity
  8
치수문자_일반주서
 62
     0
100
AcDbMText
 10
391.2912516194941
 20
-104.5536103182367
 30
0.0
 40
3.5
 41
0.0
 71
     2
 72
     1
  1
\A1;%%c16
  7
SLDTEXTSTYLE0
 11
-3.552713678800501E-15
 21
1.0
 31
0.0
 73
     1
 44
1.0
  0
POINT
  5
1F5
330
1EC
100
AcDbEntity
  8
Defpoints
 62
     0
100
AcDbPoint
 10
349.6662516194942
 20
-96.55361031823682
 30
0.0
  0
POINT
  5
1F6
330
1EC
100
AcDbEntity
  8
Defpoints
 62
     0
100
AcDbPoint
 10
349.6662516194941
 20
-112.5536103182368
 30
0.0
  0
POINT
  5
1F7
330
1EC
100
AcDbEntity
  8
Defpoints
 62
     0
100
AcDbPoint
 10
395.6662516194941
 20
-112.5536103182367
 30
0.0
  0
ENDBLK
  5
1EE
330
1EC
100
AcDbEntity
  8
0
100
AcDbBlockEnd
  0
BLOCK
  5
1F9
330
1F8
100
AcDbEntity
  8
0
100
AcDbBlockBegin
  2
*D14
 70
     1
 10
0.0
 20
0.0
 30
0.0
  3
*D14
  1

  0
LINE
  5
1FB
330
1F8
100
AcDbEntity
  8
치수문자_일반주서
 62
     0
370
    -2
100
AcDbLine
 10
221.7809225864567
 20
-96.55361031823682
 30
0.0
 11
208.4434225864567
 21
-96.55361031823688
 31
0.0
  0
LINE
  5
1FC
330
1F8
100
AcDbEntity
  8
치수문자_일반주서
 62
     0
370
    -2
100
AcDbLine
 10
221.7809225864567
 20
-112.5536103182368
 30
0.0
 11
208.4434225864568
 21
-112.5536103182369
 31
0.0
  0
LINE
  5
1FD
330
1F8
100
AcDbEntity
  8
치수문자_일반주서
 62
     0
370
    -2
100
AcDbLine
 10
208.4434225864567
 20
-99.85561031823687
 30
0.0
 11
208.4434225864568
 21
-109.2516103182369
 31
0.0
  0
SOLID
  5
1FE
330
1F8
100
AcDbEntity
  8
치수문자_일반주서
 62
     0
100
AcDbTrace
 10
208.99375591979
 20
-99.85561031823687
 30
0.0
 11
207.8930892531234
 21
-99.85561031823687
 31
0.0
 12
208.4434225864567
 22
-96.55361031823688
 32
0.0
 13
208.4434225864567
 23
-96.55361031823688
 33
0.0
  0
SOLID
  5
1FF
330
1F8
100
AcDbEntity
  8
치수문자_일반주서
 62
     0
100
AcDbTrace
 10
207.8930892531234
 20
-109.2516103182369
 30
0.0
 11
208.9937559197901
 21
-109.2516103182369
 31
0.0
 12
208.4434225864568
 22
-112.5536103182369
 32
0.0
 13
208.4434225864568
 23
-112.5536103182369
 33
0.0
  0
MTEXT
  5
200
330
1F8
100
AcDbEntity
  8
치수문자_일반주서
 62
     0
100
AcDbMText
 10
204.0684225864567
 20
-104.5536103182368
 30
0.0
 40
3.5
 41
0.0
 71
     2
 72
     1
  1
\A1;%%c16
  7
SLDTEXTSTYLE0
 11
-3.552713678800495E-15
 21
1.0
 31
0.0
 73
     1
 44
1.0
  0
POINT
  5
201
330
1F8
100
AcDbEntity
  8
Defpoints
 62
     0
100
AcDbPoint
 10
221.8434225864567
 20
-96.55361031823682
 30
0.0
  0
POINT
  5
202
330
1F8
100
AcDbEntity
  8
Defpoints
 62
     0
100
AcDbPoint
 10
221.8434225864567
 20
-112.5536103182368
 30
0.0
  0
POINT
  5
203
330
1F8
100
AcDbEntity
  8
Defpoints
 62
     0
100
AcDbPoint
 10
208.4434225864567
 20
-112.5536103182369
 30
0.0
  0
ENDBLK
  5
1FA
330
1F8
100
AcDbEntity
  8
0
100
AcDbBlockEnd
  0
BLOCK
  5
205
330
204
100
AcDbEntity
  8
0
100
AcDbBlockBegin
  2
*D15
 70
     1
 10
0.0
 20
0.0
 30
0.0
  3
*D15
  1

  0
LINE
  5
207
330
204
100
AcDbEntity
  8
치수문자_일반주서
 62
     0
370
    -2
100
AcDbLine
 10
370.2434225864567
 20
-97.03078438952181
 30
0.0
 11
370.2434225864567
 21
-79.64011393527895
 31
0.0
  0
LINE
  5
208
330
204
100
AcDbEntity
  8
치수문자_일반주서
 62
     0
370
    -2
100
AcDbLine
 10
338.2434225864567
 20
-97.10541288633405
 30
0.0
 11
338.2434225864567
 21
-79.64011393527895
 31
0.0
  0
LINE
  5
209
330
204
100
AcDbEntity
  8
치수문자_일반주서
 62
     0
370
    -2
100
AcDbLine
 10
366.9414225864567
 20
-79.64011393527895
 30
0.0
 11
341.5454225864568
 21
-79.64011393527895
 31
0.0
  0
SOLID
  5
20A
330
204
100
AcDbEntity
  8
치수문자_일반주서
 62
     0
100
AcDbTrace
 10
366.9414225864567
 20
-80.19044726861227
 30
0.0
 11
366.9414225864567
 21
-79.08978060194562
 31
0.0
 12
370.2434225864567
 22
-79.64011393527895
 32
0.0
 13
370.2434225864567
 23
-79.64011393527895
 33
0.0
  0
SOLID
  5
20B
330
204
100
AcDbEntity
  8
치수문자_일반주서
 62
     0
100
AcDbTrace
 10
341.5454225864568
 20
-79.08978060194562
 30
0.0
 11
341.5454225864568
 21
-80.19044726861227
 31
0.0
 12
338.2434225864567
 22
-79.64011393527895
 32
0.0
 13
338.2434225864567
 23
-79.64011393527895
 33
0.0
  0
MTEXT
  5
20C
330
204
100
AcDbEntity
  8
치수문자_일반주서
 62
     0
100
AcDbMText
 10
354.2434225864567
 20
-75.26511393527895
 30
0.0
 40
3.5
 41
0.0
 71
     2
 72
     1
  1
\A1;32
  7
SLDTEXTSTYLE0
 73
     1
 44
1.0
  0
POINT
  5
20D
330
204
100
AcDbEntity
  8
Defpoints
 62
     0
100
AcDbPoint
 10
370.2434225864567
 20
-97.09328438952181
 30
0.0
  0
POINT
  5
20E
330
204
100
AcDbEntity
  8
Defpoints
 62
     0
100
AcDbPoint
 10
338.2434225864567
 20
-97.16791288633405
 30
0.0
  0
POINT
  5
20F
330
204
100
AcDbEntity
  8
Defpoints
 62
     0
100
AcDbPoint
 10
338.2434225864567
 20
-79.64011393527895
 30
0.0
  0
ENDBLK
  5
206
330
204
100
AcDbEntity
  8
0
100
AcDbBlockEnd
  0
BLOCK
  5
211
330
210
100
AcDbEntity
  8
0
100
AcDbBlockBegin
  2
*D16
 70
     1
 10
0.0
 20
0.0
 30
0.0
  3
*D16
  1

  0
LINE
  5
213
330
210
100
AcDbEntity
  8
치수문자_일반주서
 62
     0
370
    -2
100
AcDbLine
 10
370.2434225864567
 20
-97.03078438952181
 30
0.0
 11
370.2434225864567
 21
-72.22375124491202
 31
0.0
  0
LINE
  5
214
330
210
100
AcDbEntity
  8
치수문자_일반주서
 62
     0
370
    -2
100
AcDbLine
 10
220.2434225864567
 20
-98.09111031823682
 30
0.0
 11
220.2434225864567
 21
-72.22375124491202
 31
0.0
  0
LINE
  5
215
330
210
100
AcDbEntity
  8
치수문자_일반주서
 62
     0
370
    -2
100
AcDbLine
 10
366.9414225864567
 20
-72.22375124491202
 30
0.0
 11
223.5454225864567
 21
-72.22375124491202
 31
0.0
  0
SOLID
  5
216
330
210
100
AcDbEntity
  8
치수문자_일반주서
 62
     0
100
AcDbTrace
 10
366.9414225864567
 20
-72.77408457824535
 30
0.0
 11
366.9414225864567
 21
-71.6734179115787
 31
0.0
 12
370.2434225864567
 22
-72.22375124491202
 32
0.0
 13
370.2434225864567
 23
-72.22375124491202
 33
0.0
  0
SOLID
  5
217
330
210
100
AcDbEntity
  8
치수문자_일반주서
 62
     0
100
AcDbTrace
 10
223.5454225864567
 20
-71.6734179115787
 30
0.0
 11
223.5454225864567
 21
-72.77408457824535
 31
0.0
 12
220.2434225864567
 22
-72.22375124491202
 32
0.0
 13
220.2434225864567
 23
-72.22375124491202
 33
0.0
  0
MTEXT
  5
218
330
210
100
AcDbEntity
  8
치수문자_일반주서
 62
     0
100
AcDbMText
 10
295.2434225864567
 20
-67.84875124491202
 30
0.0
 40
3.5
 41
0.0
 71
     2
 72
     1
  1
\A1;150
  7
SLDTEXTSTYLE0
 73
     1
 44
1.0
  0
POINT
  5
219
330
210
100
AcDbEntity
  8
Defpoints
 62
     0
100
AcDbPoint
 10
370.2434225864567
 20
-97.09328438952181
 30
0.0
  0
POINT
  5
21A
330
210
100
AcDbEntity
  8
Defpoints
 62
     0
100
AcDbPoint
 10
220.2434225864567
 20
-98.15361031823682
 30
0.0
  0
POINT
  5
21B
330
210
100
AcDbEntity
  8
Defpoints
 62
     0
100
AcDbPoint
 10
220.2434225864567
 20
-72.22375124491202
 30
0.0
  0
ENDBLK
  5
212
330
210
100
AcDbEntity
  8
0
100
AcDbBlockEnd
  0
BLOCK
  5
21D
330
21C
100
AcDbEntity
  8
0
100
AcDbBlockBegin
  2
*D17
 70
     1
 10
0.0
 20
0.0
 30
0.0
  3
*D17
  1

  0
LINE
  5
21F
330
21C
100
AcDbEntity
  8
치수문자_일반주서
 62
     0
370
    -2
100
AcDbLine
 10
372.567998309368
 20
-113.6210602064676
 30
0.0
 11
384.9960353036727
 21
-122.4363482559144
 31
0.0
  0
MTEXT
  5
220
330
21C
100
AcDbEntity
  8
치수문자_일반주서
 62
     0
100
AcDbMText
 10
384.0167902650438
 20
-118.5234707464183
 30
0.0
 40
3.5
 41
0.0
 71
     5
 72
     1
  1
\A1;R2
  7
SLDTEXTSTYLE0
 11
0.8156498911563995
 21
-0.5785458106810156
 31
0.0
 73
     1
 44
1.0
  0
SOLID
  5
221
330
21C
100
AcDbEntity
  8
치수문자_일반주서
 62
     0
100
AcDbTrace
 10
372.8863913538461
 20
-113.1721808830345
 30
0.0
 11
372.2496052648899
 21
-114.0699395299006
 31
0.0
 12
369.8747223687695
 22
-111.7107019395988
 32
0.0
 13
369.8747223687695
 23
-111.7107019395988
 33
0.0
  0
LINE
  5
222
330
21C
100
AcDbEntity
  8
치수문자_일반주서
 62
     0
100
AcDbLine
 10
368.1534225864568
 20
-110.5536103182368
 30
0.0
 11
368.3334225864567
 21
-110.5536103182368
 31
0.0
  0
LINE
  5
223
330
21C
100
AcDbEntity
  8
치수문자_일반주서
 62
     0
100
AcDbLine
 10
368.2434225864567
 20
-110.6436103182368
 30
0.0
 11
368.2434225864567
 21
-110.4636103182368
 31
0.0
  0
POINT
  5
224
330
21C
100
AcDbEntity
  8
Defpoints
 62
     0
100
AcDbPoint
 10
369.8747223687695
 20
-111.7107019395988
 30
0.0
  0
POINT
  5
225
330
21C
100
AcDbEntity
  8
Defpoints
 62
     0
100
AcDbPoint
 10
368.2434225864567
 20
-110.5536103182368
 30
0.0
  0
ENDBLK
  5
21E
330
21C
100
AcDbEntity
  8
0
100
AcDbBlockEnd
  0
BLOCK
  5
238
330
237
100
AcDbEntity
  8
0
100
AcDbBlockBegin
  2
*D18
 70
     1
 10
0.0
 20
0.0
 30
0.0
  3
*D18
  1

  0
LINE
  5
23A
330
237
100
AcDbEntity
  8
치수문자_일반주서
 62
     0
370
    -2
100
AcDbLine
 10
49.24419962336
 20
-13.07356423045262
 30
0.0
 11
59.60069192345455
 21
-33.13286858873808
 31
0.0
  0
MTEXT
  5
23B
330
237
100
AcDbEntity
  8
치수문자_일반주서
 62
     0
100
AcDbMText
 10
59.82574297428049
 20
-27.84680047651874
 30
0.0
 40
3.5
 41
0.0
 71
     5
 72
     1
  1
\A1;R0.5
  7
SLDTEXTSTYLE0
 11
0.4587584490689104
 21
-0.8885610195185742
 31
0.0
 73
     1
 44
1.0
  0
SOLID
  5
23C
330
237
100
AcDbEntity
  8
치수문자_일반주서
 62
     0
100
AcDbTrace
 10
49.73320437110172
 20
-12.8210941639817
 30
0.0
 11
48.75519487561827
 21
-13.32603429692355
 31
0.0
 12
47.72937922453445
 22
-10.13953574400229
 32
0.0
 13
47.72937922453445
 23
-10.13953574400229
 33
0.0
  0
LINE
  5
23D
330
237
100
AcDbEntity
  8
치수문자_일반주서
 62
     0
100
AcDbLine
 10
47.41
 20
-9.695255234243003
 30
0.0
 11
47.59
 21
-9.695255234243003
 31
0.0
  0
LINE
  5
23E
330
237
100
AcDbEntity
  8
치수문자_일반주서
 62
     0
100
AcDbLine
 10
47.5
 20
-9.785255234243003
 30
0.0
 11
47.5
 21
-9.605255234243003
 31
0.0
  0
POINT
  5
23F
330
237
100
AcDbEntity
  8
Defpoints
 62
     0
100
AcDbPoint
 10
47.72937922453445
 20
-10.13953574400229
 30
0.0
  0
POINT
  5
240
330
237
100
AcDbEntity
  8
Defpoints
 62
     0
100
AcDbPoint
 10
47.5
 20
-9.695255234243003
 30
0.0
  0
ENDBLK
  5
239
330
237
100
AcDbEntity
  8
0
100
AcDbBlockEnd
  0
ENDSEC
  0
SECTION
  2
ENTITIES
  0
LINE
  5
96
102
{ACAD_REACTORS
330
227
102
}
330
1F
100
AcDbEntity
  8
외형선
  6
Continuous
 62
     1
370
    15
100
AcDbLine
 10
28.37636578559902
 20
9.804744765757004
 30
0.0
 11
22.27890492516362
 21
9.804744765757004
 31
0.0
1001
PE_URL
1000

  0
LINE
  5
97
102
{ACAD_REACTORS
330
227
102
}
330
1F
100
AcDbEntity
  8
외형선
  6
Continuous
 62
     1
370
    15
100
AcDbLine
 10
22.27890492516347
 20
-10.195255234243
 30
0.0
 11
28.37636578559902
 21
-10.195255234243
 31
0.0
1001
PE_URL
1000

  0
LINE
  5
98
330
1F
100
AcDbEntity
  8
외형선
  6
Continuous
370
    15
100
AcDbLine
 10
-100.0
 20
-10.19525523424299
 30
0.0
 11
9.000175004160127
 21
-10.19525523424299
 31
0.0
  0
LINE
  5
99
330
1F
100
AcDbEntity
  8
외형선
  6
Continuous
370
    15
100
AcDbLine
 10
9.000175004160127
 20
9.804744765757002
 30
0.0
 11
-100.0
 21
9.804744765757002
 31
0.0
  0
LINE
  5
9A
330
1F
100
AcDbEntity
  8
외형선
  6
Continuous
370
    15
100
AcDbLine
 10
-100.0
 20
9.804744765757006
 30
0.0
 11
-102.0
 21
7.804744765757011
 31
0.0
  0
LINE
  5
9B
330
1F
100
AcDbEntity
  8
외형선
  6
Continuous
370
    15
100
AcDbLine
 10
-102.0
 20
-8.195255234243003
 30
0.0
 11
-100.0
 21
-10.195255234243
 31
0.0
  0
LINE
  5
9C
330
1F
100
AcDbEntity
  8
외형선
  6
Continuous
 62
     1
370
    15
100
AcDbLine
 10
48.0
 20
-8.855202540745529
 30
0.0
 11
48.0
 21
0.7521920722596532
 31
0.0
  0
SPLINE
  5
9D
330
1F
100
AcDbEntity
  8
외형선
  6
Continuous
 62
     1
370
    15
100
AcDbSpline
210
0.0
220
0.0
230
1.0
 70
     8
 71
     3
 72
    10
 73
     6
 74
     0
 42
0.000000001
 43
0.00000001
 40
0.0
 40
0.0
 40
0.0
 40
0.0
 40
0.5
 40
0.5
 40
1.0
 40
1.0
 40
1.0
 40
1.0
 10
47.50000000000003
 20
-9.12571111358021
 30
0.0
 10
47.63083086792598
 20
-9.159719582582897
 30
0.0
 10
47.75068246535126
 20
-9.153338315574853
 30
0.0
 10
47.93614214201679
 20
-9.062316055915035
 30
0.0
 10
48.00000000000006
 20
-8.975427841021482
 30
0.0
 10
48.00000000000006
 20
-8.855202540745518
 30
0.0
  0
SPLINE
  5
9E
330
1F
100
AcDbEntity
  8
외형선
  6
Continuous
 62
     1
370
    15
100
AcDbSpline
210
0.0
220
0.0
230
1.0
 70
     8
 71
     3
 72
    50
 73
    46
 74
     0
 42
0.000000001
 43
0.00000001
 40
0.0
 40
0.0
 40
0.0
 40
0.0
 40
0.0625000000000018
 40
0.0625000000000018
 40
0.0937500000000018
 40
0.0937500000000018
 40
0.1250000000000019
 40
0.1250000000000019
 40
0.187500000000002
 40
0.187500000000002
 40
0.2187500000000029
 40
0.2187500000000029
 40
0.2500000000000038
 40
0.2500000000000038
 40
0.3125000000000038
 40
0.3125000000000038
 40
0.3437500000000039
 40
0.3437500000000039
 40
0.3750000000000039
 40
0.3750000000000039
 40
0.437500000000004
 40
0.437500000000004
 40
0.500000000000004
 40
0.500000000000004
 40
0.5625000000000041
 40
0.5625000000000041
 40
0.5937500000000041
 40
0.5937500000000041
 40
0.6250000000000041
 40
0.6250000000000041
 40
0.6562500000000041
 40
0.6562500000000041
 40
0.6875000000000041
 40
0.6875000000000041
 40
0.7500000000000033
 40
0.7500000000000033
 40
0.8125000000000026
 40
0.8125000000000026
 40
0.8750000000000018
 40
0.8750000000000018
 40
0.9062500000000013
 40
0.9062500000000013
 40
0.9375000000000009
 40
0.9375000000000009
 40
1.0
 40
1.0
 40
1.0
 40
1.0
 10
47.5
 20
-9.125711113580207
 30
0.0
 10
46.71949373289372
 20
-8.922824565381907
 30
0.0
 10
45.93394983469183
 20
-8.692146181900393
 30
0.0
 10
44.76418744901119
 20
-8.309205031112743
 30
0.0
 10
44.3754635845477
 20
-8.175417940479157
 30
0.0
 10
43.59379879651277
 20
-7.895391483186933
 30
0.0
 10
43.20206627130958
 20
-7.749280853636413
 30
0.0
 10
42.02820155173698
 20
-7.294140973773169
 30
0.0
 10
41.25131093250363
 20
-6.968873309135596
 30
0.0
 10
40.07765478267795
 20
-6.450343717981348
 30
0.0
 10
39.68589665979346
 20
-6.272506976046956
 30
0.0
 10
38.90399101875644
 20
-5.908073696961087
 30
0.0
 10
38.51495183007185
 20
-5.721659885269743
 30
0.0
 10
37.34581260253806
 20
-5.149910884077175
 30
0.0
 10
36.56030613657367
 20
-4.751427894250424
 30
0.0
 10
35.38903334219405
 20
-4.135860355271226
 30
0.0
 10
35.00068048545327
 20
-3.927878455339696
 30
0.0
 10
34.2198172205964
 20
-3.50580535220204
 30
0.0
 10
33.82822483614251
 20
-3.291871109522039
 30
0.0
 10
32.65399387984139
 20
-2.643559129923478
 30
0.0
 10
31.87667342567487
 20
-2.203574875921302
 30
0.0
 10
30.31284178078248
 20
-1.312332506303149
 30
0.0
 10
29.52827798373259
 20
-0.8614256112425925
 30
0.0
 10
27.971987685611
 20
0.0392409240824342
 30
0.0
 10
27.18672480124016
 20
0.4916010701793394
 30
0.0
 10
26.01424477295004
 20
1.163898303812059
 30
0.0
 10
25.62553280384448
 20
1.38672807257767
 30
0.0
 10
24.84567319144082
 20
1.830103588523993
 30
0.0
 10
24.45432301785026
 20
2.050684394802496
 30
0.0
 10
23.67146204798604
 20
2.488106824804924
 30
0.0
 10
23.27995330277128
 20
2.704947300148146
 30
0.0
 10
22.49946301943848
 20
3.133411941375384
 30
0.0
 10
22.11105536438858
 20
3.344938546929362
 30
0.0
 10
20.93926860800359
 20
3.972125451445078
 30
0.0
 10
20.15383387840421
 20
4.379507162751476
 30
0.0
 10
18.59594733308936
 20
5.161723027999766
 30
0.0
 10
17.81314602062767
 20
5.538308877449972
 30
0.0
 10
16.24863529767049
 20
6.254013962770154
 30
0.0
 10
15.47165000614218
 20
6.592489072026363
 30
0.0
 10
14.29760384359233
 20
7.068850183607504
 30
0.0
 10
13.90591455326314
 20
7.222249698977895
 30
0.0
 10
13.12454268005645
 20
7.517239703899247
 30
0.0
 10
12.73605289178401
 20
7.658696950826983
 30
0.0
 10
11.56565673228698
 20
8.06540180407637
 30
0.0
 10
10.78010299183285
 20
8.312675730539944
 30
0.0
 10
10.0
 20
8.532711436704973
 30
0.0
1001
PE_URL
1000

  0
SPLINE
  5
9F
102
{ACAD_REACTORS
330
227
102
}
330
1F
100
AcDbEntity
  8
외형선
  6
Continuous
 62
     1
370
    15
100
AcDbSpline
210
0.0
220
0.0
230
1.0
 70
     8
 71
     3
 72
    19
 73
    15
 74
     0
 42
0.000000001
 43
0.00000001
 40
0.0
 40
0.0
 40
0.0
 40
0.0
 40
0.0838826031158261
 40
0.1677713204904025
 40
0.2516651610650144
 40
0.3355537939400367
 40
0.4194363245937619
 40
0.5033136917426471
 40
0.5871868374132362
 40
0.6794457829029134
 40
0.7717038212508476
 40
0.8639608397749722
 40
0.9562167259533629
 40
1.0
 40
1.0
 40
1.0
 40
1.0
 10
47.50000000000003
 20
0.9492490557776931
 30
0.0
 10
46.49996743462449
 20
1.519477978961092
 30
0.0
 10
44.49982941083439
 20
2.65997738969349
 30
0.0
 10
41.49947343653325
 20
4.27607367250572
 30
0.0
 10
38.49898913519654
 20
5.760781486843692
 30
0.0
 10
35.49863625769729
 20
7.066644826736784
 30
0.0
 10
32.49852868129581
 20
8.15536760723423
 30
0.0
 10
29.49861402479074
 20
8.994068900078942
 30
0.0
 10
26.39898158724283
 20
9.57690653942806
 30
0.0
 10
23.19901039915358
 20
9.8504753252507
 30
0.0
 10
19.8992122924803
 20
9.773402489884413
 30
0.0
 10
16.59942458222973
 20
9.319410214435264
 30
0.0
 10
13.87758756248451
 20
8.710805024271785
 30
0.0
 10
12.25567973964685
 20
8.151272857615682
 30
0.0
 10
11.73367979074816
 20
7.97119125353867
 30
0.0
1001
PE_URL
1000

  0
SPLINE
  5
A0
330
1F
100
AcDbEntity
  8
외형선
  6
Continuous
 62
     1
370
    15
100
AcDbSpline
210
0.0
220
0.0
230
1.0
 70
     8
 71
     3
 72
    14
 73
    10
 74
     0
 42
0.000000001
 43
0.00000001
 40
0.0
 40
0.0
 40
0.0
 40
0.0
 40
0.25
 40
0.25
 40
0.5
 40
0.5
 40
0.75
 40
0.75
 40
1.0
 40
1.0
 40
1.0
 40
1.0
 10
47.99999999999997
 20
0.7521920722596536
 30
0.0
 10
47.99999999999994
 20
0.743076256010428
 30
0.0
 10
47.98620482258471
 20
0.7401394290053075
 30
0.0
 10
47.93236309349975
 20
0.7490688580267719
 30
0.0
 10
47.89198819995097
 20
0.7611538477860671
 30
0.0
 10
47.79485088678496
 20
0.7986178418020715
 30
0.0
 10
47.73813439129303
 20
0.8239447320788851
 30
0.0
 10
47.6201428537958
 20
0.882389892255659
 30
0.0
 10
47.55966899877674
 20
0.915005209640525
 30
0.0
 10
47.49999999999997
 20
0.9492490557777087
 30
0.0
  0
SPLINE
  5
A1
102
{ACAD_REACTORS
330
227
102
}
330
1F
100
AcDbEntity
  8
외형선
  6
Continuous
 62
     1
370
    15
100
AcDbSpline
210
0.0
220
0.0
230
1.0
 70
     8
 71
     3
 72
    17
 73
    13
 74
     0
 42
0.000000001
 43
0.00000001
 40
0.0
 40
0.0
 40
0.0
 40
0.0
 40
0.1038140338452359
 40
0.20763615446911
 40
0.3114590353913158
 40
0.4152737447117014
 40
0.5190814230373153
 40
0.6228832340280895
 40
0.7266803451073957
 40
0.8408583562647577
 40
0.9550353720682383
 40
1.0
 40
1.0
 40
1.0
 40
1.0
 10
10.0
 20
-5.076095099555356
 30
0.0
 10
11.00006919653018
 20
-5.56587348114952
 30
0.0
 10
13.00028549175765
 20
-6.545468396495189
 30
0.0
 10
16.00072508531069
 20
-7.78561330902198
 30
0.0
 10
19.00117572142878
 20
-8.809134272376527
 30
0.0
 10
22.00142653305562
 20
-9.572011411897732
 30
0.0
 10
25.00142967100791
 20
-10.05534352688661
 30
0.0
 10
28.00125920168698
 20
-10.24227554659991
 30
0.0
 10
31.10084074563065
 20
-10.12931824055378
 30
0.0
 10
34.30082320165135
 20
-9.661614813844915
 30
0.0
 10
36.93389513181026
 20
-9.058688897136932
 30
0.0
 10
38.46702546403162
 20
-8.52210663097473
 30
0.0
 10
38.90020331328095
 20
-8.370498155741783
 30
0.0
1001
PE_URL
1000

  0
SPLINE
  5
A2
330
1F
100
AcDbEntity
  8
외형선
  6
Continuous
370
    15
100
AcDbSpline
210
0.0
220
0.0
230
1.0
 70
    24
 71
     3
 72
    26
 73
    22
 74
     0
 42
0.000000001
 43
0.00000001
 40
0.0
 40
0.0
 40
0.0
 40
0.0
 40
0.125
 40
0.125
 40
0.25
 40
0.25
 40
0.375
 40
0.375
 40
0.5
 40
0.5
 40
0.625
 40
0.625
 40
0.6875
 40
0.6875
 40
0.75
 40
0.75
 40
0.8125
 40
0.8125
 40
0.875
 40
0.875
 40
1.0
 40
1.0
 40
1.0
 40
1.0
 10
10.0
 20
6.314565543377836
 30
0.0
 10
9.999999999999986
 20
6.124612956828625
 30
0.0
 10
10.00000000000003
 20
5.900909984310393
 30
0.0
 10
10.00000000000003
 20
5.43733376346406
 30
0.0
 10
9.999999999999986
 20
5.15048605929378
 30
0.0
 10
10.0
 20
4.428693339689674
 30
0.0
 10
9.999999999999986
 20
3.992680758048025
 30
0.0
 10
10.0
 20
2.95035580298665
 30
0.0
 10
9.999999999999986
 20
2.342443096943828
 30
0.0
 10
9.999999999999986
 20
0.9925816433306789
 30
0.0
 10
9.999999999999972
 20
0.2504373751886427
 30
0.0
 10
9.999999999999972
 20
-0.8648656926067055
 30
0.0
 10
9.999999999999986
 20
-1.236194787939108
 30
0.0
 10
9.999999999999986
 20
-1.955748419595853
 30
0.0
 10
9.999999999999943
 20
-2.303827126889187
 30
0.0
 10
9.999999999999986
 20
-2.955206741788234
 30
0.0
 10
9.999999999999986
 20
-3.258381401073786
 30
0.0
 10
9.999999999999986
 20
-3.803359383563303
 30
0.0
 10
9.999999999999972
 20
-4.045105056774094
 30
0.0
 10
9.999999999999943
 20
-4.665399493015481
 30
0.0
 10
9.999999999999972
 20
-4.935659542427487
 30
0.0
 10
10.0
 20
-5.076095099555348
 30
0.0
  0
SPLINE
  5
A3
330
1F
100
AcDbEntity
  8
외형선
  6
Continuous
 62
     1
370
    15
100
AcDbSpline
210
0.0
220
0.0
230
1.0
 70
     8
 71
     3
 72
    50
 73
    46
 74
     0
 42
0.000000001
 43
0.00000001
 40
0.0
 40
0.0
 40
0.0
 40
0.0
 40
0.0625
 40
0.0625
 40
0.0937499999999991
 40
0.0937499999999991
 40
0.1249999999999983
 40
0.1249999999999983
 40
0.1874999999999983
 40
0.1874999999999983
 40
0.2187499999999974
 40
0.2187499999999974
 40
0.2499999999999966
 40
0.2499999999999966
 40
0.3124999999999966
 40
0.3124999999999966
 40
0.3437499999999973
 40
0.3437499999999973
 40
0.3749999999999982
 40
0.3749999999999982
 40
0.4374999999999981
 40
0.4374999999999981
 40
0.499999999999998
 40
0.499999999999998
 40
0.562499999999998
 40
0.562499999999998
 40
0.593749999999998
 40
0.593749999999998
 40
0.624999999999998
 40
0.624999999999998
 40
0.6562499999999979
 40
0.6562499999999979
 40
0.6874999999999979
 40
0.6874999999999979
 40
0.7499999999999987
 40
0.7499999999999987
 40
0.8124999999999994
 40
0.8124999999999994
 40
0.8750000000000001
 40
0.8750000000000001
 40
0.9062500000000001
 40
0.9062500000000001
 40
0.9375000000000001
 40
0.9375000000000001
 40
1.0
 40
1.0
 40
1.0
 40
1.0
 10
47.5
 20
-10.195255234243
 30
0.0
 10
46.71949373289367
 20
-10.07793995591214
 30
0.0
 10
45.9339498346918
 20
-9.995790981611874
 30
0.0
 10
44.76418744901113
 20
-9.82847423018221
 30
0.0
 10
44.37546358454762
 20
-9.76538737072009
 30
0.0
 10
43.5937987965128
 20
-9.624482580668902
 30
0.0
 10
43.20206627130958
 20
-9.546718214272117
 30
0.0
 10
42.0282015517369
 20
-9.29226493148616
 30
0.0
 10
41.25131093250366
 20
-9.094778294223167
 30
0.0
 10
40.07765478267798
 20
-8.75807091860452
 30
0.0
 10
39.68589665979346
 20
-8.639151396302674
 30
0.0
 10
38.9039910187565
 20
-8.388770123558812
 30
0.0
 10
38.51495183007185
 20
-8.257441202783491
 30
0.0
 10
37.34581260253809
 20
-7.845128975868763
 30
0.0
 10
36.56030613657359
 20
-7.545288035789289
 30
0.0
 10
35.389033342194
 20
-7.06416423984991
 30
0.0
 10
35.0006804854533
 20
-6.898723077667969
 30
0.0
 10
34.21981722059637
 20
-6.55729080732602
 30
0.0
 10
33.82822483614248
 20
-6.38141788828047
 30
0.0
 10
32.65399387984151
 20
-5.840103239399437
 30
0.0
 10
31.87667342567484
 20
-5.461746734122649
 30
0.0
 10
30.31284178078245
 20
-4.673777852361662
 30
0.0
 10
29.52827798373268
 20
-4.264418075089954
 30
0.0
 10
27.97198768561103
 20
-3.425688236882968
 30
0.0
 10
27.18672480124019
 20
-2.993891537083802
 30
0.0
 10
26.01424477295012
 20
-2.336339514371665
 30
0.0
 10
25.62553280384451
 20
-2.115752573686438
 30
0.0
 10
24.84567319144078
 20
-1.671532992858519
 30
0.0
 10
24.45432301785023
 20
-1.447858119156865
 30
0.0
 10
23.67146204798607
 20
-0.9989042252463396
 30
0.0
 10
23.27995330277126
 20
-0.7736263803456696
 30
0.0
 10
22.49946301943842
 20
-0.3230177081047783
 30
0.0
 10
22.11105536438851
 20
-0.0977979347831218
 30
0.0
 10
20.93926860800363
 20
0.5783863448920424
 30
0.0
 10
20.15383387840428
 20
1.028994478771895
 30
0.0
 10
18.59594733308947
 20
1.917545476613087
 30
0.0
 10
17.8131460206277
 20
2.357456370433707
 30
0.0
 10
16.24863529767052
 20
3.218816902266975
 30
0.0
 10
15.47165000614218
 20
3.639433416216508
 30
0.0
 10
14.29760384359238
 20
4.252434396357266
 30
0.0
 10
13.90591455326314
 20
4.453582203821268
 30
0.0
 10
13.12454268005644
 20
4.848137166820141
 30
0.0
 10
12.73605289178404
 20
5.041354247060535
 30
0.0
 10
11.56565673228697
 20
5.609416193381443
 30
0.0
 10
10.78010299183276
 20
5.972354795007496
 30
0.0
 10
9.999999999999986
 20
6.314565543377828
 30
0.0
1001
PE_URL
1000

  0
LINE
  5
A5
330
1F
100
AcDbEntity
  8
외형선
  6
Continuous
370
    15
100
AcDbLine
 10
10.0
 20
6.314565543377834
 30
0.0
 11
10.0
 21
8.532711436704968
 31
0.0
  0
SPLINE
  5
A6
330
1F
100
AcDbEntity
  8
외형선
  6
Continuous
 62
     1
370
    15
100
AcDbSpline
210
0.0
220
0.0
230
1.0
 70
     8
 71
     3
 72
    10
 73
     6
 74
     0
 42
0.000000001
 43
0.00000001
 40
0.0
 40
0.0
 40
0.0
 40
0.0
 40
0.5
 40
0.5
 40
1.0
 40
1.0
 40
1.0
 40
1.0
 10
47.50000000000003
 20
4.304406729417231
 30
0.0
 10
47.63083086792598
 20
4.236910296484005
 30
0.0
 10
47.75068246535132
 20
4.138575439707096
 30
0.0
 10
47.93614214201683
 20
3.921464266570636
 30
0.0
 10
48.00000000000006
 20
3.803098498480344
 30
0.0
 10
48.00000000000006
 20
3.710549759429735
 30
0.0
  0
LINE
  5
A7
330
1F
100
AcDbEntity
  8
외형선
  6
Continuous
 62
     1
370
    15
100
AcDbLine
 10
48.0
 20
0.7521920722596533
 30
0.0
 11
48.0
 21
3.710549759429743
 31
0.0
  0
SPLINE
  5
A8
330
1F
100
AcDbEntity
  8
외형선
  6
Continuous
 62
     1
370
    15
100
AcDbSpline
210
0.0
220
0.0
230
1.0
 70
     8
 71
     3
 72
    13
 73
     9
 74
     0
 42
0.000000001
 43
0.00000001
 40
0.0
 40
0.0
 40
0.0
 40
0.0
 40
0.1372501127171508
 40
0.3098035203752915
 40
0.4823554237884176
 40
0.6549056119627292
 40
0.8274538741738929
 40
0.9999999999999999
 40
0.9999999999999999
 40
0.9999999999999999
 40
0.9999999999999999
 10
28.37636578559902
 20
9.788363830924913
 30
0.0
 10
29.25119789115244
 20
9.772661902499461
 30
0.0
 10
31.22588527517171
 20
9.737219216103194
 30
0.0
 10
34.30082227509513
 20
9.277039214118057
 30
0.0
 10
37.60065506952624
 20
8.474289660768786
 30
0.0
 10
40.90048334612001
 20
7.34584490384742
 30
0.0
 10
44.20025873818716
 20
5.958576395247653
 30
0.0
 10
46.40009078558208
 20
4.855794342353263
 30
0.0
 10
47.50000000000003
 20
4.304406729417241
 30
0.0
  0
SPLINE
  5
A9
330
1F
100
AcDbEntity
  8
외형선
  6
Continuous
 62
     1
370
    15
100
AcDbSpline
210
0.0
220
0.0
230
1.0
 70
     8
 71
     3
 72
    10
 73
     6
 74
     0
 42
0.000000001
 43
0.00000001
 40
0.0338977024053535
 40
0.0338977024053535
 40
0.0338977024053535
 40
0.0338977024053535
 40
0.3488624058955369
 40
0.697750240603946
 40
1.0
 40
1.0
 40
1.0
 40
1.0
 10
47.5
 20
9.804744765757004
 30
0.0
 10
46.30562843272465
 20
9.623740319887569
 30
0.0
 10
44.40265861303381
 20
9.430254893144035
 30
0.0
 10
41.63322539581397
 20
8.84495414533936
 30
0.0
 10
39.76664575541814
 20
8.254205614398954
 30
0.0
 10
38.90020331328095
 20
7.979987687255793
 30
0.0
  0
LINE
  5
AB
330
1F
100
AcDbEntity
  8
외형선
  6
Continuous
 62
     1
370
    15
100
AcDbLine
 10
48.0
 20
3.705396469305912
 30
0.0
 11
48.0
 21
9.304744765757004
 31
0.0
  0
SPLINE
  5
AC
330
1F
100
AcDbEntity
  8
외형선
  6
Continuous
 62
     1
370
    15
100
AcDbSpline
210
0.0
220
0.0
230
1.0
 70
     8
 71
     3
 72
    11
 73
     7
 74
     0
 42
0.000000001
 43
0.00000001
 40
0.0
 40
0.0
 40
0.0
 40
0.0
 40
0.193803930536292
 40
0.4625393611827398
 40
0.731271493419775
 40
0.9999999999999999
 40
0.9999999999999999
 40
0.9999999999999999
 40
0.9999999999999999
 10
22.27890492516349
 20
-10.15880594557649
 30
0.0
 10
21.48566823335678
 20
-10.15529260811369
 30
0.0
 10
19.59250130077855
 20
-10.14690755182939
 30
0.0
 10
16.59942607180467
 20
-9.70882753416145
 30
0.0
 10
13.29969300697111
 20
-8.948585949276358
 30
0.0
 10
11.09989272244465
 20
-8.173651063221929
 30
0.0
 10
9.999999999999986
 20
-7.786186234012122
 30
0.0
1001
PE_URL
1000

  0
LINE
  5
AD
330
1F
100
AcDbEntity
  8
외형선
  6
Continuous
370
    15
100
AcDbLine
 10
10.0
 20
-7.786186234012114
 30
0.0
 11
10.0
 21
-5.076095099555365
 31
0.0
  0
LINE
  5
AE
330
1F
100
AcDbEntity
  8
외형선
  6
Continuous
 62
     1
370
    15
100
AcDbLine
 10
10.0
 20
-8.923221905190934
 30
0.0
 11
11.73367979074803
 21
-8.361701722024664
 31
0.0
1001
PE_URL
1000

  0
SPLINE
  5
AF
330
1F
100
AcDbEntity
  8
외형선
  6
Continuous
370
    15
100
AcDbSpline
210
0.0
220
0.0
230
1.0
 70
    24
 71
     3
 72
     9
 73
     5
 74
     0
 42
0.000000001
 43
0.00000001
 40
0.0
 40
0.0
 40
0.0
 40
0.0
 40
0.353552522029537
 40
1.0
 40
1.0
 40
1.0
 40
1.0
 10
10.00000000000004
 20
-7.890382313960839
 30
0.0
 10
10.00000000000001
 20
-8.008243109217354
 30
0.0
 10
9.999999999999929
 20
-8.341604598423945
 30
0.0
 10
9.999999999999972
 20
-8.694860511259945
 30
0.0
 10
10.0
 20
-8.923221905190927
 30
0.0
  0
LINE
  5
B0
330
1F
100
AcDbEntity
  8
외형선
  6
Continuous
 62
     1
370
    15
100
AcDbLine
 10
48.0
 20
-9.695255234243003
 30
0.0
 11
48.0
 21
-8.855202540745529
 31
0.0
  0
LINE
  5
B1
330
1F
100
AcDbEntity
  8
외형선
  6
Continuous
370
    15
100
AcDbLine
 10
9.000175004160127
 20
8.800150532718705
 30
0.0
 11
9.000175004160127
 21
9.804744765757002
 31
0.0
  0
SPLINE
  5
B2
330
1F
100
AcDbEntity
  8
외형선
  6
Continuous
370
    15
100
AcDbSpline
210
0.0
220
0.0
230
1.0
 70
     8
 71
     3
 72
     8
 73
     4
 74
     0
 42
0.000000001
 43
0.00000001
 40
0.0
 40
0.0
 40
0.0
 40
0.0
 40
1.0
 40
1.0
 40
1.0
 40
1.0
 10
10.0
 20
8.532711436704973
 30
0.0
 10
9.66638266350084
 20
8.62681148117862
 30
0.0
 10
9.334123385417001
 20
8.71592624761623
 30
0.0
 10
9.000175004160113
 20
8.80017311373026
 30
0.0
  0
SPLINE
  5
B3
330
1F
100
AcDbEntity
  8
외형선
  6
Continuous
370
    15
100
AcDbSpline
210
0.0
220
0.0
230
1.0
 70
     8
 71
     3
 72
     8
 73
     4
 74
     0
 42
0.000000001
 43
0.00000001
 40
0.0
 40
0.0
 40
0.0
 40
0.0
 40
1.0
 40
1.0
 40
1.0
 40
1.0
 10
9.999999999999972
 20
6.314565543377835
 30
0.0
 10
9.666382663500812
 20
6.460914730072357
 30
0.0
 10
9.334123385417001
 20
6.60344238391846
 30
0.0
 10
9.000175004160141
 20
6.742340354390906
 30
0.0
  0
LINE
  5
B4
330
1F
100
AcDbEntity
  8
외형선
  6
Continuous
370
    15
100
AcDbLine
 10
9.000175004160127
 20
-4.563627366709847
 30
0.0
 11
9.000175004160127
 21
6.742389874017832
 31
0.0
  0
SPLINE
  5
B5
330
1F
100
AcDbEntity
  8
외형선
  6
Continuous
370
    15
100
AcDbSpline
210
0.0
220
0.0
230
1.0
 70
     8
 71
     3
 72
     8
 73
     4
 74
     0
 42
0.000000001
 43
0.00000001
 40
0.0
 40
0.0
 40
0.0
 40
0.0
 40
1.0
 40
1.0
 40
1.0
 40
1.0
 10
10.0
 20
-5.076095099555356
 30
0.0
 10
9.66638266350084
 20
-4.907824458730272
 30
0.0
 10
9.334123385417001
 20
-4.737065335115916
 30
0.0
 10
9.000175004160113
 20
-4.563580867306542
 30
0.0
  0
SPLINE
  5
B6
330
1F
100
AcDbEntity
  8
외형선
  6
Continuous
370
    15
100
AcDbSpline
210
0.0
220
0.0
230
1.0
 70
     8
 71
     3
 72
     8
 73
     4
 74
     0
 42
0.000000001
 43
0.00000001
 40
0.0
 40
0.0
 40
0.0
 40
0.0
 40
1.0
 40
1.0
 40
1.0
 40
1.0
 10
9.999999999999972
 20
-7.786186234012112
 30
0.0
 10
9.666382663500812
 20
-7.660680287987718
 30
0.0
 10
9.334123385417001
 20
-7.531119538592317
 30
0.0
 10
9.000175004160141
 20
-7.397322121503008
 30
0.0
  0
LINE
  5
B7
330
1F
100
AcDbEntity
  8
외형선
  6
Continuous
370
    15
100
AcDbLine
 10
9.000175004160127
 20
-10.19525523424299
 30
0.0
 11
9.000175004160127
 21
-7.397274419986966
 31
0.0
  0
SPLINE
  5
B8
330
1F
100
AcDbEntity
  8
외형선
  6
Continuous
370
    15
100
AcDbSpline
210
0.0
220
0.0
230
1.0
 70
     8
 71
     3
 72
     8
 73
     4
 74
     0
 42
0.000000001
 43
0.00000001
 40
0.0
 40
0.0
 40
0.0
 40
0.0
 40
1.0
 40
1.0
 40
1.0
 40
1.0
 10
10.0
 20
-8.923221905190934
 30
0.0
 10
9.66638266350084
 20
-9.017321949664584
 30
0.0
 10
9.334123385417001
 20
-9.10643671610219
 30
0.0
 10
9.000175004160113
 20
-9.190683582216222
 30
0.0
  0
LINE
  5
B9
330
1F
100
AcDbEntity
  8
외형선
  6
Continuous
370
    15
100
AcDbLine
 10
-100.0
 20
-0.1952552342429961
 30
0.0
 11
-100.0
 21
9.804744765757002
 31
0.0
  0
LINE
  5
BA
330
1F
100
AcDbEntity
  8
외형선
  6
Continuous
370
    15
100
AcDbLine
 10
-100.0
 20
-10.19525523424299
 30
0.0
 11
-100.0
 21
-0.1952552342429961
 31
0.0
  0
LINE
  5
BB
330
1F
100
AcDbEntity
  8
외형선
  6
Continuous
370
    15
100
AcDbLine
 10
-102.0
 20
-0.1952552342429961
 30
0.0
 11
-102.0
 21
7.804744765757011
 31
0.0
  0
LINE
  5
BC
330
1F
100
AcDbEntity
  8
외형선
  6
Continuous
370
    15
100
AcDbLine
 10
-102.0
 20
-8.195255234243003
 30
0.0
 11
-102.0
 21
-0.1952552342429961
 31
0.0
  0
SPLINE
  5
BD
330
1F
100
AcDbEntity
  8
외형선
  6
Continuous
370
    15
100
AcDbSpline
210
0.0
220
0.0
230
1.0
 70
    24
 71
     3
 72
    26
 73
    22
 74
     0
 42
0.000000001
 43
0.00000001
 40
0.0
 40
0.0
 40
0.0
 40
0.0
 40
0.1250000000000001
 40
0.1250000000000001
 40
0.1875
 40
0.1875
 40
0.25
 40
0.25
 40
0.3124999999999999
 40
0.3124999999999999
 40
0.3749999999999999
 40
0.3749999999999999
 40
0.4999999999999999
 40
0.4999999999999999
 40
0.6249999999999999
 40
0.6249999999999999
 40
0.75
 40
0.75
 40
0.875
 40
0.875
 40
1.0
 40
1.0
 40
1.0
 40
1.0
 10
10.00000000000006
 20
-5.076095099555356
 30
0.0
 10
10.00000000000006
 20
-4.935659542427496
 30
0.0
 10
9.999999999999957
 20
-4.665399493015487
 30
0.0
 10
9.999999999999929
 20
-4.045105056774098
 30
0.0
 10
10.00000000000001
 20
-3.803359383563303
 30
0.0
 10
9.999999999999986
 20
-3.258381401073785
 30
0.0
 10
9.999999999999986
 20
-2.955206741788237
 30
0.0
 10
10.0
 20
-2.303827126889189
 30
0.0
 10
10.0
 20
-1.955748419595858
 30
0.0
 10
9.999999999999986
 20
-1.236194787939111
 30
0.0
 10
9.999999999999986
 20
-0.864865692606704
 30
0.0
 10
9.999999999999943
 20
0.250437375188645
 30
0.0
 10
9.999999999999986
 20
0.9925816433306842
 30
0.0
 10
10.00000000000003
 20
2.342443096943835
 30
0.0
 10
9.999999999999986
 20
2.950355802986657
 30
0.0
 10
10.00000000000001
 20
3.992680758048034
 30
0.0
 10
10.00000000000003
 20
4.428693339689675
 30
0.0
 10
10.00000000000004
 20
5.150486059293782
 30
0.0
 10
10.00000000000001
 20
5.437333763464062
 30
0.0
 10
10.00000000000003
 20
5.900909984310394
 30
0.0
 10
10.00000000000003
 20
6.124612956828623
 30
0.0
 10
10.0
 20
6.314565543377836
 30
0.0
  0
SPLINE
  5
BE
330
1F
100
AcDbEntity
  8
외형선
  6
Continuous
370
    15
100
AcDbSpline
210
0.0
220
0.0
230
1.0
 70
    24
 71
     3
 72
    10
 73
     6
 74
     0
 42
0.000000001
 43
0.00000001
 40
0.0
 40
0.0
 40
0.0
 40
0.0
 40
0.3779979211307363
 40
0.7577850192705706
 40
1.0
 40
1.0
 40
1.0
 40
1.0
 10
10.0
 20
-8.923221905190928
 30
0.0
 10
10.00000000000001
 20
-8.78989070076451
 30
0.0
 10
10.00000000000003
 20
-8.522597195516115
 30
0.0
 10
10.0
 20
-8.173224604839948
 30
0.0
 10
9.999999999999972
 20
-7.96964760877667
 30
0.0
 10
9.999999999999957
 20
-7.890372313960837
 30
0.0
  0
LINE
  5
BF
330
1F
100
AcDbEntity
  8
중심선
100
AcDbLine
 10
-105.0
 20
-0.1952552342429961
 30
0.0
 11
51.00000000000003
 21
-0.195255234243
 31
0.0
  0
LINE
  5
C0
330
1F
100
AcDbEntity
  8
참조1
100
AcDbLine
 10
-15.77564223695981
 20
-2.499999999999974
 30
0.0
 11
-15.7756422369598
 21
-40.0
 31
0.0
  0
LINE
  5
C1
330
1F
100
AcDbEntity
  8
참조1
100
AcDbLine
 10
-15.7756422369598
 20
-40.0
 30
0.0
 11
-30.93398568371225
 21
-40.0
 31
0.0
  0
CIRCLE
  5
C2
330
1F
100
AcDbEntity
  8
해칭선
100
AcDbCircle
 10
0.0
 20
-0.1952552342429987
 30
0.0
 40
3.000000000000004
  0
INSERT
  5
C3
330
1F
100
AcDbEntity
  8
0
  6
Continuous
 62
     7
100
AcDbBlockReference
 66
     1
  2
블럭10
 10
-29.71591516908501
 20
-52.04717430164393
 30
0.0
  0
ATTRIB
  5
C4
330
C3
100
AcDbEntity
  8
FORMAT
 62
     2
100
AcDbText
 10
-45.83517620852056
 20
-49.97180738881174
 30
0.0
 40
4.233333333333333
  1
SEME0120005E [ 4 FLUTE ]
 41
0.75
  7
SLDTEXTSTYLE0
 11
-45.83517620852056
 21
-52.08847405547841
 31
0.0
100
AcDbAttribute
  2
AUTOATTR0
 70
     0
 74
     1
  0
SEQEND
  5
C5
330
C3
100
AcDbEntity
  8
0
  6
Continuous
 62
     7
  0
HATCH
  5
C6
330
1F
100
AcDbEntity
  8
중심선
100
AcDbHatch
 10
0.0
 20
0.0
 30
0.0
210
0.0
220
0.0
230
1.0
  2
SOLID
 70
     1
 71
     0
 91
        1
 92
        0
 93
        4
 72
     1
 10
-24.00100586470416
 20
-35.8
 11
-27.44728110854144
 21
-35.8
 72
     1
 10
-27.44728110854144
 20
-35.8
 11
-29.57551096774547
 21
-38.33632558057259
 72
     1
 10
-29.57551096774547
 20
-38.33632558057259
 11
-26.12920263879504
 21
-38.3362861512701
 72
     1
 10
-26.12920263879504
 20
-38.3362861512701
 11
-24.00100586470416
 21
-35.8
 97
        0
 75
     0
 76
     1
 98
        1
 10
0.0
 20
0.0
  0
HATCH
  5
C7
330
1F
100
AcDbEntity
  8
중심선
100
AcDbHatch
 10
0.0
 20
0.0
 30
0.0
210
0.0
220
0.0
230
1.0
  2
SOLID
 70
     1
 71
     0
 91
        1
 92
        0
 93
        4
 72
     1
 10
-18.98824187366821
 20
-35.8
 11
-22.43451711750549
 21
-35.8
 72
     1
 10
-22.43451711750549
 20
-35.8
 11
-26.96565512586288
 21
-41.20000000000002
 72
     1
 10
-26.96565512586288
 20
-41.20000000000002
 11
-23.5193798820256
 21
-41.20000000000002
 72
     1
 10
-23.5193798820256
 20
-41.20000000000002
 11
-18.98824187366821
 21
-35.8
 97
        0
 75
     0
 76
     1
 98
        1
 10
0.0
 20
0.0
  0
HATCH
  5
C8
330
1F
100
AcDbEntity
  8
중심선
100
AcDbHatch
 10
0.0
 20
0.0
 30
0.0
210
0.0
220
0.0
230
1.0
  2
SOLID
 70
     1
 71
     0
 91
        1
 92
        0
 93
        4
 72
     1
 10
-13.97547788263232
 20
-35.80000000000003
 11
-17.42175312646943
 21
-35.8
 72
     1
 10
-17.42175312646943
 20
-35.8
 11
-24.47019002835868
 21
-44.20000000000002
 72
     1
 10
-24.47019002835868
 20
-44.20000000000002
 11
-21.0239147845214
 21
-44.20000000000002
 72
     1
 10
-21.0239147845214
 20
-44.20000000000002
 11
-13.97547788263232
 21
-35.80000000000003
 97
        0
 75
     0
 76
     1
 98
        1
 10
0.0
 20
0.0
  0
HATCH
  5
C9
330
1F
100
AcDbEntity
  8
중심선
100
AcDbHatch
 10
0.0
 20
0.0
 30
0.0
210
0.0
220
0.0
230
1.0
  2
SOLID
 70
     1
 71
     0
 91
        1
 92
        0
 93
        6
 72
     3
 10
-9.175587451620116
 20
-40.00000000005127
 11
3.960054785062284
 21
1.540850780301639E-10
 40
0.3939339440162633
 50
17.09539180608433
 51
320.0019657685079
 73
     0
 72
     1
 10
-7.49258779591952
 20
-38.5878940046383
 11
-5.187285922218482
 21
-36.65356729459038
 72
     3
 10
-9.175587451672962
 20
-40.00000000000015
 11
6.600054785286829
 21
-1.249000902703301E-13
 40
0.6363583540795982
 50
39.99873849337408
 51
368.4976242363725
 73
     1
 72
     1
 10
-2.750254959772352
 20
-39.03999999993002
 11
-10.49552014483704
 21
-39.03999999992999
 72
     1
 10
-10.49552014483704
 20
-39.03999999992999
 11
-10.49554518928297
 21
-40.95999999992991
 72
     1
 10
-10.49554518928297
 20
-40.95999999992991
 11
-6.054165419810936
 21
-40.95999999992988
 97
        0
 75
     0
 76
     1
 98
        1
 10
0.0
 20
0.0
  0
DIMENSION
  5
CA
102
{ACAD_XDICTIONARY
360
226
102
}
330
1F
100
AcDbEntity
  8
치수문자_일반주서
100
AcDbDimension
  2
_D
 10
68.27916786961148
 20
-10.19525523424282
 30
0.0
 11
68.27916786961146
 21
-0.1952552342428362
 31
0.0
 70
   160
  1
%%c<>
 71
     2
 42
20.0
 52
-270.0
  3
SLDDIMSTYLE0
100
AcDbAlignedDimension
 13
22.27916786961153
 23
9.804744765757004
 33
0.0
 14
22.2791678696114
 24
-10.195255234243
 34
0.0
 50
90.0000000000002
100
AcDbRotatedDimension
1001
ENABLE_CUSTOM_SPLIT
1070
     1
  0
DIMENSION
  5
D8
330
1F
100
AcDbEntity
  8
치수문자_일반주서
100
AcDbDimension
  2
_D_1
 10
-113.4
 20
-10.19525523424305
 30
0.0
 11
-113.4
 21
-0.1952552342429917
 31
0.0
 70
   160
  1
%%c<>
 71
     2
 42
20.00000000000002
 52
-270.0
  3
SLDDIMSTYLE0
100
AcDbAlignedDimension
 13
-100.0
 23
9.804744765757013
 33
0.0
 14
-100.0
 24
-10.195255234243
 34
0.0
 50
90.0000000000002
100
AcDbRotatedDimension
  0
DIMENSION
  5
E5
330
1F
100
AcDbEntity
  8
치수문자_일반주서
100
AcDbDimension
  2
_D_2
 10
10.0
 20
26.71055207970209
 30
0.0
 11
29.00000000000001
 21
26.71055207970209
 31
0.0
 70
   160
  1
<>
 71
     2
 42
38.0
  3
SLDDIMSTYLE1
100
AcDbAlignedDimension
 13
48.0
 23
9.25738162545923
 33
0.0
 14
10.0
 24
8.53271143670497
 34
0.0
100
AcDbRotatedDimension
  0
DIMENSION
  5
F0
330
1F
100
AcDbEntity
  8
치수문자_일반주서
100
AcDbDimension
  2
_D_3
 10
-102.0
 20
34.12691477006902
 30
0.0
 11
-27.0
 21
34.12691477006902
 31
0.0
 70
   160
  1
<>
 71
     2
 42
150.0
  3
SLDDIMSTYLE1
100
AcDbAlignedDimension
 13
48.0
 23
9.25738162545923
 33
0.0
 14
-102.0
 24
7.804744765757011
 34
0.0
 50
0.0000000000000027
100
AcDbRotatedDimension
  0
LINE
  5
FA
330
1F
100
AcDbEntity
  8
참조1
100
AcDbLine
 10
67.03835494594202
 20
7.440000000000002
 30
0.0
 11
67.03835494594202
 21
-7.440000000000002
 31
0.0
  0
LINE
  5
FB
330
1F
100
AcDbEntity
  8
참조1
100
AcDbLine
 10
79.73835494594202
 20
5.440000000000002
 30
0.0
 11
67.03835494594202
 21
5.440000000000002
 31
0.0
  0
SOLID
  5
FC
330
1F
100
AcDbEntity
  8
참조1
100
AcDbTrace
 10
67.03835494594202
 20
5.440000000000002
 30
0.0
 11
73.38835494594201
 21
4.424000000000002
 31
0.0
 12
73.38835494594201
 22
6.456000000000002
 32
0.0
 13
73.38835494594201
 23
6.456000000000002
 33
0.0
  0
LINE
  5
FD
330
1F
100
AcDbEntity
  8
참조1
100
AcDbLine
 10
79.73835494594202
 20
-5.440000000000002
 30
0.0
 11
67.03835494594202
 21
-5.440000000000002
 31
0.0
  0
SOLID
  5
FE
330
1F
100
AcDbEntity
  8
참조1
100
AcDbTrace
 10
67.03835494594202
 20
-5.440000000000002
 30
0.0
 11
73.38835494594201
 21
-6.456000000000002
 31
0.0
 12
73.38835494594201
 22
-4.424000000000002
 32
0.0
 13
73.38835494594201
 23
-4.424000000000002
 33
0.0
  0
MTEXT
  5
FF
330
1F
100
AcDbEntity
  8
참조1
100
AcDbMText
 10
76.4358450384123
 20
10.98821664464994
 30
0.0
 40
3.5
 41
0.0
 71
     1
 72
     1
  1
A
  7
SLDTEXTSTYLE0
 73
     1
 44
1.0
  0
MTEXT
  5
100
330
1F
100
AcDbEntity
  8
참조1
100
AcDbMText
 10
76.4358450384123
 20
0.1082166446499328
 30
0.0
 40
3.5
 41
0.0
 71
     1
 72
     1
  1
A
  7
SLDTEXTSTYLE0
 73
     1
 44
1.0
  0
INSERT
  5
107
330
1F
100
AcDbEntity
  8
해칭선
100
AcDbBlockReference
  2
SW_DOWELSYMBOL_0
 10
0.0
 20
-0.1952552342429987
 30
0.0
  0
ARC
  5
22F
330
1F
100
AcDbEntity
  8
외형선
  6
Continuous
 62
     1
370
    15
100
AcDbCircle
 10
47.5
 20
9.304744765757004
 30
0.0
 40
0.4999999999999998
100
AcDbArc
 50
0.0
 51
90.0
1001
PE_URL
1000

  0
ARC
  5
233
102
{ACAD_REACTORS
102
}
330
1F
100
AcDbEntity
  8
외형선
  6
Continuous
 62
     1
370
    15
100
AcDbCircle
 10
47.5
 20
-9.695255234243003
 30
0.0
 40
0.4999999999999998
100
AcDbArc
 50
270.0
 51
0.0
1001
PE_URL
1000

  0
DIMENSION
  5
234
102
{ACAD_REACTORS
102
}
102
{ACAD_XDICTIONARY
360
235
102
}
330
1F
100
AcDbEntity
  8
치수문자_일반주서
100
AcDbDimension
  2
*D18
 10
47.5
 20
-9.695255234243003
 30
0.0
 11
57.49327029804424
 21
-29.05104140532463
 31
0.0
 70
   164
 71
     5
 42
0.4999999999999992
  3
SLDDIMSTYLE1
100
AcDbRadialDimension
 15
47.72937922453445
 25
-10.13953574400229
 35
0.0
 40
0.0
1001
ACAD
1000
DSTYLE
1002
{
1070
    78
1070
     8
1002
}
1001
ACAD_DSTYLE_DIMRADIAL_EXTENSION
1070
   387
1070
     1
1070
   388
1040
4.71238898038469
1070
   390
1040
0.0
1001
PE_URL
1000

  0
ENDSEC
  0
SECTION
  2
OBJECTS
  0
DICTIONARY
  5
C
330
0
100
AcDbDictionary
281
     1
  3
ACAD_GROUP
350
D
  3
ACAD_LAYOUT
350
1A
  3
ACAD_MLINESTYLE
350
17
  3
ACAD_PLOTSETTINGS
350
19
  3
ACAD_PLOTSTYLENAME
350
E
  3
ACAD_SCALELIST
350
47
  3
APPDATA
350
129
  3
DWGPROPS
350
243
  0
DICTIONARY
  5
1B4
330
2
100
AcDbDictionary
280
     1
281
     1
  3
ACAD_LAYERSTATES
360
1B5
  0
DICTIONARY
  5
231
330
1F
100
AcDbDictionary
280
     1
281
     1
  3
ACAD_SORTENTS
360
232
  3
DIM_BOUNDING_BOXES_V1
360
241
  0
DICTIONARY
  5
226
330
CA
100
AcDbDictionary
280
     1
281
     1
  3
ACAD_CUSTOM_BREAKDATA
360
227
  0
DICTIONARY
  5
235
330
234
100
AcDbDictionary
280
     1
281
     1
  0
DICTIONARY
  5
D
102
{ACAD_REACTORS
330
C
102
}
330
C
100
AcDbDictionary
281
     1
  0
DICTIONARY
  5
1A
102
{ACAD_REACTORS
330
C
102
}
330
C
100
AcDbDictionary
281
     1
  3
Layout1
350
1E
  3
Layout2
350
26
  3
Model
350
22
  0
DICTIONARY
  5
17
102
{ACAD_REACTORS
330
C
102
}
330
C
100
AcDbDictionary
281
     1
  3
Standard
350
18
  0
DICTIONARY
  5
19
102
{ACAD_REACTORS
330
C
102
}
330
C
100
AcDbDictionary
281
     1
  0
ACDBDICTIONARYWDFLT
  5
E
102
{ACAD_REACTORS
330
C
102
}
330
C
100
AcDbDictionary
281
     1
  3
Normal
350
F
100
AcDbDictionaryWithDefault
340
F
  0
DICTIONARY
  5
47
102
{ACAD_REACTORS
330
C
102
}
330
C
100
AcDbDictionary
281
     1
  3
A0
350
48
  3
A1
350
49
  3
A2
350
4A
  3
A3
350
4B
  3
A4
350
4C
  3
A5
350
4D
  3
A6
350
4E
  3
A7
350
4F
  3
A8
350
50
  3
A9
350
51
  3
B0
350
52
  3
B1
350
53
  3
B2
350
54
  3
B3
350
55
  3
B4
350
56
  3
B5
350
57
  3
B6
350
58
  3
B7
350
59
  3
B8
350
5A
  3
B9
350
5B
  3
C0
350
5C
  3
C1
350
5D
  3
C2
350
5E
  3
C3
350
5F
  3
C4
350
60
  3
C5
350
61
  3
C6
350
62
  3
C7
350
63
  3
C8
350
64
  3
C9
350
65
  3
D0
350
66
  3
D1
350
67
  3
D2
350
68
  0
DICTIONARY
  5
129
102
{ACAD_REACTORS
330
C
102
}
330
C
100
AcDbDictionary
281
     1
  0
XRECORD
  5
243
102
{ACAD_REACTORS
330
C
102
}
330
C
100
AcDbXrecord
280
     1
  1
DWGPROPS COOKIE
  2

  3

  4

  6

  7

  8
12016016
  9

300
=
301
=
302
=
303
=
304
=
305
=
306
=
307
=
308
=
309
=
 40
0.0
 41
2458269.450334005
 42
2459702.28798691
  1

 90
        0
  0
DICTIONARY
  5
1B5
102
{ACAD_REACTORS
330
1B4
102
}
330
1B4
100
AcDbDictionary
281
     1
  0
SORTENTSTABLE
  5
232
102
{ACAD_REACTORS
330
231
102
}
330
231
100
AcDbSortentsTable
330
1F
  0
DICTIONARY
  5
241
102
{ACAD_REACTORS
330
231
102
}
330
231
100
AcDbDictionary
281
     1
  0
BREAKDATA
  5
227
102
{ACAD_REACTORS
330
226
102
}
330
226
100
AcDbBreakData
 70
     0
330
CA
 90
        4
100
AcDbBreakPointRef
 71
     0
 72
     0
 91
       -1
 10
0.0
 20
0.0
 30
0.0
 11
0.0
 21
0.0
 31
0.0
331
9F
 73
     2
 92
        0
100
AcDbBreakPointRef
 71
     0
 72
     0
 91
       -1
 10
0.0
 20
0.0
 30
0.0
 11
0.0
 21
0.0
 31
0.0
331
96
 73
     2
 92
        0
100
AcDbBreakPointRef
 71
     0
 72
     0
 91
       -1
 10
0.0
 20
0.0
 30
0.0
 11
0.0
 21
0.0
 31
0.0
331
A1
 73
     2
 92
        0
100
AcDbBreakPointRef
 71
     0
 72
     0
 91
       -1
 10
0.0
 20
0.0
 30
0.0
 11
0.0
 21
0.0
 31
0.0
331
97
 73
     2
 92
        0
  0
LAYOUT
  5
1E
102
{ACAD_REACTORS
330
1A
102
}
330
1A
100
AcDbPlotSettings
  1

  2
none_device
  4

  6

 40
0.0
 41
0.0
 42
0.0
 43
0.0
 44
0.0
 45
0.0
 46
0.0
 47
0.0
 48
0.0
 49
0.0
140
0.0
141
0.0
142
1.0
143
1.0
 70
   688
 72
     1
 73
     0
 74
     5
  7

 75
    16
147
1.0
148
0.0
149
0.0
100
AcDbLayout
  1
Layout1
 70
     1
 71
     1
 10
0.0
 20
0.0
 11
420.0
 21
297.0
 12
0.0
 22
0.0
 32
0.0
 14
1.000000000000000E+20
 24
1.000000000000000E+20
 34
1.000000000000000E+20
 15
-1.000000000000000E+20
 25
-1.000000000000000E+20
 35
-1.000000000000000E+20
146
0.0
 13
0.0
 23
0.0
 33
0.0
 16
1.0
 26
0.0
 36
0.0
 17
0.0
 27
1.0
 37
0.0
 76
     0
330
1B
  0
LAYOUT
  5
26
102
{ACAD_REACTORS
330
1A
102
}
330
1A
100
AcDbPlotSettings
  1

  2
none_device
  4

  6

 40
0.0
 41
0.0
 42
0.0
 43
0.0
 44
0.0
 45
0.0
 46
0.0
 47
0.0
 48
0.0
 49
0.0
140
0.0
141
0.0
142
1.0
143
1.0
 70
   688
 72
     1
 73
     0
 74
     5
  7

 75
    16
147
1.0
148
0.0
149
0.0
100
AcDbLayout
  1
Layout2
 70
     1
 71
     2
 10
0.0
 20
0.0
 11
0.0
 21
0.0
 12
0.0
 22
0.0
 32
0.0
 14
0.0
 24
0.0
 34
0.0
 15
0.0
 25
0.0
 35
0.0
146
0.0
 13
0.0
 23
0.0
 33
0.0
 16
1.0
 26
0.0
 36
0.0
 17
0.0
 27
1.0
 37
0.0
 76
     0
330
23
  0
LAYOUT
  5
22
102
{ACAD_REACTORS
330
1A
102
}
330
1A
100
AcDbPlotSettings
  1

  2
none_device
  4
ANSI_A_(11.00_x_8.50_Inches)
  6

 40
6.35
 41
19.05
 42
6.35000508
 43
19.05000254
 44
279.4
 45
215.9
 46
87.93427312127547
 47
98.62565615543473
 48
0.0
 49
0.0
140
0.0
141
0.0
142
0.0644511378840416
143
1.0
 70
  1696
 72
     0
 73
     0
 74
     0
  7

 75
     0
147
0.0235690232323232
148
0.0
149
0.0
100
AcDbLayout
  1
Model
 70
     1
 71
     0
 10
0.0
 20
0.0
 11
420.0
 21
297.0
 12
0.0
 22
0.0
 32
0.0
 14
-117.775
 24
-49.97180738881174
 34
0.0
 15
79.73835494594202
 25
38.50191477006903
 35
0.0
146
0.0
 13
0.0
 23
0.0
 33
0.0
 16
1.0
 26
0.0
 36
0.0
 17
0.0
 27
1.0
 37
0.0
 76
     0
330
1F
331
29
  0
MLINESTYLE
  5
18
102
{ACAD_REACTORS
330
17
102
}
330
17
100
AcDbMlineStyle
  2
Standard
 70
     0
  3

 62
   256
 51
90.0
 52
90.0
 71
     2
 49
0.5
 62
   256
  6
BYLAYER
 49
-0.5
 62
   256
  6
BYLAYER
  0
ACDBPLACEHOLDER
  5
F
102
{ACAD_REACTORS
330
E
102
}
330
E
  0
SCALE
  5
48
102
{ACAD_REACTORS
330
47
102
}
330
47
100
AcDbScale
 70
     0
300
1:1
140
1.0
141
1.0
290
     1
  0
SCALE
  5
49
102
{ACAD_REACTORS
330
47
102
}
330
47
100
AcDbScale
 70
     0
300
1:2
140
1.0
141
2.0
290
     0
  0
SCALE
  5
4A
102
{ACAD_REACTORS
330
47
102
}
330
47
100
AcDbScale
 70
     0
300
1:4
140
1.0
141
4.0
290
     0
  0
SCALE
  5
4B
102
{ACAD_REACTORS
330
47
102
}
330
47
100
AcDbScale
 70
     0
300
1:5
140
1.0
141
5.0
290
     0
  0
SCALE
  5
4C
102
{ACAD_REACTORS
330
47
102
}
330
47
100
AcDbScale
 70
     0
300
1:8
140
1.0
141
8.0
290
     0
  0
SCALE
  5
4D
102
{ACAD_REACTORS
330
47
102
}
330
47
100
AcDbScale
 70
     0
300
1:10
140
1.0
141
10.0
290
     0
  0
SCALE
  5
4E
102
{ACAD_REACTORS
330
47
102
}
330
47
100
AcDbScale
 70
     0
300
1:16
140
1.0
141
16.0
290
     0
  0
SCALE
  5
4F
102
{ACAD_REACTORS
330
47
102
}
330
47
100
AcDbScale
 70
     0
300
1:20
140
1.0
141
20.0
290
     0
  0
SCALE
  5
50
102
{ACAD_REACTORS
330
47
102
}
330
47
100
AcDbScale
 70
     0
300
1:30
140
1.0
141
30.0
290
     0
  0
SCALE
  5
51
102
{ACAD_REACTORS
330
47
102
}
330
47
100
AcDbScale
 70
     0
300
1:40
140
1.0
141
40.0
290
     0
  0
SCALE
  5
52
102
{ACAD_REACTORS
330
47
102
}
330
47
100
AcDbScale
 70
     0
300
1:50
140
1.0
141
50.0
290
     0
  0
SCALE
  5
53
102
{ACAD_REACTORS
330
47
102
}
330
47
100
AcDbScale
 70
     0
300
1:100
140
1.0
141
100.0
290
     0
  0
SCALE
  5
54
102
{ACAD_REACTORS
330
47
102
}
330
47
100
AcDbScale
 70
     0
300
2:1
140
2.0
141
1.0
290
     0
  0
SCALE
  5
55
102
{ACAD_REACTORS
330
47
102
}
330
47
100
AcDbScale
 70
     0
300
4:1
140
4.0
141
1.0
290
     0
  0
SCALE
  5
56
102
{ACAD_REACTORS
330
47
102
}
330
47
100
AcDbScale
 70
     0
300
8:1
140
8.0
141
1.0
290
     0
  0
SCALE
  5
57
102
{ACAD_REACTORS
330
47
102
}
330
47
100
AcDbScale
 70
     0
300
10:1
140
10.0
141
1.0
290
     0
  0
SCALE
  5
58
102
{ACAD_REACTORS
330
47
102
}
330
47
100
AcDbScale
 70
     0
300
100:1
140
100.0
141
1.0
290
     0
  0
SCALE
  5
59
102
{ACAD_REACTORS
330
47
102
}
330
47
100
AcDbScale
 70
     0
300
1/128" = 1'-0"
140
0.0078125
141
12.0
290
     0
  0
SCALE
  5
5A
102
{ACAD_REACTORS
330
47
102
}
330
47
100
AcDbScale
 70
     0
300
1/64" = 1'-0"
140
0.015625
141
12.0
290
     0
  0
SCALE
  5
5B
102
{ACAD_REACTORS
330
47
102
}
330
47
100
AcDbScale
 70
     0
300
1/32" = 1'-0"
140
0.03125
141
12.0
290
     0
  0
SCALE
  5
5C
102
{ACAD_REACTORS
330
47
102
}
330
47
100
AcDbScale
 70
     0
300
1/16" = 1'-0"
140
0.0625
141
12.0
290
     0
  0
SCALE
  5
5D
102
{ACAD_REACTORS
330
47
102
}
330
47
100
AcDbScale
 70
     0
300
3/32" = 1'-0"
140
0.09375
141
12.0
290
     0
  0
SCALE
  5
5E
102
{ACAD_REACTORS
330
47
102
}
330
47
100
AcDbScale
 70
     0
300
1/8" = 1'-0"
140
0.125
141
12.0
290
     0
  0
SCALE
  5
5F
102
{ACAD_REACTORS
330
47
102
}
330
47
100
AcDbScale
 70
     0
300
3/16" = 1'-0"
140
0.1875
141
12.0
290
     0
  0
SCALE
  5
60
102
{ACAD_REACTORS
330
47
102
}
330
47
100
AcDbScale
 70
     0
300
1/4" = 1'-0"
140
0.25
141
12.0
290
     0
  0
SCALE
  5
61
102
{ACAD_REACTORS
330
47
102
}
330
47
100
AcDbScale
 70
     0
300
3/8" = 1'-0"
140
0.375
141
12.0
290
     0
  0
SCALE
  5
62
102
{ACAD_REACTORS
330
47
102
}
330
47
100
AcDbScale
 70
     0
300
1/2" = 1'-0"
140
0.5
141
12.0
290
     0
  0
SCALE
  5
63
102
{ACAD_REACTORS
330
47
102
}
330
47
100
AcDbScale
 70
     0
300
3/4" = 1'-0"
140
0.75
141
12.0
290
     0
  0
SCALE
  5
64
102
{ACAD_REACTORS
330
47
102
}
330
47
100
AcDbScale
 70
     0
300
1" = 1'-0"
140
1.0
141
12.0
290
     0
  0
SCALE
  5
65
102
{ACAD_REACTORS
330
47
102
}
330
47
100
AcDbScale
 70
     0
300
1-1/2" = 1'-0"
140
1.5
141
12.0
290
     0
  0
SCALE
  5
66
102
{ACAD_REACTORS
330
47
102
}
330
47
100
AcDbScale
 70
     0
300
3" = 1'-0"
140
3.0
141
12.0
290
     0
  0
SCALE
  5
67
102
{ACAD_REACTORS
330
47
102
}
330
47
100
AcDbScale
 70
     0
300
6" = 1'-0"
140
6.0
141
12.0
290
     0
  0
SCALE
  5
68
102
{ACAD_REACTORS
330
47
102
}
330
47
100
AcDbScale
 70
     0
300
1'-0" = 1'-0"
140
12.0
141
12.0
290
     0
  0
ENDSEC
  0
EOF
