  0
SECTION
  2
HEADER
  9
$ACADVER
  1
AC1015
  9
$ACADMAINTVER
 70
     6
  9
$DWGCODEPAGE
  3
ANSI_949
  9
$INSBASE
 10
0.0
 20
0.0
 30
0.0
  9
$EXTMIN
 10
-46.44552133971192
 20
-49.97180738881173
 30
0.0
  9
$EXTMAX
 10
35.91556175125629
 20
28.73415911661227
 30
0.0
  9
$LIMMIN
 10
0.0
 20
0.0
  9
$LIMMAX
 10
420.0
 20
297.0
  9
$ORTHOMODE
 70
     1
  9
$REGENMODE
 70
     1
  9
$FILLMODE
 70
     1
  9
$QTEXTMODE
 70
     0
  9
$MIRRTEXT
 70
     1
  9
$LTSCALE
 40
1.0
  9
$ATTMODE
 70
     1
  9
$TEXTSIZE
 40
3.5
  9
$TRACEWID
 40
1.0
  9
$TEXTSTYLE
  7
Standard
  9
$CLAYER
  8
0
  9
$CELTYPE
  6
ByLayer
  9
$CECOLOR
 62
   256
  9
$CELTSCALE
 40
1.0
  9
$DISPSILH
 70
     0
  9
$DIMSCALE
 40
1.0
  9
$DIMASZ
 40
3.302
  9
$DIMEXO
 40
1.0
  9
$DIMDLI
 40
3.75
  9
$DIMRND
 40
0.0
  9
$DIMDLE
 40
0.0
  9
$DIMEXE
 40
1.0
  9
$DIMTP
 40
0.0
  9
$DIMTM
 40
0.0
  9
$DIMTXT
 40
3.5
  9
$DIMCEN
 40
2.5
  9
$DIMTSZ
 40
0.0
  9
$DIMTOL
 70
     0
  9
$DIMLIM
 70
     0
  9
$DIMTIH
 70
     1
  9
$DIMTOH
 70
     1
  9
$DIMSE1
 70
     0
  9
$DIMSE2
 70
     0
  9
$DIMTAD
 70
     1
  9
$DIMZIN
 70
     0
  9
$DIMBLK
  1

  9
$DIMASO
 70
     1
  9
$DIMSHO
 70
     1
  9
$DIMPOST
  1

  9
$DIMAPOST
  1

  9
$DIMALT
 70
     0
  9
$DIMALTD
 70
     3
  9
$DIMALTF
 40
0.0393700787401575
  9
$DIMLFAC
 40
1.0
  9
$DIMTOFL
 70
     1
  9
$DIMTVP
 40
0.0
  9
$DIMTIX
 70
     0
  9
$DIMSOXD
 70
     0
  9
$DIMSAH
 70
     0
  9
$DIMBLK1
  1

  9
$DIMBLK2
  1

  9
$DIMSTYLE
  2
ISO-25
  9
$DIMCLRD
 70
     0
  9
$DIMCLRE
 70
     0
  9
$DIMCLRT
 70
     0
  9
$DIMTFAC
 40
1.0
  9
$DIMGAP
 40
1.524
  9
$DIMJUST
 70
     0
  9
$DIMSD1
 70
     0
  9
$DIMSD2
 70
     0
  9
$DIMTOLJ
 70
     0
  9
$DIMTZIN
 70
     0
  9
$DIMALTZ
 70
     0
  9
$DIMALTTZ
 70
     0
  9
$DIMUPT
 70
     0
  9
$DIMDEC
 70
     2
  9
$DIMTDEC
 70
     2
  9
$DIMALTU
 70
     2
  9
$DIMALTTD
 70
     3
  9
$DIMTXSTY
  7
Standard
  9
$DIMAUNIT
 70
     0
  9
$DIMADEC
 70
     2
  9
$DIMALTRND
 40
0.0
  9
$DIMAZIN
 70
     0
  9
$DIMDSEP
 70
    44
  9
$DIMATFIT
 70
     3
  9
$DIMFRAC
 70
     0
  9
$DIMLDRBLK
  1

  9
$DIMLUNIT
 70
     2
  9
$DIMLWD
 70
    -2
  9
$DIMLWE
 70
    -2
  9
$DIMTMOVE
 70
     0
  9
$LUNITS
 70
     2
  9
$LUPREC
 70
     2
  9
$SKETCHINC
 40
1.0
  9
$FILLETRAD
 40
10.0
  9
$AUNITS
 70
     0
  9
$AUPREC
 70
     2
  9
$MENU
  1
.
  9
$ELEVATION
 40
0.0
  9
$PELEVATION
 40
0.0
  9
$THICKNESS
 40
0.0
  9
$LIMCHECK
 70
     0
  9
$CHAMFERA
 40
0.0
  9
$CHAMFERB
 40
0.0
  9
$CHAMFERC
 40
0.0
  9
$CHAMFERD
 40
0.0
  9
$SKPOLY
 70
     0
  9
$TDCREATE
 40
2458250.491208739
  9
$TDUCREATE
 40
2458250.116208739
  9
$TDUPDATE
 40
2458264.41018919
  9
$TDUUPDATE
 40
2458264.03518919
  9
$TDINDWG
 40
0.0026016088
  9
$TDUSRTIMER
 40
0.0005844213
  9
$USRTIMER
 70
     1
  9
$ANGBASE
 50
0.0
  9
$ANGDIR
 70
     0
  9
$PDMODE
 70
     0
  9
$PDSIZE
 40
-1.0
  9
$PLINEWID
 40
0.0
  9
$SPLFRAME
 70
     0
  9
$SPLINETYPE
 70
     6
  9
$SPLINESEGS
 70
     8
  9
$HANDSEED
  5
1B2
  9
$SURFTAB1
 70
     6
  9
$SURFTAB2
 70
     6
  9
$SURFTYPE
 70
     6
  9
$SURFU
 70
     6
  9
$SURFV
 70
     6
  9
$UCSBASE
  2

  9
$UCSNAME
  2

  9
$UCSORG
 10
0.0
 20
0.0
 30
0.0
  9
$UCSXDIR
 10
1.0
 20
0.0
 30
0.0
  9
$UCSYDIR
 10
0.0
 20
1.0
 30
0.0
  9
$UCSORTHOREF
  2

  9
$UCSORTHOVIEW
 70
     0
  9
$UCSORGTOP
 10
0.0
 20
0.0
 30
0.0
  9
$UCSORGBOTTOM
 10
0.0
 20
0.0
 30
0.0
  9
$UCSORGLEFT
 10
0.0
 20
0.0
 30
0.0
  9
$UCSORGRIGHT
 10
0.0
 20
0.0
 30
0.0
  9
$UCSORGFRONT
 10
0.0
 20
0.0
 30
0.0
  9
$UCSORGBACK
 10
0.0
 20
0.0
 30
0.0
  9
$PUCSBASE
  2

  9
$PUCSNAME
  2

  9
$PUCSORG
 10
0.0
 20
0.0
 30
0.0
  9
$PUCSXDIR
 10
1.0
 20
0.0
 30
0.0
  9
$PUCSYDIR
 10
0.0
 20
1.0
 30
0.0
  9
$PUCSORTHOREF
  2

  9
$PUCSORTHOVIEW
 70
     0
  9
$PUCSORGTOP
 10
0.0
 20
0.0
 30
0.0
  9
$PUCSORGBOTTOM
 10
0.0
 20
0.0
 30
0.0
  9
$PUCSORGLEFT
 10
0.0
 20
0.0
 30
0.0
  9
$PUCSORGRIGHT
 10
0.0
 20
0.0
 30
0.0
  9
$PUCSORGFRONT
 10
0.0
 20
0.0
 30
0.0
  9
$PUCSORGBACK
 10
0.0
 20
0.0
 30
0.0
  9
$USERI1
 70
     0
  9
$USERI2
 70
     0
  9
$USERI3
 70
     0
  9
$USERI4
 70
     0
  9
$USERI5
 70
     0
  9
$USERR1
 40
0.0
  9
$USERR2
 40
0.0
  9
$USERR3
 40
0.0
  9
$USERR4
 40
0.0
  9
$USERR5
 40
0.0
  9
$WORLDVIEW
 70
     1
  9
$SHADEDGE
 70
     3
  9
$SHADEDIF
 70
    70
  9
$TILEMODE
 70
     1
  9
$MAXACTVP
 70
    64
  9
$PINSBASE
 10
0.0
 20
0.0
 30
0.0
  9
$PLIMCHECK
 70
     0
  9
$PEXTMIN
 10
1.000000000000000E+20
 20
1.000000000000000E+20
 30
1.000000000000000E+20
  9
$PEXTMAX
 10
-1.000000000000000E+20
 20
-1.000000000000000E+20
 30
-1.000000000000000E+20
  9
$PLIMMIN
 10
0.0
 20
0.0
  9
$PLIMMAX
 10
0.0
 20
0.0
  9
$UNITMODE
 70
     0
  9
$VISRETAIN
 70
     1
  9
$PLINEGEN
 70
     0
  9
$PSLTSCALE
 70
     1
  9
$TREEDEPTH
 70
  3020
  9
$CMLSTYLE
  2
Standard
  9
$CMLJUST
 70
     0
  9
$CMLSCALE
 40
20.0
  9
$PROXYGRAPHICS
 70
     1
  9
$MEASUREMENT
 70
     1
  9
$CELWEIGHT
370
    -1
  9
$ENDCAPS
280
     0
  9
$JOINSTYLE
280
     0
  9
$LWDISPLAY
290
     1
  9
$INSUNITS
 70
     4
  9
$HYPERLINKBASE
  1

  9
$STYLESHEET
  1

  9
$XEDIT
290
     1
  9
$CEPSNTYPE
380
     0
  9
$PSTYLEMODE
290
     1
  9
$FINGERPRINTGUID
  2
{9A71728C-EF88-411F-BEDA-355450BFA8FD}
  9
$VERSIONGUID
  2
{FAEB1C32-E019-11D5-929B-00C0DF256EC4}
  9
$EXTNAMES
290
     1
  9
$PSVPSCALE
 40
0.0
  9
$OLESTARTUP
290
     0
  0
ENDSEC
  0
SECTION
  2
CLASSES
  0
CLASS
  1
ACDBDICTIONARYWDFLT
  2
AcDbDictionaryWithDefault
  3
ObjectDBX Classes
 90
        0
280
     0
281
     0
  0
CLASS
  1
VISUALSTYLE
  2
AcDbVisualStyle
  3
ObjectDBX Classes
 90
     4095
280
     0
281
     0
  0
CLASS
  1
MATERIAL
  2
AcDbMaterial
  3
ObjectDBX Classes
 90
     1153
280
     0
281
     0
  0
CLASS
  1
SCALE
  2
AcDbScale
  3
ObjectDBX Classes
 90
     1153
280
     0
281
     0
  0
CLASS
  1
SUN
  2
AcDbSun
  3
SCENEOE
 90
     1153
280
     0
281
     0
  0
CLASS
  1
ACDBPLACEHOLDER
  2
AcDbPlaceHolder
  3
ObjectDBX Classes
 90
        0
280
     0
281
     0
  0
CLASS
  1
LAYOUT
  2
AcDbLayout
  3
ObjectDBX Classes
 90
        0
280
     0
281
     0
  0
CLASS
  1
TABLESTYLE
  2
AcDbTableStyle
  3
ObjectDBX Classes
 90
     4095
280
     0
281
     0
  0
CLASS
  1
MLEADERSTYLE
  2
AcDbMLeaderStyle
  3
ACDB_MLEADERSTYLE_CLASS
 90
     4095
280
     0
281
     0
  0
CLASS
  1
RASTERVARIABLES
  2
AcDbRasterVariables
  3
ISM
 90
        0
280
     0
281
     0
  0
CLASS
  1
DICTIONARYVAR
  2
AcDbDictionaryVar
  3
ObjectDBX Classes
 90
        0
280
     0
281
     0
  0
ENDSEC
  0
SECTION
  2
TABLES
  0
TABLE
  2
VPORT
  5
8
330
0
100
AcDbSymbolTable
 70
     1
  0
VPORT
  5
29
330
8
100
AcDbSymbolTableRecord
100
AcDbViewportTableRecord
  2
*Active
 70
     0
 10
0.0
 20
0.0
 11
1.0
 21
1.0
 12
-12.34250505338353
 22
-13.22336219718903
 13
0.0
 23
0.0
 14
10.0
 24
10.0
 15
10.0
 25
10.0
 16
0.0
 26
0.0
 36
1.0
 17
0.0
 27
0.0
 37
0.0
 40
103.2220363341879
 41
2.223011363636364
 42
50.0
 43
0.0
 44
0.0
 50
0.0
 51
0.0
 71
    16
 72
  2000
 73
     1
 74
     3
 75
     0
 76
     0
 77
     0
 78
     0
281
     0
 65
     1
110
0.0
120
0.0
130
0.0
111
1.0
121
0.0
131
0.0
112
0.0
122
1.0
132
0.0
 79
     0
146
0.0
  0
ENDTAB
  0
TABLE
  2
LTYPE
  5
5
330
0
100
AcDbSymbolTable
 70
     6
  0
LTYPE
  5
14
330
5
100
AcDbSymbolTableRecord
100
AcDbLinetypeTableRecord
  2
ByBlock
 70
     0
  3

 72
    65
 73
     0
 40
0.0
  0
LTYPE
  5
15
330
5
100
AcDbSymbolTableRecord
100
AcDbLinetypeTableRecord
  2
ByLayer
 70
     0
  3

 72
    65
 73
     0
 40
0.0
  0
LTYPE
  5
16
330
5
100
AcDbSymbolTableRecord
100
AcDbLinetypeTableRecord
  2
Continuous
 70
     0
  3
Solid line
 72
    65
 73
     0
 40
0.0
  0
LTYPE
  5
6A
330
5
100
AcDbSymbolTableRecord
100
AcDbLinetypeTableRecord
  2
HIDDEN
 70
     0
  3
Hidden __ __ __ __ __ __ __ __ __ __ __ __ __ __
 72
    65
 73
     2
 40
1.905
 49
1.27
 74
     0
 49
-0.635
 74
     0
  0
LTYPE
  5
6B
330
5
100
AcDbSymbolTableRecord
100
AcDbLinetypeTableRecord
  2
PHANTOM
 70
     0
  3
Phantom ______  __  __  ______  __  __  ______
 72
    65
 73
     6
 40
12.7
 49
6.35
 74
     0
 49
-1.27
 74
     0
 49
1.27
 74
     0
 49
-1.27
 74
     0
 49
1.27
 74
     0
 49
-1.27
 74
     0
  0
LTYPE
  5
6C
330
5
100
AcDbSymbolTableRecord
100
AcDbLinetypeTableRecord
  2
CENTER
 70
     0
  3
Center ____ _ ____ _ ____ _ ____ _ ____ _ ____
 72
    65
 73
     4
 40
10.16
 49
6.35
 74
     0
 49
-1.27
 74
     0
 49
1.27
 74
     0
 49
-1.27
 74
     0
  0
LTYPE
  5
6D
330
5
100
AcDbSymbolTableRecord
100
AcDbLinetypeTableRecord
  2
CENTERX2
 70
     0
  3
Center (2x) ________  __  ________  __  _____
 72
    65
 73
     4
 40
20.32
 49
12.7
 74
     0
 49
-2.54
 74
     0
 49
2.54
 74
     0
 49
-2.54
 74
     0
  0
LTYPE
  5
6E
330
5
100
AcDbSymbolTableRecord
100
AcDbLinetypeTableRecord
  2
DOT2
 70
     0
  3
Dot (.5x) ........................................
 72
    65
 73
     2
 40
0.635
 49
0.0
 74
     0
 49
-0.635
 74
     0
  0
ENDTAB
  0
TABLE
  2
LAYER
  5
2
330
0
100
AcDbSymbolTable
 70
    17
  0
LAYER
  5
10
330
2
100
AcDbSymbolTableRecord
100
AcDbLayerTableRecord
  2
0
 70
     0
 62
     7
  6
Continuous
370
    -3
390
F
  0
LAYER
  5
6F
330
2
100
AcDbSymbolTableRecord
100
AcDbLayerTableRecord
  2
FORMAT
 70
     0
 62
     2
  6
Continuous
370
    -3
390
F
  0
LAYER
  5
70
330
2
100
AcDbSymbolTableRecord
100
AcDbLayerTableRecord
  2
외형선
 70
     0
 62
   100
  6
Continuous
370
    30
390
F
  0
LAYER
  5
71
330
2
100
AcDbSymbolTableRecord
100
AcDbLayerTableRecord
  2
숨은선
 70
     0
 62
     2
  6
HIDDEN
370
    15
390
F
  0
LAYER
  5
72
330
2
100
AcDbSymbolTableRecord
100
AcDbLayerTableRecord
  2
중심선
 70
     0
 62
     1
  6
CENTERX2
370
    -3
390
F
  0
LAYER
  5
73
330
2
100
AcDbSymbolTableRecord
100
AcDbLayerTableRecord
  2
파단선
 70
     0
 62
     4
  6
Continuous
370
    -3
390
F
  0
LAYER
  5
74
330
2
100
AcDbSymbolTableRecord
100
AcDbLayerTableRecord
  2
해칭선
 70
     0
 62
     4
  6
Continuous
370
    -3
390
F
  0
LAYER
  5
75
330
2
100
AcDbSymbolTableRecord
100
AcDbLayerTableRecord
  2
가는실선
 70
     0
 62
     4
  6
Continuous
370
    -3
390
F
  0
LAYER
  5
76
330
2
100
AcDbSymbolTableRecord
100
AcDbLayerTableRecord
  2
치수_보조선
 70
     0
 62
     4
  6
Continuous
370
    -3
390
F
  0
LAYER
  5
77
330
2
100
AcDbSymbolTableRecord
100
AcDbLayerTableRecord
  2
치수문자_일반주서
 70
     0
 62
     7
  6
Continuous
370
    15
390
F
  0
LAYER
  5
78
330
2
100
AcDbSymbolTableRecord
100
AcDbLayerTableRecord
  2
개별주서
 70
     0
 62
   100
  6
Continuous
370
    30
390
F
  0
LAYER
  5
79
330
2
100
AcDbSymbolTableRecord
100
AcDbLayerTableRecord
  2
중간선
 70
     0
 62
     2
  6
Continuous
370
    15
390
F
  0
LAYER
  5
7A
330
2
100
AcDbSymbolTableRecord
100
AcDbLayerTableRecord
  2
윤곽선
 70
     0
 62
     3
  6
Continuous
370
    40
390
F
  0
LAYER
  5
7B
330
2
100
AcDbSymbolTableRecord
100
AcDbLayerTableRecord
  2
중심마크
 70
     0
 62
   100
  6
Continuous
370
    30
390
F
  0
LAYER
  5
7C
330
2
100
AcDbSymbolTableRecord
100
AcDbLayerTableRecord
  2
가상선
 70
     0
 62
     4
  6
PHANTOM
370
    -3
390
F
  0
LAYER
  5
7D
330
2
100
AcDbSymbolTableRecord
100
AcDbLayerTableRecord
  2
특수지정선
 70
     0
 62
     5
  6
CENTERX2
370
    60
390
F
  0
LAYER
  5
137
330
2
100
AcDbSymbolTableRecord
100
AcDbLayerTableRecord
  2
Defpoints
 70
     0
 62
     7
  6
Continuous
290
     0
370
    -3
390
F
  0
ENDTAB
  0
TABLE
  2
STYLE
  5
3
330
0
100
AcDbSymbolTable
 70
     2
  0
STYLE
  5
11
330
3
100
AcDbSymbolTableRecord
100
AcDbTextStyleTableRecord
  2
Standard
 70
     0
 40
0.0
 41
1.0
 50
0.0
 71
     0
 42
3.5
  3
txt
  4

  0
STYLE
  5
93
330
3
100
AcDbSymbolTableRecord
100
AcDbTextStyleTableRecord
  2
SLDTEXTSTYLE0
 70
     0
 40
0.0
 41
0.75
 50
0.0
 71
     0
 42
3.5
  3
TXT
  4

  0
ENDTAB
  0
TABLE
  2
VIEW
  5
6
330
0
100
AcDbSymbolTable
 70
     0
  0
ENDTAB
  0
TABLE
  2
UCS
  5
7
330
0
100
AcDbSymbolTable
 70
     0
  0
ENDTAB
  0
TABLE
  2
APPID
  5
9
330
0
100
AcDbSymbolTable
 70
     2
  0
APPID
  5
12
330
9
100
AcDbSymbolTableRecord
100
AcDbRegAppTableRecord
  2
ACAD
 70
     0
  0
APPID
  5
15E
330
9
100
AcDbSymbolTableRecord
100
AcDbRegAppTableRecord
  2
PE_URL
 70
     0
  0
ENDTAB
  0
TABLE
  2
DIMSTYLE
  5
A
330
0
100
AcDbSymbolTable
 70
     4
100
AcDbDimStyleTable
  0
DIMSTYLE
105
27
330
A
100
AcDbSymbolTableRecord
100
AcDbDimStyleTableRecord
  2
ISO-25
 70
     0
 41
2.5
 42
0.625
 43
3.75
 44
1.25
 73
     0
 74
     0
 77
     1
 78
     8
140
2.5
141
2.5
143
0.03937007874016
147
0.625
171
     3
172
     1
178
     0
271
     2
272
     2
274
     3
278
    44
283
     0
284
     8
340
11
  0
DIMSTYLE
105
DA
102
{ACAD_REACTORS
330
D9
330
FF
102
}
330
A
100
AcDbSymbolTableRecord
100
AcDbDimStyleTableRecord
  2
SLDDIMSTYLE0
 70
     0
 41
3.302
 44
0.0
 45
0.000000001
 73
     0
 74
     0
 77
     1
 78
    12
 79
     3
140
3.5
147
0.875
172
     1
173
     1
178
     0
271
     2
272
     2
276
     2
284
    12
289
     0
340
93
  0
DIMSTYLE
105
E7
102
{ACAD_REACTORS
330
E6
102
}
330
A
100
AcDbSymbolTableRecord
100
AcDbDimStyleTableRecord
  2
SLDDIMSTYLE1
 70
     0
 41
3.302
 44
0.0
 45
0.000000001
 73
     0
 74
     0
 77
     1
 78
    12
 79
     3
140
3.5
147
0.875
173
     1
178
     0
271
     2
272
     2
276
     2
284
    12
340
93
  0
DIMSTYLE
105
F2
102
{ACAD_REACTORS
330
F1
102
}
330
A
100
AcDbSymbolTableRecord
100
AcDbDimStyleTableRecord
  2
SLDDIMSTYLE2
 70
     0
 41
3.302
 44
0.0
 45
0.000000001
 73
     0
 74
     0
 77
     1
 78
     4
 79
     1
140
3.5
147
0.875
172
     1
173
     1
178
     0
271
     2
272
     2
276
     2
284
    12
289
     0
340
93
  0
ENDTAB
  0
TABLE
  2
BLOCK_RECORD
  5
1
330
0
100
AcDbSymbolTable
 70
     7
  0
BLOCK_RECORD
  5
1F
330
1
100
AcDbSymbolTableRecord
100
AcDbBlockTableRecord
  2
*Model_Space
340
22
  0
BLOCK_RECORD
  5
1B
330
1
100
AcDbSymbolTableRecord
100
AcDbBlockTableRecord
  2
*Paper_Space
340
1E
  0
BLOCK_RECORD
  5
23
330
1
100
AcDbSymbolTableRecord
100
AcDbBlockTableRecord
  2
*Paper_Space0
340
26
  0
BLOCK_RECORD
  5
7E
330
1
100
AcDbSymbolTableRecord
100
AcDbBlockTableRecord
  2
블럭10
340
0
102
{BLKREFS
331
D2
102
}
  0
BLOCK_RECORD
  5
DB
330
1
100
AcDbSymbolTableRecord
100
AcDbBlockTableRecord
  2
_D
340
0
  0
BLOCK_RECORD
  5
E8
330
1
100
AcDbSymbolTableRecord
100
AcDbBlockTableRecord
  2
_D_1
340
0
  0
BLOCK_RECORD
  5
F3
330
1
100
AcDbSymbolTableRecord
100
AcDbBlockTableRecord
  2
_D_2
340
0
  0
BLOCK_RECORD
  5
100
330
1
100
AcDbSymbolTableRecord
100
AcDbBlockTableRecord
  2
_D_3
340
0
  0
BLOCK_RECORD
  5
10C
330
1
100
AcDbSymbolTableRecord
100
AcDbBlockTableRecord
  2
SW_DOWELSYMBOL_0
340
0
102
{BLKREFS
331
112
102
}
  0
ENDTAB
  0
ENDSEC
  0
SECTION
  2
BLOCKS
  0
BLOCK
  5
20
330
1F
100
AcDbEntity
  8
0
100
AcDbBlockBegin
  2
*Model_Space
 70
     0
 10
0.0
 20
0.0
 30
0.0
  3
*Model_Space
  1
*Model_Space
  0
ENDBLK
  5
21
330
1F
100
AcDbEntity
  8
0
100
AcDbBlockEnd
  0
BLOCK
  5
1C
330
1B
100
AcDbEntity
 67
     1
  8
0
100
AcDbBlockBegin
  2
*Paper_Space
 70
     0
 10
0.0
 20
0.0
 30
0.0
  3
*Paper_Space
  1
*Paper_Space
  0
ENDBLK
  5
1D
330
1B
100
AcDbEntity
 67
     1
  8
0
100
AcDbBlockEnd
  0
BLOCK
  5
24
330
23
100
AcDbEntity
  8
0
100
AcDbBlockBegin
  2
*Paper_Space0
 70
     0
 10
0.0
 20
0.0
 30
0.0
  3
*Paper_Space0
  1
*Paper_Space0
  0
ENDBLK
  5
25
330
23
100
AcDbEntity
  8
0
100
AcDbBlockEnd
  0
BLOCK
  5
7F
330
7E
100
AcDbEntity
  8
0
100
AcDbBlockBegin
  2
블럭10
 70
     2
 10
0.0
 20
0.0
 30
0.0
  3
블럭10
  1
블럭10
  0
ELLIPSE
  5
81
330
7E
100
AcDbEntity
  8
중심선
100
AcDbEllipse
 10
20.54032771741204
 20
12.0471743016438
 30
0.0
 11
6.600054785286829
 21
-1.261213355974178E-13
 31
0.0
210
0.0
220
0.0
230
1.0
 40
0.636358354079598
 41
0.9219305317359503
 42
6.513795318482858
  0
ELLIPSE
  5
82
330
7E
100
AcDbEntity
  8
중심선
100
AcDbEllipse
 10
20.54032771746488
 20
12.04717430159265
 30
0.0
 11
3.960054785062283
 21
1.540847449632565E-10
 31
0.0
210
0.0
220
0.0
230
1.0
 40
0.3939339440162632
 41
1.131841032648279
 42
5.62031148352944
  0
LINE
  5
83
330
7E
100
AcDbEntity
  8
중심선
100
AcDbLine
 10
2.268634060543552
 20
16.24717430164393
 30
0.0
 11
5.714909304380834
 21
16.24717430164393
 31
0.0
  0
LINE
  5
84
330
7E
100
AcDbEntity
  8
중심선
100
AcDbLine
 10
5.245725140726316
 20
7.84717430164391
 30
0.0
 11
8.692000384563599
 21
7.84717430164391
 31
0.0
  0
LINE
  5
85
330
7E
100
AcDbEntity
  8
중심선
100
AcDbLine
 10
15.74043728645272
 20
16.24717430164393
 30
0.0
 11
8.692000384563599
 21
7.84717430164391
 31
0.0
  0
LINE
  5
86
330
7E
100
AcDbEntity
  8
중심선
100
AcDbLine
 10
0.1404042013395286
 20
13.71084872107135
 30
0.0
 11
3.58671253028996
 21
13.71088815037384
 31
0.0
  0
LINE
  5
87
330
7E
100
AcDbEntity
  8
중심선
100
AcDbLine
 10
2.750260043222114
 20
10.84717430164391
 30
0.0
 11
6.196535287059397
 21
10.84717430164391
 31
0.0
  0
LINE
  5
88
330
7E
100
AcDbEntity
  8
중심선
100
AcDbLine
 10
12.29416204261559
 20
16.24717430164393
 30
0.0
 11
5.245725140726316
 21
7.84717430164391
 31
0.0
  0
LINE
  5
89
330
7E
100
AcDbEntity
  8
중심선
100
AcDbLine
 10
10.72767329541681
 20
16.24717430164393
 30
0.0
 11
6.196535287059397
 21
10.84717430164391
 31
0.0
  0
LINE
  5
8A
330
7E
100
AcDbEntity
  8
중심선
100
AcDbLine
 10
7.28139805157953
 20
16.24717430164393
 30
0.0
 11
2.750260043222114
 21
10.84717430164391
 31
0.0
  0
LINE
  5
8B
330
7E
100
AcDbEntity
  8
중심선
100
AcDbLine
 10
5.714909304380834
 20
16.24717430164393
 30
0.0
 11
3.58671253028996
 21
13.71088815037384
 31
0.0
  0
LINE
  5
8C
330
7E
100
AcDbEntity
  8
중심선
100
AcDbLine
 10
2.268634060543552
 20
16.24717430164393
 30
0.0
 11
0.1404042013395286
 21
13.71084872107135
 31
0.0
  0
LINE
  5
8D
330
7E
100
AcDbEntity
  8
중심선
100
AcDbLine
 10
7.28139805157953
 20
16.24717430164393
 30
0.0
 11
10.72767329541681
 21
16.24717430164393
 31
0.0
  0
LINE
  5
8E
330
7E
100
AcDbEntity
  8
중심선
100
AcDbLine
 10
12.29416204261559
 20
16.24717430164393
 30
0.0
 11
15.74043728645272
 21
16.24717430164393
 31
0.0
  0
LINE
  5
8F
330
7E
100
AcDbEntity
  8
중심선
100
AcDbLine
 10
19.22036997980202
 20
11.08717430171403
 30
0.0
 11
23.66174974927406
 21
11.08717430171406
 31
0.0
  0
LINE
  5
90
330
7E
100
AcDbEntity
  8
중심선
100
AcDbLine
 10
19.22039502424796
 20
13.00717430171391
 30
0.0
 11
19.22036997980202
 21
11.08717430171403
 31
0.0
  0
LINE
  5
91
330
7E
100
AcDbEntity
  8
중심선
100
AcDbLine
 10
19.22039502424796
 20
13.00717430171391
 30
0.0
 11
26.96566020931264
 21
13.00717430171391
 31
0.0
  0
LINE
  5
92
330
7E
100
AcDbEntity
  8
중심선
100
AcDbLine
 10
22.22332737316547
 20
13.45928029700563
 30
0.0
 11
24.52862924686651
 21
15.39360700705356
 31
0.0
  0
ATTDEF
  5
94
330
7E
100
AcDbEntity
  8
FORMAT
 62
     2
100
AcDbText
 10
-12.95993919485777
 20
2.075366912832191
 30
0.0
 40
4.233333333333333
  1
SEME35045E [ 2 FLUTE ]
 41
0.75
  7
SLDTEXTSTYLE0
 11
-12.95993919485777
 21
-0.0412997538344756
 31
0.0
100
AcDbAttributeDefinition
  3

  2
AUTOATTR0
 70
     0
 74
     1
  0
ENDBLK
  5
80
330
7E
100
AcDbEntity
  8
0
100
AcDbBlockEnd
  0
BLOCK
  5
DC
330
DB
100
AcDbEntity
  8
0
100
AcDbBlockBegin
  2
_D
 70
     0
 10
0.0
 20
0.0
 30
0.0
  3
_D
  1
_D
  0
LINE
  5
DE
330
DB
100
AcDbEntity
  8
치수문자_일반주서
 62
     0
370
    -2
100
AcDbLine
 10
19.79903810567664
 20
2.310598334266707
 30
0.0
 11
19.79903810567664
 21
14.49873222284448
 31
0.0
  0
LINE
  5
DF
330
DB
100
AcDbEntity
  8
치수문자_일반주서
 62
     0
370
    -2
100
AcDbLine
 10
5.79903810567666
 20
2.04578465017497
 30
0.0
 11
5.79903810567666
 21
14.49873222284448
 31
0.0
  0
LINE
  5
E0
330
DB
100
AcDbEntity
  8
치수문자_일반주서
 62
     0
370
    -2
100
AcDbLine
 10
16.49703810567664
 20
14.49873222284448
 30
0.0
 11
9.10103810567666
 21
14.49873222284448
 31
0.0
  0
SOLID
  5
E1
330
DB
100
AcDbEntity
  8
치수문자_일반주서
 62
     0
100
AcDbTrace
 10
16.49703810567664
 20
13.94839888951115
 30
0.0
 11
16.49703810567664
 21
15.04906555617782
 31
0.0
 12
19.79903810567664
 22
14.49873222284448
 32
0.0
 13
19.79903810567664
 23
14.49873222284448
 33
0.0
  0
SOLID
  5
E2
330
DB
100
AcDbEntity
  8
치수문자_일반주서
 62
     0
100
AcDbTrace
 10
9.10103810567666
 20
15.04906555617782
 30
0.0
 11
9.10103810567666
 21
13.94839888951115
 31
0.0
 12
5.79903810567666
 22
14.49873222284448
 32
0.0
 13
5.79903810567666
 23
14.49873222284448
 33
0.0
  0
MTEXT
  5
E3
330
DB
100
AcDbEntity
  8
치수문자_일반주서
 62
     0
100
AcDbMText
 10
12.79903810567664
 20
18.87373222284448
 30
0.0
 40
3.5
 41
0.0
 71
     2
 72
     1
  1
\A1;14
  7
SLDTEXTSTYLE0
 73
     1
 44
1.0
  0
POINT
  5
E4
330
DB
100
AcDbEntity
  8
Defpoints
 62
     0
100
AcDbPoint
 10
19.79903810567664
 20
2.248098334266707
 30
0.0
  0
POINT
  5
E5
330
DB
100
AcDbEntity
  8
Defpoints
 62
     0
100
AcDbPoint
 10
5.79903810567666
 20
1.98328465017497
 30
0.0
  0
POINT
  5
138
330
DB
100
AcDbEntity
  8
Defpoints
 62
     0
100
AcDbPoint
 10
5.79903810567666
 20
14.49873222284448
 30
0.0
  0
ENDBLK
  5
DD
330
DB
100
AcDbEntity
  8
0
100
AcDbBlockEnd
  0
BLOCK
  5
E9
330
E8
100
AcDbEntity
  8
0
100
AcDbBlockBegin
  2
_D_1
 70
     0
 10
0.0
 20
0.0
 30
0.0
  3
_D_1
  1
_D_1
  0
LINE
  5
EB
330
E8
100
AcDbEntity
  8
치수문자_일반주서
 62
     0
370
    -2
100
AcDbLine
 10
19.79903810567664
 20
1.637500000000008
 30
0.0
 11
19.79903810567664
 21
24.35915911661226
 31
0.0
  0
LINE
  5
EC
330
E8
100
AcDbEntity
  8
치수문자_일반주서
 62
     0
370
    -2
100
AcDbLine
 10
-30.20096189432337
 20
2.512500000000002
 30
0.0
 11
-30.20096189432337
 21
24.35915911661226
 31
0.0
  0
LINE
  5
ED
330
E8
100
AcDbEntity
  8
치수문자_일반주서
 62
     0
370
    -2
100
AcDbLine
 10
16.49703810567664
 20
24.35915911661226
 30
0.0
 11
-26.89896189432337
 21
24.35915911661226
 31
0.0
  0
SOLID
  5
EE
330
E8
100
AcDbEntity
  8
치수문자_일반주서
 62
     0
100
AcDbTrace
 10
16.49703810567664
 20
23.80882578327893
 30
0.0
 11
16.49703810567664
 21
24.9094924499456
 31
0.0
 12
19.79903810567664
 22
24.35915911661226
 32
0.0
 13
19.79903810567664
 23
24.35915911661226
 33
0.0
  0
SOLID
  5
EF
330
E8
100
AcDbEntity
  8
치수문자_일반주서
 62
     0
100
AcDbTrace
 10
-26.89896189432337
 20
24.9094924499456
 30
0.0
 11
-26.89896189432337
 21
23.80882578327893
 31
0.0
 12
-30.20096189432337
 22
24.35915911661226
 32
0.0
 13
-30.20096189432337
 23
24.35915911661226
 33
0.0
  0
MTEXT
  5
F0
330
E8
100
AcDbEntity
  8
치수문자_일반주서
 62
     0
100
AcDbMText
 10
-5.200961894323355
 20
28.73415911661226
 30
0.0
 40
3.5
 41
0.0
 71
     2
 72
     1
  1
\A1;50
  7
SLDTEXTSTYLE0
 73
     1
 44
1.0
  0
POINT
  5
166
330
E8
100
AcDbEntity
  8
Defpoints
 62
     0
100
AcDbPoint
 10
19.79903810567664
 20
1.575000000000008
 30
0.0
  0
POINT
  5
167
330
E8
100
AcDbEntity
  8
Defpoints
 62
     0
100
AcDbPoint
 10
-30.20096189432337
 20
2.450000000000002
 30
0.0
  0
POINT
  5
168
330
E8
100
AcDbEntity
  8
Defpoints
 62
     0
100
AcDbPoint
 10
-30.20096189432337
 20
24.35915911661226
 30
0.0
  0
ENDBLK
  5
EA
330
E8
100
AcDbEntity
  8
0
100
AcDbBlockEnd
  0
BLOCK
  5
F4
330
F3
100
AcDbEntity
  8
0
100
AcDbBlockBegin
  2
_D_2
 70
     0
 10
0.0
 20
0.0
 30
0.0
  3
_D_2
  1
_D_2
  0
LINE
  5
F6
330
F3
100
AcDbEntity
  8
치수문자_일반주서
 62
     0
370
    -2
100
AcDbLine
 10
19.86153810567664
 20
2.248098334266708
 30
0.0
 11
35.36522841792294
 21
2.248098334266764
 31
0.0
  0
LINE
  5
F7
330
F3
100
AcDbEntity
  8
치수문자_일반주서
 62
     0
370
    -2
100
AcDbLine
 10
19.86153810567664
 20
-2.248098334266693
 30
0.0
 11
35.36522841792296
 21
-2.248098334266636
 31
0.0
  0
LINE
  5
F8
330
F3
100
AcDbEntity
  8
치수문자_일반주서
 62
     0
370
    -2
100
AcDbLine
 10
35.36522841792294
 20
2.248098334266764
 30
0.0
 11
35.36522841792288
 21
20.66459833426676
 31
0.0
  0
LINE
  5
F9
330
F3
100
AcDbEntity
  8
치수문자_일반주서
 62
     0
370
    -2
100
AcDbLine
 10
35.36522841792294
 20
2.248098334266764
 30
0.0
 11
35.36522841792296
 21
-2.248098334266636
 31
0.0
  0
LINE
  5
FA
330
F3
100
AcDbEntity
  8
치수문자_일반주서
 62
     0
370
    -2
100
AcDbLine
 10
35.36522841792294
 20
5.550098334266764
 30
0.0
 11
35.36522841792293
 21
8.852098334266763
 31
0.0
  0
LINE
  5
FB
330
F3
100
AcDbEntity
  8
치수문자_일반주서
 62
     0
370
    -2
100
AcDbLine
 10
35.36522841792296
 20
-5.550098334266636
 30
0.0
 11
35.36522841792297
 21
-8.852098334266636
 31
0.0
  0
SOLID
  5
FC
330
F3
100
AcDbEntity
  8
치수문자_일반주서
 62
     0
100
AcDbTrace
 10
34.8148950845896
 20
5.550098334266762
 30
0.0
 11
35.91556175125627
 21
5.550098334266766
 31
0.0
 12
35.36522841792294
 22
2.248098334266764
 32
0.0
 13
35.36522841792294
 23
2.248098334266764
 33
0.0
  0
SOLID
  5
FD
330
F3
100
AcDbEntity
  8
치수문자_일반주서
 62
     0
100
AcDbTrace
 10
35.9155617512563
 20
-5.550098334266634
 30
0.0
 11
34.81489508458963
 21
-5.550098334266638
 31
0.0
 12
35.36522841792296
 22
-2.248098334266636
 32
0.0
 13
35.36522841792296
 23
-2.248098334266636
 33
0.0
  0
MTEXT
  5
FE
330
F3
100
AcDbEntity
  8
치수문자_일반주서
 62
     0
100
AcDbMText
 10
30.9902284179229
 20
14.75834833426675
 30
0.0
 40
3.5
 41
0.0
 71
     2
 72
     1
  1
\A1;%%c4.50
  7
SLDTEXTSTYLE0
 11
-3.160639038469239E-15
 21
1.0
 31
0.0
 73
     1
 44
1.0
  0
POINT
  5
15B
330
F3
100
AcDbEntity
  8
Defpoints
 62
     0
100
AcDbPoint
 10
19.79903810567664
 20
2.248098334266707
 30
0.0
  0
POINT
  5
15C
330
F3
100
AcDbEntity
  8
Defpoints
 62
     0
100
AcDbPoint
 10
19.79903810567664
 20
-2.248098334266694
 30
0.0
  0
POINT
  5
15D
330
F3
100
AcDbEntity
  8
Defpoints
 62
     0
100
AcDbPoint
 10
35.36522841792295
 20
-2.248098334266635
 30
0.0
  0
ENDBLK
  5
F5
330
F3
100
AcDbEntity
  8
0
100
AcDbBlockEnd
  0
BLOCK
  5
101
330
100
100
AcDbEntity
  8
0
100
AcDbBlockBegin
  2
_D_3
 70
     0
 10
0.0
 20
0.0
 30
0.0
  3
_D_3
  1
_D_3
  0
LINE
  5
103
330
100
100
AcDbEntity
  8
치수문자_일반주서
 62
     0
370
    -2
100
AcDbLine
 10
-29.71346189432336
 20
3.000000000000002
 30
0.0
 11
-42.07052133971192
 21
2.999999999999956
 31
0.0
  0
LINE
  5
104
330
100
100
AcDbEntity
  8
치수문자_일반주서
 62
     0
370
    -2
100
AcDbLine
 10
-29.71346189432336
 20
-2.999999999999996
 30
0.0
 11
-42.0705213397119
 21
-3.000000000000041
 31
0.0
  0
LINE
  5
105
330
100
100
AcDbEntity
  8
치수문자_일반주서
 62
     0
370
    -2
100
AcDbLine
 10
-42.0705213397119
 20
-0.3020000000000436
 30
0.0
 11
-42.07052133971191
 21
0.3019999999999587
 31
0.0
  0
SOLID
  5
106
330
100
100
AcDbEntity
  8
치수문자_일반주서
 62
     0
100
AcDbTrace
 10
-41.52018800637857
 20
-0.3020000000000416
 30
0.0
 11
-42.62085467304524
 21
-0.3020000000000455
 31
0.0
 12
-42.07052133971192
 22
2.999999999999956
 32
0.0
 13
-42.07052133971192
 23
2.999999999999956
 33
0.0
  0
SOLID
  5
107
330
100
100
AcDbEntity
  8
치수문자_일반주서
 62
     0
100
AcDbTrace
 10
-42.62085467304524
 20
0.3019999999999568
 30
0.0
 11
-41.52018800637858
 21
0.3019999999999607
 31
0.0
 12
-42.0705213397119
 22
-3.000000000000041
 32
0.0
 13
-42.0705213397119
 23
-3.000000000000041
 33
0.0
  0
MTEXT
  5
108
330
100
100
AcDbEntity
  8
치수문자_일반주서
 62
     0
100
AcDbMText
 10
-46.44552133971191
 20
-0.0000000000000121
 30
0.0
 40
3.5
 41
0.0
 71
     2
 72
     1
  1
\A1;%%c6
  7
SLDTEXTSTYLE0
 11
-3.552713678800502E-15
 21
1.0
 31
0.0
 73
     1
 44
1.0
  0
POINT
  5
109
330
100
100
AcDbEntity
  8
Defpoints
 62
     0
100
AcDbPoint
 10
-29.65096189432336
 20
3.000000000000002
 30
0.0
  0
POINT
  5
10A
330
100
100
AcDbEntity
  8
Defpoints
 62
     0
100
AcDbPoint
 10
-29.65096189432336
 20
-2.999999999999996
 30
0.0
  0
POINT
  5
10B
330
100
100
AcDbEntity
  8
Defpoints
 62
     0
100
AcDbPoint
 10
-42.07052133971189
 20
-3.000000000000042
 30
0.0
  0
ENDBLK
  5
102
330
100
100
AcDbEntity
  8
0
100
AcDbBlockEnd
  0
BLOCK
  5
10D
330
10C
100
AcDbEntity
  8
0
100
AcDbBlockBegin
  2
SW_DOWELSYMBOL_0
 70
     0
 10
0.0
 20
0.0
 30
0.0
  3
SW_DOWELSYMBOL_0
  1
SW_DOWELSYMBOL_0
  0
CIRCLE
  5
10F
330
10C
100
AcDbEntity
  8
외형선
 62
     0
100
AcDbCircle
 10
0.0
 20
0.0
 30
0.0
 40
3.000000000000004
  0
HATCH
  5
110
330
10C
100
AcDbEntity
  8
0
  6
Continuous
 62
     0
370
    30
100
AcDbHatch
 10
0.0
 20
0.0
 30
0.0
210
0.0
220
0.0
230
1.0
  2
SOLID
 70
     1
 71
     0
 91
        1
 92
        0
 93
        3
 72
     2
 10
0.0000000000000087
 20
-0.0000000000000035
 40
3.000000000000004
 50
0.0
 51
90.0
 73
     1
 72
     1
 10
0.0000000000000087
 20
3.000000000000001
 11
0.0000000000000087
 21
-0.0000000000000036
 72
     1
 10
0.0000000000000087
 20
-0.0000000000000035
 11
3.000000000000013
 21
-0.0000000000000035
 97
        0
 75
     0
 76
     1
 98
        1
 10
0.0
 20
0.0
  0
HATCH
  5
111
330
10C
100
AcDbEntity
  8
0
  6
Continuous
 62
     0
370
    30
100
AcDbHatch
 10
0.0
 20
0.0
 30
0.0
210
0.0
220
0.0
230
1.0
  2
SOLID
 70
     1
 71
     0
 91
        1
 92
        0
 93
        3
 72
     2
 10
0.0000000000000087
 20
-0.0000000000000035
 40
3.000000000000004
 50
180.0
 51
270.0000000000007
 73
     1
 72
     1
 10
0.0000000000000087
 20
-3.000000000000008
 11
0.0000000000000087
 21
-0.0000000000000036
 72
     1
 10
0.0000000000000087
 20
-0.0000000000000035
 11
-2.999999999999996
 21
-0.0000000000000035
 97
        0
 75
     0
 76
     1
 98
        1
 10
0.0
 20
0.0
  0
ENDBLK
  5
10E
330
10C
100
AcDbEntity
  8
0
100
AcDbBlockEnd
  0
ENDSEC
  0
SECTION
  2
ENTITIES
  0
LINE
  5
95
330
1F
100
AcDbEntity
  8
0
  6
Continuous
 62
     4
370
    15
100
AcDbLine
 10
1.999999999999991
 20
3.000000000000005
 30
0.0
 11
-29.65096189432336
 21
3.000000000000002
 31
0.0
  0
LINE
  5
96
330
1F
100
AcDbEntity
  8
0
  6
Continuous
 62
     4
370
    15
100
AcDbLine
 10
-29.65096189432336
 20
-2.999999999999996
 30
0.0
 11
1.999999999999991
 21
-2.999999999999993
 31
0.0
  0
LINE
  5
97
330
1F
100
AcDbEntity
  8
0
  6
Continuous
 62
     4
370
    15
100
AcDbLine
 10
1.999999999999991
 20
-2.999999999999995
 30
0.0
 11
4.799038105676644
 21
-2.249999999999995
 31
0.0
  0
LINE
  5
98
330
1F
100
AcDbEntity
  8
0
  6
Continuous
 62
     4
370
    15
100
AcDbLine
 10
4.799038105676644
 20
2.250000000000005
 30
0.0
 11
1.999999999999991
 21
3.000000000000005
 31
0.0
  0
LINE
  5
99
330
1F
100
AcDbEntity
  8
0
  6
Continuous
 62
     4
370
    15
100
AcDbLine
 10
-29.65096189432336
 20
3.000000000000002
 30
0.0
 11
-30.20096189432337
 21
2.450000000000002
 31
0.0
  0
LINE
  5
9A
330
1F
100
AcDbEntity
  8
0
  6
Continuous
 62
     4
370
    15
100
AcDbLine
 10
-30.20096189432337
 20
-2.449999999999996
 30
0.0
 11
-29.65096189432336
 21
-2.999999999999995
 31
0.0
  0
SPLINE
  5
9D
330
1F
100
AcDbEntity
  8
0
  6
Continuous
 62
     4
370
    15
100
AcDbSpline
210
0.0
220
0.0
230
1.0
 70
     8
 71
     3
 72
     9
 73
     5
 74
     0
 42
0.000000001
 43
0.00000001
 40
0.0
 40
0.0
 40
0.0
 40
0.0
 40
0.4380083766570053
 40
0.9999999999999999
 40
0.9999999999999999
 40
0.9999999999999999
 40
0.9999999999999999
 10
5.799038105676644
 20
1.486419337522978
 30
0.0
 10
5.668997951390354
 20
1.483677174765968
 30
0.0
 10
5.372108299921148
 20
1.477416648933247
 30
0.0
 10
5.075695627230258
 20
1.484125270140535
 30
0.0
 10
4.799038105676644
 20
1.487895459063211
 30
0.0
1001
PE_URL
1000

  0
LINE
  5
9E
330
1F
100
AcDbEntity
  8
0
  6
Continuous
 62
     1
370
    15
100
AcDbLine
 10
13.36087679722062
 20
0.8805461290189697
 30
0.0
 11
13.34484196948029
 21
0.8888151081893386
 31
0.0
  0
SPLINE
  5
9F
330
1F
100
AcDbEntity
  8
0
  6
Continuous
 62
     1
370
    15
100
AcDbSpline
210
0.0
220
0.0
230
1.0
 70
     8
 71
     3
 72
     9
 73
     5
 74
     0
 42
0.000000001
 43
0.00000001
 40
0.0
 40
0.0
 40
0.0
 40
0.0
 40
0.5440712726903992
 40
0.9999999999999999
 40
0.9999999999999999
 40
0.9999999999999999
 40
0.9999999999999999
 10
13.97058226439945
 20
0.5765261074078392
 30
0.0
 10
13.86036646867485
 20
0.6289541910857283
 30
0.0
 10
13.65779044370005
 20
0.7253167198747145
 30
0.0
 10
13.45385625316581
 20
0.8319355441567949
 30
0.0
 10
13.36087679722062
 20
0.8805461290189697
 30
0.0
  0
LINE
  5
A0
330
1F
100
AcDbEntity
  8
0
  6
Continuous
 62
     1
370
    15
100
AcDbLine
 10
8.80701693094407
 20
2.250000000000008
 30
0.0
 11
7.715911952746529
 21
2.250000000000008
 31
0.0
  0
SPLINE
  5
A1
330
1F
100
AcDbEntity
  8
0
  6
Continuous
 62
     1
370
    15
100
AcDbSpline
210
0.0
220
0.0
230
1.0
 70
     8
 71
     3
 72
    16
 73
    12
 74
     0
 42
0.000000001
 43
0.00000001
 40
0.0
 40
0.0
 40
0.0
 40
0.0
 40
0.1567636295859766
 40
0.2202490647188874
 40
0.3174045719522295
 40
0.4139927814736891
 40
0.5179508935681808
 40
0.6264215298656772
 40
0.7763827324001309
 40
0.9268243539170449
 40
1.0
 40
1.0
 40
1.0
 40
1.0
 10
13.22551533203211
 20
1.787937412671107
 30
0.0
 10
13.14135293436379
 20
1.783033666955308
 30
0.0
 10
13.02310682447273
 20
1.776144024183087
 30
0.0
 10
12.82973026487228
 20
1.766927102946608
 30
0.0
 10
12.66328242179371
 20
1.763624493338283
 30
0.0
 10
12.47516211390057
 20
1.760440279369325
 30
0.0
 10
12.27767886145987
 20
1.757726702748498
 30
0.0
 10
12.04965451217708
 20
1.756655468488837
 30
0.0
 10
11.79279994737294
 20
1.758608300004227
 30
0.0
 10
11.55895494670312
 20
1.76279363591129
 30
0.0
 10
11.41890431759367
 20
1.767804906032098
 30
0.0
 10
11.37307469370368
 20
1.769444774601828
 30
0.0
  0
SPLINE
  5
A2
330
1F
100
AcDbEntity
  8
0
  6
Continuous
 62
     1
370
    15
100
AcDbSpline
210
0.0
220
0.0
230
1.0
 70
     8
 71
     3
 72
    22
 73
    18
 74
     0
 42
0.000000001
 43
0.00000001
 40
0.0
 40
0.0
 40
0.0
 40
0.0
 40
0.0610998184165945
 40
0.1229719398989182
 40
0.2056131335451112
 40
0.2803939188802407
 40
0.3431811562199621
 40
0.4137105142188373
 40
0.4938929812343166
 40
0.5709743955543889
 40
0.645920509311815
 40
0.731775261283056
 40
0.7927211554743672
 40
0.8494484744210846
 40
0.8797976848696067
 40
0.9144452611931478
 40
0.9999999999999999
 40
0.9999999999999999
 40
0.9999999999999999
 40
0.9999999999999999
 10
9.841541064890329
 20
-1.87232063482368
 30
0.0
 10
9.89730496614301
 20
-1.866194158388284
 30
0.0
 10
10.00953762560228
 20
-1.853863766718884
 30
0.0
 10
10.24942278296677
 20
-1.830860228745077
 30
0.0
 10
10.50389301275742
 20
-1.814532695792245
 30
0.0
 10
10.76132971649009
 20
-1.797479953556876
 30
0.0
 10
11.00125416273402
 20
-1.784021769726106
 30
0.0
 10
11.24536517783131
 20
-1.772999646097219
 30
0.0
 10
11.50707609766214
 20
-1.764321260548503
 30
0.0
 10
11.77338780096155
 20
-1.75882811598844
 30
0.0
 10
12.04702404056303
 20
-1.756558675029775
 30
0.0
 10
12.30280707951975
 20
-1.75772572816643
 30
0.0
 10
12.54153107566839
 20
-1.761757432890207
 30
0.0
 10
12.71248737153959
 20
-1.76405371158765
 30
0.0
 10
12.8551336810371
 20
-1.76819599177007
 30
0.0
 10
13.02303896576684
 20
-1.776097839388447
 30
0.0
 10
13.14132471839867
 20
-1.783014463103151
 30
0.0
 10
13.22551533203211
 20
-1.787937412671095
 30
0.0
  0
SPLINE
  5
A3
330
1F
100
AcDbEntity
  8
0
  6
Continuous
 62
     1
370
    15
100
AcDbSpline
210
0.0
220
0.0
230
1.0
 70
     8
 71
     3
 72
    14
 73
    10
 74
     0
 42
0.000000001
 43
0.00000001
 40
0.0
 40
0.0
 40
0.0
 40
0.0
 40
0.2089286456062061
 40
0.3788449573807912
 40
0.5018591893044533
 40
0.6201396080942267
 40
0.7746503683736096
 40
0.945239650138226
 40
1.0
 40
1.0
 40
1.0
 40
1.0
 10
15.03309421829502
 20
-1.692296393841542
 30
0.0
 10
15.1462532699763
 20
-1.674814458002587
 30
0.0
 10
15.35144167765998
 20
-1.643114911879429
 30
0.0
 10
15.64280281106
 20
-1.605546104995534
 30
0.0
 10
15.87729076120948
 20
-1.578280376047074
 30
0.0
 10
16.0996386966678
 20
-1.555119144657066
 30
0.0
 10
16.35016781126982
 20
-1.532612269259099
 30
0.0
 10
16.56393359506775
 20
-1.516206333448808
 30
0.0
 10
16.69105683214502
 20
-1.509132056272814
 30
0.0
 10
16.72194799840818
 20
-1.507412994695562
 30
0.0
  0
SPLINE
  5
A4
330
1F
100
AcDbEntity
  8
0
  6
Continuous
 62
     1
370
    15
100
AcDbSpline
210
0.0
220
0.0
230
1.0
 70
     8
 71
     3
 72
     9
 73
     5
 74
     0
 42
0.000000001
 43
0.00000001
 40
0.0
 40
0.0
 40
0.0
 40
0.0
 40
0.4540985139175454
 40
1.0
 40
1.0
 40
1.0
 40
1.0
 10
6.719110197512249
 20
1.538893654217507
 30
0.0
 10
6.58111869296131
 20
1.527826565332747
 30
0.0
 10
6.27723858694536
 20
1.503455005978184
 30
0.0
 10
5.967904204661689
 20
1.492435113308065
 30
0.0
 10
5.799038105676644
 20
1.486419337522978
 30
0.0
  0
SPLINE
  5
A5
330
1F
100
AcDbEntity
  8
0
  6
Continuous
 62
     1
370
    15
100
AcDbSpline
210
0.0
220
0.0
230
1.0
 70
     8
 71
     3
 72
    25
 73
    21
 74
     0
 42
0.000000001
 43
0.00000001
 40
0.0
 40
0.0
 40
0.0
 40
0.0
 40
0.0888812773479672
 40
0.1508312601026851
 40
0.1865030989706125
 40
0.2177680373146058
 40
0.2615812167921139
 40
0.305756451681432
 40
0.3404720488758035
 40
0.3808720087067756
 40
0.4237370323786803
 40
0.4802360949591092
 40
0.5390564313898634
 40
0.5940327311435395
 40
0.6672984524916019
 40
0.7336586727282194
 40
0.7844584657418323
 40
0.837291365586037
 40
0.91026805569336
 40
1.0
 40
1.0
 40
1.0
 40
1.0
 10
18.96225235997059
 20
1.538893349360216
 30
0.0
 10
18.84531149743833
 20
1.529478732586874
 30
0.0
 10
18.64686320574489
 20
1.513502156263068
 30
0.0
 10
18.4003442053252
 20
1.500130868434761
 30
0.0
 10
18.24685829902206
 20
1.492943090197638
 30
0.0
 10
18.10701838117112
 20
1.487290046685613
 30
0.0
 10
17.94439382118407
 20
1.483539544376256
 30
0.0
 10
17.77905068905925
 20
1.481195654134404
 30
0.0
 10
17.62000568427665
 20
1.480404792200136
 30
0.0
 10
17.46599360949018
 20
1.481168393560699
 30
0.0
 10
17.28221264838894
 20
1.484038128249
 30
0.0
 10
17.07457729789487
 20
1.489919271466947
 30
0.0
 10
16.85094354181071
 20
1.499513021524028
 30
0.0
 10
16.60518847630314
 20
1.513592021310546
 30
0.0
 10
16.35015786907656
 20
1.532463384545472
 30
0.0
 10
16.09964058502987
 20
1.555147422949319
 30
0.0
 10
15.87729029811168
 20
1.578273441140303
 30
0.0
 10
15.64280298994504
 20
1.605548783805632
 30
0.0
 10
15.35144161356319
 20
1.643113952027496
 30
0.0
 10
15.1462532471926
 20
1.674814116815846
 30
0.0
 10
15.03309421829502
 20
1.692296393841555
 30
0.0
  0
LINE
  5
A6
330
1F
100
AcDbEntity
  8
0
  6
Continuous
 62
     1
370
    15
100
AcDbLine
 10
7.715911952746529
 20
-2.249999999999996
 30
0.0
 11
8.80701693094408
 21
-2.249999999999996
 31
0.0
  0
LINE
  5
A7
330
1F
100
AcDbEntity
  8
0
  6
Continuous
 62
     4
370
    15
100
AcDbLine
 10
1.999999999999991
 20
3.000000000000005
 30
0.0
 11
1.999999999999991
 21
-2.999999999999996
 31
0.0
  0
LINE
  5
A8
330
1F
100
AcDbEntity
  8
0
  6
Continuous
 62
     4
370
    15
100
AcDbLine
 10
-29.65096189432336
 20
3.000000000000002
 30
0.0
 11
-29.65096189432336
 21
-2.999999999999998
 31
0.0
  0
LINE
  5
A9
330
1F
100
AcDbEntity
  8
0
  6
Continuous
 62
     4
370
    15
100
AcDbLine
 10
4.799038105676644
 20
2.250000000000005
 30
0.0
 11
4.799038105676644
 21
-2.249999999999992
 31
0.0
  0
LINE
  5
AA
330
1F
100
AcDbEntity
  8
0
  6
Continuous
 62
     4
370
    15
100
AcDbLine
 10
-30.20096189432337
 20
2.450000000000002
 30
0.0
 11
-30.20096189432337
 21
-2.449999999999997
 31
0.0
  0
SPLINE
  5
AB
330
1F
100
AcDbEntity
  8
0
  6
Continuous
 62
     4
370
    15
100
AcDbSpline
210
0.0
220
0.0
230
1.0
 70
     8
 71
     3
 72
     8
 73
     4
 74
     0
 42
0.000000001
 43
0.00000001
 40
0.0
 40
0.0
 40
0.0
 40
0.0
 40
1.0
 40
1.0
 40
1.0
 40
1.0
 10
5.79903810567666
 20
1.98328465017497
 30
0.0
 10
5.500622837022895
 20
1.902175104457897
 30
0.0
 10
5.340251586294166
 20
1.919071724355195
 30
0.0
 10
4.799038105676644
 20
2.250000000000005
 30
0.0
  0
LINE
  5
AE
330
1F
100
AcDbEntity
  8
0
  6
Continuous
 62
     4
370
    15
100
AcDbLine
 10
5.799038105676644
 20
-1.612681281405837
 30
0.0
 11
5.799038105676644
 21
-1.983284650174955
 31
0.0
1001
PE_URL
1000

  0
SPLINE
  5
AF
330
1F
100
AcDbEntity
  8
0
  6
Continuous
 62
     4
370
    15
100
AcDbSpline
210
0.0
220
0.0
230
1.0
 70
     8
 71
     3
 72
     8
 73
     4
 74
     0
 42
0.000000001
 43
0.00000001
 40
0.0
 40
0.0
 40
0.0
 40
0.0
 40
1.0
 40
1.0
 40
1.0
 40
1.0
 10
5.79903810567666
 20
-1.983284650174959
 30
0.0
 10
5.500622837022895
 20
-1.902175104457886
 30
0.0
 10
5.207355989310443
 20
-1.804254610430954
 30
0.0
 10
4.799038105676644
 20
-2.249999999999995
 30
0.0
  0
SPLINE
  5
B1
330
1F
100
AcDbEntity
  8
0
  6
Continuous
 62
     4
370
    15
100
AcDbSpline
210
0.0
220
0.0
230
1.0
 70
    24
 71
     3
 72
     8
 73
     4
 74
     0
 42
0.000000001
 43
0.00000001
 40
0.0
 40
0.0
 40
0.0
 40
0.0
 40
1.0
 40
1.0
 40
1.0
 40
1.0
 10
5.799038105676649
 20
1.983284650174972
 30
0.0
 10
5.799038105676644
 20
-1.391450959697565
 30
0.0
 10
5.799038105676644
 20
-1.500384468087684
 30
0.0
 10
5.799038105676644
 20
-1.612681281393848
 30
0.0
1001
PE_URL
1000

  0
SPLINE
  5
B2
330
1F
100
AcDbEntity
  8
0
  6
Continuous
 62
     4
370
    15
100
AcDbSpline
210
0.0
220
0.0
230
1.0
 70
     8
 71
     3
 72
     8
 73
     4
 74
     0
 42
0.000000001
 43
0.00000001
 40
0.0
 40
0.0
 40
0.0
 40
0.0
 40
1.0
 40
1.0
 40
1.0
 40
1.0
 10
5.79903810567666
 20
-1.287905361217887
 30
0.0
 10
5.500644082803669
 20
-1.179990830222784
 30
0.0
 10
5.207398205012954
 20
-1.061479461889391
 30
0.0
 10
4.799038105676644
 20
-0.9341234368074636
 30
0.0
  0
SPLINE
  5
B4
330
1F
100
AcDbEntity
  8
0
  6
Continuous
 62
     4
370
    15
100
AcDbSpline
210
0.0
220
0.0
230
1.0
 70
     8
 71
     3
 72
     8
 73
     4
 74
     0
 42
0.000000001
 43
0.00000001
 40
0.0
 40
0.0
 40
0.0
 40
0.0
 40
1.0
 40
1.0
 40
1.0
 40
1.0
 10
5.799038105676669
 20
0.7841287057294924
 30
0.0
 10
5.500630592048056
 20
0.9078015519822117
 30
0.0
 10
5.207371398683957
 20
1.023931051447437
 30
0.0
 10
4.799038105676644
 20
1.130809434061965
 30
0.0
  0
SPLINE
  5
B7
330
1F
100
AcDbEntity
  8
0
  6
Continuous
 62
     1
370
    15
100
AcDbSpline
210
0.0
220
0.0
230
1.0
 70
     8
 71
     3
 72
    20
 73
    16
 74
     0
 42
0.000000001
 43
0.00000001
 40
0.0
 40
0.0
 40
0.0
 40
0.0
 40
0.0799624386516965
 40
0.1597917646805581
 40
0.2395850690505736
 40
0.3194400546275165
 40
0.3994375934642783
 40
0.4779284316910067
 40
0.5563040542794313
 40
0.6346827840279036
 40
0.7131828838204156
 40
0.7933492889988064
 40
0.8733742088894714
 40
0.9533422393034787
 40
1.0
 40
1.0
 40
1.0
 40
1.0
 10
19.79903810567664
 20
-2.135116955771768
 30
0.0
 10
19.50596526245835
 20
-2.071334215768005
 30
0.0
 10
18.92030745127296
 20
-1.943874914210724
 30
0.0
 10
18.04262718570164
 20
-1.625273510596273
 30
0.0
 10
17.16537136661851
 20
-1.232331292566806
 30
0.0
 10
16.28742216039215
 20
-0.7748149078026514
 30
0.0
 10
15.41370969166705
 20
-0.2822468438051944
 30
0.0
 10
14.54576634016128
 20
0.2217470805900341
 30
0.0
 10
13.68404996136149
 20
0.7119448518284829
 30
0.0
 10
12.82229807255798
 20
1.167526770317187
 30
0.0
 10
11.95365396559474
 20
1.568334390274286
 30
0.0
 10
11.07869153524559
 20
1.894880473608783
 30
0.0
 10
10.19885883968089
 20
2.122597390501177
 30
0.0
 10
9.441880260202879
 20
2.242320272319493
 30
0.0
 10
8.977958148287868
 20
2.237759932750361
 30
0.0
 10
8.80701693094407
 20
2.236079586033903
 30
0.0
  0
SPLINE
  5
B8
330
1F
100
AcDbEntity
  8
0
  6
Continuous
 62
     1
370
    15
100
AcDbSpline
210
0.0
220
0.0
230
1.0
 70
     8
 71
     3
 72
    14
 73
    10
 74
     0
 42
0.000000001
 43
0.00000001
 40
0.0
 40
0.0
 40
0.0
 40
0.0
 40
0.1595280401738435
 40
0.3188728487601191
 40
0.4781232192135271
 40
0.6373689322927215
 40
0.7966998175495763
 40
0.9562048137508753
 40
0.9999999999999999
 40
0.9999999999999999
 40
0.9999999999999999
 40
0.9999999999999999
 10
19.79903810567664
 20
-1.775187594828479
 30
0.0
 10
19.48845771851307
 20
-1.708748157797433
 30
0.0
 10
18.86765367230311
 20
-1.575945595106756
 30
0.0
 10
17.93703102457483
 20
-1.260105480765699
 30
0.0
 10
17.0070245562792
 20
-0.8802485322534667
 30
0.0
 10
16.07704953540603
 20
-0.44777151025493
 30
0.0
 10
15.14651915976729
 20
0.0069465849783066
 30
0.0
 10
14.44054108985421
 20
0.3592105865754232
 30
0.0
 10
14.04474982490435
 20
0.5389455791642417
 30
0.0
 10
13.95948796259154
 20
0.577664321966314
 30
0.0
  0
LINE
  5
B9
330
1F
100
AcDbEntity
  8
0
  6
Continuous
 62
     1
370
    15
100
AcDbLine
 10
19.79903810567664
 20
-2.135116955771768
 30
0.0
 11
19.79903810567664
 21
-1.775187594828478
 31
0.0
  0
SPLINE
  5
BA
330
1F
100
AcDbEntity
  8
0
  6
Continuous
 62
     1
370
    15
100
AcDbSpline
210
0.0
220
0.0
230
1.0
 70
     8
 71
     3
 72
    52
 73
    48
 74
     0
 42
0.000000001
 43
0.00000001
 40
0.0
 40
0.0
 40
0.0
 40
0.0
 40
0.0624999999999996
 40
0.0624999999999996
 40
0.0937499999999995
 40
0.0937499999999995
 40
0.1249999999999995
 40
0.1249999999999995
 40
0.1874999999999996
 40
0.1874999999999996
 40
0.2187499999999996
 40
0.2187499999999996
 40
0.2499999999999997
 40
0.2499999999999997
 40
0.3124999999999998
 40
0.3124999999999998
 40
0.3749999999999998
 40
0.3749999999999998
 40
0.4062500000000001
 40
0.4062500000000001
 40
0.4375000000000002
 40
0.4375000000000002
 40
0.4687500000000004
 40
0.4687500000000004
 40
0.5000000000000006
 40
0.5000000000000006
 40
0.5625000000000003
 40
0.5625000000000003
 40
0.6250000000000002
 40
0.6250000000000002
 40
0.6562500000000001
 40
0.6562500000000001
 40
0.6875
 40
0.6875
 40
0.75
 40
0.75
 40
0.78125
 40
0.78125
 40
0.8124999999999999
 40
0.8124999999999999
 40
0.8749999999999999
 40
0.8749999999999999
 40
0.9375
 40
0.9375
 40
0.96875
 40
0.96875
 40
1.0
 40
1.0
 40
1.0
 40
1.0
 10
19.79903810567664
 20
-2.248098334266693
 30
0.0
 10
19.51034912715972
 20
-2.241200150562122
 30
0.0
 10
19.21465190171515
 20
-2.215250324867843
 30
0.0
 10
18.77713125397751
 20
-2.148917089353942
 30
0.0
 10
18.63330313122305
 20
-2.122369320446186
 30
0.0
 10
18.3419990327115
 20
-2.060279296846767
 30
0.0
 10
18.1952173469913
 20
-2.024751350914515
 30
0.0
 10
17.75563393017256
 20
-1.905647699898386
 30
0.0
 10
17.46764962516091
 20
-1.810028969626976
 30
0.0
 10
17.02846621029472
 20
-1.644292116752466
 30
0.0
 10
16.88157190340196
 20
-1.585393971201071
 30
0.0
 10
16.58955768889951
 20
-1.461423105076159
 30
0.0
 10
16.44558751726735
 20
-1.396537577613077
 30
0.0
 10
16.00925941960699
 20
-1.192875212865744
 30
0.0
 10
15.71337631257689
 20
-1.04505675621629
 30
0.0
 10
15.13370973190754
 20
-0.7364391390679486
 30
0.0
 10
14.84050474973857
 20
-0.5740311947310591
 30
0.0
 10
14.40204682491974
 20
-0.3254582744513966
 30
0.0
 10
14.25779262464139
 20
-0.2421040968582751
 30
0.0
 10
13.9673680887926
 20
-0.0743688365568061
 30
0.0
 10
13.82078595959905
 20
0.0100944239729032
 30
0.0
 10
13.52763655928289
 20
0.1786213472455265
 30
0.0
 10
13.38107511049986
 20
0.2626816630465572
 30
0.0
 10
13.09073200697638
 20
0.4288205810286899
 30
0.0
 10
12.94641625677693
 20
0.5110063243715031
 30
0.0
 10
12.50789137589775
 20
0.7548734290643148
 30
0.0
 10
12.21487386847778
 20
0.912540672067715
 30
0.0
 10
11.63503039822684
 20
1.208954387140968
 30
0.0
 10
11.33913980604924
 20
1.349172852389204
 30
0.0
 10
10.90292327877398
 20
1.539615369852098
 30
0.0
 10
10.75891536516688
 20
1.59981220042134
 30
0.0
 10
10.46684933273589
 20
1.713795999715122
 30
0.0
 10
10.31994953914538
 20
1.76740614359543
 30
0.0
 10
9.88081144545426
 20
1.916546336804243
 30
0.0
 10
9.59280502458185
 20
2.000180301251559
 30
0.0
 10
9.15319983549143
 20
2.100162948276429
 30
0.0
 10
9.006431553303399
 20
2.12913903245741
 30
0.0
 10
8.7151947467357
 20
2.177896952068824
 30
0.0
 10
8.571352708312538
 20
2.197679661852014
 30
0.0
 10
8.133743600914727
 20
2.243359257110344
 30
0.0
 10
7.83827361590871
 20
2.255118775435493
 30
0.0
 10
7.260690983510908
 20
2.240765428405557
 30
0.0
 10
6.964971317828018
 20
2.214532459047628
 30
0.0
 10
6.527540926263949
 20
2.147798966174736
 30
0.0
 10
6.38372272091776
 20
2.121120203916547
 30
0.0
 10
6.092352522962109
 20
2.058765716936832
 30
0.0
 10
5.945558045529729
 20
2.02310890519245
 30
0.0
 10
5.799038105676649
 20
1.983284650174972
 30
0.0
  0
SPLINE
  5
BB
330
1F
100
AcDbEntity
  8
0
  6
Continuous
 62
     1
370
    15
100
AcDbSpline
210
0.0
220
0.0
230
1.0
 70
     8
 71
     3
 72
    16
 73
    12
 74
     0
 42
0.000000001
 43
0.00000001
 40
0.0
 40
0.0
 40
0.0
 40
0.0
 40
0.1240414055045482
 40
0.2482165747936591
 40
0.3723076147852593
 40
0.4963873093502141
 40
0.6205285627801882
 40
0.7448036268491298
 40
0.8709024555529697
 40
0.9968656998695296
 40
1.0
 40
1.0
 40
1.0
 40
1.0
 10
14.21310125556708
 20
-0.215739747423182
 30
0.0
 10
13.90319402004642
 20
-0.0906247313018803
 30
0.0
 10
13.28304535120625
 20
0.1597402224856213
 30
0.0
 10
12.35302959396894
 20
0.5299294976335589
 30
0.0
 10
11.42297211804717
 20
0.8692759778157516
 30
0.0
 10
10.49300995708188
 20
1.159717727275619
 30
0.0
 10
9.56254455718544
 20
1.383591240570287
 30
0.0
 10
8.626912408403399
 20
1.532337525854572
 30
0.0
 10
7.686640390792799
 20
1.583021349473873
 30
0.0
 10
7.04913597567707
 20
1.581265696950728
 30
0.0
 10
6.7266604949711
 20
1.538824923322596
 30
0.0
 10
6.718831260529958
 20
1.537794523225603
 30
0.0
  0
LINE
  5
BD
330
1F
100
AcDbEntity
  8
0
  6
Continuous
 62
     1
370
    15
100
AcDbLine
 10
19.79903810567664
 20
-2.248098334266694
 30
0.0
 11
19.79903810567664
 21
-2.135116955771771
 31
0.0
  0
SPLINE
  5
BE
330
1F
100
AcDbEntity
  8
0
  6
Continuous
 62
     1
370
    15
100
AcDbSpline
210
0.0
220
0.0
230
1.0
 70
     8
 71
     3
 72
     8
 73
     4
 74
     0
 42
0.000000001
 43
0.00000001
 40
0.0
 40
0.0
 40
0.0
 40
0.0
 40
1.0
 40
1.0
 40
1.0
 40
1.0
 10
18.40621730427392
 20
0.6300147675965069
 30
0.0
 10
18.30556242378776
 20
0.7492864456267163
 30
0.0
 10
18.21822837920887
 20
0.8632662388276907
 30
0.0
 10
18.14927598977312
 20
0.969307646301173
 30
0.0
  0
LINE
  5
BF
330
1F
100
AcDbEntity
  8
0
  6
Continuous
 62
     1
370
    15
100
AcDbLine
 10
18.14927598977312
 20
0.9693076463011713
 30
0.0
 11
19.79903810567664
 21
0.0000000000000076
 31
0.0
  0
LINE
  5
C0
330
1F
100
AcDbEntity
  8
0
  6
Continuous
 62
     1
370
    15
100
AcDbLine
 10
19.79903810567664
 20
0.0000000000000076
 30
0.0
 11
19.79903810567664
 21
-0.6012966285666931
 31
0.0
  0
SPLINE
  5
C1
330
1F
100
AcDbEntity
  8
0
  6
Continuous
 62
     1
370
    15
100
AcDbSpline
210
0.0
220
0.0
230
1.0
 70
     8
 71
     3
 72
    10
 73
     6
 74
     0
 42
0.000000001
 43
0.00000001
 40
0.0
 40
0.0
 40
0.0
 40
0.0
 40
0.5
 40
0.5
 40
1.0
 40
1.0
 40
1.0
 40
1.0
 10
19.79903810567664
 20
-0.6012966285666932
 30
0.0
 10
19.55792794229273
 20
-0.4117416244353675
 30
0.0
 10
19.32084882184517
 20
-0.2144097931930513
 30
0.0
 10
18.854949998755
 20
0.1961882230853585
 30
0.0
 10
18.62396414258909
 20
0.4116249628710774
 30
0.0
 10
18.4062173042739
 20
0.630014767596522
 30
0.0
  0
SPLINE
  5
C2
330
1F
100
AcDbEntity
  8
0
  6
Continuous
 62
     1
370
    15
100
AcDbSpline
210
0.0
220
0.0
230
1.0
 70
     8
 71
     3
 72
    14
 73
    10
 74
     0
 42
0.000000001
 43
0.00000001
 40
0.0
 40
0.0
 40
0.0
 40
0.0
 40
0.1501068886546748
 40
0.2999972027754348
 40
0.4495735478291162
 40
0.6291524784651417
 40
0.8089303765376382
 40
0.9887587349693082
 40
0.9999999999999999
 40
0.9999999999999999
 40
0.9999999999999999
 40
0.9999999999999999
 10
18.4062173042739
 20
0.6300147675965216
 30
0.0
 10
18.14694322860521
 20
0.7396012744521586
 30
0.0
 10
17.62876915844821
 20
0.9586161765213994
 30
0.0
 10
16.85235886579391
 20
1.242696448371089
 30
0.0
 10
16.02548099246115
 20
1.494815282119925
 30
0.0
 10
15.14646741335793
 20
1.691593184346035
 30
0.0
 10
14.21520080393671
 20
1.79296774952423
 30
0.0
 10
13.57456102714842
 20
1.821172962486393
 30
0.0
 10
13.24458251131106
 20
1.786982937801249
 30
0.0
 10
13.22516877152477
 20
1.78497142429153
 30
0.0
  0
SPLINE
  5
C3
330
1F
100
AcDbEntity
  8
0
  6
Continuous
 62
     1
370
    15
100
AcDbSpline
210
0.0
220
0.0
230
1.0
 70
    24
 71
     3
 72
    10
 73
     6
 74
     0
 42
0.000000001
 43
0.00000001
 40
0.0
 40
0.0
 40
0.0
 40
0.0
 40
0.5
 40
0.5
 40
1.0
 40
1.0
 40
1.0
 40
1.0
 10
19.79903810567664
 20
-1.775187594828478
 30
0.0
 10
19.79903810567664
 20
-1.639105625258553
 30
0.0
 10
19.79903810567664
 20
-1.467160838789547
 30
0.0
 10
19.79903810567664
 20
-1.067405758089023
 30
0.0
 10
19.79903810567664
 20
-0.8399417468654395
 30
0.0
 10
19.79903810567664
 20
-0.6012966285667655
 30
0.0
  0
SPLINE
  5
C4
330
1F
100
AcDbEntity
  8
0
  6
Continuous
 62
     1
370
    15
100
AcDbSpline
210
0.0
220
0.0
230
1.0
 70
     8
 71
     3
 72
    12
 73
     8
 74
     0
 42
0.000000001
 43
0.00000001
 40
0.0
 40
0.0
 40
0.0
 40
0.0
 40
0.0693577508129057
 40
0.299644726140077
 40
0.5300507457230619
 40
0.7601826753286887
 40
1.0
 40
1.0
 40
1.0
 40
1.0
 10
9.843367609624389
 20
-1.861091521876375
 30
0.0
 10
9.749877035942468
 20
-1.873643592328217
 30
0.0
 10
9.34597181959299
 20
-1.927872019129123
 30
0.0
 10
8.63134680351914
 20
-1.915443747833843
 30
0.0
 10
7.699859080633029
 20
-1.817985414255582
 30
0.0
 10
6.75580196992175
 20
-1.612023436081335
 30
0.0
 10
6.122311357856889
 20
-1.397419012461576
 30
0.0
 10
5.79903810567664
 20
-1.287905361217881
 30
0.0
  0
SPLINE
  5
C5
330
1F
100
AcDbEntity
  8
0
  6
Continuous
 62
     1
370
    15
100
AcDbSpline
210
0.0
220
0.0
230
1.0
 70
     8
 71
     3
 72
    17
 73
    13
 74
     0
 42
0.000000001
 43
0.00000001
 40
0.0
 40
0.0
 40
0.0
 40
0.0
 40
0.0887579924863595
 40
0.18963738745764
 40
0.2903953377673094
 40
0.3910868041442732
 40
0.4917693061087602
 40
0.5925004575180771
 40
0.6933373609426893
 40
0.7956528193359661
 40
0.8978611249909556
 40
1.0
 40
1.0
 40
1.0
 40
1.0
 10
15.03510781690847
 20
-1.686785745350225
 30
0.0
 10
14.76182980088263
 20
-1.72470463889364
 30
0.0
 10
14.17795304165202
 20
-1.805720891125377
 30
0.0
 10
13.28374463802965
 20
-1.806427034703482
 30
0.0
 10
12.35302720134199
 20
-1.713774006348481
 30
0.0
 10
11.4229749888362
 20
-1.521414876919339
 30
0.0
 10
10.49302091052855
 20
-1.24337105571179
 30
0.0
 10
9.5625635331259
 20
-0.8945682660573828
 30
0.0
 10
8.626926744974249
 20
-0.4929501335315261
 30
0.0
 10
7.686625584119259
 20
-0.0618875625632584
 30
0.0
 10
6.742522025155939
 20
0.378340901103025
 30
0.0
 10
6.113461500610899
 20
0.6488967462659093
 30
0.0
 10
5.799038105676644
 20
0.7841287057295027
 30
0.0
  0
LINE
  5
C8
330
1F
100
AcDbEntity
  8
0
  6
Continuous
 62
     1
370
    15
100
AcDbLine
 10
19.79903810567664
 20
1.575000000000008
 30
0.0
 11
18.96114547755159
 21
1.534773251824346
 31
0.0
  0
SPLINE
  5
C9
330
1F
100
AcDbEntity
  8
0
  6
Continuous
 62
     1
370
    15
100
AcDbSpline
210
0.0
220
0.0
230
1.0
 70
     8
 71
     3
 72
    10
 73
     6
 74
     0
 42
0.000000001
 43
0.00000001
 40
0.0
 40
0.0
 40
0.0
 40
0.0
 40
0.5
 40
0.5
 40
1.0
 40
1.0
 40
1.0
 40
1.0
 10
19.79903810567664
 20
1.575000000000008
 30
0.0
 10
19.51904646236407
 20
1.498983805862081
 30
0.0
 10
19.24113734219255
 20
1.411960284219449
 30
0.0
 10
18.69014326524052
 20
1.212414774514006
 30
0.0
 10
18.41690146160954
 20
1.100533949466126
 30
0.0
 10
18.14927598977177
 20
0.9693076463022177
 30
0.0
  0
SPLINE
  5
CA
330
1F
100
AcDbEntity
  8
0
  6
Continuous
 62
     1
370
    15
100
AcDbSpline
210
0.0
220
0.0
230
1.0
 70
     8
 71
     3
 72
    14
 73
    10
 74
     0
 42
0.000000001
 43
0.00000001
 40
0.0
 40
0.0
 40
0.0
 40
0.0
 40
0.0529234238598474
 40
0.210727577505761
 40
0.3684195486499292
 40
0.5261873361596237
 40
0.6842175703355534
 40
0.8422372591046172
 40
1.0
 40
1.0
 40
1.0
 40
1.0
 10
11.37335375736756
 20
-1.769341802858678
 30
0.0
 10
11.2749842709384
 20
-1.806772542283539
 30
0.0
 10
10.88330206174123
 20
-1.955812201246998
 30
0.0
 10
10.19887342973839
 20
-2.122003980818143
 30
0.0
 10
9.31969254678562
 20
-2.250546642431821
 30
0.0
 10
8.44006848745072
 20
-2.259108521880111
 30
0.0
 10
7.559397779032439
 20
-2.153062535605223
 30
0.0
 10
6.678757466984068
 20
-1.943256359759985
 30
0.0
 10
6.09211877946669
 20
-1.722813183650435
 30
0.0
 10
5.799038105673803
 20
-1.612681281404698
 30
0.0
  0
SPLINE
  5
CC
330
1F
100
AcDbEntity
  8
0
  6
Continuous
 62
     1
370
    15
100
AcDbSpline
210
0.0
220
0.0
230
1.0
 70
     8
 71
     3
 72
    10
 73
     6
 74
     0
 42
0.000000001
 43
0.00000001
 40
0.0
 40
0.0
 40
0.0
 40
0.0
 40
0.4578032123616054
 40
0.9163705322043451
 40
1.0
 40
1.0
 40
1.0
 40
1.0
 10
5.799038105676649
 20
-1.983284650174961
 30
0.0
 10
6.091475051065778
 20
-2.051445136047601
 30
0.0
 10
6.676837040773218
 20
-2.187879872693974
 30
0.0
 10
7.315977676033789
 20
-2.261327736817091
 30
0.0
 10
7.662468540258939
 20
-2.244147072611447
 30
0.0
 10
7.715911952746529
 20
-2.241497094159616
 30
0.0
  0
SPLINE
  5
CD
330
1F
100
AcDbEntity
  8
0
  6
Continuous
 62
     1
370
    15
100
AcDbSpline
210
0.0
220
0.0
230
1.0
 70
     8
 71
     3
 72
    11
 73
     7
 74
     0
 42
0.000000001
 43
0.00000001
 40
0.0
 40
0.0
 40
0.0
 40
0.0
 40
0.1422976922190547
 40
0.4279534912724446
 40
0.7137414815970775
 40
0.9999999999999999
 40
0.9999999999999999
 40
0.9999999999999999
 40
0.9999999999999999
 10
16.72194799840818
 20
1.507412994695575
 30
0.0
 10
16.86790304946138
 20
1.571564700375125
 30
0.0
 10
17.3068558721882
 20
1.764497881430388
 30
0.0
 10
18.03876262638271
 20
1.995376597886208
 30
0.0
 10
18.9183858208224
 20
2.194662723909065
 30
0.0
 10
19.50532641773123
 20
2.230276699571085
 30
0.0
 10
19.79903810567664
 20
2.248098334266706
 30
0.0
  0
LINE
  5
CE
330
1F
100
AcDbEntity
  8
0
  6
Continuous
 62
     1
370
    15
100
AcDbLine
 10
19.79903810567664
 20
0.0000000000000076
 30
0.0
 11
19.79903810567664
 21
1.575000000000008
 31
0.0
  0
SPLINE
  5
CF
330
1F
100
AcDbEntity
  8
0
  6
Continuous
 62
     1
370
    15
100
AcDbSpline
210
0.0
220
0.0
230
1.0
 70
    24
 71
     3
 72
    10
 73
     6
 74
     0
 42
0.000000001
 43
0.00000001
 40
0.0
 40
0.0
 40
0.0
 40
0.0
 40
0.5000000000000004
 40
0.5000000000000004
 40
1.0
 40
1.0
 40
1.0
 40
1.0
 10
19.79903810567664
 20
1.575000000000008
 30
0.0
 10
19.79903810567665
 20
1.670472577816464
 30
0.0
 10
19.79903810567664
 20
1.78142055495102
 30
0.0
 10
19.79903810567664
 20
2.014189112161933
 30
0.0
 10
19.79903810567664
 20
2.135415230553321
 30
0.0
 10
19.79903810567664
 20
2.248098334266707
 30
0.0
  0
LINE
  5
D0
330
1F
100
AcDbEntity
  8
중심선
100
AcDbLine
 10
-33.20096189432333
 20
0.0000000000000018
 30
0.0
 11
22.79903810567666
 21
0.0000000000000018
 31
0.0
  0
CIRCLE
  5
D1
330
1F
100
AcDbEntity
  8
외형선
100
AcDbCircle
 10
0.0
 20
0.0
 30
0.0
 40
3.000000000000004
  0
INSERT
  5
D2
330
1F
100
AcDbEntity
  8
0
  6
Continuous
 62
     7
100
AcDbBlockReference
 66
     1
  2
블럭10
 10
-28.13923533383496
 20
-52.04717430164392
 30
0.0
  0
ATTRIB
  5
D3
330
D2
100
AcDbEntity
  8
FORMAT
 62
     2
100
AcDbText
 10
-41.09917452869273
 20
-49.97180738881173
 30
0.0
 40
4.233333333333333
  1
SEME35045E [ 2 FLUTE ]
 41
0.75
  7
SLDTEXTSTYLE0
 11
-41.09917452869273
 21
-52.0884740554784
 31
0.0
100
AcDbAttribute
  2
AUTOATTR0
 70
     0
 74
     1
  0
SEQEND
  5
D4
330
D2
100
AcDbEntity
  8
0
  6
Continuous
 62
     7
  0
HATCH
  5
D5
330
1F
100
AcDbEntity
  8
중심선
100
AcDbHatch
 10
0.0
 20
0.0
 30
0.0
210
0.0
220
0.0
230
1.0
  2
SOLID
 70
     1
 71
     0
 91
        1
 92
        0
 93
        4
 72
     1
 10
-22.42432602945411
 20
-35.79999999999999
 11
-25.87060127329139
 21
-35.79999999999999
 72
     1
 10
-25.87060127329139
 20
-35.79999999999999
 11
-27.99883113249542
 21
-38.33632558057258
 72
     1
 10
-27.99883113249542
 20
-38.33632558057258
 11
-24.55252280354498
 21
-38.33628615127009
 72
     1
 10
-24.55252280354498
 20
-38.33628615127009
 11
-22.42432602945411
 21
-35.79999999999999
 97
        0
 75
     0
 76
     1
 98
        1
 10
-4.200961894323351
 20
0.0000000000000053
  0
HATCH
  5
D6
330
1F
100
AcDbEntity
  8
중심선
100
AcDbHatch
 10
0.0
 20
0.0
 30
0.0
210
0.0
220
0.0
230
1.0
  2
SOLID
 70
     1
 71
     0
 91
        1
 92
        0
 93
        4
 72
     1
 10
-17.41156203841816
 20
-35.79999999999999
 11
-20.85783728225544
 21
-35.79999999999999
 72
     1
 10
-20.85783728225544
 20
-35.79999999999999
 11
-25.38897529061283
 21
-41.20000000000001
 72
     1
 10
-25.38897529061283
 20
-41.20000000000001
 11
-21.94270004677555
 21
-41.20000000000001
 72
     1
 10
-21.94270004677555
 20
-41.20000000000001
 11
-17.41156203841816
 21
-35.79999999999999
 97
        0
 75
     0
 76
     1
 98
        1
 10
-4.200961894323351
 20
0.0000000000000053
  0
HATCH
  5
D7
330
1F
100
AcDbEntity
  8
중심선
100
AcDbHatch
 10
0.0
 20
0.0
 30
0.0
210
0.0
220
0.0
230
1.0
  2
SOLID
 70
     1
 71
     0
 91
        1
 92
        0
 93
        4
 72
     1
 10
-12.39879804738226
 20
-35.80000000000003
 11
-15.84507329121938
 21
-35.79999999999999
 72
     1
 10
-15.84507329121938
 20
-35.79999999999999
 11
-22.89351019310863
 21
-44.20000000000001
 72
     1
 10
-22.89351019310863
 20
-44.20000000000001
 11
-19.44723494927135
 21
-44.20000000000001
 72
     1
 10
-19.44723494927135
 20
-44.20000000000001
 11
-12.39879804738226
 21
-35.80000000000003
 97
        0
 75
     0
 76
     1
 98
        1
 10
-4.200961894323351
 20
0.0000000000000053
  0
HATCH
  5
D8
330
1F
100
AcDbEntity
  8
중심선
100
AcDbHatch
 10
0.0
 20
0.0
 30
0.0
210
0.0
220
0.0
230
1.0
  2
SOLID
 70
     1
 71
     0
 91
        1
 92
        0
 93
        6
 72
     3
 10
-7.598907616370065
 20
-40.00000000005127
 11
3.960054785062284
 21
1.540882976769353E-10
 40
0.3939339440162627
 50
17.09539180608439
 51
320.0019657685078
 73
     0
 72
     1
 10
-5.915907960669469
 20
-38.58789400463829
 11
-3.61060608696843
 21
-36.65356729459037
 72
     3
 10
-7.598907616422911
 20
-40.00000000000014
 11
6.600054785286829
 21
-1.278976924368180E-13
 40
0.636358354079598
 50
39.99873849337413
 51
368.4976242363724
 73
     1
 72
     1
 10
-1.173575124522302
 20
-39.03999999993001
 11
-8.918840309586988
 21
-39.03999999992998
 72
     1
 10
-8.918840309586988
 20
-39.03999999992998
 11
-8.918865354032919
 21
-40.95999999992991
 72
     1
 10
-8.918865354032919
 20
-40.95999999992991
 11
-4.477485584560887
 21
-40.95999999992987
 97
        0
 75
     0
 76
     1
 98
        1
 10
-4.200961894323351
 20
0.0000000000000053
  0
DIMENSION
  5
D9
330
1F
100
AcDbEntity
  8
치수문자_일반주서
100
AcDbDimension
  2
_D
 10
5.79903810567666
 20
14.49873222284448
 30
0.0
 11
12.79903810567664
 21
14.49873222284448
 31
0.0
 70
   160
  1
<>
 71
     2
 42
13.99999999999998
  3
SLDDIMSTYLE0
100
AcDbAlignedDimension
 13
19.79903810567664
 23
2.248098334266707
 33
0.0
 14
5.79903810567666
 24
1.98328465017497
 34
0.0
100
AcDbRotatedDimension
  0
DIMENSION
  5
E6
330
1F
100
AcDbEntity
  8
치수문자_일반주서
100
AcDbDimension
  2
_D_1
 10
-30.20096189432337
 20
24.35915911661226
 30
0.0
 11
-5.200961894323355
 21
24.35915911661226
 31
0.0
 70
   160
  1
<>
 71
     2
 42
50.00000000000001
  3
SLDDIMSTYLE1
100
AcDbAlignedDimension
 13
19.79903810567664
 23
1.575000000000008
 33
0.0
 14
-30.20096189432337
 24
2.450000000000002
 34
0.0
100
AcDbRotatedDimension
  0
DIMENSION
  5
F1
330
1F
100
AcDbEntity
  8
치수문자_일반주서
100
AcDbDimension
  2
_D_2
 10
35.36522841792296
 20
-2.248098334266636
 30
0.0
 11
35.3652284179229
 21
14.75834833426676
 31
0.0
 70
   160
  1
%%c<>
 71
     2
 42
4.4961966685334
 52
-270.0
  3
SLDDIMSTYLE2
100
AcDbAlignedDimension
 13
19.79903810567664
 23
2.248098334266707
 33
0.0
 14
19.79903810567664
 24
-2.248098334266694
 34
0.0
 50
90.0000000000002
100
AcDbRotatedDimension
  0
DIMENSION
  5
FF
330
1F
100
AcDbEntity
  8
치수문자_일반주서
100
AcDbDimension
  2
_D_3
 10
-42.0705213397119
 20
-3.000000000000041
 30
0.0
 11
-42.07052133971191
 21
0.0000000000000033
 31
0.0
 70
   160
  1
%%c<>
 71
     2
 42
5.999999999999998
 52
-270.0
  3
SLDDIMSTYLE0
100
AcDbAlignedDimension
 13
-29.65096189432336
 23
3.000000000000002
 33
0.0
 14
-29.65096189432336
 24
-2.999999999999996
 34
0.0
 50
90.0000000000002
100
AcDbRotatedDimension
  0
INSERT
  5
112
330
1F
100
AcDbEntity
  8
외형선
100
AcDbBlockReference
  2
SW_DOWELSYMBOL_0
 10
0.0
 20
0.0
 30
0.0
  0
ENDSEC
  0
SECTION
  2
OBJECTS
  0
DICTIONARY
  5
C
330
0
100
AcDbDictionary
281
     1
  3
ACAD_DETAILVIEWSTYLE
350
164
  3
ACAD_GROUP
350
D
  3
ACAD_IMAGE_VARS
350
136
  3
ACAD_LAYOUT
350
1A
  3
ACAD_MLINESTYLE
350
17
  3
ACAD_PLOTSETTINGS
350
19
  3
ACAD_PLOTSTYLENAME
350
E
  3
ACAD_SCALELIST
350
47
  3
ACAD_SECTIONVIEWSTYLE
350
165
  3
AcDbVariableDictionary
350
15F
  3
APPDATA
350
134
  3
DWGPROPS
350
1B1
  0
DICTIONARY
  5
164
102
{ACAD_REACTORS
330
C
102
}
330
C
100
AcDbDictionary
281
     1
  0
DICTIONARY
  5
D
102
{ACAD_REACTORS
330
C
102
}
330
C
100
AcDbDictionary
281
     1
  0
RASTERVARIABLES
  5
136
102
{ACAD_REACTORS
330
C
102
}
330
C
100
AcDbRasterVariables
 90
        0
 70
     1
 71
     1
 72
     1
  0
DICTIONARY
  5
1A
102
{ACAD_REACTORS
330
C
102
}
330
C
100
AcDbDictionary
281
     1
  3
Layout1
350
1E
  3
Layout2
350
26
  3
Model
350
22
  0
DICTIONARY
  5
17
102
{ACAD_REACTORS
330
C
102
}
330
C
100
AcDbDictionary
281
     1
  3
Standard
350
18
  0
DICTIONARY
  5
19
102
{ACAD_REACTORS
330
C
102
}
330
C
100
AcDbDictionary
281
     1
  0
ACDBDICTIONARYWDFLT
  5
E
102
{ACAD_REACTORS
330
C
102
}
330
C
100
AcDbDictionary
281
     1
  3
Normal
350
F
100
AcDbDictionaryWithDefault
340
F
  0
DICTIONARY
  5
47
102
{ACAD_REACTORS
330
C
102
}
330
C
100
AcDbDictionary
281
     1
  3
A0
350
48
  3
A1
350
49
  3
A2
350
4A
  3
A3
350
4B
  3
A4
350
4C
  3
A5
350
4D
  3
A6
350
4E
  3
A7
350
4F
  3
A8
350
50
  3
A9
350
51
  3
B0
350
52
  3
B1
350
53
  3
B2
350
54
  3
B3
350
55
  3
B4
350
56
  3
B5
350
57
  3
B6
350
58
  3
B7
350
59
  3
B8
350
5A
  3
B9
350
5B
  3
C0
350
5C
  3
C1
350
5D
  3
C2
350
5E
  3
C3
350
5F
  3
C4
350
60
  3
C5
350
61
  3
C6
350
62
  3
C7
350
63
  3
C8
350
64
  3
C9
350
65
  3
D0
350
66
  3
D1
350
67
  3
D2
350
68
  0
DICTIONARY
  5
165
102
{ACAD_REACTORS
330
C
102
}
330
C
100
AcDbDictionary
281
     1
  0
DICTIONARY
  5
15F
102
{ACAD_REACTORS
330
C
102
}
330
C
100
AcDbDictionary
281
     1
  0
DICTIONARY
  5
134
102
{ACAD_REACTORS
330
C
102
}
330
C
100
AcDbDictionary
281
     1
  0
XRECORD
  5
1B1
102
{ACAD_REACTORS
330
C
102
}
330
C
100
AcDbXrecord
280
     1
  1
DWGPROPS COOKIE
  2

  3

  4

  6

  7

  8
12011908
  9

300
=
301
=
302
=
303
=
304
=
305
=
306
=
307
=
308
=
309
=
 40
0.0
 41
2458250.116208739
 42
2458264.03518919
  1

 90
        0
  0
LAYOUT
  5
1E
102
{ACAD_REACTORS
330
1A
102
}
330
1A
100
AcDbPlotSettings
  1

  2
none_device
  4

  6

 40
0.0
 41
0.0
 42
0.0
 43
0.0
 44
0.0
 45
0.0
 46
0.0
 47
0.0
 48
0.0
 49
0.0
140
0.0
141
0.0
142
1.0
143
1.0
 70
   688
 72
     1
 73
     0
 74
     5
  7

 75
    16
147
1.0
148
0.0
149
0.0
100
AcDbLayout
  1
Layout1
 70
     1
 71
     1
 10
0.0
 20
0.0
 11
420.0
 21
297.0
 12
0.0
 22
0.0
 32
0.0
 14
1.000000000000000E+20
 24
1.000000000000000E+20
 34
1.000000000000000E+20
 15
-1.000000000000000E+20
 25
-1.000000000000000E+20
 35
-1.000000000000000E+20
146
0.0
 13
0.0
 23
0.0
 33
0.0
 16
1.0
 26
0.0
 36
0.0
 17
0.0
 27
1.0
 37
0.0
 76
     0
330
1B
  0
LAYOUT
  5
26
102
{ACAD_REACTORS
330
1A
102
}
330
1A
100
AcDbPlotSettings
  1

  2
none_device
  4

  6

 40
0.0
 41
0.0
 42
0.0
 43
0.0
 44
0.0
 45
0.0
 46
0.0
 47
0.0
 48
0.0
 49
0.0
140
0.0
141
0.0
142
1.0
143
1.0
 70
   688
 72
     1
 73
     0
 74
     5
  7

 75
    16
147
1.0
148
0.0
149
0.0
100
AcDbLayout
  1
Layout2
 70
     1
 71
     2
 10
0.0
 20
0.0
 11
0.0
 21
0.0
 12
0.0
 22
0.0
 32
0.0
 14
0.0
 24
0.0
 34
0.0
 15
0.0
 25
0.0
 35
0.0
146
0.0
 13
0.0
 23
0.0
 33
0.0
 16
1.0
 26
0.0
 36
0.0
 17
0.0
 27
1.0
 37
0.0
 76
     0
330
23
  0
LAYOUT
  5
22
102
{ACAD_REACTORS
330
1A
102
}
330
1A
100
AcDbPlotSettings
  1

  2
none_device
  4
ANSI_A_(11.00_x_8.50_Inches)
  6

 40
6.35
 41
19.05
 42
6.35000508
 43
19.05000254
 44
279.4
 45
215.9
 46
135.8591602369296
 47
118.2337170817876
 48
0.0
 49
0.0
140
0.0
141
0.0
142
0.1057337879451528
143
1.0
 70
  1696
 72
     0
 73
     0
 74
     0
  7

 75
     0
147
0.0235690232323232
148
0.0
149
0.0
100
AcDbLayout
  1
Model
 70
     1
 71
     0
 10
0.0
 20
0.0
 11
420.0
 21
297.0
 12
0.0
 22
0.0
 32
0.0
 14
-46.44552133971192
 24
-49.97180738881173
 34
0.0
 15
35.91556175125629
 25
28.73415911661227
 35
0.0
146
0.0
 13
0.0
 23
0.0
 33
0.0
 16
1.0
 26
0.0
 36
0.0
 17
0.0
 27
1.0
 37
0.0
 76
     0
330
1F
331
29
  0
MLINESTYLE
  5
18
102
{ACAD_REACTORS
330
17
102
}
330
17
100
AcDbMlineStyle
  2
Standard
 70
     0
  3

 62
   256
 51
90.0
 52
90.0
 71
     2
 49
0.5
 62
   256
  6
BYLAYER
 49
-0.5
 62
   256
  6
BYLAYER
  0
ACDBPLACEHOLDER
  5
F
102
{ACAD_REACTORS
330
E
102
}
330
E
  0
SCALE
  5
48
102
{ACAD_REACTORS
330
47
102
}
330
47
100
AcDbScale
 70
     0
300
1:1
140
1.0
141
1.0
290
     1
  0
SCALE
  5
49
102
{ACAD_REACTORS
330
47
102
}
330
47
100
AcDbScale
 70
     0
300
1:2
140
1.0
141
2.0
290
     0
  0
SCALE
  5
4A
102
{ACAD_REACTORS
330
47
102
}
330
47
100
AcDbScale
 70
     0
300
1:4
140
1.0
141
4.0
290
     0
  0
SCALE
  5
4B
102
{ACAD_REACTORS
330
47
102
}
330
47
100
AcDbScale
 70
     0
300
1:5
140
1.0
141
5.0
290
     0
  0
SCALE
  5
4C
102
{ACAD_REACTORS
330
47
102
}
330
47
100
AcDbScale
 70
     0
300
1:8
140
1.0
141
8.0
290
     0
  0
SCALE
  5
4D
102
{ACAD_REACTORS
330
47
102
}
330
47
100
AcDbScale
 70
     0
300
1:10
140
1.0
141
10.0
290
     0
  0
SCALE
  5
4E
102
{ACAD_REACTORS
330
47
102
}
330
47
100
AcDbScale
 70
     0
300
1:16
140
1.0
141
16.0
290
     0
  0
SCALE
  5
4F
102
{ACAD_REACTORS
330
47
102
}
330
47
100
AcDbScale
 70
     0
300
1:20
140
1.0
141
20.0
290
     0
  0
SCALE
  5
50
102
{ACAD_REACTORS
330
47
102
}
330
47
100
AcDbScale
 70
     0
300
1:30
140
1.0
141
30.0
290
     0
  0
SCALE
  5
51
102
{ACAD_REACTORS
330
47
102
}
330
47
100
AcDbScale
 70
     0
300
1:40
140
1.0
141
40.0
290
     0
  0
SCALE
  5
52
102
{ACAD_REACTORS
330
47
102
}
330
47
100
AcDbScale
 70
     0
300
1:50
140
1.0
141
50.0
290
     0
  0
SCALE
  5
53
102
{ACAD_REACTORS
330
47
102
}
330
47
100
AcDbScale
 70
     0
300
1:100
140
1.0
141
100.0
290
     0
  0
SCALE
  5
54
102
{ACAD_REACTORS
330
47
102
}
330
47
100
AcDbScale
 70
     0
300
2:1
140
2.0
141
1.0
290
     0
  0
SCALE
  5
55
102
{ACAD_REACTORS
330
47
102
}
330
47
100
AcDbScale
 70
     0
300
4:1
140
4.0
141
1.0
290
     0
  0
SCALE
  5
56
102
{ACAD_REACTORS
330
47
102
}
330
47
100
AcDbScale
 70
     0
300
8:1
140
8.0
141
1.0
290
     0
  0
SCALE
  5
57
102
{ACAD_REACTORS
330
47
102
}
330
47
100
AcDbScale
 70
     0
300
10:1
140
10.0
141
1.0
290
     0
  0
SCALE
  5
58
102
{ACAD_REACTORS
330
47
102
}
330
47
100
AcDbScale
 70
     0
300
100:1
140
100.0
141
1.0
290
     0
  0
SCALE
  5
59
102
{ACAD_REACTORS
330
47
102
}
330
47
100
AcDbScale
 70
     0
300
1/128" = 1'-0"
140
0.0078125
141
12.0
290
     0
  0
SCALE
  5
5A
102
{ACAD_REACTORS
330
47
102
}
330
47
100
AcDbScale
 70
     0
300
1/64" = 1'-0"
140
0.015625
141
12.0
290
     0
  0
SCALE
  5
5B
102
{ACAD_REACTORS
330
47
102
}
330
47
100
AcDbScale
 70
     0
300
1/32" = 1'-0"
140
0.03125
141
12.0
290
     0
  0
SCALE
  5
5C
102
{ACAD_REACTORS
330
47
102
}
330
47
100
AcDbScale
 70
     0
300
1/16" = 1'-0"
140
0.0625
141
12.0
290
     0
  0
SCALE
  5
5D
102
{ACAD_REACTORS
330
47
102
}
330
47
100
AcDbScale
 70
     0
300
3/32" = 1'-0"
140
0.09375
141
12.0
290
     0
  0
SCALE
  5
5E
102
{ACAD_REACTORS
330
47
102
}
330
47
100
AcDbScale
 70
     0
300
1/8" = 1'-0"
140
0.125
141
12.0
290
     0
  0
SCALE
  5
5F
102
{ACAD_REACTORS
330
47
102
}
330
47
100
AcDbScale
 70
     0
300
3/16" = 1'-0"
140
0.1875
141
12.0
290
     0
  0
SCALE
  5
60
102
{ACAD_REACTORS
330
47
102
}
330
47
100
AcDbScale
 70
     0
300
1/4" = 1'-0"
140
0.25
141
12.0
290
     0
  0
SCALE
  5
61
102
{ACAD_REACTORS
330
47
102
}
330
47
100
AcDbScale
 70
     0
300
3/8" = 1'-0"
140
0.375
141
12.0
290
     0
  0
SCALE
  5
62
102
{ACAD_REACTORS
330
47
102
}
330
47
100
AcDbScale
 70
     0
300
1/2" = 1'-0"
140
0.5
141
12.0
290
     0
  0
SCALE
  5
63
102
{ACAD_REACTORS
330
47
102
}
330
47
100
AcDbScale
 70
     0
300
3/4" = 1'-0"
140
0.75
141
12.0
290
     0
  0
SCALE
  5
64
102
{ACAD_REACTORS
330
47
102
}
330
47
100
AcDbScale
 70
     0
300
1" = 1'-0"
140
1.0
141
12.0
290
     0
  0
SCALE
  5
65
102
{ACAD_REACTORS
330
47
102
}
330
47
100
AcDbScale
 70
     0
300
1-1/2" = 1'-0"
140
1.5
141
12.0
290
     0
  0
SCALE
  5
66
102
{ACAD_REACTORS
330
47
102
}
330
47
100
AcDbScale
 70
     0
300
3" = 1'-0"
140
3.0
141
12.0
290
     0
  0
SCALE
  5
67
102
{ACAD_REACTORS
330
47
102
}
330
47
100
AcDbScale
 70
     0
300
6" = 1'-0"
140
6.0
141
12.0
290
     0
  0
SCALE
  5
68
102
{ACAD_REACTORS
330
47
102
}
330
47
100
AcDbScale
 70
     0
300
1'-0" = 1'-0"
140
12.0
141
12.0
290
     0
  0
ENDSEC
  0
EOF
