  0
SECTION
  2
HEADER
  9
$ACADVER
  1
AC1015
  9
$ACADMAINTVER
 70
     6
  9
$DWGCODEPAGE
  3
ANSI_949
  9
$INSBASE
 10
0.0
 20
0.0
 30
0.0
  9
$EXTMIN
 10
-52.1855213397119
 20
-49.97180738881173
 30
0.0
  9
$EXTMAX
 10
40.4658950845896
 20
29.43415911661226
 30
0.0
  9
$LIMMIN
 10
0.0
 20
0.0
  9
$LIMMAX
 10
420.0
 20
297.0
  9
$ORTHOMODE
 70
     1
  9
$REGENMODE
 70
     1
  9
$FILLMODE
 70
     1
  9
$QTEXTMODE
 70
     0
  9
$MIRRTEXT
 70
     1
  9
$LTSCALE
 40
1.0
  9
$ATTMODE
 70
     1
  9
$TEXTSIZE
 40
3.5
  9
$TRACEWID
 40
1.0
  9
$TEXTSTYLE
  7
Standard
  9
$CLAYER
  8
0
  9
$CELTYPE
  6
ByLayer
  9
$CECOLOR
 62
   256
  9
$CELTSCALE
 40
1.0
  9
$DISPSILH
 70
     0
  9
$DIMSCALE
 40
1.0
  9
$DIMASZ
 40
3.302
  9
$DIMEXO
 40
1.0
  9
$DIMDLI
 40
3.75
  9
$DIMRND
 40
0.0
  9
$DIMDLE
 40
0.0
  9
$DIMEXE
 40
1.0
  9
$DIMTP
 40
0.0
  9
$DIMTM
 40
0.0
  9
$DIMTXT
 40
3.5
  9
$DIMCEN
 40
2.5
  9
$DIMTSZ
 40
0.0
  9
$DIMTOL
 70
     0
  9
$DIMLIM
 70
     0
  9
$DIMTIH
 70
     1
  9
$DIMTOH
 70
     1
  9
$DIMSE1
 70
     0
  9
$DIMSE2
 70
     0
  9
$DIMTAD
 70
     1
  9
$DIMZIN
 70
     0
  9
$DIMBLK
  1

  9
$DIMASO
 70
     1
  9
$DIMSHO
 70
     1
  9
$DIMPOST
  1

  9
$DIMAPOST
  1

  9
$DIMALT
 70
     0
  9
$DIMALTD
 70
     3
  9
$DIMALTF
 40
0.0393700787401575
  9
$DIMLFAC
 40
1.0
  9
$DIMTOFL
 70
     1
  9
$DIMTVP
 40
0.0
  9
$DIMTIX
 70
     0
  9
$DIMSOXD
 70
     0
  9
$DIMSAH
 70
     0
  9
$DIMBLK1
  1

  9
$DIMBLK2
  1

  9
$DIMSTYLE
  2
ISO-25
  9
$DIMCLRD
 70
     0
  9
$DIMCLRE
 70
     0
  9
$DIMCLRT
 70
     0
  9
$DIMTFAC
 40
1.0
  9
$DIMGAP
 40
1.524
  9
$DIMJUST
 70
     0
  9
$DIMSD1
 70
     0
  9
$DIMSD2
 70
     0
  9
$DIMTOLJ
 70
     0
  9
$DIMTZIN
 70
     0
  9
$DIMALTZ
 70
     0
  9
$DIMALTTZ
 70
     0
  9
$DIMUPT
 70
     0
  9
$DIMDEC
 70
     2
  9
$DIMTDEC
 70
     2
  9
$DIMALTU
 70
     2
  9
$DIMALTTD
 70
     3
  9
$DIMTXSTY
  7
Standard
  9
$DIMAUNIT
 70
     0
  9
$DIMADEC
 70
     2
  9
$DIMALTRND
 40
0.0
  9
$DIMAZIN
 70
     0
  9
$DIMDSEP
 70
    44
  9
$DIMATFIT
 70
     3
  9
$DIMFRAC
 70
     0
  9
$DIMLDRBLK
  1

  9
$DIMLUNIT
 70
     2
  9
$DIMLWD
 70
    -2
  9
$DIMLWE
 70
    -2
  9
$DIMTMOVE
 70
     0
  9
$LUNITS
 70
     2
  9
$LUPREC
 70
     2
  9
$SKETCHINC
 40
1.0
  9
$FILLETRAD
 40
10.0
  9
$AUNITS
 70
     0
  9
$AUPREC
 70
     2
  9
$MENU
  1
.
  9
$ELEVATION
 40
0.0
  9
$PELEVATION
 40
0.0
  9
$THICKNESS
 40
0.0
  9
$LIMCHECK
 70
     0
  9
$CHAMFERA
 40
0.0
  9
$CHAMFERB
 40
0.0
  9
$CHAMFERC
 40
0.0
  9
$CHAMFERD
 40
0.0
  9
$SKPOLY
 70
     0
  9
$TDCREATE
 40
2458250.49193316
  9
$TDUCREATE
 40
2458250.11693316
  9
$TDUPDATE
 40
2458264.41443456
  9
$TDUUPDATE
 40
2458264.03943456
  9
$TDINDWG
 40
0.0008692477
  9
$TDUSRTIMER
 40
0.0007203472
  9
$USRTIMER
 70
     1
  9
$ANGBASE
 50
0.0
  9
$ANGDIR
 70
     0
  9
$PDMODE
 70
     0
  9
$PDSIZE
 40
-1.0
  9
$PLINEWID
 40
0.0
  9
$SPLFRAME
 70
     0
  9
$SPLINETYPE
 70
     6
  9
$SPLINESEGS
 70
     8
  9
$HANDSEED
  5
16F
  9
$SURFTAB1
 70
     6
  9
$SURFTAB2
 70
     6
  9
$SURFTYPE
 70
     6
  9
$SURFU
 70
     6
  9
$SURFV
 70
     6
  9
$UCSBASE
  2

  9
$UCSNAME
  2

  9
$UCSORG
 10
0.0
 20
0.0
 30
0.0
  9
$UCSXDIR
 10
1.0
 20
0.0
 30
0.0
  9
$UCSYDIR
 10
0.0
 20
1.0
 30
0.0
  9
$UCSORTHOREF
  2

  9
$UCSORTHOVIEW
 70
     0
  9
$UCSORGTOP
 10
0.0
 20
0.0
 30
0.0
  9
$UCSORGBOTTOM
 10
0.0
 20
0.0
 30
0.0
  9
$UCSORGLEFT
 10
0.0
 20
0.0
 30
0.0
  9
$UCSORGRIGHT
 10
0.0
 20
0.0
 30
0.0
  9
$UCSORGFRONT
 10
0.0
 20
0.0
 30
0.0
  9
$UCSORGBACK
 10
0.0
 20
0.0
 30
0.0
  9
$PUCSBASE
  2

  9
$PUCSNAME
  2

  9
$PUCSORG
 10
0.0
 20
0.0
 30
0.0
  9
$PUCSXDIR
 10
1.0
 20
0.0
 30
0.0
  9
$PUCSYDIR
 10
0.0
 20
1.0
 30
0.0
  9
$PUCSORTHOREF
  2

  9
$PUCSORTHOVIEW
 70
     0
  9
$PUCSORGTOP
 10
0.0
 20
0.0
 30
0.0
  9
$PUCSORGBOTTOM
 10
0.0
 20
0.0
 30
0.0
  9
$PUCSORGLEFT
 10
0.0
 20
0.0
 30
0.0
  9
$PUCSORGRIGHT
 10
0.0
 20
0.0
 30
0.0
  9
$PUCSORGFRONT
 10
0.0
 20
0.0
 30
0.0
  9
$PUCSORGBACK
 10
0.0
 20
0.0
 30
0.0
  9
$USERI1
 70
     0
  9
$USERI2
 70
     0
  9
$USERI3
 70
     0
  9
$USERI4
 70
     0
  9
$USERI5
 70
     0
  9
$USERR1
 40
0.0
  9
$USERR2
 40
0.0
  9
$USERR3
 40
0.0
  9
$USERR4
 40
0.0
  9
$USERR5
 40
0.0
  9
$WORLDVIEW
 70
     1
  9
$SHADEDGE
 70
     3
  9
$SHADEDIF
 70
    70
  9
$TILEMODE
 70
     1
  9
$MAXACTVP
 70
    64
  9
$PINSBASE
 10
0.0
 20
0.0
 30
0.0
  9
$PLIMCHECK
 70
     0
  9
$PEXTMIN
 10
1.000000000000000E+20
 20
1.000000000000000E+20
 30
1.000000000000000E+20
  9
$PEXTMAX
 10
-1.000000000000000E+20
 20
-1.000000000000000E+20
 30
-1.000000000000000E+20
  9
$PLIMMIN
 10
0.0
 20
0.0
  9
$PLIMMAX
 10
0.0
 20
0.0
  9
$UNITMODE
 70
     0
  9
$VISRETAIN
 70
     1
  9
$PLINEGEN
 70
     0
  9
$PSLTSCALE
 70
     1
  9
$TREEDEPTH
 70
  3020
  9
$CMLSTYLE
  2
Standard
  9
$CMLJUST
 70
     0
  9
$CMLSCALE
 40
20.0
  9
$PROXYGRAPHICS
 70
     1
  9
$MEASUREMENT
 70
     1
  9
$CELWEIGHT
370
    -1
  9
$ENDCAPS
280
     0
  9
$JOINSTYLE
280
     0
  9
$LWDISPLAY
290
     1
  9
$INSUNITS
 70
     4
  9
$HYPERLINKBASE
  1

  9
$STYLESHEET
  1

  9
$XEDIT
290
     1
  9
$CEPSNTYPE
380
     0
  9
$PSTYLEMODE
290
     1
  9
$FINGERPRINTGUID
  2
{21B91F8A-6AD0-4F05-9AEB-C677C1BCBAAD}
  9
$VERSIONGUID
  2
{FAEB1C32-E019-11D5-929B-00C0DF256EC4}
  9
$EXTNAMES
290
     1
  9
$PSVPSCALE
 40
0.0
  9
$OLESTARTUP
290
     0
  0
ENDSEC
  0
SECTION
  2
CLASSES
  0
CLASS
  1
ACDBDICTIONARYWDFLT
  2
AcDbDictionaryWithDefault
  3
ObjectDBX Classes
 90
        0
280
     0
281
     0
  0
CLASS
  1
VISUALSTYLE
  2
AcDbVisualStyle
  3
ObjectDBX Classes
 90
     4095
280
     0
281
     0
  0
CLASS
  1
MATERIAL
  2
AcDbMaterial
  3
ObjectDBX Classes
 90
     1153
280
     0
281
     0
  0
CLASS
  1
SCALE
  2
AcDbScale
  3
ObjectDBX Classes
 90
     1153
280
     0
281
     0
  0
CLASS
  1
SUN
  2
AcDbSun
  3
SCENEOE
 90
     1153
280
     0
281
     0
  0
CLASS
  1
ACDBPLACEHOLDER
  2
AcDbPlaceHolder
  3
ObjectDBX Classes
 90
        0
280
     0
281
     0
  0
CLASS
  1
LAYOUT
  2
AcDbLayout
  3
ObjectDBX Classes
 90
        0
280
     0
281
     0
  0
CLASS
  1
TABLESTYLE
  2
AcDbTableStyle
  3
ObjectDBX Classes
 90
     4095
280
     0
281
     0
  0
CLASS
  1
MLEADERSTYLE
  2
AcDbMLeaderStyle
  3
ACDB_MLEADERSTYLE_CLASS
 90
     4095
280
     0
281
     0
  0
CLASS
  1
DICTIONARYVAR
  2
AcDbDictionaryVar
  3
ObjectDBX Classes
 90
        0
280
     0
281
     0
  0
ENDSEC
  0
SECTION
  2
TABLES
  0
TABLE
  2
VPORT
  5
8
330
0
100
AcDbSymbolTable
 70
     1
  0
VPORT
  5
29
330
8
100
AcDbSymbolTableRecord
100
AcDbViewportTableRecord
  2
*Active
 70
     0
 10
0.0
 20
0.0
 11
1.0
 21
1.0
 12
2.91471313322878
 22
5.202777272909699
 13
0.0
 23
0.0
 14
10.0
 24
10.0
 15
10.0
 25
10.0
 16
0.0
 26
0.0
 36
1.0
 17
0.0
 27
0.0
 37
0.0
 40
104.1145363341878
 41
2.223011363636364
 42
50.0
 43
0.0
 44
0.0
 50
0.0
 51
0.0
 71
    16
 72
  2000
 73
     1
 74
     3
 75
     0
 76
     0
 77
     0
 78
     0
281
     0
 65
     1
110
0.0
120
0.0
130
0.0
111
1.0
121
0.0
131
0.0
112
0.0
122
1.0
132
0.0
 79
     0
146
0.0
  0
ENDTAB
  0
TABLE
  2
LTYPE
  5
5
330
0
100
AcDbSymbolTable
 70
     6
  0
LTYPE
  5
14
330
5
100
AcDbSymbolTableRecord
100
AcDbLinetypeTableRecord
  2
ByBlock
 70
     0
  3

 72
    65
 73
     0
 40
0.0
  0
LTYPE
  5
15
330
5
100
AcDbSymbolTableRecord
100
AcDbLinetypeTableRecord
  2
ByLayer
 70
     0
  3

 72
    65
 73
     0
 40
0.0
  0
LTYPE
  5
16
330
5
100
AcDbSymbolTableRecord
100
AcDbLinetypeTableRecord
  2
Continuous
 70
     0
  3
Solid line
 72
    65
 73
     0
 40
0.0
  0
LTYPE
  5
6A
330
5
100
AcDbSymbolTableRecord
100
AcDbLinetypeTableRecord
  2
HIDDEN
 70
     0
  3
Hidden __ __ __ __ __ __ __ __ __ __ __ __ __ __
 72
    65
 73
     2
 40
1.905
 49
1.27
 74
     0
 49
-0.635
 74
     0
  0
LTYPE
  5
6B
330
5
100
AcDbSymbolTableRecord
100
AcDbLinetypeTableRecord
  2
PHANTOM
 70
     0
  3
Phantom ______  __  __  ______  __  __  ______
 72
    65
 73
     6
 40
12.7
 49
6.35
 74
     0
 49
-1.27
 74
     0
 49
1.27
 74
     0
 49
-1.27
 74
     0
 49
1.27
 74
     0
 49
-1.27
 74
     0
  0
LTYPE
  5
6C
330
5
100
AcDbSymbolTableRecord
100
AcDbLinetypeTableRecord
  2
CENTER
 70
     0
  3
Center ____ _ ____ _ ____ _ ____ _ ____ _ ____
 72
    65
 73
     4
 40
10.16
 49
6.35
 74
     0
 49
-1.27
 74
     0
 49
1.27
 74
     0
 49
-1.27
 74
     0
  0
LTYPE
  5
6D
330
5
100
AcDbSymbolTableRecord
100
AcDbLinetypeTableRecord
  2
CENTERX2
 70
     0
  3
Center (2x) ________  __  ________  __  _____
 72
    65
 73
     4
 40
20.32
 49
12.7
 74
     0
 49
-2.54
 74
     0
 49
2.54
 74
     0
 49
-2.54
 74
     0
  0
LTYPE
  5
6E
330
5
100
AcDbSymbolTableRecord
100
AcDbLinetypeTableRecord
  2
DOT2
 70
     0
  3
Dot (.5x) ........................................
 72
    65
 73
     2
 40
0.635
 49
0.0
 74
     0
 49
-0.635
 74
     0
  0
ENDTAB
  0
TABLE
  2
LAYER
  5
2
330
0
100
AcDbSymbolTable
 70
    17
  0
LAYER
  5
10
330
2
100
AcDbSymbolTableRecord
100
AcDbLayerTableRecord
  2
0
 70
     0
 62
     7
  6
Continuous
370
    -3
390
F
  0
LAYER
  5
6F
330
2
100
AcDbSymbolTableRecord
100
AcDbLayerTableRecord
  2
FORMAT
 70
     0
 62
     2
  6
Continuous
370
    -3
390
F
  0
LAYER
  5
70
330
2
100
AcDbSymbolTableRecord
100
AcDbLayerTableRecord
  2
외형선
 70
     0
 62
   100
  6
Continuous
370
    30
390
F
  0
LAYER
  5
71
330
2
100
AcDbSymbolTableRecord
100
AcDbLayerTableRecord
  2
숨은선
 70
     0
 62
     2
  6
HIDDEN
370
    15
390
F
  0
LAYER
  5
72
330
2
100
AcDbSymbolTableRecord
100
AcDbLayerTableRecord
  2
중심선
 70
     0
 62
     1
  6
CENTERX2
370
    -3
390
F
  0
LAYER
  5
73
330
2
100
AcDbSymbolTableRecord
100
AcDbLayerTableRecord
  2
파단선
 70
     0
 62
     4
  6
Continuous
370
    -3
390
F
  0
LAYER
  5
74
330
2
100
AcDbSymbolTableRecord
100
AcDbLayerTableRecord
  2
해칭선
 70
     0
 62
     4
  6
Continuous
370
    -3
390
F
  0
LAYER
  5
75
330
2
100
AcDbSymbolTableRecord
100
AcDbLayerTableRecord
  2
가는실선
 70
     0
 62
     4
  6
Continuous
370
    -3
390
F
  0
LAYER
  5
76
330
2
100
AcDbSymbolTableRecord
100
AcDbLayerTableRecord
  2
치수_보조선
 70
     0
 62
     4
  6
Continuous
370
    -3
390
F
  0
LAYER
  5
77
330
2
100
AcDbSymbolTableRecord
100
AcDbLayerTableRecord
  2
치수문자_일반주서
 70
     0
 62
     7
  6
Continuous
370
    15
390
F
  0
LAYER
  5
78
330
2
100
AcDbSymbolTableRecord
100
AcDbLayerTableRecord
  2
개별주서
 70
     0
 62
   100
  6
Continuous
370
    30
390
F
  0
LAYER
  5
79
330
2
100
AcDbSymbolTableRecord
100
AcDbLayerTableRecord
  2
중간선
 70
     0
 62
     2
  6
Continuous
370
    15
390
F
  0
LAYER
  5
7A
330
2
100
AcDbSymbolTableRecord
100
AcDbLayerTableRecord
  2
윤곽선
 70
     0
 62
     3
  6
Continuous
370
    40
390
F
  0
LAYER
  5
7B
330
2
100
AcDbSymbolTableRecord
100
AcDbLayerTableRecord
  2
중심마크
 70
     0
 62
   100
  6
Continuous
370
    30
390
F
  0
LAYER
  5
7C
330
2
100
AcDbSymbolTableRecord
100
AcDbLayerTableRecord
  2
가상선
 70
     0
 62
     4
  6
PHANTOM
370
    -3
390
F
  0
LAYER
  5
7D
330
2
100
AcDbSymbolTableRecord
100
AcDbLayerTableRecord
  2
특수지정선
 70
     0
 62
     5
  6
CENTERX2
370
    60
390
F
  0
LAYER
  5
134
330
2
100
AcDbSymbolTableRecord
100
AcDbLayerTableRecord
  2
Defpoints
 70
     0
 62
     7
  6
Continuous
290
     0
370
    -3
390
F
  0
ENDTAB
  0
TABLE
  2
STYLE
  5
3
330
0
100
AcDbSymbolTable
 70
     2
  0
STYLE
  5
11
330
3
100
AcDbSymbolTableRecord
100
AcDbTextStyleTableRecord
  2
Standard
 70
     0
 40
0.0
 41
1.0
 50
0.0
 71
     0
 42
3.5
  3
txt
  4

  0
STYLE
  5
93
330
3
100
AcDbSymbolTableRecord
100
AcDbTextStyleTableRecord
  2
SLDTEXTSTYLE0
 70
     0
 40
0.0
 41
0.75
 50
0.0
 71
     0
 42
3.5
  3
TXT
  4

  0
ENDTAB
  0
TABLE
  2
VIEW
  5
6
330
0
100
AcDbSymbolTable
 70
     0
  0
ENDTAB
  0
TABLE
  2
UCS
  5
7
330
0
100
AcDbSymbolTable
 70
     0
  0
ENDTAB
  0
TABLE
  2
APPID
  5
9
330
0
100
AcDbSymbolTable
 70
     4
  0
APPID
  5
12
330
9
100
AcDbSymbolTableRecord
100
AcDbRegAppTableRecord
  2
ACAD
 70
     0
  0
APPID
  5
138
330
9
100
AcDbSymbolTableRecord
100
AcDbRegAppTableRecord
  2
PE_URL
 70
     0
  0
APPID
  5
148
330
9
100
AcDbSymbolTableRecord
100
AcDbRegAppTableRecord
  2
ACAD_DSTYLE_DIMFLIPARROW_SYMBOL
 70
     0
  0
APPID
  5
149
330
9
100
AcDbSymbolTableRecord
100
AcDbRegAppTableRecord
  2
ACAD_DSTYLE_DIMFLIPARROW_WHICH_SYMBOL
 70
     0
  0
ENDTAB
  0
TABLE
  2
DIMSTYLE
  5
A
330
0
100
AcDbSymbolTable
 70
     3
100
AcDbDimStyleTable
  0
DIMSTYLE
105
27
330
A
100
AcDbSymbolTableRecord
100
AcDbDimStyleTableRecord
  2
ISO-25
 70
     0
 41
2.5
 42
0.625
 43
3.75
 44
1.25
 73
     0
 74
     0
 77
     1
 78
     8
140
2.5
141
2.5
143
0.03937007874016
147
0.625
171
     3
172
     1
178
     0
271
     2
272
     2
274
     3
278
    44
283
     0
284
     8
340
11
  0
DIMSTYLE
105
DC
102
{ACAD_REACTORS
330
DB
330
F1
330
FE
102
}
330
A
100
AcDbSymbolTableRecord
100
AcDbDimStyleTableRecord
  2
SLDDIMSTYLE0
 70
     0
 41
3.302
 44
0.0
 45
0.000000001
 73
     0
 74
     0
 77
     1
 78
    12
 79
     3
140
3.5
147
0.875
172
     1
173
     1
178
     0
271
     2
272
     2
276
     2
284
    12
289
     0
340
93
  0
DIMSTYLE
105
E7
102
{ACAD_REACTORS
330
E6
102
}
330
A
100
AcDbSymbolTableRecord
100
AcDbDimStyleTableRecord
  2
SLDDIMSTYLE1
 70
     0
 41
3.302
 44
0.0
 45
0.000000001
 73
     0
 74
     0
 77
     1
 78
    12
 79
     3
140
3.5
147
0.875
173
     1
178
     0
271
     2
272
     2
276
     2
284
    12
340
93
  0
ENDTAB
  0
TABLE
  2
BLOCK_RECORD
  5
1
330
0
100
AcDbSymbolTable
 70
     7
  0
BLOCK_RECORD
  5
1F
330
1
100
AcDbSymbolTableRecord
100
AcDbBlockTableRecord
  2
*Model_Space
340
22
  0
BLOCK_RECORD
  5
1B
330
1
100
AcDbSymbolTableRecord
100
AcDbBlockTableRecord
  2
*Paper_Space
340
1E
  0
BLOCK_RECORD
  5
23
330
1
100
AcDbSymbolTableRecord
100
AcDbBlockTableRecord
  2
*Paper_Space0
340
26
  0
BLOCK_RECORD
  5
7E
330
1
100
AcDbSymbolTableRecord
100
AcDbBlockTableRecord
  2
블럭10
340
0
102
{BLKREFS
331
D4
102
}
  0
BLOCK_RECORD
  5
DD
330
1
100
AcDbSymbolTableRecord
100
AcDbBlockTableRecord
  2
_D
340
0
  0
BLOCK_RECORD
  5
E8
330
1
100
AcDbSymbolTableRecord
100
AcDbBlockTableRecord
  2
_D_1
340
0
  0
BLOCK_RECORD
  5
F2
330
1
100
AcDbSymbolTableRecord
100
AcDbBlockTableRecord
  2
_D_2
340
0
  0
BLOCK_RECORD
  5
FF
330
1
100
AcDbSymbolTableRecord
100
AcDbBlockTableRecord
  2
_D_3
340
0
  0
BLOCK_RECORD
  5
10B
330
1
100
AcDbSymbolTableRecord
100
AcDbBlockTableRecord
  2
SW_DOWELSYMBOL_0
340
0
102
{BLKREFS
331
111
102
}
  0
ENDTAB
  0
ENDSEC
  0
SECTION
  2
BLOCKS
  0
BLOCK
  5
20
330
1F
100
AcDbEntity
  8
0
100
AcDbBlockBegin
  2
*Model_Space
 70
     0
 10
0.0
 20
0.0
 30
0.0
  3
*Model_Space
  1

  0
ENDBLK
  5
21
330
1F
100
AcDbEntity
  8
0
100
AcDbBlockEnd
  0
BLOCK
  5
1C
330
1B
100
AcDbEntity
 67
     1
  8
0
100
AcDbBlockBegin
  2
*Paper_Space
 70
     0
 10
0.0
 20
0.0
 30
0.0
  3
*Paper_Space
  1

  0
ENDBLK
  5
1D
330
1B
100
AcDbEntity
 67
     1
  8
0
100
AcDbBlockEnd
  0
BLOCK
  5
24
330
23
100
AcDbEntity
  8
0
100
AcDbBlockBegin
  2
*Paper_Space0
 70
     0
 10
0.0
 20
0.0
 30
0.0
  3
*Paper_Space0
  1

  0
ENDBLK
  5
25
330
23
100
AcDbEntity
  8
0
100
AcDbBlockEnd
  0
BLOCK
  5
7F
330
7E
100
AcDbEntity
  8
0
100
AcDbBlockBegin
  2
블럭10
 70
     2
 10
0.0
 20
0.0
 30
0.0
  3
블럭10
  1

  0
ELLIPSE
  5
81
330
7E
100
AcDbEntity
  8
중심선
100
AcDbEllipse
 10
20.54032771741204
 20
12.0471743016438
 30
0.0
 11
6.600054785286829
 21
-1.261213355974178E-13
 31
0.0
210
0.0
220
0.0
230
1.0
 40
0.636358354079598
 41
0.9219305317359503
 42
6.513795318482858
  0
ELLIPSE
  5
82
330
7E
100
AcDbEntity
  8
중심선
100
AcDbEllipse
 10
20.54032771746488
 20
12.04717430159265
 30
0.0
 11
3.960054785062283
 21
1.540847449632565E-10
 31
0.0
210
0.0
220
0.0
230
1.0
 40
0.3939339440162632
 41
1.131841032648279
 42
5.62031148352944
  0
LINE
  5
83
330
7E
100
AcDbEntity
  8
중심선
100
AcDbLine
 10
2.268634060543552
 20
16.24717430164393
 30
0.0
 11
5.714909304380834
 21
16.24717430164393
 31
0.0
  0
LINE
  5
84
330
7E
100
AcDbEntity
  8
중심선
100
AcDbLine
 10
5.245725140726316
 20
7.84717430164391
 30
0.0
 11
8.692000384563599
 21
7.84717430164391
 31
0.0
  0
LINE
  5
85
330
7E
100
AcDbEntity
  8
중심선
100
AcDbLine
 10
15.74043728645272
 20
16.24717430164393
 30
0.0
 11
8.692000384563599
 21
7.84717430164391
 31
0.0
  0
LINE
  5
86
330
7E
100
AcDbEntity
  8
중심선
100
AcDbLine
 10
0.1404042013395286
 20
13.71084872107135
 30
0.0
 11
3.58671253028996
 21
13.71088815037384
 31
0.0
  0
LINE
  5
87
330
7E
100
AcDbEntity
  8
중심선
100
AcDbLine
 10
2.750260043222114
 20
10.84717430164391
 30
0.0
 11
6.196535287059397
 21
10.84717430164391
 31
0.0
  0
LINE
  5
88
330
7E
100
AcDbEntity
  8
중심선
100
AcDbLine
 10
12.29416204261559
 20
16.24717430164393
 30
0.0
 11
5.245725140726316
 21
7.84717430164391
 31
0.0
  0
LINE
  5
89
330
7E
100
AcDbEntity
  8
중심선
100
AcDbLine
 10
10.72767329541681
 20
16.24717430164393
 30
0.0
 11
6.196535287059397
 21
10.84717430164391
 31
0.0
  0
LINE
  5
8A
330
7E
100
AcDbEntity
  8
중심선
100
AcDbLine
 10
7.28139805157953
 20
16.24717430164393
 30
0.0
 11
2.750260043222114
 21
10.84717430164391
 31
0.0
  0
LINE
  5
8B
330
7E
100
AcDbEntity
  8
중심선
100
AcDbLine
 10
5.714909304380834
 20
16.24717430164393
 30
0.0
 11
3.58671253028996
 21
13.71088815037384
 31
0.0
  0
LINE
  5
8C
330
7E
100
AcDbEntity
  8
중심선
100
AcDbLine
 10
2.268634060543552
 20
16.24717430164393
 30
0.0
 11
0.1404042013395286
 21
13.71084872107135
 31
0.0
  0
LINE
  5
8D
330
7E
100
AcDbEntity
  8
중심선
100
AcDbLine
 10
7.28139805157953
 20
16.24717430164393
 30
0.0
 11
10.72767329541681
 21
16.24717430164393
 31
0.0
  0
LINE
  5
8E
330
7E
100
AcDbEntity
  8
중심선
100
AcDbLine
 10
12.29416204261559
 20
16.24717430164393
 30
0.0
 11
15.74043728645272
 21
16.24717430164393
 31
0.0
  0
LINE
  5
8F
330
7E
100
AcDbEntity
  8
중심선
100
AcDbLine
 10
19.22036997980202
 20
11.08717430171403
 30
0.0
 11
23.66174974927406
 21
11.08717430171406
 31
0.0
  0
LINE
  5
90
330
7E
100
AcDbEntity
  8
중심선
100
AcDbLine
 10
19.22039502424796
 20
13.00717430171391
 30
0.0
 11
19.22036997980202
 21
11.08717430171403
 31
0.0
  0
LINE
  5
91
330
7E
100
AcDbEntity
  8
중심선
100
AcDbLine
 10
19.22039502424796
 20
13.00717430171391
 30
0.0
 11
26.96566020931264
 21
13.00717430171391
 31
0.0
  0
LINE
  5
92
330
7E
100
AcDbEntity
  8
중심선
100
AcDbLine
 10
22.22332737316547
 20
13.45928029700563
 30
0.0
 11
24.52862924686651
 21
15.39360700705356
 31
0.0
  0
ATTDEF
  5
94
330
7E
100
AcDbEntity
  8
FORMAT
 62
     2
100
AcDbText
 10
-12.95993919485777
 20
2.075366912832191
 30
0.0
 40
4.233333333333333
  1
SEME35065E [ 2 FLUTE ]
 41
0.75
  7
SLDTEXTSTYLE0
 11
-12.95993919485777
 21
-0.0412997538344756
 31
0.0
100
AcDbAttributeDefinition
  3

  2
AUTOATTR0
 70
     0
 74
     1
  0
ENDBLK
  5
80
330
7E
100
AcDbEntity
  8
0
100
AcDbBlockEnd
  0
BLOCK
  5
DE
330
DD
100
AcDbEntity
  8
0
100
AcDbBlockBegin
  2
_D
 70
     0
 10
0.0
 20
0.0
 30
0.0
  3
_D
  1

  0
LINE
  5
E0
330
DD
100
AcDbEntity
  8
치수문자_일반주서
 62
     0
370
    -2
100
AcDbLine
 10
23.79903810567665
 20
3.309753149496349
 30
0.0
 11
23.79903810567665
 21
15.49788703807413
 31
0.0
  0
LINE
  5
E1
330
DD
100
AcDbEntity
  8
치수문자_일반주서
 62
     0
370
    -2
100
AcDbLine
 10
5.79903810567121
 20
3.297127562804779
 30
0.0
 11
5.79903810567121
 21
15.49788703807413
 31
0.0
  0
LINE
  5
E2
330
DD
100
AcDbEntity
  8
치수문자_일반주서
 62
     0
370
    -2
100
AcDbLine
 10
20.49703810567665
 20
15.49788703807413
 30
0.0
 11
9.10103810567121
 21
15.49788703807413
 31
0.0
  0
SOLID
  5
E3
330
DD
100
AcDbEntity
  8
치수문자_일반주서
 62
     0
100
AcDbTrace
 10
20.49703810567665
 20
14.9475537047408
 30
0.0
 11
20.49703810567665
 21
16.04822037140747
 31
0.0
 12
23.79903810567665
 22
15.49788703807413
 32
0.0
 13
23.79903810567665
 23
15.49788703807413
 33
0.0
  0
SOLID
  5
E4
330
DD
100
AcDbEntity
  8
치수문자_일반주서
 62
     0
100
AcDbTrace
 10
9.10103810567121
 20
16.04822037140747
 30
0.0
 11
9.10103810567121
 21
14.9475537047408
 31
0.0
 12
5.79903810567121
 22
15.49788703807413
 32
0.0
 13
5.79903810567121
 23
15.49788703807413
 33
0.0
  0
MTEXT
  5
E5
330
DD
100
AcDbEntity
  8
치수문자_일반주서
 62
     0
100
AcDbMText
 10
14.79903810567664
 20
19.87288703807413
 30
0.0
 40
3.5
 41
0.0
 71
     2
 72
     1
  1
\A1;18
  7
SLDTEXTSTYLE0
 73
     1
 44
1.0
  0
POINT
  5
135
330
DD
100
AcDbEntity
  8
Defpoints
 62
     0
100
AcDbPoint
 10
23.79903810567665
 20
3.247253149496349
 30
0.0
  0
POINT
  5
136
330
DD
100
AcDbEntity
  8
Defpoints
 62
     0
100
AcDbPoint
 10
5.79903810567121
 20
3.234627562804779
 30
0.0
  0
POINT
  5
137
330
DD
100
AcDbEntity
  8
Defpoints
 62
     0
100
AcDbPoint
 10
5.79903810567121
 20
15.49788703807413
 30
0.0
  0
ENDBLK
  5
DF
330
DD
100
AcDbEntity
  8
0
100
AcDbBlockEnd
  0
BLOCK
  5
E9
330
E8
100
AcDbEntity
  8
0
100
AcDbBlockBegin
  2
_D_1
 70
     0
 10
0.0
 20
0.0
 30
0.0
  3
_D_1
  1

  0
LINE
  5
EB
330
E8
100
AcDbEntity
  8
치수문자_일반주서
 62
     0
370
    -2
100
AcDbLine
 10
23.79903810567665
 20
2.337500000000007
 30
0.0
 11
23.79903810567665
 21
25.05915911661226
 31
0.0
  0
LINE
  5
EC
330
E8
100
AcDbEntity
  8
치수문자_일반주서
 62
     0
370
    -2
100
AcDbLine
 10
-36.20096189432335
 20
3.2525
 30
0.0
 11
-36.20096189432335
 21
25.05915911661226
 31
0.0
  0
LINE
  5
ED
330
E8
100
AcDbEntity
  8
치수문자_일반주서
 62
     0
370
    -2
100
AcDbLine
 10
20.49703810567665
 20
25.05915911661226
 30
0.0
 11
-32.89896189432335
 21
25.05915911661226
 31
0.0
  0
SOLID
  5
EE
330
E8
100
AcDbEntity
  8
치수문자_일반주서
 62
     0
100
AcDbTrace
 10
20.49703810567665
 20
24.50882578327893
 30
0.0
 11
20.49703810567665
 21
25.6094924499456
 31
0.0
 12
23.79903810567665
 22
25.05915911661226
 32
0.0
 13
23.79903810567665
 23
25.05915911661226
 33
0.0
  0
SOLID
  5
EF
330
E8
100
AcDbEntity
  8
치수문자_일반주서
 62
     0
100
AcDbTrace
 10
-32.89896189432335
 20
25.6094924499456
 30
0.0
 11
-32.89896189432335
 21
24.50882578327893
 31
0.0
 12
-36.20096189432335
 22
25.05915911661226
 32
0.0
 13
-36.20096189432335
 23
25.05915911661226
 33
0.0
  0
MTEXT
  5
F0
330
E8
100
AcDbEntity
  8
치수문자_일반주서
 62
     0
100
AcDbMText
 10
-6.200961894323346
 20
29.43415911661226
 30
0.0
 40
3.5
 41
0.0
 71
     2
 72
     1
  1
\A1;60
  7
SLDTEXTSTYLE0
 73
     1
 44
1.0
  0
POINT
  5
13D
330
E8
100
AcDbEntity
  8
Defpoints
 62
     0
100
AcDbPoint
 10
23.79903810567665
 20
2.275000000000007
 30
0.0
  0
POINT
  5
13E
330
E8
100
AcDbEntity
  8
Defpoints
 62
     0
100
AcDbPoint
 10
-36.20096189432335
 20
3.19
 30
0.0
  0
POINT
  5
13F
330
E8
100
AcDbEntity
  8
Defpoints
 62
     0
100
AcDbPoint
 10
-36.20096189432335
 20
25.05915911661226
 30
0.0
  0
ENDBLK
  5
EA
330
E8
100
AcDbEntity
  8
0
100
AcDbBlockEnd
  0
BLOCK
  5
F3
330
F2
100
AcDbEntity
  8
0
100
AcDbBlockBegin
  2
_D_2
 70
     0
 10
0.0
 20
0.0
 30
0.0
  3
_D_2
  1

  0
LINE
  5
F5
330
F2
100
AcDbEntity
  8
치수문자_일반주서
 62
     0
370
    -2
100
AcDbLine
 10
23.86153810567665
 20
3.252253149496347
 30
0.0
 11
39.91556175125624
 21
3.252253149496408
 31
0.0
  0
LINE
  5
F6
330
F2
100
AcDbEntity
  8
치수문자_일반주서
 62
     0
370
    -2
100
AcDbLine
 10
23.86153810567665
 20
-3.247253149496339
 30
0.0
 11
39.91556175125626
 21
-3.247253149496277
 31
0.0
  0
LINE
  5
F7
330
F2
100
AcDbEntity
  8
치수문자_일반주서
 62
     0
370
    -2
100
AcDbLine
 10
39.91556175125624
 20
3.252253149496408
 30
0.0
 11
39.91556175125619
 21
19.48125314949641
 31
0.0
  0
LINE
  5
F8
330
F2
100
AcDbEntity
  8
치수문자_일반주서
 62
     0
370
    -2
100
AcDbLine
 10
39.91556175125626
 20
-0.0497468505035923
 30
0.0
 11
39.91556175125625
 21
0.0547468505037227
 31
0.0
  0
LINE
  5
F9
330
F2
100
AcDbEntity
  8
치수문자_일반주서
 62
     0
370
    -2
100
AcDbLine
 10
39.91556175125626
 20
-0.0497468505035923
 30
0.0
 11
39.91556175125627
 21
-3.351746850503592
 31
0.0
  0
SOLID
  5
FA
330
F2
100
AcDbEntity
  8
치수문자_일반주서
 62
     0
100
AcDbTrace
 10
40.46589508458959
 20
-0.0497468505035905
 30
0.0
 11
39.36522841792292
 21
-0.0497468505035941
 31
0.0
 12
39.91556175125624
 22
3.252253149496408
 32
0.0
 13
39.91556175125624
 23
3.252253149496408
 33
0.0
  0
SOLID
  5
FB
330
F2
100
AcDbEntity
  8
치수문자_일반주서
 62
     0
100
AcDbTrace
 10
39.36522841792291
 20
0.0547468505037209
 30
0.0
 11
40.46589508458958
 21
0.0547468505037245
 31
0.0
 12
39.91556175125626
 22
-3.247253149496277
 32
0.0
 13
39.91556175125626
 23
-3.247253149496277
 33
0.0
  0
MTEXT
  5
FC
330
F2
100
AcDbEntity
  8
치수문자_일반주서
 62
     0
100
AcDbMText
 10
35.54056175125621
 20
14.66875314949639
 30
0.0
 40
3.5
 41
0.0
 71
     2
 72
     1
  1
\A1;%%c6.5
  7
SLDTEXTSTYLE0
 11
-3.279677115799806E-15
 21
1.0
 31
0.0
 73
     1
 44
1.0
  0
POINT
  5
FD
330
F2
100
AcDbEntity
  8
Defpoints
 62
     0
100
AcDbPoint
 10
23.79903810567665
 20
3.252253149496346
 30
0.0
  0
POINT
  5
13B
330
F2
100
AcDbEntity
  8
Defpoints
 62
     0
100
AcDbPoint
 10
23.79903810567665
 20
-3.247253149496339
 30
0.0
  0
POINT
  5
13C
330
F2
100
AcDbEntity
  8
Defpoints
 62
     0
100
AcDbPoint
 10
39.91556175125626
 20
-3.247253149496279
 30
0.0
  0
ENDBLK
  5
F4
330
F2
100
AcDbEntity
  8
0
100
AcDbBlockEnd
  0
BLOCK
  5
100
330
FF
100
AcDbEntity
  8
0
100
AcDbBlockBegin
  2
_D_3
 70
     0
 10
0.0
 20
0.0
 30
0.0
  3
_D_3
  1

  0
LINE
  5
102
330
FF
100
AcDbEntity
  8
치수문자_일반주서
 62
     0
370
    -2
100
AcDbLine
 10
-35.45346189432335
 20
4.0
 30
0.0
 11
-47.8105213397119
 21
3.999999999999954
 31
0.0
  0
LINE
  5
103
330
FF
100
AcDbEntity
  8
치수문자_일반주서
 62
     0
370
    -2
100
AcDbLine
 10
-35.45346189432335
 20
-3.999999999999999
 30
0.0
 11
-47.81052133971188
 21
-4.000000000000044
 31
0.0
  0
LINE
  5
104
330
FF
100
AcDbEntity
  8
치수문자_일반주서
 62
     0
370
    -2
100
AcDbLine
 10
-47.81052133971189
 20
0.6979999999999538
 30
0.0
 11
-47.81052133971189
 21
-0.6980000000000444
 31
0.0
  0
SOLID
  5
105
330
FF
100
AcDbEntity
  8
치수문자_일반주서
 62
     0
100
AcDbTrace
 10
-47.26018800637856
 20
0.6979999999999558
 30
0.0
 11
-48.36085467304522
 21
0.6979999999999518
 31
0.0
 12
-47.8105213397119
 22
3.999999999999954
 32
0.0
 13
-47.8105213397119
 23
3.999999999999954
 33
0.0
  0
SOLID
  5
106
330
FF
100
AcDbEntity
  8
치수문자_일반주서
 62
     0
100
AcDbTrace
 10
-48.36085467304522
 20
-0.6980000000000464
 30
0.0
 11
-47.26018800637856
 21
-0.6980000000000424
 31
0.0
 12
-47.81052133971188
 22
-4.000000000000044
 32
0.0
 13
-47.81052133971188
 23
-4.000000000000044
 33
0.0
  0
MTEXT
  5
107
330
FF
100
AcDbEntity
  8
치수문자_일반주서
 62
     0
100
AcDbMText
 10
-52.18552133971189
 20
-0.0000000000000131
 30
0.0
 40
3.5
 41
0.0
 71
     2
 72
     1
  1
\A1;%%c8
  7
SLDTEXTSTYLE0
 11
-3.552713678800502E-15
 21
1.0
 31
0.0
 73
     1
 44
1.0
  0
POINT
  5
108
330
FF
100
AcDbEntity
  8
Defpoints
 62
     0
100
AcDbPoint
 10
-35.39096189432335
 20
4.0
 30
0.0
  0
POINT
  5
109
330
FF
100
AcDbEntity
  8
Defpoints
 62
     0
100
AcDbPoint
 10
-35.39096189432335
 20
-3.999999999999998
 30
0.0
  0
POINT
  5
10A
330
FF
100
AcDbEntity
  8
Defpoints
 62
     0
100
AcDbPoint
 10
-47.81052133971188
 20
-4.000000000000044
 30
0.0
  0
ENDBLK
  5
101
330
FF
100
AcDbEntity
  8
0
100
AcDbBlockEnd
  0
BLOCK
  5
10C
330
10B
100
AcDbEntity
  8
0
100
AcDbBlockBegin
  2
SW_DOWELSYMBOL_0
 70
     0
 10
0.0
 20
0.0
 30
0.0
  3
SW_DOWELSYMBOL_0
  1

  0
CIRCLE
  5
10E
330
10B
100
AcDbEntity
  8
외형선
 62
     0
100
AcDbCircle
 10
0.0
 20
0.0
 30
0.0
 40
3.000000000000004
  0
HATCH
  5
10F
330
10B
100
AcDbEntity
  8
0
  6
Continuous
 62
     0
370
    30
100
AcDbHatch
 10
0.0
 20
0.0
 30
0.0
210
0.0
220
0.0
230
1.0
  2
SOLID
 70
     1
 71
     0
 91
        1
 92
        0
 93
        3
 72
     2
 10
0.0000000000000087
 20
-0.0000000000000035
 40
3.000000000000004
 50
0.0
 51
90.0
 73
     1
 72
     1
 10
0.0000000000000087
 20
3.000000000000001
 11
0.0000000000000087
 21
-0.0000000000000036
 72
     1
 10
0.0000000000000087
 20
-0.0000000000000035
 11
3.000000000000013
 21
-0.0000000000000035
 97
        0
 75
     0
 76
     1
 98
        1
 10
0.0
 20
0.0
  0
HATCH
  5
110
330
10B
100
AcDbEntity
  8
0
  6
Continuous
 62
     0
370
    30
100
AcDbHatch
 10
0.0
 20
0.0
 30
0.0
210
0.0
220
0.0
230
1.0
  2
SOLID
 70
     1
 71
     0
 91
        1
 92
        0
 93
        3
 72
     2
 10
0.0000000000000087
 20
-0.0000000000000035
 40
3.000000000000004
 50
180.0
 51
270.0000000000007
 73
     1
 72
     1
 10
0.0000000000000087
 20
-3.000000000000008
 11
0.0000000000000087
 21
-0.0000000000000036
 72
     1
 10
0.0000000000000087
 20
-0.0000000000000035
 11
-2.999999999999996
 21
-0.0000000000000035
 97
        0
 75
     0
 76
     1
 98
        1
 10
0.0
 20
0.0
  0
ENDBLK
  5
10D
330
10B
100
AcDbEntity
  8
0
100
AcDbBlockEnd
  0
ENDSEC
  0
SECTION
  2
ENTITIES
  0
LINE
  5
95
330
1F
100
AcDbEntity
  8
0
  6
Continuous
 62
     4
370
    15
100
AcDbLine
 10
1.99999999999999
 20
4.000000000000004
 30
0.0
 11
-35.39096189432335
 21
4.0
 31
0.0
  0
LINE
  5
96
330
1F
100
AcDbEntity
  8
0
  6
Continuous
 62
     4
370
    15
100
AcDbLine
 10
-35.39096189432335
 20
-3.999999999999998
 30
0.0
 11
1.999999999999993
 21
-3.999999999999995
 31
0.0
  0
LINE
  5
97
330
1F
100
AcDbEntity
  8
0
  6
Continuous
 62
     4
370
    15
100
AcDbLine
 10
1.99999999999999
 20
-3.999999999999996
 30
0.0
 11
4.279149606805298
 21
-3.389303703426802
 31
0.0
1001
PE_URL
1000

  0
LINE
  5
98
330
1F
100
AcDbEntity
  8
0
  6
Continuous
 62
     4
370
    15
100
AcDbLine
 10
4.279149606805298
 20
3.38930370342681
 30
0.0
 11
1.99999999999999
 21
4.000000000000004
 31
0.0
1001
PE_URL
1000

  0
LINE
  5
99
330
1F
100
AcDbEntity
  8
0
  6
Continuous
 62
     4
370
    15
100
AcDbLine
 10
-35.39096189432335
 20
4.0
 30
0.0
 11
-36.20096189432335
 21
3.19
 31
0.0
  0
LINE
  5
9A
330
1F
100
AcDbEntity
  8
0
  6
Continuous
 62
     4
370
    15
100
AcDbLine
 10
-36.20096189432335
 20
-3.189999999999998
 30
0.0
 11
-35.39096189432335
 21
-3.999999999999996
 31
0.0
  0
SPLINE
  5
9B
330
1F
100
AcDbEntity
  8
0
  6
Continuous
 62
     4
370
    15
100
AcDbSpline
210
0.0
220
0.0
230
1.0
 70
     8
 71
     3
 72
     9
 73
     5
 74
     0
 42
0.000000001
 43
0.00000001
 40
0.0
 40
0.0
 40
0.0
 40
0.0
 40
0.4990323868839262
 40
1.0
 40
1.0
 40
1.0
 40
1.0
 10
4.920871314560065
 20
2.224115415960153
 30
0.0
 10
4.813983160846725
 20
2.215186013158573
 30
0.0
 10
4.599792345735962
 20
2.197292579713626
 30
0.0
 10
4.386187069911887
 20
2.183957701437414
 30
0.0
 10
4.279177744733296
 20
2.177277359296188
 30
0.0
1001
PE_URL
1000

  0
LINE
  5
9D
330
1F
100
AcDbEntity
  8
0
  6
Continuous
 62
     1
370
    15
100
AcDbLine
 10
14.49931107887929
 20
1.272738123431922
 30
0.0
 11
14.47816858730107
 21
1.28375953913272
 31
0.0
  0
SPLINE
  5
9E
330
1F
100
AcDbEntity
  8
0
  6
Continuous
 62
     1
370
    15
100
AcDbSpline
210
0.0
220
0.0
230
1.0
 70
     8
 71
     3
 72
    11
 73
     7
 74
     0
 42
0.000000001
 43
0.00000001
 40
0.0
 40
0.0
 40
0.0
 40
0.0
 40
0.3195814178882976
 40
0.5109337794283537
 40
0.7028256529187806
 40
1.0
 40
1.0
 40
1.0
 40
1.0
 10
15.37827702851424
 20
0.8328081539553057
 30
0.0
 10
15.28456644026458
 20
0.8771748563937242
 30
0.0
 10
15.13474576125504
 20
0.948106536675453
 30
0.0
 10
14.92915612580001
 20
1.050624500252374
 30
0.0
 10
14.72991098899558
 20
1.151713469422391
 30
0.0
 10
14.58647063353108
 20
1.226994588926474
 30
0.0
 10
14.49931107887929
 20
1.272738123431922
 30
0.0
  0
LINE
  5
9F
330
1F
100
AcDbEntity
  8
0
  6
Continuous
 62
     1
370
    15
100
AcDbLine
 10
7.920849680833541
 20
3.250000000000005
 30
0.0
 11
6.346442250572455
 21
3.250000000000005
 31
0.0
  0
SPLINE
  5
A0
330
1F
100
AcDbEntity
  8
0
  6
Continuous
 62
     1
370
    15
100
AcDbSpline
210
0.0
220
0.0
230
1.0
 70
     8
 71
     3
 72
    18
 73
    14
 74
     0
 42
0.000000001
 43
0.00000001
 40
0.0
 40
0.0
 40
0.0
 40
0.0
 40
0.1323177226313664
 40
0.2280715279909344
 40
0.2932023254132859
 40
0.3614424132685953
 40
0.438671556251408
 40
0.5199328423553974
 40
0.5926977827544478
 40
0.7028788205845506
 40
0.7907696696117411
 40
0.9057548853696744
 40
1.0
 40
1.0
 40
1.0
 40
1.0
 10
14.3049711577608
 20
2.582577480556556
 30
0.0
 10
14.18888580015027
 20
2.576746201249927
 30
0.0
 10
13.98879344395571
 20
2.56669502476989
 30
0.0
 10
13.73053714868569
 20
2.556885950852954
 30
0.0
 10
13.52599563582373
 20
2.550448886167425
 30
0.0
 10
13.33879875961127
 20
2.545619903223856
 30
0.0
 10
13.13787823936348
 20
2.541723132746982
 30
0.0
 10
12.93346681106266
 20
2.53916558076106
 30
0.0
 10
12.69985349458754
 20
2.537799741892116
 30
0.0
 10
12.46032157703663
 20
2.538272555624103
 30
0.0
 10
12.18404550609592
 20
2.54125769259567
 30
0.0
 10
11.92130894634409
 20
2.546126323731086
 30
0.0
 10
11.73611367460826
 20
2.551987627112404
 30
0.0
 10
11.65269484340272
 20
2.554627775928449
 30
0.0
  0
SPLINE
  5
A1
330
1F
100
AcDbEntity
  8
0
  6
Continuous
 62
     1
370
    15
100
AcDbSpline
210
0.0
220
0.0
230
1.0
 70
     8
 71
     3
 72
    27
 73
    23
 74
     0
 42
0.000000001
 43
0.00000001
 40
0.0
 40
0.0
 40
0.0
 40
0.0
 40
0.0803718457843546
 40
0.1378413548773139
 40
0.1817260323807379
 40
0.224390810258602
 40
0.2637010110929194
 40
0.296897680790037
 40
0.3438559211347699
 40
0.4073133987338696
 40
0.457602758665775
 40
0.4946859632973583
 40
0.538975044944117
 40
0.5966579479883187
 40
0.6615731989421997
 40
0.7038052284666032
 40
0.7289119305818376
 40
0.7551583978195386
 40
0.7858290178408748
 40
0.8357413904883297
 40
0.9070102402391806
 40
1.0
 40
1.0
 40
1.0
 40
1.0
 10
9.415786744524567
 20
-2.704452996731074
 30
0.0
 10
9.545362455217239
 20
-2.691871851580554
 30
0.0
 10
9.767590666436769
 20
-2.670294617954382
 30
0.0
 10
10.06447865159978
 20
-2.645240334937502
 30
0.0
 10
10.3019378140792
 20
-2.626806045263307
 30
0.0
 10
10.50769594304633
 20
-2.612052298790879
 30
0.0
 10
10.69524872348464
 20
-2.599739601186637
 30
0.0
 10
10.89012143411859
 20
-2.588072882290247
 30
0.0
 10
11.12440085532597
 20
-2.575503006938197
 30
0.0
 10
11.38651692645669
 20
-2.563679611346081
 30
0.0
 10
11.63244118903551
 20
-2.554744531518764
 30
0.0
 10
11.84721049919417
 20
-2.548404294651701
 30
0.0
 10
12.07358041250883
 20
-2.543148869658824
 30
0.0
 10
12.34799718169117
 20
-2.539071807337573
 30
0.0
 10
12.62258793725021
 20
-2.537405292403299
 30
0.0
 10
12.8331769002046
 20
-2.538435577395314
 30
0.0
 10
12.98143932558976
 20
-2.539792957449957
 30
0.0
 10
13.11414222277335
 20
-2.541490719369452
 30
0.0
 10
13.28845636276808
 20
-2.544511340539735
 30
0.0
 10
13.53566567703916
 20
-2.550460563368969
 30
0.0
 10
13.88479070928163
 20
-2.561901757388358
 30
0.0
 10
14.15308495117077
 20
-2.575103650748692
 30
0.0
 10
14.3049711577608
 20
-2.582577480556548
 30
0.0
  0
SPLINE
  5
A2
330
1F
100
AcDbEntity
  8
0
  6
Continuous
 62
     1
370
    15
100
AcDbSpline
210
0.0
220
0.0
230
1.0
 70
     8
 71
     3
 72
    28
 73
    24
 74
     0
 42
0.000000001
 43
0.00000001
 40
0.0
 40
0.0
 40
0.0
 40
0.0
 40
0.0696827081237161
 40
0.1282466952679127
 40
0.1727168526279977
 40
0.2085601590284255
 40
0.2602789158244097
 40
0.3099317732105367
 40
0.3425434373881658
 40
0.3777972524867198
 40
0.42264506183512
 40
0.4673021263804587
 40
0.5205609434614343
 40
0.5639221357673422
 40
0.594106300291194
 40
0.6315114116322723
 40
0.6765070835196076
 40
0.7318659142608229
 40
0.7800435905000956
 40
0.8090672118283673
 40
0.8550325146941719
 40
0.9187014726461425
 40
0.9999999999999999
 40
0.9999999999999999
 40
0.9999999999999999
 40
0.9999999999999999
 10
22.59740004605339
 20
2.223431557949477
 30
0.0
 10
22.47301694328477
 20
2.212896782327639
 30
0.0
 10
22.24409756993142
 20
2.193508182267908
 30
0.0
 10
21.90344344523048
 20
2.173283078598718
 30
0.0
 10
21.63142373330593
 20
2.159792264447284
 30
0.0
 10
21.38729203741738
 20
2.150443487011489
 30
0.0
 10
21.12624184538677
 20
2.143125100623481
 30
0.0
 10
20.87231868049369
 20
2.139367385371473
 30
0.0
 10
20.64965603854052
 20
2.138436630007708
 30
0.0
 10
20.43586766123723
 20
2.139424204519766
 30
0.0
 10
20.19911600099488
 20
2.142949578154166
 30
0.0
 10
19.92820938062784
 20
2.150081035578945
 30
0.0
 10
19.66017500149168
 20
2.160486778576741
 30
0.0
 10
19.41972797633506
 20
2.172827304610415
 30
0.0
 10
19.20924142854831
 20
2.185622007692398
 30
0.0
 10
18.99572915801826
 20
2.200344987541061
 30
0.0
 10
18.73457623032936
 20
2.220953994015114
 30
0.0
 10
18.45200303803536
 20
2.246667853660462
 30
0.0
 10
18.20224289423321
 20
2.272508873588017
 30
0.0
 10
17.97089988923088
 20
2.298536378562258
 30
0.0
 10
17.70796837668222
 20
2.330614624525043
 30
0.0
 10
17.34496462133249
 20
2.378692253643355
 30
0.0
 10
17.06833159009617
 20
2.420818750290826
 30
0.0
 10
16.91319433287258
 20
2.444443510924506
 30
0.0
  0
SPLINE
  5
A3
330
1F
100
AcDbEntity
  8
0
  6
Continuous
 62
     1
370
    15
100
AcDbSpline
210
0.0
220
0.0
230
1.0
 70
     8
 71
     3
 72
    17
 73
    13
 74
     0
 42
0.000000001
 43
0.00000001
 40
0.0
 40
0.0
 40
0.0
 40
0.0
 40
0.1504083616818273
 40
0.2673022737976604
 40
0.3514350983895227
 40
0.4350451704381302
 40
0.5341576557888577
 40
0.6419865936067991
 40
0.726126588064542
 40
0.818961052420503
 40
0.9503195144354736
 40
1.0
 40
1.0
 40
1.0
 40
1.0
 10
16.91319433287258
 20
-2.444443510924497
 30
0.0
 10
17.03324663173829
 20
-2.426028012184325
 30
0.0
 10
17.24660081033989
 20
-2.393300412260198
 30
0.0
 10
17.52815823157054
 20
-2.35437367317034
 30
0.0
 10
17.75962724018458
 20
-2.324381233705548
 30
0.0
 10
17.97654527925177
 20
-2.297894616391929
 30
0.0
 10
18.21127888628374
 20
-2.2714292752533
 30
0.0
 10
18.44562655825019
 20
-2.247526824422867
 30
0.0
 10
18.67495586486973
 20
-2.226339957005084
 30
0.0
 10
18.92340598949015
 20
-2.205788778090615
 30
0.0
 10
19.14413686296888
 20
-2.189417435476328
 30
0.0
 10
19.2898746696587
 20
-2.18108050252621
 30
0.0
 10
19.32986785951239
 20
-2.178792691629059
 30
0.0
  0
LINE
  5
A4
330
1F
100
AcDbEntity
  8
0
  6
Continuous
 62
     1
370
    15
100
AcDbLine
 10
6.346442250572441
 20
-3.249999999999998
 30
0.0
 11
7.920849680833548
 21
-3.249999999999998
 31
0.0
  0
LINE
  5
A5
330
1F
100
AcDbEntity
  8
0
  6
Continuous
 62
     4
370
    15
100
AcDbLine
 10
1.99999999999999
 20
4.000000000000004
 30
0.0
 11
1.999999999999993
 21
-3.999999999999995
 31
0.0
  0
LINE
  5
A6
330
1F
100
AcDbEntity
  8
0
  6
Continuous
 62
     4
370
    15
100
AcDbLine
 10
-35.39096189432335
 20
4.0
 30
0.0
 11
-35.39096189432335
 21
-3.999999999999998
 31
0.0
  0
SPLINE
  5
A7
330
1F
100
AcDbEntity
  8
0
  6
Continuous
 62
     4
370
    15
100
AcDbSpline
210
0.0
220
0.0
230
1.0
 70
     8
 71
     3
 72
     8
 73
     4
 74
     0
 42
0.000000001
 43
0.00000001
 40
0.0
 40
0.0
 40
0.0
 40
0.0
 40
1.0
 40
1.0
 40
1.0
 40
1.0
 10
4.279149606805298
 20
3.181012940883606
 30
0.0
 10
4.452770744963948
 20
3.166799203390081
 30
0.0
 10
4.625863120407402
 20
3.149410117358973
 30
0.0
 10
4.799038105677742
 20
3.128155451395187
 30
0.0
1001
PE_URL
1000

  0
LINE
  5
A8
330
1F
100
AcDbEntity
  8
0
  6
Continuous
 62
     4
370
    15
100
AcDbLine
 10
4.279149606805298
 20
-2.7418959681208
 30
0.0
 11
4.279149606805298
 21
3.38930370342681
 31
0.0
1001
PE_URL
1000

  0
SPLINE
  5
A9
330
1F
100
AcDbEntity
  8
0
  6
Continuous
 62
     4
370
    15
100
AcDbSpline
210
0.0
220
0.0
230
1.0
 70
     8
 71
     3
 72
     8
 73
     4
 74
     0
 42
0.000000001
 43
0.00000001
 40
0.0
 40
0.0
 40
0.0
 40
0.0
 40
1.0
 40
1.0
 40
1.0
 40
1.0
 10
4.799038105676646
 20
-2.763018846336354
 30
0.0
 10
4.625244064965063
 20
-2.760191746059176
 30
0.0
 10
4.452179508227267
 20
-2.752952144107482
 30
0.0
 10
4.279266399555773
 20
-2.741907849553864
 30
0.0
1001
PE_URL
1000

  0
LINE
  5
AA
330
1F
100
AcDbEntity
  8
0
  6
Continuous
 62
     4
370
    15
100
AcDbLine
 10
4.799038105676646
 20
-2.763018846336355
 30
0.0
 11
4.799038105676646
 21
-3.128155451399738
 31
0.0
1001
PE_URL
1000

  0
SPLINE
  5
AB
330
1F
100
AcDbEntity
  8
0
  6
Continuous
 62
     4
370
    15
100
AcDbSpline
210
0.0
220
0.0
230
1.0
 70
     8
 71
     3
 72
     8
 73
     4
 74
     0
 42
0.000000001
 43
0.00000001
 40
0.0
 40
0.0
 40
0.0
 40
0.0
 40
1.0
 40
1.0
 40
1.0
 40
1.0
 10
4.279149606805298
 20
-3.181012940883598
 30
0.0
 10
4.452770744963948
 20
-3.166799203390073
 30
0.0
 10
4.625863120407402
 20
-3.149410117358966
 30
0.0
 10
4.799038105677742
 20
-3.128155451395179
 30
0.0
1001
PE_URL
1000

  0
LINE
  5
AC
330
1F
100
AcDbEntity
  8
0
  6
Continuous
 62
     4
370
    15
100
AcDbLine
 10
4.279149606805298
 20
-3.389303703426802
 30
0.0
 11
4.279149606805298
 21
-3.180990443687942
 31
0.0
1001
PE_URL
1000

  0
LINE
  5
AD
330
1F
100
AcDbEntity
  8
0
  6
Continuous
 62
     4
370
    15
100
AcDbLine
 10
-36.20096189432335
 20
3.19
 30
0.0
 11
-36.20096189432335
 21
-3.189999999999994
 31
0.0
  0
SPLINE
  5
AE
330
1F
100
AcDbEntity
  8
0
  6
Continuous
 62
     4
370
    15
100
AcDbSpline
210
0.0
220
0.0
230
1.0
 70
     8
 71
     3
 72
    10
 73
     6
 74
     0
 42
0.000000001
 43
0.00000001
 40
0.0
 40
0.0
 40
0.0
 40
0.0
 40
0.5
 40
0.5
 40
1.0
 40
1.0
 40
1.0
 40
1.0
 10
5.799038105665142
 20
-2.502395442389064
 30
0.0
 10
5.545722398876267
 20
-2.449738046948088
 30
0.0
 10
5.290483733681771
 20
-2.389313224849881
 30
0.0
 10
4.783116525787916
 20
-2.254554363213607
 30
0.0
 10
4.532801980310307
 20
-2.180444074565325
 30
0.0
 10
4.279266399555773
 20
-2.099638549169728
 30
0.0
  0
SPLINE
  5
AF
330
1F
100
AcDbEntity
  8
0
  6
Continuous
 62
     4
370
    15
100
AcDbSpline
210
0.0
220
0.0
230
1.0
 70
     8
 71
     3
 72
    10
 73
     6
 74
     0
 42
0.000000001
 43
0.00000001
 40
0.0
 40
0.0
 40
0.0
 40
0.0
 40
0.5
 40
0.5
 40
1.0
 40
1.0
 40
1.0
 40
1.0
 10
5.799038105662879
 20
0.1460008082632208
 30
0.0
 10
5.545710052186028
 20
0.2628159722059713
 30
0.0
 10
5.290458852969271
 20
0.3794795097671505
 30
0.0
 10
4.783067218801689
 20
0.6093206067447005
 30
0.0
 10
4.532740526666796
 20
0.7222359760167856
 30
0.0
 10
4.279192255076588
 20
0.833098980017292
 30
0.0
  0
SPLINE
  5
B0
330
1F
100
AcDbEntity
  8
0
  6
Continuous
 62
     1
370
    15
100
AcDbSpline
210
0.0
220
0.0
230
1.0
 70
    24
 71
     3
 72
    14
 73
    10
 74
     0
 42
0.000000001
 43
0.00000001
 40
0.0
 40
0.0
 40
0.0
 40
0.0
 40
0.25
 40
0.25
 40
0.5
 40
0.5
 40
0.75
 40
0.75
 40
1.0
 40
1.0
 40
1.0
 40
1.0
 10
5.799038105676628
 20
0.1460008082568809
 30
0.0
 10
5.799038105676628
 20
-0.1041990665495689
 30
0.0
 10
5.799038105676628
 20
-0.3587505448407629
 30
0.0
 10
5.799038105676628
 20
-0.8587170059353172
 30
0.0
 10
5.799038105676628
 20
-1.103987342475879
 30
0.0
 10
5.799038105676628
 20
-1.566860204655012
 30
0.0
 10
5.799038105676628
 20
-1.784329066662002
 30
0.0
 10
5.799038105676628
 20
-2.177004309913718
 30
0.0
 10
5.799038105676628
 20
-2.352150530483478
 30
0.0
 10
5.799038105676628
 20
-2.50239544239145
 30
0.0
  0
SPLINE
  5
B1
330
1F
100
AcDbEntity
  8
0
  6
Continuous
 62
     4
370
    15
100
AcDbSpline
210
0.0
220
0.0
230
1.0
 70
     8
 71
     3
 72
     9
 73
     5
 74
     0
 42
0.000000001
 43
0.00000001
 40
0.0
 40
0.0
 40
0.0
 40
0.0
 40
0.8673804148870293
 40
1.0
 40
1.0
 40
1.0
 40
1.0
 10
5.799038105676635
 20
2.271410301289396
 30
0.0
 10
5.544880175414301
 20
2.264692260542446
 30
0.0
 10
5.25186234160094
 20
2.256947053673986
 30
0.0
 10
4.959098992960589
 20
2.225588193912592
 30
0.0
 10
4.92027283912762
 20
2.221429394941421
 30
0.0
  0
SPLINE
  5
B2
330
1F
100
AcDbEntity
  8
0
  6
Continuous
 62
     1
370
    15
100
AcDbSpline
210
0.0
220
0.0
230
1.0
 70
    24
 71
     3
 72
    14
 73
    10
 74
     0
 42
0.000000001
 43
0.00000001
 40
0.0
 40
0.0
 40
0.0
 40
0.0
 40
0.2500000000000001
 40
0.2500000000000001
 40
0.5000000000000001
 40
0.5000000000000001
 40
0.7500000000000001
 40
0.7500000000000001
 40
1.0
 40
1.0
 40
1.0
 40
1.0
 10
5.799038105676642
 20
2.271410301289396
 30
0.0
 10
5.799038105676642
 20
2.226010678002714
 30
0.0
 10
5.799038105676646
 20
2.144305195021679
 30
0.0
 10
5.799038105676642
 20
1.905527574209873
 30
0.0
 10
5.799038105676642
 20
1.74842496083
 30
0.0
 10
5.799038105676642
 20
1.370678416003049
 30
0.0
 10
5.799038105676646
 20
1.150235763707965
 30
0.0
 10
5.799038105676642
 20
0.6701121290533268
 30
0.0
 10
5.799038105676642
 20
0.41073965464354
 30
0.0
 10
5.799038105676642
 20
0.1460008082568738
 30
0.0
  0
SPLINE
  5
B3
330
1F
100
AcDbEntity
  8
0
  6
Continuous
 62
     4
370
    15
100
AcDbSpline
210
0.0
220
0.0
230
1.0
 70
     8
 71
     3
 72
     8
 73
     4
 74
     0
 42
0.000000001
 43
0.00000001
 40
0.0
 40
0.0
 40
0.0
 40
0.0
 40
1.0
 40
1.0
 40
1.0
 40
1.0
 10
5.799038105670551
 20
-3.021620848530745
 30
0.0
 10
5.466395990311778
 20
-2.950903860080717
 30
0.0
 10
5.130442772992959
 20
-2.864006709018661
 30
0.0
 10
4.799038105676694
 20
-2.76301884633637
 30
0.0
  0
SPLINE
  5
B4
330
1F
100
AcDbEntity
  8
0
  6
Continuous
 62
     1
370
    15
100
AcDbSpline
210
0.0
220
0.0
230
1.0
 70
    24
 71
     3
 72
     8
 73
     4
 74
     0
 42
0.000000001
 43
0.00000001
 40
0.0
 40
0.0
 40
0.0
 40
0.0
 40
1.0
 40
1.0
 40
1.0
 40
1.0
 10
5.799038105676765
 20
-2.502395442391478
 30
0.0
 10
5.799038105676765
 20
-2.673827803143046
 30
0.0
 10
5.799038105676765
 20
-2.848008008216055
 30
0.0
 10
5.799038105676765
 20
-3.021620848519535
 30
0.0
  0
SPLINE
  5
B5
330
1F
100
AcDbEntity
  8
0
  6
Continuous
 62
     4
370
    15
100
AcDbSpline
210
0.0
220
0.0
230
1.0
 70
     8
 71
     3
 72
     8
 73
     4
 74
     0
 42
0.000000001
 43
0.00000001
 40
0.0
 40
0.0
 40
0.0
 40
0.0
 40
1.0
 40
1.0
 40
1.0
 40
1.0
 10
5.799038105676646
 20
-3.234627562805073
 30
0.0
 10
5.466395990315883
 20
-3.215971520619222
 30
0.0
 10
5.130442772994982
 20
-3.180181090368818
 30
0.0
 10
4.799038105676694
 20
-3.128155451399746
 30
0.0
  0
LINE
  5
B6
330
1F
100
AcDbEntity
  8
0
  6
Continuous
 62
     4
370
    15
100
AcDbLine
 10
5.799038105676646
 20
-3.021620848532038
 30
0.0
 11
5.799038105676646
 21
-3.234627562805075
 31
0.0
1001
PE_URL
1000

  0
SPLINE
  5
B7
330
1F
100
AcDbEntity
  8
0
  6
Continuous
 62
     4
370
    15
100
AcDbSpline
210
0.0
220
0.0
230
1.0
 70
     8
 71
     3
 72
     8
 73
     4
 74
     0
 42
0.000000001
 43
0.00000001
 40
0.0
 40
0.0
 40
0.0
 40
0.0
 40
1.0
 40
1.0
 40
1.0
 40
1.0
 10
5.799038105676646
 20
3.234627562805081
 30
0.0
 10
5.466395990315883
 20
3.21597152061923
 30
0.0
 10
5.130442772994982
 20
3.180181090368826
 30
0.0
 10
4.799038105676694
 20
3.128155451399754
 30
0.0
  0
SPLINE
  5
B8
330
1F
100
AcDbEntity
  8
0
  6
Continuous
 62
     4
370
    15
100
AcDbSpline
210
0.0
220
0.0
230
1.0
 70
    24
 71
     3
 72
    10
 73
     6
 74
     0
 42
0.000000001
 43
0.00000001
 40
0.0
 40
0.0
 40
0.0
 40
0.0
 40
0.5
 40
0.5
 40
1.0
 40
1.0
 40
1.0
 40
1.0
 10
5.799038105676642
 20
3.234627562796446
 30
0.0
 10
5.799038105676646
 20
3.069781248810504
 30
0.0
 10
5.799038105676646
 20
2.894398425366021
 30
0.0
 10
5.799038105676646
 20
2.561403052955646
 30
0.0
 10
5.799038105676642
 20
2.404626577396951
 30
0.0
 10
5.799038105676642
 20
2.271410301289396
 30
0.0
  0
SPLINE
  5
B9
330
1F
100
AcDbEntity
  8
0
  6
Continuous
 62
     1
370
    15
100
AcDbSpline
210
0.0
220
0.0
230
1.0
 70
     8
 71
     3
 72
    22
 73
    18
 74
     0
 42
0.000000001
 43
0.00000001
 40
0.0
 40
0.0
 40
0.0
 40
0.0
 40
0.0711697895065618
 40
0.1422236355533479
 40
0.2132633850850154
 40
0.2843911310391348
 40
0.3555941438468974
 40
0.42539700780417
 40
0.4951592130572159
 40
0.5650019114262912
 40
0.6349440476214409
 40
0.7061795440232603
 40
0.777368456427585
 40
0.8486108165208458
 40
0.9199748077590569
 40
0.9912445321671624
 40
1.0
 40
1.0
 40
1.0
 40
1.0
 10
23.79903810567665
 20
-3.084057825003669
 30
0.0
 10
23.42226002176677
 20
-3.003536859209408
 30
0.0
 10
22.6693176671242
 20
-2.842626105181249
 30
0.0
 10
21.54083595910761
 20
-2.453850519502391
 30
0.0
 10
20.41258227300834
 20
-1.975555243621011
 30
0.0
 10
19.28323611308443
 20
-1.415706461832215
 30
0.0
 10
18.15996809999334
 20
-0.804065056246887
 30
0.0
 10
17.0446732134586
 20
-0.1636248755589409
 30
0.0
 10
15.93665193956194
 20
0.4791262692388401
 30
0.0
 10
14.82763759113029
 20
1.103329859797051
 30
0.0
 10
13.71023463817027
 20
1.687967255705342
 30
0.0
 10
12.586435757437
 20
2.211066558515376
 30
0.0
 10
11.45581772574578
 20
2.647427606935238
 30
0.0
 10
10.32441932908845
 20
2.980722488739806
 30
0.0
 10
9.191912462651665
 20
3.180643410085181
 30
0.0
 10
8.390645063584426
 20
3.26610697653014
 30
0.0
 10
7.967180473579088
 20
3.245224675878569
 30
0.0
 10
7.920849680833545
 20
3.24293996644507
 30
0.0
  0
SPLINE
  5
BA
330
1F
100
AcDbEntity
  8
0
  6
Continuous
 62
     1
370
    15
100
AcDbSpline
210
0.0
220
0.0
230
1.0
 70
     8
 71
     3
 72
    14
 73
    10
 74
     0
 42
0.000000001
 43
0.00000001
 40
0.0
 40
0.0
 40
0.0
 40
0.0
 40
0.1447280436018771
 40
0.2893041757273677
 40
0.4338078113903758
 40
0.5783190680150276
 40
0.7229179890812948
 40
0.8676754635230661
 40
1.0
 40
1.0
 40
1.0
 40
1.0
 10
23.79903810567665
 20
-2.564159859196697
 30
0.0
 10
23.39194286575821
 20
-2.478255609687276
 30
0.0
 10
22.5781796869294
 20
-2.306537278690096
 30
0.0
 10
21.35821932914003
 20
-1.908698730745451
 30
0.0
 10
20.13894161117216
 20
-1.4303008917546
 30
0.0
 10
18.91958698464699
 20
-0.8824457602760831
 30
0.0
 10
17.69943937973934
 20
-0.2946130455869606
 30
0.0
 10
16.51324256526514
 20
0.2928451642448639
 30
0.0
 10
15.73393519132683
 20
0.6626581460274459
 30
0.0
 10
15.36176564236359
 20
0.8392677037366627
 30
0.0
  0
LINE
  5
BB
330
1F
100
AcDbEntity
  8
0
  6
Continuous
 62
     1
370
    15
100
AcDbLine
 10
23.79903810567665
 20
-3.084057825003669
 30
0.0
 11
23.79903810567665
 21
-2.564159859196697
 31
0.0
  0
SPLINE
  5
BC
330
1F
100
AcDbEntity
  8
0
  6
Continuous
 62
     1
370
    15
100
AcDbSpline
210
0.0
220
0.0
230
1.0
 70
     8
 71
     3
 72
    52
 73
    48
 74
     0
 42
0.000000001
 43
0.00000001
 40
0.0
 40
0.0
 40
0.0
 40
0.0
 40
0.0625000000000004
 40
0.0625000000000004
 40
0.0937500000000006
 40
0.0937500000000006
 40
0.1250000000000007
 40
0.1250000000000007
 40
0.1562500000000009
 40
0.1562500000000009
 40
0.1875000000000011
 40
0.1875000000000011
 40
0.2500000000000011
 40
0.2500000000000011
 40
0.312500000000001
 40
0.312500000000001
 40
0.3437500000000009
 40
0.3437500000000009
 40
0.3750000000000009
 40
0.3750000000000009
 40
0.4375000000000007
 40
0.4375000000000007
 40
0.4687500000000006
 40
0.4687500000000006
 40
0.5000000000000004
 40
0.5000000000000004
 40
0.5625000000000002
 40
0.5625000000000002
 40
0.5937500000000001
 40
0.5937500000000001
 40
0.625
 40
0.625
 40
0.6874999999999999
 40
0.6874999999999999
 40
0.7187499999999999
 40
0.7187499999999999
 40
0.7499999999999998
 40
0.7499999999999998
 40
0.8124999999999999
 40
0.8124999999999999
 40
0.8749999999999999
 40
0.8749999999999999
 40
0.9375
 40
0.9375
 40
0.96875
 40
0.96875
 40
1.0
 40
1.0
 40
1.0
 40
1.0
 10
23.79903810567665
 20
-3.247253149496335
 30
0.0
 10
23.42722115731165
 20
-3.238378359781417
 30
0.0
 10
23.04805039995493
 20
-3.207734095105187
 30
0.0
 10
22.48511282742691
 20
-3.130181883546773
 30
0.0
 10
22.29963681636514
 20
-3.099194600143139
 30
0.0
 10
21.9254365113553
 20
-3.026867259121059
 30
0.0
 10
21.73702770595701
 20
-2.985515938627221
 30
0.0
 10
21.36040528314007
 20
-2.892992039974915
 30
0.0
 10
21.17219636317131
 20
-2.8418206503081
 30
0.0
 10
20.79878570162456
 20
-2.730504895848652
 30
0.0
 10
20.61279512537544
 20
-2.670303886166538
 30
0.0
 10
20.04911969693345
 20
-2.476046008701389
 30
0.0
 10
19.67209790849412
 20
-2.328923863605467
 30
0.0
 10
18.92651518799488
 20
-2.006945103597308
 30
0.0
 10
18.54714909864543
 20
-1.830500231669178
 30
0.0
 10
17.98511546910195
 20
-1.550405966318315
 30
0.0
 10
17.79977316486868
 20
-1.454650039927931
 30
0.0
 10
17.42489286547387
 20
-1.257909332729651
 30
0.0
 10
17.23634029000407
 20
-1.15708224694601
 30
0.0
 10
16.67157471783903
 20
-0.8494682365319177
 30
0.0
 10
16.30056130694179
 20
-0.6383731175039521
 30
0.0
 10
15.73631483872733
 20
-0.316034799047889
 30
0.0
 10
15.54765538400168
 20
-0.2077712766147517
 30
0.0
 10
15.17200680097458
 20
0.0087681698592437
 30
0.0
 10
14.98620945633481
 20
0.1168131316123748
 30
0.0
 10
14.42572319738087
 20
0.4404240346435595
 30
0.0
 10
14.04627651811876
 20
0.6557557218740135
 30
0.0
 10
13.48531202704153
 20
0.968550727795625
 30
0.0
 10
13.29972243995966
 20
1.071125775495478
 30
0.0
 10
12.92427246497419
 20
1.273150845179372
 30
0.0
 10
12.73563237814727
 20
1.372369800000656
 30
0.0
 10
12.17120276348564
 20
1.662402787353958
 30
0.0
 10
11.80025549937171
 20
1.84507131389983
 30
0.0
 10
11.23560537256879
 20
2.100201571139483
 30
0.0
 10
11.04701068740965
 20
2.18193052403155
 30
0.0
 10
10.67188707447423
 20
2.337560820675159
 30
0.0
 10
10.48649078562416
 20
2.411329293192205
 30
0.0
 10
9.924868981417806
 20
2.620981230283066
 30
0.0
 10
9.545456536312718
 20
2.744694086741493
 30
0.0
 10
8.799148257121413
 20
2.952786786923655
 30
0.0
 10
8.422903053315922
 20
3.038113890877387
 30
0.0
 10
7.671001593845142
 20
3.16714287448875
 30
0.0
 10
7.299792831866712
 20
3.210750998719182
 30
0.0
 10
6.73490682750052
 20
3.244032527035293
 30
0.0
 10
6.546433212636282
 20
3.249720394770633
 30
0.0
 10
6.171945128584106
 20
3.250259442377093
 30
0.0
 10
5.986568958868846
 20
3.245145123110226
 30
0.0
 10
5.79903810567121
 20
3.234627562804779
 30
0.0
  0
SPLINE
  5
BD
330
1F
100
AcDbEntity
  8
0
  6
Continuous
 62
     1
370
    15
100
AcDbSpline
210
0.0
220
0.0
230
1.0
 70
     8
 71
     3
 72
    16
 73
    12
 74
     0
 42
0.000000001
 43
0.00000001
 40
0.0
 40
0.0
 40
0.0
 40
0.0
 40
0.0465945294361904
 40
0.1695289356247087
 40
0.2924125941722943
 40
0.4153164790478929
 40
0.5383113653626863
 40
0.6614377668517064
 40
0.7743835563482977
 40
0.8871736735902558
 40
1.0
 40
1.0
 40
1.0
 40
1.0
 10
15.71965452258952
 20
-0.3056970363885652
 30
0.0
 10
15.56555500201839
 20
-0.2445483579230841
 30
0.0
 10
15.00488129163192
 20
-0.0220657939708698
 30
0.0
 10
14.03794539806701
 20
0.3730350618079201
 30
0.0
 10
12.81868973266957
 20
0.8499994686438739
 30
0.0
 10
11.5992172126227
 20
1.288301039771677
 30
0.0
 10
10.37886856718126
 20
1.665980569138108
 30
0.0
 10
9.191208627554804
 20
1.95785675567917
 30
0.0
 10
8.037541192575564
 20
2.156520802280292
 30
0.0
 10
6.918146347045647
 20
2.270804534184895
 30
0.0
 10
6.172114096354797
 20
2.271208357318047
 30
0.0
 10
5.799038105676635
 20
2.271410301289396
 30
0.0
  0
SPLINE
  5
BE
330
1F
100
AcDbEntity
  8
0
  6
Continuous
 62
     4
370
    15
100
AcDbSpline
210
0.0
220
0.0
230
1.0
 70
    24
 71
     3
 72
    10
 73
     6
 74
     0
 42
0.000000001
 43
0.00000001
 40
0.0
 40
0.0
 40
0.0
 40
0.0
 40
0.5
 40
0.5
 40
1.0
 40
1.0
 40
1.0
 40
1.0
 10
5.799038105676642
 20
3.234627562796446
 30
0.0
 10
5.799038105676646
 20
3.069781248810504
 30
0.0
 10
5.799038105676646
 20
2.894398425366021
 30
0.0
 10
5.799038105676646
 20
2.561403052955646
 30
0.0
 10
5.799038105676642
 20
2.404626577396951
 30
0.0
 10
5.799038105676642
 20
2.271410301289396
 30
0.0
  0
LINE
  5
BF
330
1F
100
AcDbEntity
  8
0
  6
Continuous
 62
     1
370
    15
100
AcDbLine
 10
23.79903810567665
 20
-3.247253149496339
 30
0.0
 11
23.79903810567665
 21
-3.084057825003672
 31
0.0
  0
SPLINE
  5
C0
330
1F
100
AcDbEntity
  8
0
  6
Continuous
 62
     1
370
    15
100
AcDbSpline
210
0.0
220
0.0
230
1.0
 70
     8
 71
     3
 72
     8
 73
     4
 74
     0
 42
0.000000001
 43
0.00000001
 40
0.0
 40
0.0
 40
0.0
 40
0.0
 40
1.0
 40
1.0
 40
1.0
 40
1.0
 10
21.78754373790305
 20
0.9096514531558173
 30
0.0
 10
21.64206635230064
 20
1.082035375402076
 30
0.0
 10
21.51580914385364
 20
1.246790620262904
 30
0.0
 10
21.41613286070299
 20
1.400061410125858
 30
0.0
  0
LINE
  5
C1
330
1F
100
AcDbEntity
  8
0
  6
Continuous
 62
     1
370
    15
100
AcDbLine
 10
21.416132860703
 20
1.400061410125859
 30
0.0
 11
23.79903810567665
 21
0.0000000000000063
 31
0.0
  0
LINE
  5
C2
330
1F
100
AcDbEntity
  8
0
  6
Continuous
 62
     1
370
    15
100
AcDbLine
 10
23.79903810567665
 20
0.0000000000000063
 30
0.0
 11
23.79903810567665
 21
-0.8685395745963392
 31
0.0
  0
SPLINE
  5
C3
330
1F
100
AcDbEntity
  8
0
  6
Continuous
 62
     1
370
    15
100
AcDbSpline
210
0.0
220
0.0
230
1.0
 70
     8
 71
     3
 72
    10
 73
     6
 74
     0
 42
0.000000001
 43
0.00000001
 40
0.0
 40
0.0
 40
0.0
 40
0.0
 40
0.5
 40
0.5
 40
1.0
 40
1.0
 40
1.0
 40
1.0
 10
23.79903810567665
 20
-0.8685395745963392
 30
0.0
 10
23.45083421705416
 20
-0.5947911061695197
 30
0.0
 10
23.10845007308108
 20
-0.3098146493122208
 30
0.0
 10
22.43561157405876
 20
0.2831543140891903
 30
0.0
 10
22.10202485047208
 20
0.5942715863352651
 30
0.0
 10
21.78754373790305
 20
0.9096514531558205
 30
0.0
  0
SPLINE
  5
C4
330
1F
100
AcDbEntity
  8
0
  6
Continuous
 62
     1
370
    15
100
AcDbSpline
210
0.0
220
0.0
230
1.0
 70
     8
 71
     3
 72
    14
 73
    10
 74
     0
 42
0.000000001
 43
0.00000001
 40
0.0
 40
0.0
 40
0.0
 40
0.0
 40
0.1278137271212284
 40
0.2556832785249624
 40
0.3831946651382914
 40
0.5461912380167473
 40
0.7093690295713088
 40
0.872473308452756
 40
1.0
 40
1.0
 40
1.0
 40
1.0
 10
21.78754373790305
 20
0.9096514531558169
 30
0.0
 10
21.46868866755888
 20
1.045051342426097
 30
0.0
 10
20.83083926283426
 20
1.315910258602651
 30
0.0
 10
19.87461649573714
 20
1.676615888895286
 30
0.0
 10
18.83142540411653
 20
2.020842770409478
 30
0.0
 10
17.69935997052137
 20
2.316303056361118
 30
0.0
 10
16.47845053347864
 20
2.52288174957191
 30
0.0
 10
15.34610123665746
 20
2.618055013884943
 30
0.0
 10
14.62104544646208
 20
2.586158992459824
 30
0.0
 10
14.30289640001186
 20
2.572163257318917
 30
0.0
  0
SPLINE
  5
C5
330
1F
100
AcDbEntity
  8
0
  6
Continuous
 62
     1
370
    15
100
AcDbSpline
210
0.0
220
0.0
230
1.0
 70
    24
 71
     3
 72
    10
 73
     6
 74
     0
 42
0.000000001
 43
0.00000001
 40
0.0
 40
0.0
 40
0.0
 40
0.0
 40
0.5
 40
0.5
 40
1.0
 40
1.0
 40
1.0
 40
1.0
 10
23.79903810567665
 20
-2.564159859196696
 30
0.0
 10
23.79903810567665
 20
-2.36759701426236
 30
0.0
 10
23.79903810567666
 20
-2.119232322696016
 30
0.0
 10
23.79903810567665
 20
-1.541808317239703
 30
0.0
 10
23.79903810567665
 20
-1.213249189916751
 30
0.0
 10
23.79903810567665
 20
-0.8685395745964428
 30
0.0
  0
SPLINE
  5
C6
330
1F
100
AcDbEntity
  8
0
  6
Continuous
 62
     1
370
    15
100
AcDbSpline
210
0.0
220
0.0
230
1.0
 70
     8
 71
     3
 72
    11
 73
     7
 74
     0
 42
0.000000001
 43
0.00000001
 40
0.0
 40
0.0
 40
0.0
 40
0.0
 40
0.0721667319142243
 40
0.3816858059655041
 40
0.6907952404619001
 40
1.0
 40
1.0
 40
1.0
 40
1.0
 10
9.418956181287944
 20
-2.693617486100097
 30
0.0
 10
9.3318512410686
 20
-2.70564240577548
 30
0.0
 10
8.871158087459904
 20
-2.769241532911022
 30
0.0
 10
8.037555918814896
 20
-2.771402962319403
 30
0.0
 10
6.91817914258133
 20
-2.707998250388215
 30
0.0
 10
6.172123457595736
 20
-2.570936755280114
 30
0.0
 10
5.799038105676525
 20
-2.50239544239143
 30
0.0
  0
SPLINE
  5
C7
330
1F
100
AcDbEntity
  8
0
  6
Continuous
 62
     1
370
    15
100
AcDbSpline
210
0.0
220
0.0
230
1.0
 70
     8
 71
     3
 72
    17
 73
    13
 74
     0
 42
0.000000001
 43
0.00000001
 40
0.0
 40
0.0
 40
0.0
 40
0.0
 40
0.0397002687082637
 40
0.1494742230654352
 40
0.259142852826548
 40
0.3687673931790076
 40
0.4784095086843721
 40
0.5881306926143128
 40
0.6979661446705566
 40
0.7987237755062856
 40
0.8993461574586931
 40
1.0
 40
1.0
 40
1.0
 40
1.0
 10
16.91984966601739
 20
-2.430366420541211
 30
0.0
 10
16.77265790807767
 20
-2.457060564676798
 30
0.0
 10
16.21847088679193
 20
-2.557565840456787
 30
0.0
 10
15.25772624479595
 20
-2.611957937352156
 30
0.0
 10
14.03794163961692
 20
-2.586906714177516
 30
0.0
 10
12.81870196581545
 20
-2.433297663170348
 30
0.0
 10
11.59923678181983
 20
-2.167847078220848
 30
0.0
 10
10.37890040843996
 20
-1.800307507764348
 30
0.0
 10
9.19119463986901
 20
-1.361263072242334
 30
0.0
 10
8.03752615376937
 20
-0.8772960496706436
 30
0.0
 10
6.918157664509367
 20
-0.3719788377291865
 30
0.0
 10
6.17211682872604
 20
-0.0266770645984809
 30
0.0
 10
5.799038105676635
 20
0.1460008082568773
 30
0.0
  0
SPLINE
  5
C8
330
1F
100
AcDbEntity
  8
0
  6
Continuous
 62
     4
370
    15
100
AcDbSpline
210
0.0
220
0.0
230
1.0
 70
    24
 71
     3
 72
    14
 73
    10
 74
     0
 42
0.000000001
 43
0.00000001
 40
0.0
 40
0.0
 40
0.0
 40
0.0
 40
0.25
 40
0.25
 40
0.5
 40
0.5
 40
0.75
 40
0.75
 40
1.0
 40
1.0
 40
1.0
 40
1.0
 10
5.799038105676628
 20
0.1460008082568809
 30
0.0
 10
5.799038105676628
 20
-0.1041990665495689
 30
0.0
 10
5.799038105676628
 20
-0.3587505448407629
 30
0.0
 10
5.799038105676628
 20
-0.8587170059353172
 30
0.0
 10
5.799038105676628
 20
-1.103987342475879
 30
0.0
 10
5.799038105676628
 20
-1.566860204655012
 30
0.0
 10
5.799038105676628
 20
-1.784329066662002
 30
0.0
 10
5.799038105676628
 20
-2.177004309913718
 30
0.0
 10
5.799038105676628
 20
-2.352150530483478
 30
0.0
 10
5.799038105676628
 20
-2.50239544239145
 30
0.0
  0
LINE
  5
C9
330
1F
100
AcDbEntity
  8
0
  6
Continuous
 62
     1
370
    15
100
AcDbLine
 10
23.79903810567665
 20
2.275000000000005
 30
0.0
 11
22.5972382975663
 21
2.222587265455328
 31
0.0
  0
SPLINE
  5
CA
330
1F
100
AcDbEntity
  8
0
  6
Continuous
 62
     1
370
    15
100
AcDbSpline
210
0.0
220
0.0
230
1.0
 70
     8
 71
     3
 72
    10
 73
     6
 74
     0
 42
0.000000001
 43
0.00000001
 40
0.0
 40
0.0
 40
0.0
 40
0.0
 40
0.5
 40
0.5
 40
1.0
 40
1.0
 40
1.0
 40
1.0
 10
23.79903810567665
 20
2.275000000000005
 30
0.0
 10
23.39460887231965
 20
2.165238935202218
 30
0.0
 10
22.99320472185774
 20
2.039487718539926
 30
0.0
 10
22.19733519096416
 20
1.751307947639895
 30
0.0
 10
21.80270323550492
 20
1.589572676685638
 30
0.0
 10
21.41613286070123
 20
1.400061410127263
 30
0.0
  0
SPLINE
  5
CB
330
1F
100
AcDbEntity
  8
0
  6
Continuous
 62
     4
370
    15
100
AcDbSpline
210
0.0
220
0.0
230
1.0
 70
    24
 71
     3
 72
    14
 73
    10
 74
     0
 42
0.000000001
 43
0.00000001
 40
0.0
 40
0.0
 40
0.0
 40
0.0
 40
0.2500000000000001
 40
0.2500000000000001
 40
0.5000000000000001
 40
0.5000000000000001
 40
0.7500000000000001
 40
0.7500000000000001
 40
1.0
 40
1.0
 40
1.0
 40
1.0
 10
5.799038105676642
 20
2.271410301289396
 30
0.0
 10
5.799038105676642
 20
2.226010678002714
 30
0.0
 10
5.799038105676646
 20
2.144305195021679
 30
0.0
 10
5.799038105676642
 20
1.905527574209873
 30
0.0
 10
5.799038105676642
 20
1.74842496083
 30
0.0
 10
5.799038105676642
 20
1.370678416003049
 30
0.0
 10
5.799038105676646
 20
1.150235763707965
 30
0.0
 10
5.799038105676642
 20
0.6701121290533268
 30
0.0
 10
5.799038105676642
 20
0.41073965464354
 30
0.0
 10
5.799038105676642
 20
0.1460008082568738
 30
0.0
  0
LINE
  5
CC
330
1F
100
AcDbEntity
  8
0
  6
Continuous
 62
     1
370
    15
100
AcDbLine
 10
23.79903810567665
 20
0.0000000000000063
 30
0.0
 11
23.79903810567665
 21
2.275000000000007
 31
0.0
  0
SPLINE
  5
CD
330
1F
100
AcDbEntity
  8
0
  6
Continuous
 62
     1
370
    15
100
AcDbSpline
210
0.0
220
0.0
230
1.0
 70
     8
 71
     3
 72
    13
 73
     9
 74
     0
 42
0.000000001
 43
0.00000001
 40
0.0
 40
0.0
 40
0.0
 40
0.0
 40
0.0337352064828921
 40
0.2269489993336373
 40
0.4204926635532398
 40
0.6137806701590166
 40
0.8068594083691564
 40
1.0
 40
1.0
 40
1.0
 40
1.0
 10
11.65355062328909
 20
-2.554299176122989
 30
0.0
 10
11.58772860530613
 20
-2.579970640959901
 30
0.0
 10
11.14491995900574
 20
-2.752671918455289
 30
0.0
 10
10.32441901221021
 20
-2.972727391449443
 30
0.0
 10
9.191906172674601
 20
-3.190724261699518
 30
0.0
 10
8.06020560595924
 20
-3.269089253206983
 30
0.0
 10
6.929566835807018
 20
-3.226854211048582
 30
0.0
 10
6.17592124808392
 20
-3.090039273053538
 30
0.0
 10
5.799038105666515
 20
-3.021620848529888
 30
0.0
  0
SPLINE
  5
CE
330
1F
100
AcDbEntity
  8
0
  6
Continuous
 62
     4
370
    15
100
AcDbSpline
210
0.0
220
0.0
230
1.0
 70
    24
 71
     3
 72
     8
 73
     4
 74
     0
 42
0.000000001
 43
0.00000001
 40
0.0
 40
0.0
 40
0.0
 40
0.0
 40
1.0
 40
1.0
 40
1.0
 40
1.0
 10
5.799038105676765
 20
-2.502395442391478
 30
0.0
 10
5.799038105676765
 20
-2.67382780314305
 30
0.0
 10
5.799038105676765
 20
-2.848008008216063
 30
0.0
 10
5.799038105676765
 20
-3.021620848519548
 30
0.0
  0
LINE
  5
CF
330
1F
100
AcDbEntity
  8
0
  6
Continuous
 62
     1
370
    15
100
AcDbLine
 10
5.799038105671213
 20
-3.234627562804771
 30
0.0
 11
6.346442250572441
 21
-3.233693995091016
 31
0.0
  0
SPLINE
  5
D0
330
1F
100
AcDbEntity
  8
0
  6
Continuous
 62
     1
370
    15
100
AcDbSpline
210
0.0
220
0.0
230
1.0
 70
     8
 71
     3
 72
    11
 73
     7
 74
     0
 42
0.000000001
 43
0.00000001
 40
0.0
 40
0.0
 40
0.0
 40
0.0
 40
0.2407841015705038
 40
0.4936835673304697
 40
0.7466375229018516
 40
1.0
 40
1.0
 40
1.0
 40
1.0
 10
19.32923424126351
 20
2.178545252395347
 30
0.0
 10
19.68803574194937
 20
2.325403340243819
 30
0.0
 10
20.42369230592834
 20
2.626508870997211
 30
0.0
 10
21.53587747734699
 20
2.953188096791663
 30
0.0
 10
22.66684486377616
 20
3.182748670814991
 30
0.0
 10
23.42143741065482
 20
3.22574009405608
 30
0.0
 10
23.79903810567665
 20
3.247253149496347
 30
0.0
  0
SPLINE
  5
D1
330
1F
100
AcDbEntity
  8
0
  6
Continuous
 62
     1
370
    15
100
AcDbSpline
210
0.0
220
0.0
230
1.0
 70
    24
 71
     3
 72
    10
 73
     6
 74
     0
 42
0.000000001
 43
0.00000001
 40
0.0
 40
0.0
 40
0.0
 40
0.0
 40
0.5
 40
0.5
 40
1.0
 40
1.0
 40
1.0
 40
1.0
 10
23.79903810567665
 20
2.275000000000007
 30
0.0
 10
23.79903810567665
 20
2.412904834623776
 30
0.0
 10
23.79903810567666
 20
2.573163023818136
 30
0.0
 10
23.79903810567666
 20
2.909384273122785
 30
0.0
 10
23.79903810567665
 20
3.084488666354793
 30
0.0
 10
23.79903810567665
 20
3.247253149496351
 30
0.0
  0
LINE
  5
D2
330
1F
100
AcDbEntity
  8
중심선
100
AcDbLine
 10
-39.20096189432333
 20
0.0
 30
0.0
 11
26.79903810567666
 21
0.0
 31
0.0
  0
CIRCLE
  5
D3
330
1F
100
AcDbEntity
  8
외형선
100
AcDbCircle
 10
0.0
 20
0.0
 30
0.0
 40
3.000000000000004
  0
INSERT
  5
D4
330
1F
100
AcDbEntity
  8
0
  6
Continuous
 62
     7
100
AcDbBlockReference
 66
     1
  2
블럭10
 10
-28.13923533383496
 20
-52.04717430164392
 30
0.0
  0
ATTRIB
  5
D5
330
D4
100
AcDbEntity
  8
FORMAT
 62
     2
100
AcDbText
 10
-41.09917452869273
 20
-49.97180738881173
 30
0.0
 40
4.233333333333333
  1
SEME35065E [ 2 FLUTE ]
 41
0.75
  7
SLDTEXTSTYLE0
 11
-41.09917452869273
 21
-52.0884740554784
 31
0.0
100
AcDbAttribute
  2
AUTOATTR0
 70
     0
 74
     1
  0
SEQEND
  5
D6
330
D4
100
AcDbEntity
  8
0
  6
Continuous
 62
     7
  0
HATCH
  5
D7
330
1F
100
AcDbEntity
  8
중심선
100
AcDbHatch
 10
0.0
 20
0.0
 30
0.0
210
0.0
220
0.0
230
1.0
  2
SOLID
 70
     1
 71
     0
 91
        1
 92
        0
 93
        4
 72
     1
 10
-22.42432602945411
 20
-35.79999999999999
 11
-25.87060127329139
 21
-35.79999999999999
 72
     1
 10
-25.87060127329139
 20
-35.79999999999999
 11
-27.99883113249542
 21
-38.33632558057258
 72
     1
 10
-27.99883113249541
 20
-38.33632558057258
 11
-24.55252280354498
 21
-38.33628615127009
 72
     1
 10
-24.55252280354498
 20
-38.33628615127009
 11
-22.42432602945411
 21
-35.79999999999999
 97
        0
 75
     0
 76
     1
 98
        1
 10
-4.200961894323349
 20
0.0000000000000035
  0
HATCH
  5
D8
330
1F
100
AcDbEntity
  8
중심선
100
AcDbHatch
 10
0.0
 20
0.0
 30
0.0
210
0.0
220
0.0
230
1.0
  2
SOLID
 70
     1
 71
     0
 91
        1
 92
        0
 93
        4
 72
     1
 10
-17.41156203841816
 20
-35.79999999999999
 11
-20.85783728225544
 21
-35.79999999999999
 72
     1
 10
-20.85783728225544
 20
-35.79999999999999
 11
-25.38897529061283
 21
-41.20000000000001
 72
     1
 10
-25.38897529061283
 20
-41.20000000000001
 11
-21.94270004677555
 21
-41.20000000000001
 72
     1
 10
-21.94270004677554
 20
-41.20000000000001
 11
-17.41156203841816
 21
-35.79999999999999
 97
        0
 75
     0
 76
     1
 98
        1
 10
-4.200961894323349
 20
0.0000000000000035
  0
HATCH
  5
D9
330
1F
100
AcDbEntity
  8
중심선
100
AcDbHatch
 10
0.0
 20
0.0
 30
0.0
210
0.0
220
0.0
230
1.0
  2
SOLID
 70
     1
 71
     0
 91
        1
 92
        0
 93
        4
 72
     1
 10
-12.39879804738226
 20
-35.80000000000003
 11
-15.84507329121938
 21
-35.79999999999999
 72
     1
 10
-15.84507329121938
 20
-35.79999999999999
 11
-22.89351019310863
 21
-44.20000000000001
 72
     1
 10
-22.89351019310863
 20
-44.20000000000001
 11
-19.44723494927135
 21
-44.20000000000001
 72
     1
 10
-19.44723494927134
 20
-44.20000000000001
 11
-12.39879804738226
 21
-35.80000000000003
 97
        0
 75
     0
 76
     1
 98
        1
 10
-4.200961894323349
 20
0.0000000000000035
  0
HATCH
  5
DA
330
1F
100
AcDbEntity
  8
중심선
100
AcDbHatch
 10
0.0
 20
0.0
 30
0.0
210
0.0
220
0.0
230
1.0
  2
SOLID
 70
     1
 71
     0
 91
        1
 92
        0
 93
        6
 72
     3
 10
-7.598907616370063
 20
-40.00000000005127
 11
3.960054785062284
 21
1.540882976769353E-10
 40
0.3939339440162627
 50
17.09539180608439
 51
320.0019657685082
 73
     0
 72
     1
 10
-5.915907960669466
 20
-38.58789400463829
 11
-3.61060608696843
 21
-36.65356729459037
 72
     3
 10
-7.59890761642291
 20
-40.00000000000014
 11
6.600054785286829
 21
-1.278976924368180E-13
 40
0.636358354079598
 50
39.99873849337411
 51
368.4976242363724
 73
     1
 72
     1
 10
-1.1735751245223
 20
-39.03999999993001
 11
-8.918840309586988
 21
-39.03999999992998
 72
     1
 10
-8.918840309586988
 20
-39.03999999992998
 11
-8.918865354032919
 21
-40.95999999992991
 72
     1
 10
-8.918865354032919
 20
-40.95999999992991
 11
-4.477485584560884
 21
-40.95999999992987
 97
        0
 75
     0
 76
     1
 98
        1
 10
-4.200961894323349
 20
0.0000000000000035
  0
DIMENSION
  5
DB
330
1F
100
AcDbEntity
  8
치수문자_일반주서
100
AcDbDimension
  2
_D
 10
5.79903810567121
 20
15.49788703807413
 30
0.0
 11
14.79903810567664
 21
15.49788703807413
 31
0.0
 70
   160
  1
<>
 71
     2
 42
18.00000000000544
  3
SLDDIMSTYLE0
100
AcDbAlignedDimension
 13
23.79903810567665
 23
3.247253149496349
 33
0.0
 14
5.79903810567121
 24
3.234627562804779
 34
0.0
 50
0.0000000000000057
100
AcDbRotatedDimension
  0
DIMENSION
  5
E6
330
1F
100
AcDbEntity
  8
치수문자_일반주서
100
AcDbDimension
  2
_D_1
 10
-36.20096189432335
 20
25.05915911661226
 30
0.0
 11
-6.200961894323346
 21
25.05915911661226
 31
0.0
 70
   160
  1
<>
 71
     2
 42
60.0
  3
SLDDIMSTYLE1
100
AcDbAlignedDimension
 13
23.79903810567665
 23
2.275000000000007
 33
0.0
 14
-36.20096189432335
 24
3.19
 34
0.0
 50
0.0000000000000068
100
AcDbRotatedDimension
  0
DIMENSION
  5
F1
330
1F
100
AcDbEntity
  8
치수문자_일반주서
100
AcDbDimension
  2
_D_2
 10
39.91556175125626
 20
-3.247253149496277
 30
0.0
 11
39.91556175125621
 21
14.66875314949641
 31
0.0
 70
   160
  1
%%c<>
 71
     2
 42
6.499506298992686
 52
-270.0
  3
SLDDIMSTYLE0
100
AcDbAlignedDimension
 13
23.79903810567665
 23
3.252253149496346
 33
0.0
 14
23.79903810567665
 24
-3.247253149496339
 34
0.0
 50
90.0000000000002
100
AcDbRotatedDimension
1001
ACAD_DSTYLE_DIMFLIPARROW_SYMBOL
1070
   385
1070
     0
1001
ACAD_DSTYLE_DIMFLIPARROW_WHICH_SYMBOL
1070
   386
1070
     3
  0
DIMENSION
  5
FE
330
1F
100
AcDbEntity
  8
치수문자_일반주서
100
AcDbDimension
  2
_D_3
 10
-47.81052133971188
 20
-4.000000000000044
 30
0.0
 11
-47.81052133971189
 21
0.0000000000000023
 31
0.0
 70
   160
  1
%%c<>
 71
     2
 42
7.999999999999998
 52
-270.0
  3
SLDDIMSTYLE0
100
AcDbAlignedDimension
 13
-35.39096189432335
 23
4.0
 33
0.0
 14
-35.39096189432335
 24
-3.999999999999998
 34
0.0
 50
90.0000000000002
100
AcDbRotatedDimension
  0
INSERT
  5
111
330
1F
100
AcDbEntity
  8
외형선
100
AcDbBlockReference
  2
SW_DOWELSYMBOL_0
 10
0.0
 20
0.0
 30
0.0
  0
ENDSEC
  0
SECTION
  2
OBJECTS
  0
DICTIONARY
  5
C
330
0
100
AcDbDictionary
281
     1
  3
ACAD_DETAILVIEWSTYLE
350
145
  3
ACAD_GROUP
350
D
  3
ACAD_LAYOUT
350
1A
  3
ACAD_MLINESTYLE
350
17
  3
ACAD_PLOTSETTINGS
350
19
  3
ACAD_PLOTSTYLENAME
350
E
  3
ACAD_SCALELIST
350
47
  3
ACAD_SECTIONVIEWSTYLE
350
146
  3
AcDbVariableDictionary
350
140
  3
APPDATA
350
133
  3
DWGPROPS
350
16E
  0
DICTIONARY
  5
145
102
{ACAD_REACTORS
330
C
102
}
330
C
100
AcDbDictionary
281
     1
  0
DICTIONARY
  5
D
102
{ACAD_REACTORS
330
C
102
}
330
C
100
AcDbDictionary
281
     1
  0
DICTIONARY
  5
1A
102
{ACAD_REACTORS
330
C
102
}
330
C
100
AcDbDictionary
281
     1
  3
Layout1
350
1E
  3
Layout2
350
26
  3
Model
350
22
  0
DICTIONARY
  5
17
102
{ACAD_REACTORS
330
C
102
}
330
C
100
AcDbDictionary
281
     1
  3
Standard
350
18
  0
DICTIONARY
  5
19
102
{ACAD_REACTORS
330
C
102
}
330
C
100
AcDbDictionary
281
     1
  0
ACDBDICTIONARYWDFLT
  5
E
102
{ACAD_REACTORS
330
C
102
}
330
C
100
AcDbDictionary
281
     1
  3
Normal
350
F
100
AcDbDictionaryWithDefault
340
F
  0
DICTIONARY
  5
47
102
{ACAD_REACTORS
330
C
102
}
330
C
100
AcDbDictionary
281
     1
  3
A0
350
48
  3
A1
350
49
  3
A2
350
4A
  3
A3
350
4B
  3
A4
350
4C
  3
A5
350
4D
  3
A6
350
4E
  3
A7
350
4F
  3
A8
350
50
  3
A9
350
51
  3
B0
350
52
  3
B1
350
53
  3
B2
350
54
  3
B3
350
55
  3
B4
350
56
  3
B5
350
57
  3
B6
350
58
  3
B7
350
59
  3
B8
350
5A
  3
B9
350
5B
  3
C0
350
5C
  3
C1
350
5D
  3
C2
350
5E
  3
C3
350
5F
  3
C4
350
60
  3
C5
350
61
  3
C6
350
62
  3
C7
350
63
  3
C8
350
64
  3
C9
350
65
  3
D0
350
66
  3
D1
350
67
  3
D2
350
68
  0
DICTIONARY
  5
146
102
{ACAD_REACTORS
330
C
102
}
330
C
100
AcDbDictionary
281
     1
  0
DICTIONARY
  5
140
102
{ACAD_REACTORS
330
C
102
}
330
C
100
AcDbDictionary
281
     1
  0
DICTIONARY
  5
133
102
{ACAD_REACTORS
330
C
102
}
330
C
100
AcDbDictionary
281
     1
  0
XRECORD
  5
16E
102
{ACAD_REACTORS
330
C
102
}
330
C
100
AcDbXrecord
280
     1
  1
DWGPROPS COOKIE
  2

  3

  4

  6

  7

  8
12011908
  9

300
=
301
=
302
=
303
=
304
=
305
=
306
=
307
=
308
=
309
=
 40
0.0
 41
2458250.11693316
 42
2458264.03943456
  1

 90
        0
  0
LAYOUT
  5
1E
102
{ACAD_REACTORS
330
1A
102
}
330
1A
100
AcDbPlotSettings
  1

  2
none_device
  4

  6

 40
0.0
 41
0.0
 42
0.0
 43
0.0
 44
0.0
 45
0.0
 46
0.0
 47
0.0
 48
0.0
 49
0.0
140
0.0
141
0.0
142
1.0
143
1.0
 70
   688
 72
     1
 73
     0
 74
     5
  7

 75
    16
147
1.0
148
0.0
149
0.0
100
AcDbLayout
  1
Layout1
 70
     1
 71
     1
 10
0.0
 20
0.0
 11
420.0
 21
297.0
 12
0.0
 22
0.0
 32
0.0
 14
1.000000000000000E+20
 24
1.000000000000000E+20
 34
1.000000000000000E+20
 15
-1.000000000000000E+20
 25
-1.000000000000000E+20
 35
-1.000000000000000E+20
146
0.0
 13
0.0
 23
0.0
 33
0.0
 16
1.0
 26
0.0
 36
0.0
 17
0.0
 27
1.0
 37
0.0
 76
     0
330
1B
  0
LAYOUT
  5
26
102
{ACAD_REACTORS
330
1A
102
}
330
1A
100
AcDbPlotSettings
  1

  2
none_device
  4

  6

 40
0.0
 41
0.0
 42
0.0
 43
0.0
 44
0.0
 45
0.0
 46
0.0
 47
0.0
 48
0.0
 49
0.0
140
0.0
141
0.0
142
1.0
143
1.0
 70
   688
 72
     1
 73
     0
 74
     5
  7

 75
    16
147
1.0
148
0.0
149
0.0
100
AcDbLayout
  1
Layout2
 70
     1
 71
     2
 10
0.0
 20
0.0
 11
0.0
 21
0.0
 12
0.0
 22
0.0
 32
0.0
 14
0.0
 24
0.0
 34
0.0
 15
0.0
 25
0.0
 35
0.0
146
0.0
 13
0.0
 23
0.0
 33
0.0
 16
1.0
 26
0.0
 36
0.0
 17
0.0
 27
1.0
 37
0.0
 76
     0
330
23
  0
LAYOUT
  5
22
102
{ACAD_REACTORS
330
1A
102
}
330
1A
100
AcDbPlotSettings
  1

  2
none_device
  4
ANSI_A_(11.00_x_8.50_Inches)
  6

 40
6.35
 41
19.05
 42
6.35000508
 43
19.05000254
 44
279.4
 45
215.9
 46
138.1534172784559
 47
117.0461855295847
 48
0.0
 49
0.0
140
0.0
141
0.0
142
0.1048119206870148
143
1.0
 70
  1696
 72
     0
 73
     0
 74
     0
  7

 75
     0
147
0.0235690232323232
148
0.0
149
0.0
100
AcDbLayout
  1
Model
 70
     1
 71
     0
 10
0.0
 20
0.0
 11
420.0
 21
297.0
 12
0.0
 22
0.0
 32
0.0
 14
-52.1855213397119
 24
-49.97180738881173
 34
0.0
 15
40.4658950845896
 25
29.43415911661226
 35
0.0
146
0.0
 13
0.0
 23
0.0
 33
0.0
 16
1.0
 26
0.0
 36
0.0
 17
0.0
 27
1.0
 37
0.0
 76
     0
330
1F
331
29
  0
MLINESTYLE
  5
18
102
{ACAD_REACTORS
330
17
102
}
330
17
100
AcDbMlineStyle
  2
Standard
 70
     0
  3

 62
   256
 51
90.0
 52
90.0
 71
     2
 49
0.5
 62
   256
  6
BYLAYER
 49
-0.5
 62
   256
  6
BYLAYER
  0
ACDBPLACEHOLDER
  5
F
102
{ACAD_REACTORS
330
E
102
}
330
E
  0
SCALE
  5
48
102
{ACAD_REACTORS
330
47
102
}
330
47
100
AcDbScale
 70
     0
300
1:1
140
1.0
141
1.0
290
     1
  0
SCALE
  5
49
102
{ACAD_REACTORS
330
47
102
}
330
47
100
AcDbScale
 70
     0
300
1:2
140
1.0
141
2.0
290
     0
  0
SCALE
  5
4A
102
{ACAD_REACTORS
330
47
102
}
330
47
100
AcDbScale
 70
     0
300
1:4
140
1.0
141
4.0
290
     0
  0
SCALE
  5
4B
102
{ACAD_REACTORS
330
47
102
}
330
47
100
AcDbScale
 70
     0
300
1:5
140
1.0
141
5.0
290
     0
  0
SCALE
  5
4C
102
{ACAD_REACTORS
330
47
102
}
330
47
100
AcDbScale
 70
     0
300
1:8
140
1.0
141
8.0
290
     0
  0
SCALE
  5
4D
102
{ACAD_REACTORS
330
47
102
}
330
47
100
AcDbScale
 70
     0
300
1:10
140
1.0
141
10.0
290
     0
  0
SCALE
  5
4E
102
{ACAD_REACTORS
330
47
102
}
330
47
100
AcDbScale
 70
     0
300
1:16
140
1.0
141
16.0
290
     0
  0
SCALE
  5
4F
102
{ACAD_REACTORS
330
47
102
}
330
47
100
AcDbScale
 70
     0
300
1:20
140
1.0
141
20.0
290
     0
  0
SCALE
  5
50
102
{ACAD_REACTORS
330
47
102
}
330
47
100
AcDbScale
 70
     0
300
1:30
140
1.0
141
30.0
290
     0
  0
SCALE
  5
51
102
{ACAD_REACTORS
330
47
102
}
330
47
100
AcDbScale
 70
     0
300
1:40
140
1.0
141
40.0
290
     0
  0
SCALE
  5
52
102
{ACAD_REACTORS
330
47
102
}
330
47
100
AcDbScale
 70
     0
300
1:50
140
1.0
141
50.0
290
     0
  0
SCALE
  5
53
102
{ACAD_REACTORS
330
47
102
}
330
47
100
AcDbScale
 70
     0
300
1:100
140
1.0
141
100.0
290
     0
  0
SCALE
  5
54
102
{ACAD_REACTORS
330
47
102
}
330
47
100
AcDbScale
 70
     0
300
2:1
140
2.0
141
1.0
290
     0
  0
SCALE
  5
55
102
{ACAD_REACTORS
330
47
102
}
330
47
100
AcDbScale
 70
     0
300
4:1
140
4.0
141
1.0
290
     0
  0
SCALE
  5
56
102
{ACAD_REACTORS
330
47
102
}
330
47
100
AcDbScale
 70
     0
300
8:1
140
8.0
141
1.0
290
     0
  0
SCALE
  5
57
102
{ACAD_REACTORS
330
47
102
}
330
47
100
AcDbScale
 70
     0
300
10:1
140
10.0
141
1.0
290
     0
  0
SCALE
  5
58
102
{ACAD_REACTORS
330
47
102
}
330
47
100
AcDbScale
 70
     0
300
100:1
140
100.0
141
1.0
290
     0
  0
SCALE
  5
59
102
{ACAD_REACTORS
330
47
102
}
330
47
100
AcDbScale
 70
     0
300
1/128" = 1'-0"
140
0.0078125
141
12.0
290
     0
  0
SCALE
  5
5A
102
{ACAD_REACTORS
330
47
102
}
330
47
100
AcDbScale
 70
     0
300
1/64" = 1'-0"
140
0.015625
141
12.0
290
     0
  0
SCALE
  5
5B
102
{ACAD_REACTORS
330
47
102
}
330
47
100
AcDbScale
 70
     0
300
1/32" = 1'-0"
140
0.03125
141
12.0
290
     0
  0
SCALE
  5
5C
102
{ACAD_REACTORS
330
47
102
}
330
47
100
AcDbScale
 70
     0
300
1/16" = 1'-0"
140
0.0625
141
12.0
290
     0
  0
SCALE
  5
5D
102
{ACAD_REACTORS
330
47
102
}
330
47
100
AcDbScale
 70
     0
300
3/32" = 1'-0"
140
0.09375
141
12.0
290
     0
  0
SCALE
  5
5E
102
{ACAD_REACTORS
330
47
102
}
330
47
100
AcDbScale
 70
     0
300
1/8" = 1'-0"
140
0.125
141
12.0
290
     0
  0
SCALE
  5
5F
102
{ACAD_REACTORS
330
47
102
}
330
47
100
AcDbScale
 70
     0
300
3/16" = 1'-0"
140
0.1875
141
12.0
290
     0
  0
SCALE
  5
60
102
{ACAD_REACTORS
330
47
102
}
330
47
100
AcDbScale
 70
     0
300
1/4" = 1'-0"
140
0.25
141
12.0
290
     0
  0
SCALE
  5
61
102
{ACAD_REACTORS
330
47
102
}
330
47
100
AcDbScale
 70
     0
300
3/8" = 1'-0"
140
0.375
141
12.0
290
     0
  0
SCALE
  5
62
102
{ACAD_REACTORS
330
47
102
}
330
47
100
AcDbScale
 70
     0
300
1/2" = 1'-0"
140
0.5
141
12.0
290
     0
  0
SCALE
  5
63
102
{ACAD_REACTORS
330
47
102
}
330
47
100
AcDbScale
 70
     0
300
3/4" = 1'-0"
140
0.75
141
12.0
290
     0
  0
SCALE
  5
64
102
{ACAD_REACTORS
330
47
102
}
330
47
100
AcDbScale
 70
     0
300
1" = 1'-0"
140
1.0
141
12.0
290
     0
  0
SCALE
  5
65
102
{ACAD_REACTORS
330
47
102
}
330
47
100
AcDbScale
 70
     0
300
1-1/2" = 1'-0"
140
1.5
141
12.0
290
     0
  0
SCALE
  5
66
102
{ACAD_REACTORS
330
47
102
}
330
47
100
AcDbScale
 70
     0
300
3" = 1'-0"
140
3.0
141
12.0
290
     0
  0
SCALE
  5
67
102
{ACAD_REACTORS
330
47
102
}
330
47
100
AcDbScale
 70
     0
300
6" = 1'-0"
140
6.0
141
12.0
290
     0
  0
SCALE
  5
68
102
{ACAD_REACTORS
330
47
102
}
330
47
100
AcDbScale
 70
     0
300
1'-0" = 1'-0"
140
12.0
141
12.0
290
     0
  0
ENDSEC
  0
EOF
