  0
SECTION
  2
HEADER
  9
$ACADVER
  1
AC1015
  9
$ACADMAINTVER
 70
     6
  9
$DWGCODEPAGE
  3
ANSI_949
  9
$INSBASE
 10
0.0
 20
0.0
 30
0.0
  9
$EXTMIN
 10
-57.99552133971189
 20
-49.97180738881174
 30
0.0
  9
$EXTMAX
 10
43.91556175125624
 20
30.13415911661226
 30
0.0
  9
$LIMMIN
 10
0.0
 20
0.0
  9
$LIMMAX
 10
420.0
 20
297.0
  9
$ORTHOMODE
 70
     1
  9
$REGENMODE
 70
     1
  9
$FILLMODE
 70
     1
  9
$QTEXTMODE
 70
     0
  9
$MIRRTEXT
 70
     1
  9
$LTSCALE
 40
1.0
  9
$ATTMODE
 70
     1
  9
$TEXTSIZE
 40
3.5
  9
$TRACEWID
 40
1.0
  9
$TEXTSTYLE
  7
Standard
  9
$CLAYER
  8
0
  9
$CELTYPE
  6
ByLayer
  9
$CECOLOR
 62
   256
  9
$CELTSCALE
 40
1.0
  9
$DISPSILH
 70
     0
  9
$DIMSCALE
 40
1.0
  9
$DIMASZ
 40
3.302
  9
$DIMEXO
 40
1.0
  9
$DIMDLI
 40
3.75
  9
$DIMRND
 40
0.0
  9
$DIMDLE
 40
0.0
  9
$DIMEXE
 40
1.0
  9
$DIMTP
 40
0.0
  9
$DIMTM
 40
0.0
  9
$DIMTXT
 40
3.5
  9
$DIMCEN
 40
2.5
  9
$DIMTSZ
 40
0.0
  9
$DIMTOL
 70
     0
  9
$DIMLIM
 70
     0
  9
$DIMTIH
 70
     1
  9
$DIMTOH
 70
     1
  9
$DIMSE1
 70
     0
  9
$DIMSE2
 70
     0
  9
$DIMTAD
 70
     1
  9
$DIMZIN
 70
     0
  9
$DIMBLK
  1

  9
$DIMASO
 70
     1
  9
$DIMSHO
 70
     1
  9
$DIMPOST
  1

  9
$DIMAPOST
  1

  9
$DIMALT
 70
     0
  9
$DIMALTD
 70
     3
  9
$DIMALTF
 40
0.0393700787401575
  9
$DIMLFAC
 40
1.0
  9
$DIMTOFL
 70
     1
  9
$DIMTVP
 40
0.0
  9
$DIMTIX
 70
     0
  9
$DIMSOXD
 70
     0
  9
$DIMSAH
 70
     0
  9
$DIMBLK1
  1

  9
$DIMBLK2
  1

  9
$DIMSTYLE
  2
ISO-25
  9
$DIMCLRD
 70
     0
  9
$DIMCLRE
 70
     0
  9
$DIMCLRT
 70
     0
  9
$DIMTFAC
 40
1.0
  9
$DIMGAP
 40
1.524
  9
$DIMJUST
 70
     0
  9
$DIMSD1
 70
     0
  9
$DIMSD2
 70
     0
  9
$DIMTOLJ
 70
     0
  9
$DIMTZIN
 70
     0
  9
$DIMALTZ
 70
     0
  9
$DIMALTTZ
 70
     0
  9
$DIMUPT
 70
     0
  9
$DIMDEC
 70
     2
  9
$DIMTDEC
 70
     2
  9
$DIMALTU
 70
     2
  9
$DIMALTTD
 70
     3
  9
$DIMTXSTY
  7
Standard
  9
$DIMAUNIT
 70
     0
  9
$DIMADEC
 70
     2
  9
$DIMALTRND
 40
0.0
  9
$DIMAZIN
 70
     0
  9
$DIMDSEP
 70
    44
  9
$DIMATFIT
 70
     3
  9
$DIMFRAC
 70
     0
  9
$DIMLDRBLK
  1

  9
$DIMLUNIT
 70
     2
  9
$DIMLWD
 70
    -2
  9
$DIMLWE
 70
    -2
  9
$DIMTMOVE
 70
     0
  9
$LUNITS
 70
     2
  9
$LUPREC
 70
     2
  9
$SKETCHINC
 40
1.0
  9
$FILLETRAD
 40
10.0
  9
$AUNITS
 70
     0
  9
$AUPREC
 70
     2
  9
$MENU
  1
.
  9
$ELEVATION
 40
0.0
  9
$PELEVATION
 40
0.0
  9
$THICKNESS
 40
0.0
  9
$LIMCHECK
 70
     0
  9
$CHAMFERA
 40
0.0
  9
$CHAMFERB
 40
0.0
  9
$CHAMFERC
 40
0.0
  9
$CHAMFERD
 40
0.0
  9
$SKPOLY
 70
     0
  9
$TDCREATE
 40
2458250.492518808
  9
$TDUCREATE
 40
2458250.117518808
  9
$TDUPDATE
 40
2458264.416496458
  9
$TDUUPDATE
 40
2458264.041496458
  9
$TDINDWG
 40
0.0019851852
  9
$TDUSRTIMER
 40
0.0005409722
  9
$USRTIMER
 70
     1
  9
$ANGBASE
 50
0.0
  9
$ANGDIR
 70
     0
  9
$PDMODE
 70
     0
  9
$PDSIZE
 40
-1.0
  9
$PLINEWID
 40
0.0
  9
$SPLFRAME
 70
     0
  9
$SPLINETYPE
 70
     6
  9
$SPLINESEGS
 70
     8
  9
$HANDSEED
  5
161
  9
$SURFTAB1
 70
     6
  9
$SURFTAB2
 70
     6
  9
$SURFTYPE
 70
     6
  9
$SURFU
 70
     6
  9
$SURFV
 70
     6
  9
$UCSBASE
  2

  9
$UCSNAME
  2

  9
$UCSORG
 10
0.0
 20
0.0
 30
0.0
  9
$UCSXDIR
 10
1.0
 20
0.0
 30
0.0
  9
$UCSYDIR
 10
0.0
 20
1.0
 30
0.0
  9
$UCSORTHOREF
  2

  9
$UCSORTHOVIEW
 70
     0
  9
$UCSORGTOP
 10
0.0
 20
0.0
 30
0.0
  9
$UCSORGBOTTOM
 10
0.0
 20
0.0
 30
0.0
  9
$UCSORGLEFT
 10
0.0
 20
0.0
 30
0.0
  9
$UCSORGRIGHT
 10
0.0
 20
0.0
 30
0.0
  9
$UCSORGFRONT
 10
0.0
 20
0.0
 30
0.0
  9
$UCSORGBACK
 10
0.0
 20
0.0
 30
0.0
  9
$PUCSBASE
  2

  9
$PUCSNAME
  2

  9
$PUCSORG
 10
0.0
 20
0.0
 30
0.0
  9
$PUCSXDIR
 10
1.0
 20
0.0
 30
0.0
  9
$PUCSYDIR
 10
0.0
 20
1.0
 30
0.0
  9
$PUCSORTHOREF
  2

  9
$PUCSORTHOVIEW
 70
     0
  9
$PUCSORGTOP
 10
0.0
 20
0.0
 30
0.0
  9
$PUCSORGBOTTOM
 10
0.0
 20
0.0
 30
0.0
  9
$PUCSORGLEFT
 10
0.0
 20
0.0
 30
0.0
  9
$PUCSORGRIGHT
 10
0.0
 20
0.0
 30
0.0
  9
$PUCSORGFRONT
 10
0.0
 20
0.0
 30
0.0
  9
$PUCSORGBACK
 10
0.0
 20
0.0
 30
0.0
  9
$USERI1
 70
     0
  9
$USERI2
 70
     0
  9
$USERI3
 70
     0
  9
$USERI4
 70
     0
  9
$USERI5
 70
     0
  9
$USERR1
 40
0.0
  9
$USERR2
 40
0.0
  9
$USERR3
 40
0.0
  9
$USERR4
 40
0.0
  9
$USERR5
 40
0.0
  9
$WORLDVIEW
 70
     1
  9
$SHADEDGE
 70
     3
  9
$SHADEDIF
 70
    70
  9
$TILEMODE
 70
     1
  9
$MAXACTVP
 70
    64
  9
$PINSBASE
 10
0.0
 20
0.0
 30
0.0
  9
$PLIMCHECK
 70
     0
  9
$PEXTMIN
 10
1.000000000000000E+20
 20
1.000000000000000E+20
 30
1.000000000000000E+20
  9
$PEXTMAX
 10
-1.000000000000000E+20
 20
-1.000000000000000E+20
 30
-1.000000000000000E+20
  9
$PLIMMIN
 10
0.0
 20
0.0
  9
$PLIMMAX
 10
0.0
 20
0.0
  9
$UNITMODE
 70
     0
  9
$VISRETAIN
 70
     1
  9
$PLINEGEN
 70
     0
  9
$PSLTSCALE
 70
     1
  9
$TREEDEPTH
 70
  3020
  9
$CMLSTYLE
  2
Standard
  9
$CMLJUST
 70
     0
  9
$CMLSCALE
 40
20.0
  9
$PROXYGRAPHICS
 70
     1
  9
$MEASUREMENT
 70
     1
  9
$CELWEIGHT
370
    -1
  9
$ENDCAPS
280
     0
  9
$JOINSTYLE
280
     0
  9
$LWDISPLAY
290
     1
  9
$INSUNITS
 70
     4
  9
$HYPERLINKBASE
  1

  9
$STYLESHEET
  1

  9
$XEDIT
290
     1
  9
$CEPSNTYPE
380
     0
  9
$PSTYLEMODE
290
     1
  9
$FINGERPRINTGUID
  2
{2C31C84C-BE68-4163-A3FE-408EC073DD79}
  9
$VERSIONGUID
  2
{FAEB1C32-E019-11D5-929B-00C0DF256EC4}
  9
$EXTNAMES
290
     1
  9
$PSVPSCALE
 40
0.0
  9
$OLESTARTUP
290
     0
  0
ENDSEC
  0
SECTION
  2
CLASSES
  0
CLASS
  1
ACDBDICTIONARYWDFLT
  2
AcDbDictionaryWithDefault
  3
ObjectDBX Classes
 90
        0
280
     0
281
     0
  0
CLASS
  1
VISUALSTYLE
  2
AcDbVisualStyle
  3
ObjectDBX Classes
 90
     4095
280
     0
281
     0
  0
CLASS
  1
MATERIAL
  2
AcDbMaterial
  3
ObjectDBX Classes
 90
     1153
280
     0
281
     0
  0
CLASS
  1
SCALE
  2
AcDbScale
  3
ObjectDBX Classes
 90
     1153
280
     0
281
     0
  0
CLASS
  1
SUN
  2
AcDbSun
  3
SCENEOE
 90
     1153
280
     0
281
     0
  0
CLASS
  1
ACDBPLACEHOLDER
  2
AcDbPlaceHolder
  3
ObjectDBX Classes
 90
        0
280
     0
281
     0
  0
CLASS
  1
LAYOUT
  2
AcDbLayout
  3
ObjectDBX Classes
 90
        0
280
     0
281
     0
  0
CLASS
  1
TABLESTYLE
  2
AcDbTableStyle
  3
ObjectDBX Classes
 90
     4095
280
     0
281
     0
  0
CLASS
  1
MLEADERSTYLE
  2
AcDbMLeaderStyle
  3
ACDB_MLEADERSTYLE_CLASS
 90
     4095
280
     0
281
     0
  0
ENDSEC
  0
SECTION
  2
TABLES
  0
TABLE
  2
VPORT
  5
8
330
0
100
AcDbSymbolTable
 70
     1
  0
VPORT
  5
29
330
8
100
AcDbSymbolTableRecord
100
AcDbViewportTableRecord
  2
*Active
 70
     0
 10
0.0
 20
0.0
 11
1.0
 21
1.0
 12
6.490107161893899
 22
-0.3021042533958163
 13
0.0
 23
0.0
 14
10.0
 24
10.0
 15
10.0
 25
10.0
 16
0.0
 26
0.0
 36
1.0
 17
0.0
 27
0.0
 37
0.0
 40
115.9696362820691
 41
2.223011363636364
 42
50.0
 43
0.0
 44
0.0
 50
0.0
 51
0.0
 71
    16
 72
  2000
 73
     1
 74
     3
 75
     0
 76
     0
 77
     0
 78
     0
281
     0
 65
     1
110
0.0
120
0.0
130
0.0
111
1.0
121
0.0
131
0.0
112
0.0
122
1.0
132
0.0
 79
     0
146
0.0
  0
ENDTAB
  0
TABLE
  2
LTYPE
  5
5
330
0
100
AcDbSymbolTable
 70
     6
  0
LTYPE
  5
14
330
5
100
AcDbSymbolTableRecord
100
AcDbLinetypeTableRecord
  2
ByBlock
 70
     0
  3

 72
    65
 73
     0
 40
0.0
  0
LTYPE
  5
15
330
5
100
AcDbSymbolTableRecord
100
AcDbLinetypeTableRecord
  2
ByLayer
 70
     0
  3

 72
    65
 73
     0
 40
0.0
  0
LTYPE
  5
16
330
5
100
AcDbSymbolTableRecord
100
AcDbLinetypeTableRecord
  2
Continuous
 70
     0
  3
Solid line
 72
    65
 73
     0
 40
0.0
  0
LTYPE
  5
6A
330
5
100
AcDbSymbolTableRecord
100
AcDbLinetypeTableRecord
  2
HIDDEN
 70
     0
  3
Hidden __ __ __ __ __ __ __ __ __ __ __ __ __ __
 72
    65
 73
     2
 40
1.905
 49
1.27
 74
     0
 49
-0.635
 74
     0
  0
LTYPE
  5
6B
330
5
100
AcDbSymbolTableRecord
100
AcDbLinetypeTableRecord
  2
PHANTOM
 70
     0
  3
Phantom ______  __  __  ______  __  __  ______
 72
    65
 73
     6
 40
12.7
 49
6.35
 74
     0
 49
-1.27
 74
     0
 49
1.27
 74
     0
 49
-1.27
 74
     0
 49
1.27
 74
     0
 49
-1.27
 74
     0
  0
LTYPE
  5
6C
330
5
100
AcDbSymbolTableRecord
100
AcDbLinetypeTableRecord
  2
CENTER
 70
     0
  3
Center ____ _ ____ _ ____ _ ____ _ ____ _ ____
 72
    65
 73
     4
 40
10.16
 49
6.35
 74
     0
 49
-1.27
 74
     0
 49
1.27
 74
     0
 49
-1.27
 74
     0
  0
LTYPE
  5
6D
330
5
100
AcDbSymbolTableRecord
100
AcDbLinetypeTableRecord
  2
CENTERX2
 70
     0
  3
Center (2x) ________  __  ________  __  _____
 72
    65
 73
     4
 40
20.32
 49
12.7
 74
     0
 49
-2.54
 74
     0
 49
2.54
 74
     0
 49
-2.54
 74
     0
  0
LTYPE
  5
6E
330
5
100
AcDbSymbolTableRecord
100
AcDbLinetypeTableRecord
  2
DOT2
 70
     0
  3
Dot (.5x) ........................................
 72
    65
 73
     2
 40
0.635
 49
0.0
 74
     0
 49
-0.635
 74
     0
  0
ENDTAB
  0
TABLE
  2
LAYER
  5
2
330
0
100
AcDbSymbolTable
 70
    17
  0
LAYER
  5
10
330
2
100
AcDbSymbolTableRecord
100
AcDbLayerTableRecord
  2
0
 70
     0
 62
     7
  6
Continuous
370
    -3
390
F
  0
LAYER
  5
6F
330
2
100
AcDbSymbolTableRecord
100
AcDbLayerTableRecord
  2
FORMAT
 70
     0
 62
     2
  6
Continuous
370
    -3
390
F
  0
LAYER
  5
70
330
2
100
AcDbSymbolTableRecord
100
AcDbLayerTableRecord
  2
외형선
 70
     0
 62
   100
  6
Continuous
370
    30
390
F
  0
LAYER
  5
71
330
2
100
AcDbSymbolTableRecord
100
AcDbLayerTableRecord
  2
숨은선
 70
     0
 62
     2
  6
HIDDEN
370
    15
390
F
  0
LAYER
  5
72
330
2
100
AcDbSymbolTableRecord
100
AcDbLayerTableRecord
  2
중심선
 70
     0
 62
     1
  6
CENTERX2
370
    -3
390
F
  0
LAYER
  5
73
330
2
100
AcDbSymbolTableRecord
100
AcDbLayerTableRecord
  2
파단선
 70
     0
 62
     4
  6
Continuous
370
    -3
390
F
  0
LAYER
  5
74
330
2
100
AcDbSymbolTableRecord
100
AcDbLayerTableRecord
  2
해칭선
 70
     0
 62
     4
  6
Continuous
370
    -3
390
F
  0
LAYER
  5
75
330
2
100
AcDbSymbolTableRecord
100
AcDbLayerTableRecord
  2
가는실선
 70
     0
 62
     4
  6
Continuous
370
    -3
390
F
  0
LAYER
  5
76
330
2
100
AcDbSymbolTableRecord
100
AcDbLayerTableRecord
  2
치수_보조선
 70
     0
 62
     4
  6
Continuous
370
    -3
390
F
  0
LAYER
  5
77
330
2
100
AcDbSymbolTableRecord
100
AcDbLayerTableRecord
  2
치수문자_일반주서
 70
     0
 62
     7
  6
Continuous
370
    15
390
F
  0
LAYER
  5
78
330
2
100
AcDbSymbolTableRecord
100
AcDbLayerTableRecord
  2
개별주서
 70
     0
 62
   100
  6
Continuous
370
    30
390
F
  0
LAYER
  5
79
330
2
100
AcDbSymbolTableRecord
100
AcDbLayerTableRecord
  2
중간선
 70
     0
 62
     2
  6
Continuous
370
    15
390
F
  0
LAYER
  5
7A
330
2
100
AcDbSymbolTableRecord
100
AcDbLayerTableRecord
  2
윤곽선
 70
     0
 62
     3
  6
Continuous
370
    40
390
F
  0
LAYER
  5
7B
330
2
100
AcDbSymbolTableRecord
100
AcDbLayerTableRecord
  2
중심마크
 70
     0
 62
   100
  6
Continuous
370
    30
390
F
  0
LAYER
  5
7C
330
2
100
AcDbSymbolTableRecord
100
AcDbLayerTableRecord
  2
가상선
 70
     0
 62
     4
  6
PHANTOM
370
    -3
390
F
  0
LAYER
  5
7D
330
2
100
AcDbSymbolTableRecord
100
AcDbLayerTableRecord
  2
특수지정선
 70
     0
 62
     5
  6
CENTERX2
370
    60
390
F
  0
LAYER
  5
133
330
2
100
AcDbSymbolTableRecord
100
AcDbLayerTableRecord
  2
Defpoints
 70
     0
 62
     7
  6
Continuous
290
     0
370
    -3
390
F
  0
ENDTAB
  0
TABLE
  2
STYLE
  5
3
330
0
100
AcDbSymbolTable
 70
     2
  0
STYLE
  5
11
330
3
100
AcDbSymbolTableRecord
100
AcDbTextStyleTableRecord
  2
Standard
 70
     0
 40
0.0
 41
1.0
 50
0.0
 71
     0
 42
3.5
  3
txt
  4

  0
STYLE
  5
93
330
3
100
AcDbSymbolTableRecord
100
AcDbTextStyleTableRecord
  2
SLDTEXTSTYLE0
 70
     0
 40
0.0
 41
0.75
 50
0.0
 71
     0
 42
3.5
  3
TXT
  4

  0
ENDTAB
  0
TABLE
  2
VIEW
  5
6
330
0
100
AcDbSymbolTable
 70
     0
  0
ENDTAB
  0
TABLE
  2
UCS
  5
7
330
0
100
AcDbSymbolTable
 70
     0
  0
ENDTAB
  0
TABLE
  2
APPID
  5
9
330
0
100
AcDbSymbolTable
 70
     2
  0
APPID
  5
12
330
9
100
AcDbSymbolTableRecord
100
AcDbRegAppTableRecord
  2
ACAD
 70
     0
  0
APPID
  5
132
330
9
100
AcDbSymbolTableRecord
100
AcDbRegAppTableRecord
  2
PE_URL
 70
     0
  0
ENDTAB
  0
TABLE
  2
DIMSTYLE
  5
A
330
0
100
AcDbSymbolTable
 70
     3
100
AcDbDimStyleTable
  0
DIMSTYLE
105
27
330
A
100
AcDbSymbolTableRecord
100
AcDbDimStyleTableRecord
  2
ISO-25
 70
     0
 41
2.5
 42
0.625
 43
3.75
 44
1.25
 73
     0
 74
     0
 77
     1
 78
     8
140
2.5
141
2.5
143
0.03937007874016
147
0.625
171
     3
172
     1
178
     0
271
     2
272
     2
274
     3
278
    44
283
     0
284
     8
340
11
  0
DIMSTYLE
105
DA
102
{ACAD_REACTORS
330
D9
330
E4
102
}
330
A
100
AcDbSymbolTableRecord
100
AcDbDimStyleTableRecord
  2
SLDDIMSTYLE0
 70
     0
 41
3.302
 44
0.0
 45
0.000000001
 73
     0
 74
     0
 77
     1
 78
    12
 79
     3
140
3.5
147
0.875
173
     1
178
     0
271
     2
272
     2
276
     2
284
    12
340
93
  0
DIMSTYLE
105
EF
102
{ACAD_REACTORS
330
EE
330
FC
102
}
330
A
100
AcDbSymbolTableRecord
100
AcDbDimStyleTableRecord
  2
SLDDIMSTYLE1
 70
     0
 41
3.302
 44
0.0
 45
0.000000001
 73
     0
 74
     0
 77
     1
 78
    12
 79
     3
140
3.5
147
0.875
172
     1
173
     1
178
     0
271
     2
272
     2
276
     2
284
    12
289
     0
340
93
  0
ENDTAB
  0
TABLE
  2
BLOCK_RECORD
  5
1
330
0
100
AcDbSymbolTable
 70
     7
  0
BLOCK_RECORD
  5
1F
330
1
100
AcDbSymbolTableRecord
100
AcDbBlockTableRecord
  2
*Model_Space
340
22
  0
BLOCK_RECORD
  5
1B
330
1
100
AcDbSymbolTableRecord
100
AcDbBlockTableRecord
  2
*Paper_Space
340
1E
  0
BLOCK_RECORD
  5
23
330
1
100
AcDbSymbolTableRecord
100
AcDbBlockTableRecord
  2
*Paper_Space0
340
26
  0
BLOCK_RECORD
  5
7E
330
1
100
AcDbSymbolTableRecord
100
AcDbBlockTableRecord
  2
블럭10
340
0
102
{BLKREFS
331
D2
102
}
  0
BLOCK_RECORD
  5
DB
330
1
100
AcDbSymbolTableRecord
100
AcDbBlockTableRecord
  2
_D
340
0
  0
BLOCK_RECORD
  5
E5
330
1
100
AcDbSymbolTableRecord
100
AcDbBlockTableRecord
  2
_D_1
340
0
  0
BLOCK_RECORD
  5
F0
330
1
100
AcDbSymbolTableRecord
100
AcDbBlockTableRecord
  2
_D_2
340
0
  0
BLOCK_RECORD
  5
FD
330
1
100
AcDbSymbolTableRecord
100
AcDbBlockTableRecord
  2
_D_3
340
0
  0
BLOCK_RECORD
  5
109
330
1
100
AcDbSymbolTableRecord
100
AcDbBlockTableRecord
  2
SW_DOWELSYMBOL_0
340
0
102
{BLKREFS
331
10F
102
}
  0
ENDTAB
  0
ENDSEC
  0
SECTION
  2
BLOCKS
  0
BLOCK
  5
20
330
1F
100
AcDbEntity
  8
0
100
AcDbBlockBegin
  2
*Model_Space
 70
     0
 10
0.0
 20
0.0
 30
0.0
  3
*Model_Space
  1

  0
ENDBLK
  5
21
330
1F
100
AcDbEntity
  8
0
100
AcDbBlockEnd
  0
BLOCK
  5
1C
330
1B
100
AcDbEntity
 67
     1
  8
0
100
AcDbBlockBegin
  2
*Paper_Space
 70
     0
 10
0.0
 20
0.0
 30
0.0
  3
*Paper_Space
  1

  0
ENDBLK
  5
1D
330
1B
100
AcDbEntity
 67
     1
  8
0
100
AcDbBlockEnd
  0
BLOCK
  5
24
330
23
100
AcDbEntity
  8
0
100
AcDbBlockBegin
  2
*Paper_Space0
 70
     0
 10
0.0
 20
0.0
 30
0.0
  3
*Paper_Space0
  1

  0
ENDBLK
  5
25
330
23
100
AcDbEntity
  8
0
100
AcDbBlockEnd
  0
BLOCK
  5
7F
330
7E
100
AcDbEntity
  8
0
100
AcDbBlockBegin
  2
블럭10
 70
     2
 10
0.0
 20
0.0
 30
0.0
  3
블럭10
  1

  0
ELLIPSE
  5
81
330
7E
100
AcDbEntity
  8
중심선
100
AcDbEllipse
 10
20.54032771741204
 20
12.0471743016438
 30
0.0
 11
6.600054785286829
 21
-1.261213355974178E-13
 31
0.0
210
0.0
220
0.0
230
1.0
 40
0.636358354079598
 41
0.9219305317359503
 42
6.513795318482858
  0
ELLIPSE
  5
82
330
7E
100
AcDbEntity
  8
중심선
100
AcDbEllipse
 10
20.54032771746488
 20
12.04717430159265
 30
0.0
 11
3.960054785062283
 21
1.540847449632565E-10
 31
0.0
210
0.0
220
0.0
230
1.0
 40
0.3939339440162632
 41
1.131841032648279
 42
5.62031148352944
  0
LINE
  5
83
330
7E
100
AcDbEntity
  8
중심선
100
AcDbLine
 10
2.268634060543552
 20
16.24717430164393
 30
0.0
 11
5.714909304380834
 21
16.24717430164393
 31
0.0
  0
LINE
  5
84
330
7E
100
AcDbEntity
  8
중심선
100
AcDbLine
 10
5.245725140726316
 20
7.84717430164391
 30
0.0
 11
8.692000384563599
 21
7.84717430164391
 31
0.0
  0
LINE
  5
85
330
7E
100
AcDbEntity
  8
중심선
100
AcDbLine
 10
15.74043728645272
 20
16.24717430164393
 30
0.0
 11
8.692000384563599
 21
7.84717430164391
 31
0.0
  0
LINE
  5
86
330
7E
100
AcDbEntity
  8
중심선
100
AcDbLine
 10
0.1404042013395286
 20
13.71084872107135
 30
0.0
 11
3.58671253028996
 21
13.71088815037384
 31
0.0
  0
LINE
  5
87
330
7E
100
AcDbEntity
  8
중심선
100
AcDbLine
 10
2.750260043222114
 20
10.84717430164391
 30
0.0
 11
6.196535287059397
 21
10.84717430164391
 31
0.0
  0
LINE
  5
88
330
7E
100
AcDbEntity
  8
중심선
100
AcDbLine
 10
12.29416204261559
 20
16.24717430164393
 30
0.0
 11
5.245725140726316
 21
7.84717430164391
 31
0.0
  0
LINE
  5
89
330
7E
100
AcDbEntity
  8
중심선
100
AcDbLine
 10
10.72767329541681
 20
16.24717430164393
 30
0.0
 11
6.196535287059397
 21
10.84717430164391
 31
0.0
  0
LINE
  5
8A
330
7E
100
AcDbEntity
  8
중심선
100
AcDbLine
 10
7.28139805157953
 20
16.24717430164393
 30
0.0
 11
2.750260043222114
 21
10.84717430164391
 31
0.0
  0
LINE
  5
8B
330
7E
100
AcDbEntity
  8
중심선
100
AcDbLine
 10
5.714909304380834
 20
16.24717430164393
 30
0.0
 11
3.58671253028996
 21
13.71088815037384
 31
0.0
  0
LINE
  5
8C
330
7E
100
AcDbEntity
  8
중심선
100
AcDbLine
 10
2.268634060543552
 20
16.24717430164393
 30
0.0
 11
0.1404042013395286
 21
13.71084872107135
 31
0.0
  0
LINE
  5
8D
330
7E
100
AcDbEntity
  8
중심선
100
AcDbLine
 10
7.28139805157953
 20
16.24717430164393
 30
0.0
 11
10.72767329541681
 21
16.24717430164393
 31
0.0
  0
LINE
  5
8E
330
7E
100
AcDbEntity
  8
중심선
100
AcDbLine
 10
12.29416204261559
 20
16.24717430164393
 30
0.0
 11
15.74043728645272
 21
16.24717430164393
 31
0.0
  0
LINE
  5
8F
330
7E
100
AcDbEntity
  8
중심선
100
AcDbLine
 10
19.22036997980202
 20
11.08717430171403
 30
0.0
 11
23.66174974927406
 21
11.08717430171406
 31
0.0
  0
LINE
  5
90
330
7E
100
AcDbEntity
  8
중심선
100
AcDbLine
 10
19.22039502424796
 20
13.00717430171391
 30
0.0
 11
19.22036997980202
 21
11.08717430171403
 31
0.0
  0
LINE
  5
91
330
7E
100
AcDbEntity
  8
중심선
100
AcDbLine
 10
19.22039502424796
 20
13.00717430171391
 30
0.0
 11
26.96566020931264
 21
13.00717430171391
 31
0.0
  0
LINE
  5
92
330
7E
100
AcDbEntity
  8
중심선
100
AcDbLine
 10
22.22332737316547
 20
13.45928029700563
 30
0.0
 11
24.52862924686651
 21
15.39360700705356
 31
0.0
  0
ATTDEF
  5
94
330
7E
100
AcDbEntity
  8
FORMAT
 62
     2
100
AcDbText
 10
-12.95993919485777
 20
2.075366912832191
 30
0.0
 40
4.233333333333333
  1
SEME35085E [ 2 FLUTE ]
 41
0.75
  7
SLDTEXTSTYLE0
 11
-12.95993919485777
 21
-0.0412997538344756
 31
0.0
100
AcDbAttributeDefinition
  3

  2
AUTOATTR0
 70
     0
 74
     1
  0
ENDBLK
  5
80
330
7E
100
AcDbEntity
  8
0
100
AcDbBlockEnd
  0
BLOCK
  5
DC
330
DB
100
AcDbEntity
  8
0
100
AcDbBlockBegin
  2
_D
 70
     0
 10
0.0
 20
0.0
 30
0.0
  3
_D
  1

  0
LINE
  5
DE
330
DB
100
AcDbEntity
  8
치수문자_일반주서
 62
     0
370
    -2
100
AcDbLine
 10
27.79903810567664
 20
4.308907964725991
 30
0.0
 11
27.79903810567664
 21
16.49704185330377
 31
0.0
  0
LINE
  5
DF
330
DB
100
AcDbEntity
  8
치수문자_일반주서
 62
     0
370
    -2
100
AcDbLine
 10
5.799038105676647
 20
4.285982727729303
 30
0.0
 11
5.799038105676647
 21
16.49704185330377
 31
0.0
  0
LINE
  5
E0
330
DB
100
AcDbEntity
  8
치수문자_일반주서
 62
     0
370
    -2
100
AcDbLine
 10
24.49703810567664
 20
16.49704185330377
 30
0.0
 11
9.101038105676647
 21
16.49704185330377
 31
0.0
  0
SOLID
  5
E1
330
DB
100
AcDbEntity
  8
치수문자_일반주서
 62
     0
100
AcDbTrace
 10
24.49703810567664
 20
15.94670851997044
 30
0.0
 11
24.49703810567664
 21
17.0473751866371
 31
0.0
 12
27.79903810567664
 22
16.49704185330377
 32
0.0
 13
27.79903810567664
 23
16.49704185330377
 33
0.0
  0
SOLID
  5
E2
330
DB
100
AcDbEntity
  8
치수문자_일반주서
 62
     0
100
AcDbTrace
 10
9.101038105676647
 20
17.0473751866371
 30
0.0
 11
9.101038105676647
 21
15.94670851997044
 31
0.0
 12
5.799038105676647
 22
16.49704185330377
 32
0.0
 13
5.799038105676647
 23
16.49704185330377
 33
0.0
  0
MTEXT
  5
E3
330
DB
100
AcDbEntity
  8
치수문자_일반주서
 62
     0
100
AcDbMText
 10
16.79903810567664
 20
20.87204185330377
 30
0.0
 40
3.5
 41
0.0
 71
     2
 72
     1
  1
\A1;22
  7
SLDTEXTSTYLE0
 73
     1
 44
1.0
  0
POINT
  5
138
330
DB
100
AcDbEntity
  8
Defpoints
 62
     0
100
AcDbPoint
 10
27.79903810567664
 20
4.246407964725991
 30
0.0
  0
POINT
  5
139
330
DB
100
AcDbEntity
  8
Defpoints
 62
     0
100
AcDbPoint
 10
5.799038105676647
 20
4.223482727729303
 30
0.0
  0
POINT
  5
13A
330
DB
100
AcDbEntity
  8
Defpoints
 62
     0
100
AcDbPoint
 10
5.799038105676647
 20
16.49704185330377
 30
0.0
  0
ENDBLK
  5
DD
330
DB
100
AcDbEntity
  8
0
100
AcDbBlockEnd
  0
BLOCK
  5
E6
330
E5
100
AcDbEntity
  8
0
100
AcDbBlockBegin
  2
_D_1
 70
     0
 10
0.0
 20
0.0
 30
0.0
  3
_D_1
  1

  0
LINE
  5
E8
330
E5
100
AcDbEntity
  8
치수문자_일반주서
 62
     0
370
    -2
100
AcDbLine
 10
27.79903810567664
 20
4.308907964725991
 30
0.0
 11
27.79903810567664
 21
25.75915911661226
 31
0.0
  0
LINE
  5
E9
330
E5
100
AcDbEntity
  8
치수문자_일반주서
 62
     0
370
    -2
100
AcDbLine
 10
-42.20096189432336
 20
4.062499999999995
 30
0.0
 11
-42.20096189432337
 21
25.75915911661226
 31
0.0
  0
LINE
  5
EA
330
E5
100
AcDbEntity
  8
치수문자_일반주서
 62
     0
370
    -2
100
AcDbLine
 10
24.49703810567664
 20
25.75915911661226
 30
0.0
 11
-38.89896189432337
 21
25.75915911661226
 31
0.0
  0
SOLID
  5
EB
330
E5
100
AcDbEntity
  8
치수문자_일반주서
 62
     0
100
AcDbTrace
 10
24.49703810567664
 20
25.20882578327893
 30
0.0
 11
24.49703810567664
 21
26.30949244994559
 31
0.0
 12
27.79903810567664
 22
25.75915911661226
 32
0.0
 13
27.79903810567664
 23
25.75915911661226
 33
0.0
  0
SOLID
  5
EC
330
E5
100
AcDbEntity
  8
치수문자_일반주서
 62
     0
100
AcDbTrace
 10
-38.89896189432337
 20
26.30949244994559
 30
0.0
 11
-38.89896189432337
 21
25.20882578327893
 31
0.0
 12
-42.20096189432337
 22
25.75915911661226
 32
0.0
 13
-42.20096189432337
 23
25.75915911661226
 33
0.0
  0
MTEXT
  5
ED
330
E5
100
AcDbEntity
  8
치수문자_일반주서
 62
     0
100
AcDbMText
 10
-7.200961894323349
 20
30.13415911661226
 30
0.0
 40
3.5
 41
0.0
 71
     2
 72
     1
  1
\A1;70
  7
SLDTEXTSTYLE0
 73
     1
 44
1.0
  0
POINT
  5
134
330
E5
100
AcDbEntity
  8
Defpoints
 62
     0
100
AcDbPoint
 10
27.79903810567664
 20
4.246407964725991
 30
0.0
  0
POINT
  5
135
330
E5
100
AcDbEntity
  8
Defpoints
 62
     0
100
AcDbPoint
 10
-42.20096189432336
 20
3.999999999999995
 30
0.0
  0
POINT
  5
136
330
E5
100
AcDbEntity
  8
Defpoints
 62
     0
100
AcDbPoint
 10
-42.20096189432336
 20
25.75915911661226
 30
0.0
  0
ENDBLK
  5
E7
330
E5
100
AcDbEntity
  8
0
100
AcDbBlockEnd
  0
BLOCK
  5
F1
330
F0
100
AcDbEntity
  8
0
100
AcDbBlockBegin
  2
_D_2
 70
     0
 10
0.0
 20
0.0
 30
0.0
  3
_D_2
  1

  0
LINE
  5
F3
330
F0
100
AcDbEntity
  8
치수문자_일반주서
 62
     0
370
    -2
100
AcDbLine
 10
27.86153810567664
 20
4.251407964725991
 30
0.0
 11
43.36522841792291
 21
4.251407964726051
 31
0.0
  0
LINE
  5
F4
330
F0
100
AcDbEntity
  8
치수문자_일반주서
 62
     0
370
    -2
100
AcDbLine
 10
27.86153810567664
 20
-4.246407964725987
 30
0.0
 11
43.36522841792294
 21
-4.246407964725927
 31
0.0
  0
LINE
  5
F5
330
F0
100
AcDbEntity
  8
치수문자_일반주서
 62
     0
370
    -2
100
AcDbLine
 10
43.36522841792292
 20
0.9494079647260505
 30
0.0
 11
43.36522841792292
 21
-0.9444079647259271
 31
0.0
  0
SOLID
  5
F6
330
F0
100
AcDbEntity
  8
치수문자_일반주서
 62
     0
100
AcDbTrace
 10
43.91556175125626
 20
0.9494079647260524
 30
0.0
 11
42.81489508458959
 21
0.9494079647260486
 31
0.0
 12
43.36522841792291
 22
4.251407964726051
 32
0.0
 13
43.36522841792291
 23
4.251407964726051
 33
0.0
  0
SOLID
  5
F7
330
F0
100
AcDbEntity
  8
치수문자_일반주서
 62
     0
100
AcDbTrace
 10
42.81489508458959
 20
-0.944407964725929
 30
0.0
 11
43.91556175125626
 21
-0.9444079647259253
 31
0.0
 12
43.36522841792294
 22
-4.246407964725927
 32
0.0
 13
43.36522841792294
 23
-4.246407964725927
 33
0.0
  0
MTEXT
  5
F8
330
F0
100
AcDbEntity
  8
치수문자_일반주서
 62
     0
100
AcDbMText
 10
38.99022841792292
 20
-0.0000000000000141
 30
0.0
 40
3.5
 41
0.0
 71
     2
 72
     1
  1
\A1;%%c8.5
  7
SLDTEXTSTYLE0
 11
-3.344589911850081E-15
 21
1.0
 31
0.0
 73
     1
 44
1.0
  0
POINT
  5
F9
330
F0
100
AcDbEntity
  8
Defpoints
 62
     0
100
AcDbPoint
 10
27.79903810567664
 20
4.251407964725991
 30
0.0
  0
POINT
  5
FA
330
F0
100
AcDbEntity
  8
Defpoints
 62
     0
100
AcDbPoint
 10
27.79903810567664
 20
-4.246407964725987
 30
0.0
  0
POINT
  5
FB
330
F0
100
AcDbEntity
  8
Defpoints
 62
     0
100
AcDbPoint
 10
43.36522841792294
 20
-4.246407964725929
 30
0.0
  0
ENDBLK
  5
F2
330
F0
100
AcDbEntity
  8
0
100
AcDbBlockEnd
  0
BLOCK
  5
FE
330
FD
100
AcDbEntity
  8
0
100
AcDbBlockBegin
  2
_D_3
 70
     0
 10
0.0
 20
0.0
 30
0.0
  3
_D_3
  1

  0
LINE
  5
100
330
FD
100
AcDbEntity
  8
치수문자_일반주서
 62
     0
370
    -2
100
AcDbLine
 10
-41.26346189432336
 20
4.999999999999996
 30
0.0
 11
-53.62052133971191
 21
4.999999999999949
 31
0.0
  0
LINE
  5
101
330
FD
100
AcDbEntity
  8
치수문자_일반주서
 62
     0
370
    -2
100
AcDbLine
 10
-41.26346189432336
 20
-4.999999999999999
 30
0.0
 11
-53.62052133971188
 21
-5.000000000000045
 31
0.0
  0
LINE
  5
102
330
FD
100
AcDbEntity
  8
치수문자_일반주서
 62
     0
370
    -2
100
AcDbLine
 10
-53.6205213397119
 20
1.697999999999949
 30
0.0
 11
-53.62052133971189
 21
-1.698000000000045
 31
0.0
  0
SOLID
  5
103
330
FD
100
AcDbEntity
  8
치수문자_일반주서
 62
     0
100
AcDbTrace
 10
-53.07018800637857
 20
1.697999999999951
 30
0.0
 11
-54.17085467304523
 21
1.697999999999947
 31
0.0
 12
-53.62052133971191
 22
4.999999999999949
 32
0.0
 13
-53.62052133971191
 23
4.999999999999949
 33
0.0
  0
SOLID
  5
104
330
FD
100
AcDbEntity
  8
치수문자_일반주서
 62
     0
100
AcDbTrace
 10
-54.17085467304523
 20
-1.698000000000047
 30
0.0
 11
-53.07018800637856
 21
-1.698000000000043
 31
0.0
 12
-53.62052133971188
 22
-5.000000000000045
 32
0.0
 13
-53.62052133971188
 23
-5.000000000000045
 33
0.0
  0
MTEXT
  5
105
330
FD
100
AcDbEntity
  8
치수문자_일반주서
 62
     0
100
AcDbMText
 10
-57.9955213397119
 20
-0.0000000000000165
 30
0.0
 40
3.5
 41
0.0
 71
     2
 72
     1
  1
\A1;%%c10
  7
SLDTEXTSTYLE0
 11
-3.552713678800503E-15
 21
1.0
 31
0.0
 73
     1
 44
1.0
  0
POINT
  5
106
330
FD
100
AcDbEntity
  8
Defpoints
 62
     0
100
AcDbPoint
 10
-41.20096189432336
 20
4.999999999999996
 30
0.0
  0
POINT
  5
107
330
FD
100
AcDbEntity
  8
Defpoints
 62
     0
100
AcDbPoint
 10
-41.20096189432336
 20
-4.999999999999999
 30
0.0
  0
POINT
  5
108
330
FD
100
AcDbEntity
  8
Defpoints
 62
     0
100
AcDbPoint
 10
-53.62052133971188
 20
-5.000000000000045
 30
0.0
  0
ENDBLK
  5
FF
330
FD
100
AcDbEntity
  8
0
100
AcDbBlockEnd
  0
BLOCK
  5
10A
330
109
100
AcDbEntity
  8
0
100
AcDbBlockBegin
  2
SW_DOWELSYMBOL_0
 70
     0
 10
0.0
 20
0.0
 30
0.0
  3
SW_DOWELSYMBOL_0
  1

  0
CIRCLE
  5
10C
330
109
100
AcDbEntity
  8
외형선
 62
     0
100
AcDbCircle
 10
0.0
 20
0.0
 30
0.0
 40
3.000000000000004
  0
HATCH
  5
10D
330
109
100
AcDbEntity
  8
0
  6
Continuous
 62
     0
370
    30
100
AcDbHatch
 10
0.0
 20
0.0
 30
0.0
210
0.0
220
0.0
230
1.0
  2
SOLID
 70
     1
 71
     0
 91
        1
 92
        0
 93
        3
 72
     2
 10
0.0000000000000087
 20
-0.0000000000000035
 40
3.000000000000004
 50
0.0
 51
90.0
 73
     1
 72
     1
 10
0.0000000000000087
 20
3.000000000000001
 11
0.0000000000000087
 21
-0.0000000000000036
 72
     1
 10
0.0000000000000087
 20
-0.0000000000000035
 11
3.000000000000013
 21
-0.0000000000000035
 97
        0
 75
     0
 76
     1
 98
        1
 10
0.0
 20
0.0
  0
HATCH
  5
10E
330
109
100
AcDbEntity
  8
0
  6
Continuous
 62
     0
370
    30
100
AcDbHatch
 10
0.0
 20
0.0
 30
0.0
210
0.0
220
0.0
230
1.0
  2
SOLID
 70
     1
 71
     0
 91
        1
 92
        0
 93
        3
 72
     2
 10
0.0000000000000087
 20
-0.0000000000000035
 40
3.000000000000004
 50
180.0
 51
270.0000000000007
 73
     1
 72
     1
 10
0.0000000000000087
 20
-3.000000000000008
 11
0.0000000000000087
 21
-0.0000000000000036
 72
     1
 10
0.0000000000000087
 20
-0.0000000000000035
 11
-2.999999999999996
 21
-0.0000000000000035
 97
        0
 75
     0
 76
     1
 98
        1
 10
0.0
 20
0.0
  0
ENDBLK
  5
10B
330
109
100
AcDbEntity
  8
0
100
AcDbBlockEnd
  0
ENDSEC
  0
SECTION
  2
ENTITIES
  0
LINE
  5
95
330
1F
100
AcDbEntity
  8
0
  6
Continuous
 62
     4
370
    15
100
AcDbLine
 10
1.999999999999998
 20
4.999999999999996
 30
0.0
 11
-41.20096189432336
 21
4.999999999999996
 31
0.0
  0
LINE
  5
96
330
1F
100
AcDbEntity
  8
0
  6
Continuous
 62
     4
370
    15
100
AcDbLine
 10
-41.20096189432336
 20
-4.999999999999999
 30
0.0
 11
2.000000000000002
 21
-4.999999999999997
 31
0.0
  0
LINE
  5
97
330
1F
100
AcDbEntity
  8
0
  6
Continuous
 62
     4
370
    15
100
AcDbLine
 10
2.000000000000002
 20
-4.999999999999999
 30
0.0
 11
4.279154989962189
 21
-4.389302261014265
 31
0.0
1001
PE_URL
1000

  0
LINE
  5
98
330
1F
100
AcDbEntity
  8
0
  6
Continuous
 62
     4
370
    15
100
AcDbLine
 10
4.279154989962189
 20
4.389302261014267
 30
0.0
 11
1.999999999999998
 21
4.999999999999999
 31
0.0
1001
PE_URL
1000

  0
LINE
  5
99
330
1F
100
AcDbEntity
  8
0
  6
Continuous
 62
     4
370
    15
100
AcDbLine
 10
-41.20096189432336
 20
4.999999999999994
 30
0.0
 11
-42.20096189432336
 21
3.999999999999995
 31
0.0
  0
LINE
  5
9A
330
1F
100
AcDbEntity
  8
0
  6
Continuous
 62
     4
370
    15
100
AcDbLine
 10
-42.20096189432336
 20
-4.0
 30
0.0
 11
-41.20096189432336
 21
-4.999999999999999
 31
0.0
  0
LINE
  5
9B
330
1F
100
AcDbEntity
  8
0
  6
Continuous
 62
     4
370
    15
100
AcDbLine
 10
4.975261304298227
 20
-4.25
 30
0.0
 11
5.799038105676647
 21
-4.25
 31
0.0
1001
PE_URL
1000

  0
LINE
  5
9C
330
1F
100
AcDbEntity
  8
0
  6
Continuous
 62
     4
370
    15
100
AcDbLine
 10
5.799038105676647
 20
4.25
 30
0.0
 11
4.975261304298227
 21
4.25
 31
0.0
1001
PE_URL
1000

  0
LINE
  5
9D
330
1F
100
AcDbEntity
  8
0
  6
Continuous
 62
     1
370
    15
100
AcDbLine
 10
14.43485035937164
 20
1.198274613742606
 30
0.0
 11
14.39193499875538
 21
1.221875042015672
 31
0.0
  0
SPLINE
  5
9E
330
1F
100
AcDbEntity
  8
0
  6
Continuous
 62
     1
370
    15
100
AcDbSpline
210
0.0
220
0.0
230
1.0
 70
     8
 71
     3
 72
     9
 73
     5
 74
     0
 42
0.000000001
 43
0.00000001
 40
0.0
 40
0.0
 40
0.0
 40
0.0
 40
0.4991404001835845
 40
1.0
 40
1.0
 40
1.0
 40
1.0
 10
16.7890507622055
 20
1.089062592908973
 30
0.0
 10
16.59264164586403
 20
1.182547927854856
 30
0.0
 10
16.19914691718803
 20
1.369840591224719
 30
0.0
 10
15.80558639229837
 20
1.575715107646334
 30
0.0
 10
15.6084678252986
 20
1.678829335553663
 30
0.0
  0
LINE
  5
9F
330
1F
100
AcDbEntity
  8
0
  6
Continuous
 62
     1
370
    15
100
AcDbLine
 10
7.035587874171897
 20
4.250000000000002
 30
0.0
 11
5.799038105676651
 21
4.250000000000002
 31
0.0
  0
SPLINE
  5
A0
330
1F
100
AcDbEntity
  8
0
  6
Continuous
 62
     1
370
    15
100
AcDbSpline
210
0.0
220
0.0
230
1.0
 70
     8
 71
     3
 72
    17
 73
    13
 74
     0
 42
0.000000001
 43
0.00000001
 40
0.0
 40
0.0
 40
0.0
 40
0.0
 40
0.1423841481852313
 40
0.2601503056711122
 40
0.3522061296867121
 40
0.4231693637427053
 40
0.5113566846261697
 40
0.614111715449241
 40
0.717854091493996
 40
0.7912206088773496
 40
0.8764748873640236
 40
1.0
 40
1.0
 40
1.0
 40
1.0
 10
15.38322845958658
 20
3.377216177871606
 30
0.0
 10
15.22314122275139
 20
3.369002521390695
 30
0.0
 10
14.93064557539507
 20
3.353995336451776
 30
0.0
 10
14.51453133314211
 20
3.339387099359523
 30
0.0
 10
14.18301128590884
 20
3.330315746100889
 30
0.0
 10
13.89231287927783
 20
3.324392920630778
 30
0.0
 10
13.58805325934407
 20
3.320264410858034
 30
0.0
 10
13.24566919760215
 20
3.3184975797866
 30
0.0
 10
12.92053483520081
 20
3.31973656904017
 30
0.0
 10
12.61563293139714
 20
3.323292192432895
 30
0.0
 10
12.2875661504497
 20
3.32912992470959
 30
0.0
 10
12.04491173682372
 20
3.33647815652492
 30
0.0
 10
11.90134433961278
 20
3.340825765538354
 30
0.0
  0
SPLINE
  5
A1
330
1F
100
AcDbEntity
  8
0
  6
Continuous
 62
     1
370
    15
100
AcDbSpline
210
0.0
220
0.0
230
1.0
 70
     8
 71
     3
 72
    32
 73
    28
 74
     0
 42
0.000000001
 43
0.00000001
 40
0.0
 40
0.0
 40
0.0
 40
0.0
 40
0.0728981654780219
 40
0.127108915437468
 40
0.1587346361311403
 40
0.184185645388931
 40
0.2085239639942653
 40
0.2347835994304857
 40
0.2658486563450176
 40
0.3052876493389207
 40
0.3519747345744859
 40
0.4005725207612
 40
0.4353285822464657
 40
0.4686828805791782
 40
0.5236980747264841
 40
0.5763630384534186
 40
0.6194423377415328
 40
0.654770449570095
 40
0.6858527877987721
 40
0.7141918000710792
 40
0.7502184341232867
 40
0.7801264884680593
 40
0.8002708558737801
 40
0.8233257977538783
 40
0.8644043099630393
 40
0.9234530801954259
 40
1.0
 40
1.0
 40
1.0
 40
1.0
 10
26.21903723521577
 20
2.906791620166188
 30
0.0
 10
26.04161718218695
 20
2.892253790713701
 30
0.0
 10
25.73225863565188
 20
2.866904898565275
 30
0.0
 10
25.32865630866523
 20
2.842892938607512
 30
0.0
 10
25.0446762049505
 20
2.827721899103861
 30
0.0
 10
24.83479999865715
 20
2.818274236807346
 30
0.0
 10
24.66422325111325
 20
2.813009219980896
 30
0.0
 10
24.4746385260433
 20
2.807287286085212
 30
0.0
 10
24.23656349163981
 20
2.801596802650431
 30
0.0
 10
23.94538371654556
 20
2.797329984263926
 30
0.0
 10
23.6114795642801
 20
2.796167720476866
 30
0.0
 10
23.28900350612122
 20
2.79898272844095
 30
0.0
 10
22.99957864451738
 20
2.804603633725969
 30
0.0
 10
22.69411752467052
 20
2.813204898527027
 30
0.0
 10
22.34468517955075
 20
2.827084349947736
 30
0.0
 10
21.97087151860683
 20
2.846987830429269
 30
0.0
 10
21.64570141075703
 20
2.868139779019242
 30
0.0
 10
21.37409777602574
 20
2.888429206568746
 30
0.0
 10
21.13925232892449
 20
2.907894818630396
 30
0.0
 10
20.90259780929695
 20
2.929240926383876
 30
0.0
 10
20.66887008968626
 20
2.952228450375265
 30
0.0
 10
20.45558425680719
 20
2.974865112877634
 30
0.0
 10
20.27667836388633
 20
2.994819936709758
 30
0.0
 10
20.06995872501203
 20
3.018826625187786
 30
0.0
 10
19.76405261014455
 20
3.056647949600168
 30
0.0
 10
19.32484956242369
 20
3.115384777694433
 30
0.0
 10
18.98673819054114
 20
3.167270476899196
 30
0.0
 10
18.7958664595779
 20
3.196561160511253
 30
0.0
  0
SPLINE
  5
A2
330
1F
100
AcDbEntity
  8
0
  6
Continuous
 62
     1
370
    15
100
AcDbSpline
210
0.0
220
0.0
230
1.0
 70
     8
 71
     3
 72
    27
 73
    23
 74
     0
 42
0.000000001
 43
0.00000001
 40
0.0
 40
0.0
 40
0.0
 40
0.0
 40
0.0690168894336899
 40
0.1297717640731851
 40
0.1774727245159197
 40
0.2114449659311949
 40
0.2484967470200345
 40
0.2928938184259218
 40
0.3525071695082146
 40
0.4220471822799619
 40
0.4716103641222718
 40
0.5208698964106683
 40
0.5790215519826961
 40
0.6470289964577378
 40
0.6970870326134995
 40
0.7379483960930974
 40
0.7889849495232789
 40
0.8281606317752563
 40
0.8499584226088648
 40
0.8841002429415802
 40
0.9342238378908543
 40
1.0
 40
1.0
 40
1.0
 40
1.0
 10
8.990941372755403
 20
-3.53658903594467
 30
0.0
 10
9.13324233585623
 20
-3.522554907709828
 30
0.0
 10
9.400809407661887
 20
-3.496166677333049
 30
0.0
 10
9.78726130081194
 20
-3.463602534811962
 30
0.0
 10
10.09917107340011
 20
-3.438308221231496
 30
0.0
 10
10.34398373035119
 20
-3.420904165191989
 30
0.0
 10
10.5859456730076
 20
-3.404539241632744
 30
0.0
 10
10.88798563394855
 20
-3.386006234997509
 30
0.0
 10
11.25822107600801
 20
-3.366209634486521
 30
0.0
 10
11.63972695763623
 20
-3.349546744646628
 30
0.0
 10
11.99887828899889
 20
-3.337168812383161
 30
0.0
 10
12.3339577181958
 20
-3.328310725841448
 30
0.0
 10
12.70840574371344
 20
-3.321613030312791
 30
0.0
 10
13.08457246319102
 20
-3.318657567614415
 30
0.0
 10
13.42388593359088
 20
-3.319191066352755
 30
0.0
 10
13.72664158815573
 20
-3.321896141876297
 30
0.0
 10
14.00636798216158
 20
-3.326445485199105
 30
0.0
 10
14.2453917878586
 20
-3.332039511406704
 30
0.0
 10
14.44780657520379
 20
-3.337735959132627
 30
0.0
 10
14.67415856736381
 20
-3.345132246706041
 30
0.0
 10
14.99464909433095
 20
-3.35752234680535
 30
0.0
 10
15.24254245431723
 20
-3.370085983453435
 30
0.0
 10
15.38322845958658
 20
-3.377216177871603
 30
0.0
  0
SPLINE
  5
A3
330
1F
100
AcDbEntity
  8
0
  6
Continuous
 62
     1
370
    15
100
AcDbSpline
210
0.0
220
0.0
230
1.0
 70
     8
 71
     3
 72
    18
 73
    14
 74
     0
 42
0.000000001
 43
0.00000001
 40
0.0
 40
0.0
 40
0.0
 40
0.0
 40
0.1592247640058323
 40
0.2790266076996061
 40
0.374793668760758
 40
0.4499170919396454
 40
0.5429546678093604
 40
0.6228161905982139
 40
0.677974382775095
 40
0.7419973808421483
 40
0.8437681421443932
 40
0.9563673583427734
 40
0.9999999999999999
 40
0.9999999999999999
 40
0.9999999999999999
 40
0.9999999999999999
 10
18.7958664595779
 20
-3.196561160511251
 30
0.0
 10
18.96436415089995
 20
-3.170612459786793
 30
0.0
 10
19.25964070231055
 20
-3.125139772277626
 30
0.0
 10
19.65574638333572
 20
-3.070988502836596
 30
0.0
 10
19.96254093859346
 20
-3.031883751759395
 30
0.0
 10
20.24111326939499
 20
-2.998678228253619
 30
0.0
 10
20.5030083262033
 20
-2.969544647359918
 30
0.0
 10
20.74355096182732
 20
-2.944744152241945
 30
0.0
 10
20.95390966313943
 20
-2.924571498216688
 30
0.0
 10
21.18748323067523
 20
-2.903623010229983
 30
0.0
 10
21.48163161215227
 20
-2.879980409248624
 30
0.0
 10
21.75415558748935
 20
-2.86051229321119
 30
0.0
 10
21.9191536593808
 20
-2.851047463233312
 30
0.0
 10
21.96523454098706
 20
-2.848404112892098
 30
0.0
  0
LINE
  5
A4
330
1F
100
AcDbEntity
  8
0
  6
Continuous
 62
     1
370
    15
100
AcDbLine
 10
5.799038105676651
 20
-4.250000000000002
 30
0.0
 11
7.035587874171885
 21
-4.250000000000002
 31
0.0
  0
LINE
  5
A5
330
1F
100
AcDbEntity
  8
0
  6
Continuous
 62
     4
370
    15
100
AcDbLine
 10
1.999999999999998
 20
4.999999999999999
 30
0.0
 11
2.000000000000002
 21
-4.999999999999997
 31
0.0
  0
LINE
  5
A6
330
1F
100
AcDbEntity
  8
0
  6
Continuous
 62
     4
370
    15
100
AcDbLine
 10
-41.20096189432336
 20
4.999999999999994
 30
0.0
 11
-41.20096189432336
 21
-4.999999999999999
 31
0.0
  0
SPLINE
  5
A7
330
1F
100
AcDbEntity
  8
0
  6
Continuous
 62
     4
370
    15
100
AcDbSpline
210
0.0
220
0.0
230
1.0
 70
     8
 71
     3
 72
     8
 73
     4
 74
     0
 42
0.000000001
 43
0.00000001
 40
0.0
 40
0.0
 40
0.0
 40
0.0
 40
0.0005969319498688
 40
0.0005969319498688
 40
0.0005969319498688
 40
0.0005969319498688
 10
4.279154989962185
 20
4.373928428627765
 30
0.0
 10
4.452675145393895
 20
4.334751738516356
 30
0.0
 10
4.625878253625388
 20
4.293099821098988
 30
0.0
 10
4.799038105676782
 20
4.248782021069344
 30
0.0
1001
PE_URL
1000

  0
LINE
  5
A8
330
1F
100
AcDbEntity
  8
0
  6
Continuous
 62
     4
370
    15
100
AcDbLine
 10
4.279154989962199
 20
-4.107475494458843
 30
0.0
 11
4.279154989962189
 21
4.389302261014267
 31
0.0
1001
PE_URL
1000

  0
SPLINE
  5
A9
330
1F
100
AcDbEntity
  8
0
  6
Continuous
 62
     4
370
    15
100
AcDbSpline
210
0.0
220
0.0
230
1.0
 70
     8
 71
     3
 72
     8
 73
     4
 74
     0
 42
0.000000001
 43
0.00000001
 40
0.0
 40
0.0
 40
0.0
 40
0.0
 40
0.0005908515835445
 40
0.0005908515835445
 40
0.0005908515835445
 40
0.0005908515835445
 10
4.799038105676651
 20
-4.055429594463814
 30
0.0
 10
4.62542745828808
 20
-4.075731856510791
 30
0.0
 10
4.45224631053949
 20
-4.093017942563344
 30
0.0
 10
4.279277388467371
 20
-4.107483766716687
 30
0.0
1001
PE_URL
1000

  0
LINE
  5
AA
330
1F
100
AcDbEntity
  8
0
  6
Continuous
 62
     4
370
    15
100
AcDbLine
 10
4.799038105676651
 20
-4.05542959446372
 30
0.0
 11
4.799038105676651
 21
-4.24878202106993
 31
0.0
1001
PE_URL
1000

  0
SPLINE
  5
AB
330
1F
100
AcDbEntity
  8
0
  6
Continuous
 62
     4
370
    15
100
AcDbSpline
210
0.0
220
0.0
230
1.0
 70
     8
 71
     3
 72
     8
 73
     4
 74
     0
 42
0.000000001
 43
0.00000001
 40
0.0
 40
0.0
 40
0.0
 40
0.0
 40
0.0005969319498688
 40
0.0005969319498688
 40
0.0005969319498688
 40
0.0005969319498688
 10
4.279154989962185
 20
-4.373928428627763
 30
0.0
 10
4.452675145393895
 20
-4.334751738516355
 30
0.0
 10
4.625878253625388
 20
-4.293099821098988
 30
0.0
 10
4.799038105676782
 20
-4.248782021069344
 30
0.0
1001
PE_URL
1000

  0
LINE
  5
AC
330
1F
100
AcDbEntity
  8
0
  6
Continuous
 62
     4
370
    15
100
AcDbLine
 10
4.279154989962189
 20
-4.389302261014265
 30
0.0
 11
4.279154989962185
 21
-4.373923283369356
 31
0.0
1001
PE_URL
1000

  0
LINE
  5
AD
330
1F
100
AcDbEntity
  8
0
  6
Continuous
 62
     4
370
    15
100
AcDbLine
 10
-42.20096189432336
 20
3.999999999999995
 30
0.0
 11
-42.20096189432336
 21
-4.000000000000005
 31
0.0
  0
SPLINE
  5
AE
330
1F
100
AcDbEntity
  8
0
  6
Continuous
 62
     1
370
    15
100
AcDbSpline
210
0.0
220
0.0
230
1.0
 70
    24
 71
     3
 72
    14
 73
    10
 74
     0
 42
0.000000001
 43
0.00000001
 40
0.0
 40
0.0
 40
0.0
 40
0.0
 40
0.25
 40
0.25
 40
0.5
 40
0.5
 40
0.75
 40
0.75
 40
1.0
 40
1.0
 40
1.0
 40
1.0
 10
5.799038105676647
 20
-0.5177807970910697
 30
0.0
 10
5.799038105676647
 20
-0.83378529000367
 30
0.0
 10
5.799038105676647
 20
-1.148039081516529
 30
0.0
 10
5.799038105676647
 20
-1.749442906629887
 30
0.0
 10
5.799038105676647
 20
-2.036401569748255
 30
0.0
 10
5.799038105676647
 20
-2.560889280526179
 30
0.0
 10
5.799038105676647
 20
-2.798266872056263
 30
0.0
 10
5.799038105676647
 20
-3.208327840651838
 30
0.0
 10
5.799038105676647
 20
-3.380970518595217
 30
0.0
 10
5.799038105676647
 20
-3.518715611450121
 30
0.0
  0
SPLINE
  5
AF
330
1F
100
AcDbEntity
  8
0
  6
Continuous
 62
     4
370
    15
100
AcDbSpline
210
0.0
220
0.0
230
1.0
 70
     8
 71
     3
 72
    10
 73
     6
 74
     0
 42
0.000000001
 43
0.00000001
 40
0.0
 40
0.0
 40
0.0
 40
0.0
 40
0.5
 40
0.5
 40
1.0
 40
1.0
 40
1.0
 40
1.0
 10
5.799038105676484
 20
-3.518715611450105
 30
0.0
 10
5.544938987581579
 20
-3.490540444810278
 30
0.0
 10
5.290209169034242
 20
-3.456060557870109
 30
0.0
 10
4.783555705004671
 20
-3.375079615015451
 30
0.0
 10
4.532711639538872
 20
-3.328673919339167
 30
0.0
 10
4.279277388467506
 20
-3.276287508685063
 30
0.0
  0
SPLINE
  5
B0
330
1F
100
AcDbEntity
  8
0
  6
Continuous
 62
     4
370
    15
100
AcDbSpline
210
0.0
220
0.0
230
1.0
 70
     8
 71
     3
 72
    10
 73
     6
 74
     0
 42
0.000000001
 43
0.00000001
 40
0.0
 40
0.0
 40
0.0
 40
0.0
 40
0.5
 40
0.5
 40
1.0
 40
1.0
 40
1.0
 40
1.0
 10
5.799038105676454
 20
-0.5177807970909806
 30
0.0
 10
5.544926003730733
 20
-0.4020030231668499
 30
0.0
 10
5.290183137144442
 20
-0.2852057936933794
 30
0.0
 10
4.783504070613821
 20
-0.0514420798395388
 30
0.0
 10
4.532647160078515
 20
0.0653564988606305
 30
0.0
 10
4.279199689159778
 20
0.1822302281736111
 30
0.0
  0
SPLINE
  5
B1
330
1F
100
AcDbEntity
  8
0
  6
Continuous
 62
     1
370
    15
100
AcDbSpline
210
0.0
220
0.0
230
1.0
 70
    24
 71
     3
 72
    14
 73
    10
 74
     0
 42
0.000000001
 43
0.00000001
 40
0.0
 40
0.0
 40
0.0
 40
0.0
 40
0.25
 40
0.25
 40
0.5
 40
0.5
 40
0.75
 40
0.75
 40
1.0
 40
1.0
 40
1.0
 40
1.0
 10
5.799038105676651
 20
2.940299860510677
 30
0.0
 10
5.799038105676651
 20
2.805063196567119
 30
0.0
 10
5.799038105676651
 20
2.622416024960892
 30
0.0
 10
5.799038105676651
 20
2.166392321220343
 30
0.0
 10
5.799038105676651
 20
1.893061051644232
 30
0.0
 10
5.799038105676651
 20
1.278460418484277
 30
0.0
 10
5.799038105676651
 20
0.9375185398131386
 30
0.0
 10
5.799038105676651
 20
0.2238765699958413
 30
0.0
 10
5.799038105676651
 20
-0.1484164198369636
 30
0.0
 10
5.799038105676651
 20
-0.5177807970910714
 30
0.0
  0
SPLINE
  5
B2
330
1F
100
AcDbEntity
  8
0
  6
Continuous
 62
     4
370
    15
100
AcDbSpline
210
0.0
220
0.0
230
1.0
 70
     8
 71
     3
 72
    10
 73
     6
 74
     0
 42
0.000000001
 43
0.00000001
 40
0.0
 40
0.0
 40
0.0
 40
0.0
 40
0.5
 40
0.5
 40
1.0
 40
1.0
 40
1.0
 40
1.0
 10
5.799038105676392
 20
2.940299860510693
 30
0.0
 10
5.54492346248886
 20
2.955909754751684
 30
0.0
 10
5.290178042097278
 20
2.966282805181912
 30
0.0
 10
4.78349396456718
 20
2.976421458277457
 30
0.0
 10
4.532634539935902
 20
2.976212767872457
 30
0.0
 10
4.279184481587039
 20
2.970723527749812
 30
0.0
  0
SPLINE
  5
B3
330
1F
100
AcDbEntity
  8
0
  6
Continuous
 62
     4
370
    15
100
AcDbSpline
210
0.0
220
0.0
230
1.0
 70
     8
 71
     3
 72
     8
 73
     4
 74
     0
 42
0.000000001
 43
0.00000001
 40
0.0
 40
0.0
 40
0.0
 40
0.0
 40
1.0
 40
1.0
 40
1.0
 40
1.0
 10
5.799038105676551
 20
-4.190128180679549
 30
0.0
 10
5.465256994966046
 20
-4.157957238472707
 30
0.0
 10
5.130391991440314
 20
-4.112820351091672
 30
0.0
 10
4.799038105676658
 20
-4.055429594463722
 30
0.0
1001
PE_URL
1000

  0
SPLINE
  5
B4
330
1F
100
AcDbEntity
  8
0
  6
Continuous
 62
     1
370
    15
100
AcDbSpline
210
0.0
220
0.0
230
1.0
 70
    24
 71
     3
 72
     8
 73
     4
 74
     0
 42
0.000000001
 43
0.00000001
 40
0.0
 40
0.0
 40
0.0
 40
0.0
 40
1.0
 40
1.0
 40
1.0
 40
1.0
 10
5.799038105676686
 20
-3.518715611450128
 30
0.0
 10
5.799038105676686
 20
-3.744154258628029
 30
0.0
 10
5.799038105676683
 20
-3.969404097386126
 30
0.0
 10
5.799038105676683
 20
-4.190128180673217
 30
0.0
  0
LINE
  5
B5
330
1F
100
AcDbEntity
  8
0
  6
Continuous
 62
     4
370
    15
100
AcDbLine
 10
4.799038105676662
 20
-4.248782021069928
 30
0.0
 11
4.975261304298227
 21
-4.247354208212792
 31
0.0
1001
PE_URL
1000

  0
SPLINE
  5
B6
330
1F
100
AcDbEntity
  8
0
  6
Continuous
 62
     4
370
    15
100
AcDbSpline
210
0.0
220
0.0
230
1.0
 70
     8
 71
     3
 72
     8
 73
     4
 74
     0
 42
0.000000001
 43
0.00000001
 40
0.0
 40
0.0
 40
0.0
 40
0.0
 40
1.0
 40
1.0
 40
1.0
 40
1.0
 10
5.799038105676406
 20
4.223482727729317
 30
0.0
 10
5.465256994965948
 20
4.244935006398785
 30
0.0
 10
5.130391991440264
 20
4.25337527802002
 30
0.0
 10
4.799038105676662
 20
4.24878202106993
 30
0.0
  0
SPLINE
  5
B7
330
1F
100
AcDbEntity
  8
0
  6
Continuous
 62
     4
370
    15
100
AcDbSpline
210
0.0
220
0.0
230
1.0
 70
    24
 71
     3
 72
    10
 73
     6
 74
     0
 42
0.000000001
 43
0.00000001
 40
0.0
 40
0.0
 40
0.0
 40
0.0
 40
0.5
 40
0.5
 40
1.0
 40
1.0
 40
1.0
 40
1.0
 10
5.799038105676624
 20
4.223482727729306
 30
0.0
 10
5.799038105676624
 20
4.021413344094509
 30
0.0
 10
5.799038105676624
 20
3.797068802111723
 30
0.0
 10
5.799038105676624
 20
3.352964300182481
 30
0.0
 10
5.799038105676624
 20
3.134389436273709
 30
0.0
 10
5.799038105676624
 20
2.940299860510679
 30
0.0
  0
SPLINE
  5
B8
330
1F
100
AcDbEntity
  8
0
  6
Continuous
 62
     1
370
    15
100
AcDbSpline
210
0.0
220
0.0
230
1.0
 70
     8
 71
     3
 72
    52
 73
    48
 74
     0
 42
0.000000001
 43
0.00000001
 40
0.0
 40
0.0
 40
0.0
 40
0.0
 40
0.0625000000000004
 40
0.0625000000000004
 40
0.0937500000000007
 40
0.0937500000000007
 40
0.1250000000000011
 40
0.1250000000000011
 40
0.1875000000000014
 40
0.1875000000000014
 40
0.2187500000000016
 40
0.2187500000000016
 40
0.2500000000000018
 40
0.2500000000000018
 40
0.3125000000000022
 40
0.3125000000000022
 40
0.3437500000000023
 40
0.3437500000000023
 40
0.3750000000000024
 40
0.3750000000000024
 40
0.4375000000000023
 40
0.4375000000000023
 40
0.4687500000000023
 40
0.4687500000000023
 40
0.5000000000000021
 40
0.5000000000000021
 40
0.5625000000000018
 40
0.5625000000000018
 40
0.6250000000000016
 40
0.6250000000000016
 40
0.6562500000000014
 40
0.6562500000000014
 40
0.6875000000000014
 40
0.6875000000000014
 40
0.7187500000000013
 40
0.7187500000000013
 40
0.7500000000000011
 40
0.7500000000000011
 40
0.8125000000000009
 40
0.8125000000000009
 40
0.8750000000000006
 40
0.8750000000000006
 40
0.9062500000000004
 40
0.9062500000000004
 40
0.9375000000000003
 40
0.9375000000000003
 40
1.0
 40
1.0
 40
1.0
 40
1.0
 10
27.79903810567665
 20
-4.246407964725984
 30
0.0
 10
27.34402996048371
 20
-4.23555674928356
 30
0.0
 10
26.88126698547038
 20
-4.19985436124628
 30
0.0
 10
26.19347979213014
 20
-4.11013363584253
 30
0.0
 10
25.96649491961482
 20
-4.074324904713121
 30
0.0
 10
25.50880364349274
 20
-3.990805582674632
 30
0.0
 10
25.27863366022964
 20
-3.943095443337667
 30
0.0
 10
24.58865696130068
 20
-3.782962583170836
 30
0.0
 10
24.13427663866513
 20
-3.654017707446163
 30
0.0
 10
23.4452287831763
 20
-3.429242936702309
 30
0.0
 10
23.2148400883365
 20
-3.34912822782806
 30
0.0
 10
22.75566422042542
 20
-3.179571272144282
 30
0.0
 10
22.52806033569713
 20
-3.090294901389996
 30
0.0
 10
21.84304570899951
 20
-2.809153306431992
 30
0.0
 10
21.38002658081214
 20
-2.603332236058356
 30
0.0
 10
20.6940059130076
 20
-2.274987829971708
 30
0.0
 10
20.46686967452085
 20
-2.162332768697479
 30
0.0
 10
20.00808967054731
 20
-1.930325945945574
 30
0.0
 10
19.7777306664952
 20
-1.811176076666729
 30
0.0
 10
19.08826522775109
 20
-1.446609365133943
 30
0.0
 10
18.6341159014392
 20
-1.194713350233381
 30
0.0
 10
17.94431635196905
 20
-0.8070965551194761
 30
0.0
 10
17.71403601991871
 20
-0.6764593296330829
 30
0.0
 10
17.25579003244525
 20
-0.4140372831517523
 30
0.0
 10
17.02887645615817
 20
-0.2824578403278833
 30
0.0
 10
16.34185848006342
 20
0.1141396217107645
 30
0.0
 10
15.87893149217616
 20
0.3803479356843727
 30
0.0
 10
14.96726133508354
 20
0.9025848771253483
 30
0.0
 10
14.50632126630348
 20
1.160929814151838
 30
0.0
 10
13.81787708587479
 20
1.535535662202333
 30
0.0
 10
13.5905670650642
 20
1.657962471452819
 30
0.0
 10
13.13350486590072
 20
1.898094761543167
 30
0.0
 10
12.9034831371405
 20
2.015835740756574
 30
0.0
 10
12.44345619001224
 20
2.245092956036695
 30
0.0
 10
12.21345534955536
 20
2.356607011970262
 30
0.0
 10
11.75647579914763
 20
2.571994078165933
 30
0.0
 10
11.52910815090104
 20
2.675945216565291
 30
0.0
 10
10.84059079776859
 20
2.976642899398664
 30
0.0
 10
10.37986057518561
 20
3.161089641606157
 30
0.0
 10
9.467996754923217
 20
3.490060191857392
 30
0.0
 10
9.005054899080031
 20
3.635939430175511
 30
0.0
 10
8.318139457525788
 20
3.821036961322969
 30
0.0
 10
8.091217095497477
 20
3.877108650292629
 30
0.0
 10
7.632907914927264
 20
3.978199234386174
 30
0.0
 10
7.402616611520505
 20
4.023105483344898
 30
0.0
 10
6.712846737169064
 20
4.139968024180787
 30
0.0
 10
6.258710818594901
 20
4.193939332918061
 30
0.0
 10
5.799038105674965
 20
4.223482727729414
 30
0.0
  0
SPLINE
  5
B9
330
1F
100
AcDbEntity
  8
0
  6
Continuous
 62
     1
370
    15
100
AcDbSpline
210
0.0
220
0.0
230
1.0
 70
     8
 71
     3
 72
    15
 73
    11
 74
     0
 42
0.000000001
 43
0.00000001
 40
0.0
 40
0.0
 40
0.0
 40
0.0
 40
0.1059590882039687
 40
0.2342362503487403
 40
0.3625367857092701
 40
0.4909253553996305
 40
0.6194232342610793
 40
0.7463536609980252
 40
0.8731873255263253
 40
1.0
 40
1.0
 40
1.0
 40
1.0
 10
17.2512433750994
 20
-0.408481175892456
 30
0.0
 10
16.84675870304858
 20
-0.2457798219375014
 30
0.0
 10
15.952593091484
 20
0.1138925357908874
 30
0.0
 10
14.56873668003015
 20
0.6729244840661645
 30
0.0
 10
13.09922114484835
 20
1.238216819960173
 30
0.0
 10
11.62877459517382
 20
1.754624017607174
 30
0.0
 10
10.16333094881801
 20
2.199771448770193
 30
0.0
 10
8.704049308995998
 20
2.554982682510265
 30
0.0
 10
7.251314522135091
 20
2.817693201556263
 30
0.0
 10
6.283103536966339
 20
2.899433228943053
 30
0.0
 10
5.799038105676654
 20
2.940299860510677
 30
0.0
  0
SPLINE
  5
BA
330
1F
100
AcDbEntity
  8
0
  6
Continuous
 62
     4
370
    15
100
AcDbSpline
210
0.0
220
0.0
230
1.0
 70
    24
 71
     3
 72
    10
 73
     6
 74
     0
 42
0.000000001
 43
0.00000001
 40
0.0
 40
0.0
 40
0.0
 40
0.0
 40
0.5
 40
0.5
 40
1.0
 40
1.0
 40
1.0
 40
1.0
 10
5.799038105676628
 20
4.223482727729306
 30
0.0
 10
5.799038105676624
 20
4.021413344094509
 30
0.0
 10
5.799038105676624
 20
3.797068802111724
 30
0.0
 10
5.799038105676628
 20
3.352964300182483
 30
0.0
 10
5.799038105676628
 20
3.134389436273711
 30
0.0
 10
5.799038105676628
 20
2.940299860510679
 30
0.0
  0
SPLINE
  5
BB
330
1F
100
AcDbEntity
  8
0
  6
Continuous
 62
     1
370
    15
100
AcDbSpline
210
0.0
220
0.0
230
1.0
 70
     8
 71
     3
 72
    23
 73
    19
 74
     0
 42
0.000000001
 43
0.00000001
 40
0.0
 40
0.0
 40
0.0
 40
0.0
 40
0.0665077759100058
 40
0.1329286858826117
 40
0.1993333523480966
 40
0.2657926203532178
 40
0.3323306573927576
 40
0.3975940720384719
 40
0.4628075344014479
 40
0.5280558603132051
 40
0.5934062125118964
 40
0.6600229280459771
 40
0.7265764838394939
 40
0.7931360868545152
 40
0.8597708623893106
 40
0.9264399550796778
 40
0.9930159738351485
 40
1.0
 40
1.0
 40
1.0
 40
1.0
 10
27.79903810567665
 20
-4.032998694235573
 30
0.0
 10
27.33862897463096
 20
-3.935548007137376
 30
0.0
 10
26.41841205381446
 20
-3.740773913475767
 30
0.0
 10
25.0390366117115
 20
-3.279400190974561
 30
0.0
 10
23.6600115930115
 20
-2.713311313847909
 30
0.0
 10
22.27998592656335
 20
-2.049301491797681
 30
0.0
 10
20.90724564486256
 20
-1.319378117823076
 30
0.0
 10
19.54381507299411
 20
-0.5477224792321349
 30
0.0
 10
18.18947151939305
 20
0.2376579976636716
 30
0.0
 10
16.83445276090605
 20
1.015213632659588
 30
0.0
 10
15.46898023830107
 20
1.76257056625202
 30
0.0
 10
14.09497067928667
 20
2.454865255887016
 30
0.0
 10
12.71285937096144
 20
3.065634639066651
 30
0.0
 10
11.33061797521847
 20
3.567445517070221
 30
0.0
 10
9.94717845134771
 20
3.94766856170801
 30
0.0
 10
8.56335159549582
 20
4.173562625154453
 30
0.0
 10
7.592953765501846
 20
4.269371924836237
 30
0.0
 10
7.08391741495619
 20
4.245263637731891
 30
0.0
 10
7.035587874171894
 20
4.242974719772299
 30
0.0
  0
SPLINE
  5
BC
330
1F
100
AcDbEntity
  8
0
  6
Continuous
 62
     1
370
    15
100
AcDbSpline
210
0.0
220
0.0
230
1.0
 70
     8
 71
     3
 72
    15
 73
    11
 74
     0
 42
0.000000001
 43
0.00000001
 40
0.0
 40
0.0
 40
0.0
 40
0.0
 40
0.1334264244924399
 40
0.2667317493607036
 40
0.3999801744127658
 40
0.5332363774318039
 40
0.6665649707879276
 40
0.800019312103264
 40
0.9334108233548362
 40
1.0
 40
1.0
 40
1.0
 40
1.0
 10
27.79903810567665
 20
-3.353132123564916
 30
0.0
 10
27.30859581744292
 20
-3.250734916184701
 30
0.0
 10
26.32815637301741
 20
-3.046033438512091
 30
0.0
 10
24.85820753740779
 20
-2.58202808996646
 30
0.0
 10
23.38895819605261
 20
-2.024991180341295
 30
0.0
 10
21.91960897476397
 20
-1.385071061226402
 30
0.0
 10
20.44940996434188
 20
-0.6899868234408648
 30
0.0
 10
18.97838793496518
 20
0.0300182248622519
 30
0.0
 10
17.75283205148017
 20
0.6362756296033267
 30
0.0
 10
17.01790332229552
 20
0.9769114899597544
 30
0.0
 10
16.77318819763031
 20
1.090335749649591
 30
0.0
  0
LINE
  5
BD
330
1F
100
AcDbEntity
  8
0
  6
Continuous
 62
     1
370
    15
100
AcDbLine
 10
27.79903810567665
 20
-4.032998694235575
 30
0.0
 11
27.79903810567665
 21
-3.353132123564916
 31
0.0
  0
LINE
  5
BE
330
1F
100
AcDbEntity
  8
0
  6
Continuous
 62
     1
370
    15
100
AcDbLine
 10
27.79903810567664
 20
-4.246407964725987
 30
0.0
 11
27.79903810567665
 21
-4.032998694235578
 31
0.0
  0
SPLINE
  5
BF
330
1F
100
AcDbEntity
  8
0
  6
Continuous
 62
     1
370
    15
100
AcDbSpline
210
0.0
220
0.0
230
1.0
 70
     8
 71
     3
 72
     8
 73
     4
 74
     0
 42
0.000000001
 43
0.00000001
 40
0.0
 40
0.0
 40
0.0
 40
0.0
 40
1.0
 40
1.0
 40
1.0
 40
1.0
 10
25.16905156639725
 20
1.189100704586005
 30
0.0
 10
24.97867798022796
 20
1.414662274911014
 30
0.0
 10
24.81341480674885
 20
1.630272161056919
 30
0.0
 10
24.68296222497374
 20
1.830831335319984
 30
0.0
  0
LINE
  5
C0
330
1F
100
AcDbEntity
  8
0
  6
Continuous
 62
     1
370
    15
100
AcDbLine
 10
24.68296222497374
 20
1.830831335319983
 30
0.0
 11
27.79903810567665
 21
0.0000000000000033
 31
0.0
  0
LINE
  5
C1
330
1F
100
AcDbEntity
  8
0
  6
Continuous
 62
     1
370
    15
100
AcDbLine
 10
27.79903810567665
 20
0.0000000000000033
 30
0.0
 11
27.79903810567665
 21
-1.135782520625987
 31
0.0
  0
SPLINE
  5
C2
330
1F
100
AcDbEntity
  8
0
  6
Continuous
 62
     1
370
    15
100
AcDbSpline
210
0.0
220
0.0
230
1.0
 70
     8
 71
     3
 72
    12
 73
     8
 74
     0
 42
0.000000001
 43
0.00000001
 40
0.0
 40
0.0
 40
0.0
 40
0.0
 40
0.5
 40
0.5
 40
0.75
 40
0.75
 40
1.0
 40
1.0
 40
1.0
 40
1.0
 10
27.79903810567665
 20
-1.135782520625987
 30
0.0
 10
27.34377496042583
 20
-0.7778680229295399
 30
0.0
 10
26.89611829765656
 20
-0.4052763388045961
 30
0.0
 10
26.23633220169246
 20
0.1761849473508471
 30
0.0
 10
26.01838827874328
 20
0.3738351256440095
 30
0.0
 10
25.58695763094831
 20
0.7777359263477425
 30
0.0
 10
25.37464593229184
 20
0.982931937646065
 30
0.0
 10
25.16905156639724
 20
1.189100704586011
 30
0.0
  0
SPLINE
  5
C3
330
1F
100
AcDbEntity
  8
0
  6
Continuous
 62
     1
370
    15
100
AcDbSpline
210
0.0
220
0.0
230
1.0
 70
     8
 71
     3
 72
    14
 73
    10
 74
     0
 42
0.000000001
 43
0.00000001
 40
0.0
 40
0.0
 40
0.0
 40
0.0
 40
0.1659739212490339
 40
0.3319592543348941
 40
0.482153072606434
 40
0.6324905229316488
 40
0.7827562317227161
 40
0.9329011491961241
 40
1.0
 40
1.0
 40
1.0
 40
1.0
 10
25.16905156639723
 20
1.189100704586014
 30
0.0
 10
24.6275417492616
 20
1.417866288721982
 30
0.0
 10
23.54448488250448
 20
1.875413186184972
 30
0.0
 10
21.9713269023085
 20
2.436943274586478
 30
0.0
 10
20.44938713700588
 20
2.877252054761888
 30
0.0
 10
18.97835750313905
 20
3.189072956449928
 30
0.0
 10
17.50767738254138
 20
3.366856246043173
 30
0.0
 10
16.30872349371135
 20
3.426026234703926
 30
0.0
 10
15.60001669250607
 20
3.375956083362776
 30
0.0
 10
15.38112244161519
 20
3.360491199646162
 30
0.0
  0
SPLINE
  5
C4
330
1F
100
AcDbEntity
  8
0
  6
Continuous
 62
     1
370
    15
100
AcDbSpline
210
0.0
220
0.0
230
1.0
 70
    24
 71
     3
 72
    10
 73
     6
 74
     0
 42
0.000000001
 43
0.00000001
 40
0.0
 40
0.0
 40
0.0
 40
0.0
 40
0.5
 40
0.5
 40
1.0
 40
1.0
 40
1.0
 40
1.0
 10
27.79903810567665
 20
-3.353132123564914
 30
0.0
 10
27.79903810567665
 20
-3.096088403266167
 30
0.0
 10
27.79903810567666
 20
-2.771303806602488
 30
0.0
 10
27.79903810567664
 20
-2.016210876390386
 30
0.0
 10
27.79903810567666
 20
-1.586556632968063
 30
0.0
 10
27.79903810567665
 20
-1.135782520626123
 30
0.0
  0
SPLINE
  5
C5
330
1F
100
AcDbEntity
  8
0
  6
Continuous
 62
     1
370
    15
100
AcDbSpline
210
0.0
220
0.0
230
1.0
 70
     8
 71
     3
 72
     9
 73
     5
 74
     0
 42
0.000000001
 43
0.00000001
 40
0.0
 40
0.0
 40
0.0
 40
0.0
 40
0.9304951564784858
 40
0.9999999999999999
 40
0.9999999999999999
 40
0.9999999999999999
 40
0.9999999999999999
 10
27.79903810567665
 20
2.975000000000003
 30
0.0
 10
27.30858714920392
 20
2.973277688688641
 30
0.0
 10
26.78150116379281
 20
2.97142672654298
 30
0.0
 10
26.25449221187228
 20
2.907215233683158
 30
0.0
 10
26.21786253713461
 20
2.902752223919653
 30
0.0
  0
SPLINE
  5
C6
330
1F
100
AcDbEntity
  8
0
  6
Continuous
 62
     1
370
    15
100
AcDbSpline
210
0.0
220
0.0
230
1.0
 70
     8
 71
     3
 72
    10
 73
     6
 74
     0
 42
0.000000001
 43
0.00000001
 40
0.0
 40
0.0
 40
0.0
 40
0.0
 40
0.5
 40
0.5
 40
1.0
 40
1.0
 40
1.0
 40
1.0
 10
27.79903810567665
 20
2.975000000000003
 30
0.0
 10
27.27016540702932
 20
2.831505148940739
 30
0.0
 10
26.745266665378
 20
2.667003190552635
 30
0.0
 10
25.7045086940913
 20
2.290214660276278
 30
0.0
 10
25.18850983923387
 20
2.078531377215436
 30
0.0
 10
24.68296222497157
 20
1.830831335321718
 30
0.0
  0
SPLINE
  5
C7
330
1F
100
AcDbEntity
  8
0
  6
Continuous
 62
     1
370
    15
100
AcDbSpline
210
0.0
220
0.0
230
1.0
 70
     8
 71
     3
 72
    10
 73
     6
 74
     0
 42
0.000000001
 43
0.00000001
 40
0.0
 40
0.0
 40
0.0
 40
0.0
 40
0.0906138993276724
 40
0.5453430739784163
 40
1.0
 40
1.0
 40
1.0
 40
1.0
 10
8.993213841888455
 20
-3.525433950661053
 30
0.0
 10
8.896723430832282
 20
-3.538456115181461
 30
0.0
 10
8.316013652694021
 20
-3.616827615382898
 30
0.0
 10
7.251344911736783
 20
-3.633814983015436
 30
0.0
 10
6.283114733144863
 20
-3.557080036500364
 30
0.0
 10
5.799038105676647
 20
-3.518715611450124
 30
0.0
  0
SPLINE
  5
C8
330
1F
100
AcDbEntity
  8
0
  6
Continuous
 62
     1
370
    15
100
AcDbSpline
210
0.0
220
0.0
230
1.0
 70
     8
 71
     3
 72
    16
 73
    12
 74
     0
 42
0.000000001
 43
0.00000001
 40
0.0
 40
0.0
 40
0.0
 40
0.0
 40
0.0993405796155271
 40
0.2123847308221715
 40
0.3253932876427696
 40
0.438421900061965
 40
0.5515260486455759
 40
0.6647239855528951
 40
0.7765440058454478
 40
0.888281006940923
 40
1.0
 40
1.0
 40
1.0
 40
1.0
 10
18.79881575861747
 20
-3.189033246258972
 30
0.0
 10
18.36830414079965
 20
-3.25017509838817
 30
0.0
 10
17.44789382690851
 20
-3.380893037187062
 30
0.0
 10
16.03795493330943
 20
-3.419403888954229
 30
0.0
 10
14.56874602258475
 20
-3.335759953676919
 30
0.0
 10
13.09924402528173
 20
-3.116284536551732
 30
0.0
 10
11.62880523912797
 20
-2.773684385246258
 30
0.0
 10
10.16332024518164
 20
-2.322706181506561
 30
0.0
 10
8.704042485432533
 20
-1.781823631185976
 30
0.0
 10
7.251315871294958
 20
-1.175233994449453
 30
0.0
 10
6.283104685243801
 20
-0.7369200884891342
 30
0.0
 10
5.799038105676654
 20
-0.5177807970910732
 30
0.0
  0
SPLINE
  5
C9
330
1F
100
AcDbEntity
  8
0
  6
Continuous
 62
     4
370
    15
100
AcDbSpline
210
0.0
220
0.0
230
1.0
 70
    24
 71
     3
 72
    14
 73
    10
 74
     0
 42
0.000000001
 43
0.00000001
 40
0.0
 40
0.0
 40
0.0
 40
0.0
 40
0.25
 40
0.25
 40
0.5
 40
0.5
 40
0.75
 40
0.75
 40
1.0
 40
1.0
 40
1.0
 40
1.0
 10
5.799038105676647
 20
-0.5177807970910697
 30
0.0
 10
5.799038105676647
 20
-0.83378529000367
 30
0.0
 10
5.799038105676647
 20
-1.148039081516529
 30
0.0
 10
5.799038105676647
 20
-1.749442906629887
 30
0.0
 10
5.799038105676647
 20
-2.036401569748255
 30
0.0
 10
5.799038105676647
 20
-2.560889280526179
 30
0.0
 10
5.799038105676647
 20
-2.798266872056263
 30
0.0
 10
5.799038105676647
 20
-3.208327840651838
 30
0.0
 10
5.799038105676647
 20
-3.380970518595217
 30
0.0
 10
5.799038105676647
 20
-3.518715611450121
 30
0.0
  0
SPLINE
  5
CA
330
1F
100
AcDbEntity
  8
0
  6
Continuous
 62
     4
370
    15
100
AcDbSpline
210
0.0
220
0.0
230
1.0
 70
    24
 71
     3
 72
    14
 73
    10
 74
     0
 42
0.000000001
 43
0.00000001
 40
0.0
 40
0.0
 40
0.0
 40
0.0
 40
0.25
 40
0.25
 40
0.5
 40
0.5
 40
0.75
 40
0.75
 40
1.0
 40
1.0
 40
1.0
 40
1.0
 10
5.799038105676651
 20
2.940299860510677
 30
0.0
 10
5.799038105676651
 20
2.805063196567119
 30
0.0
 10
5.799038105676651
 20
2.622416024960892
 30
0.0
 10
5.799038105676651
 20
2.166392321220343
 30
0.0
 10
5.799038105676651
 20
1.893061051644232
 30
0.0
 10
5.799038105676651
 20
1.278460418484277
 30
0.0
 10
5.799038105676651
 20
0.9375185398131386
 30
0.0
 10
5.799038105676651
 20
0.2238765699958413
 30
0.0
 10
5.799038105676651
 20
-0.1484164198369636
 30
0.0
 10
5.799038105676651
 20
-0.5177807970910714
 30
0.0
  0
LINE
  5
CB
330
1F
100
AcDbEntity
  8
0
  6
Continuous
 62
     1
370
    15
100
AcDbLine
 10
27.79903810567665
 20
0.0000000000000033
 30
0.0
 11
27.79903810567665
 21
2.975000000000003
 31
0.0
  0
SPLINE
  5
CC
330
1F
100
AcDbEntity
  8
0
  6
Continuous
 62
     1
370
    15
100
AcDbSpline
210
0.0
220
0.0
230
1.0
 70
     8
 71
     3
 72
    12
 73
     8
 74
     0
 42
0.000000001
 43
0.00000001
 40
0.0
 40
0.0
 40
0.0
 40
0.0
 40
0.0934076019917516
 40
0.3201503439607873
 40
0.5470098592796021
 40
0.773552665507181
 40
1.0
 40
1.0
 40
1.0
 40
1.0
 10
11.90096466853483
 20
-3.340963013034499
 30
0.0
 10
11.71100589159265
 20
-3.41175693329202
 30
0.0
 10
11.05993074910285
 20
-3.65439990278801
 30
0.0
 10
9.947170339323183
 20
-3.941105486006612
 30
0.0
 10
8.563353211644115
 20
-4.182590621854335
 30
0.0
 10
7.180767783814872
 20
-4.280564642303895
 30
0.0
 10
6.259549946747763
 20
-4.220269431968768
 30
0.0
 10
5.799038105674718
 20
-4.190128180679372
 30
0.0
  0
SPLINE
  5
CD
330
1F
100
AcDbEntity
  8
0
  6
Continuous
 62
     4
370
    15
100
AcDbSpline
210
0.0
220
0.0
230
1.0
 70
    24
 71
     3
 72
     8
 73
     4
 74
     0
 42
0.000000001
 43
0.00000001
 40
0.0
 40
0.0
 40
0.0
 40
0.0
 40
1.0
 40
1.0
 40
1.0
 40
1.0
 10
5.799038105676686
 20
-3.518715611450128
 30
0.0
 10
5.799038105676686
 20
-3.744154258628029
 30
0.0
 10
5.799038105676686
 20
-3.969404097386126
 30
0.0
 10
5.799038105676686
 20
-4.190128180673217
 30
0.0
  0
SPLINE
  5
CE
330
1F
100
AcDbEntity
  8
0
  6
Continuous
 62
     1
370
    15
100
AcDbSpline
210
0.0
220
0.0
230
1.0
 70
     8
 71
     3
 72
    12
 73
     8
 74
     0
 42
0.000000001
 43
0.00000001
 40
0.0
 40
0.0
 40
0.0
 40
0.0
 40
0.0520401620590037
 40
0.2890625180856475
 40
0.5258991003098387
 40
0.7627963777805158
 40
0.9999999999999999
 40
0.9999999999999999
 40
0.9999999999999999
 40
0.9999999999999999
 10
21.96469978083928
 20
2.848165458960254
 30
0.0
 10
22.06593438522708
 20
2.893927109688458
 30
0.0
 10
22.62825257379383
 20
3.148114980515083
 30
0.0
 10
23.65094566032184
 20
3.512327119919431
 30
0.0
 10
25.03298773790178
 20
3.908565587287454
 30
0.0
 10
26.41538896033145
 20
4.169908810258451
 30
0.0
 10
27.33762308714754
 20
4.220897264347322
 30
0.0
 10
27.79903810567665
 20
4.246407964725988
 30
0.0
  0
SPLINE
  5
CF
330
1F
100
AcDbEntity
  8
0
  6
Continuous
 62
     1
370
    15
100
AcDbSpline
210
0.0
220
0.0
230
1.0
 70
    24
 71
     3
 72
    10
 73
     6
 74
     0
 42
0.000000001
 43
0.00000001
 40
0.0
 40
0.0
 40
0.0
 40
0.0
 40
0.5
 40
0.5
 40
1.0
 40
1.0
 40
1.0
 40
1.0
 10
27.79903810567665
 20
2.975000000000003
 30
0.0
 10
27.79903810567665
 20
3.155337091431087
 30
0.0
 10
27.79903810567664
 20
3.364905492685251
 30
0.0
 10
27.79903810567666
 20
3.804579434083639
 30
0.0
 10
27.79903810567664
 20
4.033562102156262
 30
0.0
 10
27.79903810567664
 20
4.246407964725991
 30
0.0
  0
LINE
  5
D0
330
1F
100
AcDbEntity
  8
중심선
100
AcDbLine
 10
-45.20096189432333
 20
-0.0000000000000035
 30
0.0
 11
30.79903810567667
 21
-0.0000000000000035
 31
0.0
  0
CIRCLE
  5
D1
330
1F
100
AcDbEntity
  8
외형선
100
AcDbCircle
 10
0.0
 20
0.0
 30
0.0
 40
3.000000000000004
  0
INSERT
  5
D2
330
1F
100
AcDbEntity
  8
0
  6
Continuous
 62
     7
100
AcDbBlockReference
 66
     1
  2
블럭10
 10
-28.13923533383495
 20
-52.04717430164393
 30
0.0
  0
ATTRIB
  5
D3
330
D2
100
AcDbEntity
  8
FORMAT
 62
     2
100
AcDbText
 10
-41.09917452869272
 20
-49.97180738881174
 30
0.0
 40
4.233333333333333
  1
SEME35085E [ 2 FLUTE ]
 41
0.75
  7
SLDTEXTSTYLE0
 11
-41.09917452869272
 21
-52.08847405547841
 31
0.0
100
AcDbAttribute
  2
AUTOATTR0
 70
     0
 74
     1
  0
SEQEND
  5
D4
330
D2
100
AcDbEntity
  8
0
  6
Continuous
 62
     7
  0
HATCH
  5
D5
330
1F
100
AcDbEntity
  8
중심선
100
AcDbHatch
 10
0.0
 20
0.0
 30
0.0
210
0.0
220
0.0
230
1.0
  2
SOLID
 70
     1
 71
     0
 91
        1
 92
        0
 93
        4
 72
     1
 10
-22.4243260294541
 20
-35.8
 11
-25.87060127329138
 21
-35.8
 72
     1
 10
-25.87060127329138
 20
-35.8
 11
-27.99883113249541
 21
-38.33632558057259
 72
     1
 10
-27.99883113249541
 20
-38.33632558057259
 11
-24.55252280354498
 21
-38.3362861512701
 72
     1
 10
-24.55252280354497
 20
-38.3362861512701
 11
-22.4243260294541
 21
-35.8
 97
        0
 75
     0
 76
     1
 98
        1
 10
-4.200961894323344
 20
0.0
  0
HATCH
  5
D6
330
1F
100
AcDbEntity
  8
중심선
100
AcDbHatch
 10
0.0
 20
0.0
 30
0.0
210
0.0
220
0.0
230
1.0
  2
SOLID
 70
     1
 71
     0
 91
        1
 92
        0
 93
        4
 72
     1
 10
-17.41156203841815
 20
-35.8
 11
-20.85783728225543
 21
-35.8
 72
     1
 10
-20.85783728225543
 20
-35.8
 11
-25.38897529061282
 21
-41.20000000000002
 72
     1
 10
-25.38897529061282
 20
-41.20000000000002
 11
-21.94270004677554
 21
-41.20000000000002
 72
     1
 10
-21.94270004677554
 20
-41.20000000000002
 11
-17.41156203841815
 21
-35.8
 97
        0
 75
     0
 76
     1
 98
        1
 10
-4.200961894323344
 20
0.0
  0
HATCH
  5
D7
330
1F
100
AcDbEntity
  8
중심선
100
AcDbHatch
 10
0.0
 20
0.0
 30
0.0
210
0.0
220
0.0
230
1.0
  2
SOLID
 70
     1
 71
     0
 91
        1
 92
        0
 93
        4
 72
     1
 10
-12.39879804738226
 20
-35.80000000000003
 11
-15.84507329121937
 21
-35.8
 72
     1
 10
-15.84507329121937
 20
-35.8
 11
-22.89351019310862
 21
-44.20000000000002
 72
     1
 10
-22.89351019310862
 20
-44.20000000000002
 11
-19.44723494927134
 21
-44.20000000000002
 72
     1
 10
-19.44723494927134
 20
-44.20000000000002
 11
-12.39879804738226
 21
-35.80000000000003
 97
        0
 75
     0
 76
     1
 98
        1
 10
-4.200961894323344
 20
0.0
  0
HATCH
  5
D8
330
1F
100
AcDbEntity
  8
중심선
100
AcDbHatch
 10
0.0
 20
0.0
 30
0.0
210
0.0
220
0.0
230
1.0
  2
SOLID
 70
     1
 71
     0
 91
        1
 92
        0
 93
        6
 72
     3
 10
-7.598907616370058
 20
-40.00000000005127
 11
3.960054785062284
 21
1.540882976769353E-10
 40
0.3939339440162627
 50
17.09539180608439
 51
320.0019657685082
 73
     0
 72
     1
 10
-5.915907960669462
 20
-38.5878940046383
 11
-3.610606086968424
 21
-36.65356729459038
 72
     3
 10
-7.598907616422904
 20
-40.00000000000015
 11
6.600054785286829
 21
-1.278976924368180E-13
 40
0.636358354079598
 50
39.99873849337411
 51
368.4976242363724
 73
     1
 72
     1
 10
-1.173575124522294
 20
-39.03999999993002
 11
-8.91884030958698
 21
-39.03999999992999
 72
     1
 10
-8.91884030958698
 20
-39.03999999992999
 11
-8.91886535403292
 21
-40.95999999992991
 72
     1
 10
-8.91886535403292
 20
-40.95999999992991
 11
-4.477485584560879
 21
-40.95999999992988
 97
        0
 75
     0
 76
     1
 98
        1
 10
-4.200961894323344
 20
0.0
  0
DIMENSION
  5
D9
330
1F
100
AcDbEntity
  8
치수문자_일반주서
100
AcDbDimension
  2
_D
 10
5.799038105676647
 20
16.49704185330377
 30
0.0
 11
16.79903810567664
 21
16.49704185330377
 31
0.0
 70
   160
  1
<>
 71
     2
 42
21.99999999999999
  3
SLDDIMSTYLE0
100
AcDbAlignedDimension
 13
27.79903810567664
 23
4.246407964725991
 33
0.0
 14
5.799038105676647
 24
4.223482727729303
 34
0.0
100
AcDbRotatedDimension
  0
DIMENSION
  5
E4
330
1F
100
AcDbEntity
  8
치수문자_일반주서
100
AcDbDimension
  2
_D_1
 10
-42.20096189432337
 20
25.75915911661226
 30
0.0
 11
-7.200961894323349
 21
25.75915911661226
 31
0.0
 70
   160
  1
<>
 71
     2
 42
70.0
  3
SLDDIMSTYLE0
100
AcDbAlignedDimension
 13
27.79903810567664
 23
4.246407964725991
 33
0.0
 14
-42.20096189432336
 24
3.999999999999995
 34
0.0
 50
0.0000000000000058
100
AcDbRotatedDimension
  0
DIMENSION
  5
EE
330
1F
100
AcDbEntity
  8
치수문자_일반주서
100
AcDbDimension
  2
_D_2
 10
43.36522841792294
 20
-4.246407964725927
 30
0.0
 11
43.36522841792292
 21
0.0000000000000004
 31
0.0
 70
   160
  1
%%c<>
 71
     2
 42
8.497815929451978
 52
-270.0
  3
SLDDIMSTYLE1
100
AcDbAlignedDimension
 13
27.79903810567664
 23
4.251407964725991
 33
0.0
 14
27.79903810567664
 24
-4.246407964725987
 34
0.0
 50
90.0000000000002
100
AcDbRotatedDimension
  0
DIMENSION
  5
FC
330
1F
100
AcDbEntity
  8
치수문자_일반주서
100
AcDbDimension
  2
_D_3
 10
-53.62052133971188
 20
-5.000000000000045
 30
0.0
 11
-53.6205213397119
 21
-0.0000000000000011
 31
0.0
 70
   160
  1
%%c<>
 71
     2
 42
9.999999999999995
 52
-270.0
  3
SLDDIMSTYLE1
100
AcDbAlignedDimension
 13
-41.20096189432336
 23
4.999999999999996
 33
0.0
 14
-41.20096189432336
 24
-4.999999999999999
 34
0.0
 50
90.0000000000002
100
AcDbRotatedDimension
  0
INSERT
  5
10F
330
1F
100
AcDbEntity
  8
외형선
100
AcDbBlockReference
  2
SW_DOWELSYMBOL_0
 10
0.0
 20
0.0
 30
0.0
  0
ENDSEC
  0
SECTION
  2
OBJECTS
  0
DICTIONARY
  5
C
330
0
100
AcDbDictionary
281
     1
  3
ACAD_GROUP
350
D
  3
ACAD_LAYOUT
350
1A
  3
ACAD_MLINESTYLE
350
17
  3
ACAD_PLOTSETTINGS
350
19
  3
ACAD_PLOTSTYLENAME
350
E
  3
ACAD_SCALELIST
350
47
  3
APPDATA
350
131
  3
DWGPROPS
350
160
  0
DICTIONARY
  5
D
102
{ACAD_REACTORS
330
C
102
}
330
C
100
AcDbDictionary
281
     1
  0
DICTIONARY
  5
1A
102
{ACAD_REACTORS
330
C
102
}
330
C
100
AcDbDictionary
281
     1
  3
Layout1
350
1E
  3
Layout2
350
26
  3
Model
350
22
  0
DICTIONARY
  5
17
102
{ACAD_REACTORS
330
C
102
}
330
C
100
AcDbDictionary
281
     1
  3
Standard
350
18
  0
DICTIONARY
  5
19
102
{ACAD_REACTORS
330
C
102
}
330
C
100
AcDbDictionary
281
     1
  0
ACDBDICTIONARYWDFLT
  5
E
102
{ACAD_REACTORS
330
C
102
}
330
C
100
AcDbDictionary
281
     1
  3
Normal
350
F
100
AcDbDictionaryWithDefault
340
F
  0
DICTIONARY
  5
47
102
{ACAD_REACTORS
330
C
102
}
330
C
100
AcDbDictionary
281
     1
  3
A0
350
48
  3
A1
350
49
  3
A2
350
4A
  3
A3
350
4B
  3
A4
350
4C
  3
A5
350
4D
  3
A6
350
4E
  3
A7
350
4F
  3
A8
350
50
  3
A9
350
51
  3
B0
350
52
  3
B1
350
53
  3
B2
350
54
  3
B3
350
55
  3
B4
350
56
  3
B5
350
57
  3
B6
350
58
  3
B7
350
59
  3
B8
350
5A
  3
B9
350
5B
  3
C0
350
5C
  3
C1
350
5D
  3
C2
350
5E
  3
C3
350
5F
  3
C4
350
60
  3
C5
350
61
  3
C6
350
62
  3
C7
350
63
  3
C8
350
64
  3
C9
350
65
  3
D0
350
66
  3
D1
350
67
  3
D2
350
68
  0
DICTIONARY
  5
131
102
{ACAD_REACTORS
330
C
102
}
330
C
100
AcDbDictionary
281
     1
  0
XRECORD
  5
160
102
{ACAD_REACTORS
330
C
102
}
330
C
100
AcDbXrecord
280
     1
  1
DWGPROPS COOKIE
  2

  3

  4

  6

  7

  8
12011908
  9

300
=
301
=
302
=
303
=
304
=
305
=
306
=
307
=
308
=
309
=
 40
0.0
 41
2458250.117518808
 42
2458264.041496458
  1

 90
        0
  0
LAYOUT
  5
1E
102
{ACAD_REACTORS
330
1A
102
}
330
1A
100
AcDbPlotSettings
  1

  2
none_device
  4

  6

 40
0.0
 41
0.0
 42
0.0
 43
0.0
 44
0.0
 45
0.0
 46
0.0
 47
0.0
 48
0.0
 49
0.0
140
0.0
141
0.0
142
1.0
143
1.0
 70
   688
 72
     1
 73
     0
 74
     5
  7

 75
    16
147
1.0
148
0.0
149
0.0
100
AcDbLayout
  1
Layout1
 70
     1
 71
     1
 10
0.0
 20
0.0
 11
420.0
 21
297.0
 12
0.0
 22
0.0
 32
0.0
 14
1.000000000000000E+20
 24
1.000000000000000E+20
 34
1.000000000000000E+20
 15
-1.000000000000000E+20
 25
-1.000000000000000E+20
 35
-1.000000000000000E+20
146
0.0
 13
0.0
 23
0.0
 33
0.0
 16
1.0
 26
0.0
 36
0.0
 17
0.0
 27
1.0
 37
0.0
 76
     0
330
1B
  0
LAYOUT
  5
26
102
{ACAD_REACTORS
330
1A
102
}
330
1A
100
AcDbPlotSettings
  1

  2
none_device
  4

  6

 40
0.0
 41
0.0
 42
0.0
 43
0.0
 44
0.0
 45
0.0
 46
0.0
 47
0.0
 48
0.0
 49
0.0
140
0.0
141
0.0
142
1.0
143
1.0
 70
   688
 72
     1
 73
     0
 74
     5
  7

 75
    16
147
1.0
148
0.0
149
0.0
100
AcDbLayout
  1
Layout2
 70
     1
 71
     2
 10
0.0
 20
0.0
 11
0.0
 21
0.0
 12
0.0
 22
0.0
 32
0.0
 14
0.0
 24
0.0
 34
0.0
 15
0.0
 25
0.0
 35
0.0
146
0.0
 13
0.0
 23
0.0
 33
0.0
 16
1.0
 26
0.0
 36
0.0
 17
0.0
 27
1.0
 37
0.0
 76
     0
330
23
  0
LAYOUT
  5
22
102
{ACAD_REACTORS
330
1A
102
}
330
1A
100
AcDbPlotSettings
  1

  2
none_device
  4
ANSI_A_(11.00_x_8.50_Inches)
  6

 40
6.35
 41
19.05
 42
6.35000508
 43
19.05000254
 44
279.4
 45
215.9
 46
140.5003863920584
 47
115.8791825926512
 48
0.0
 49
0.0
140
0.0
141
0.0
142
0.1039059895597834
143
1.0
 70
  1696
 72
     0
 73
     0
 74
     0
  7

 75
     0
147
0.0235690232323232
148
0.0
149
0.0
100
AcDbLayout
  1
Model
 70
     1
 71
     0
 10
0.0
 20
0.0
 11
420.0
 21
297.0
 12
0.0
 22
0.0
 32
0.0
 14
-57.99552133971189
 24
-49.97180738881174
 34
0.0
 15
43.91556175125624
 25
30.13415911661226
 35
0.0
146
0.0
 13
0.0
 23
0.0
 33
0.0
 16
1.0
 26
0.0
 36
0.0
 17
0.0
 27
1.0
 37
0.0
 76
     0
330
1F
331
29
  0
MLINESTYLE
  5
18
102
{ACAD_REACTORS
330
17
102
}
330
17
100
AcDbMlineStyle
  2
Standard
 70
     0
  3

 62
   256
 51
90.0
 52
90.0
 71
     2
 49
0.5
 62
   256
  6
BYLAYER
 49
-0.5
 62
   256
  6
BYLAYER
  0
ACDBPLACEHOLDER
  5
F
102
{ACAD_REACTORS
330
E
102
}
330
E
  0
SCALE
  5
48
102
{ACAD_REACTORS
330
47
102
}
330
47
100
AcDbScale
 70
     0
300
1:1
140
1.0
141
1.0
290
     1
  0
SCALE
  5
49
102
{ACAD_REACTORS
330
47
102
}
330
47
100
AcDbScale
 70
     0
300
1:2
140
1.0
141
2.0
290
     0
  0
SCALE
  5
4A
102
{ACAD_REACTORS
330
47
102
}
330
47
100
AcDbScale
 70
     0
300
1:4
140
1.0
141
4.0
290
     0
  0
SCALE
  5
4B
102
{ACAD_REACTORS
330
47
102
}
330
47
100
AcDbScale
 70
     0
300
1:5
140
1.0
141
5.0
290
     0
  0
SCALE
  5
4C
102
{ACAD_REACTORS
330
47
102
}
330
47
100
AcDbScale
 70
     0
300
1:8
140
1.0
141
8.0
290
     0
  0
SCALE
  5
4D
102
{ACAD_REACTORS
330
47
102
}
330
47
100
AcDbScale
 70
     0
300
1:10
140
1.0
141
10.0
290
     0
  0
SCALE
  5
4E
102
{ACAD_REACTORS
330
47
102
}
330
47
100
AcDbScale
 70
     0
300
1:16
140
1.0
141
16.0
290
     0
  0
SCALE
  5
4F
102
{ACAD_REACTORS
330
47
102
}
330
47
100
AcDbScale
 70
     0
300
1:20
140
1.0
141
20.0
290
     0
  0
SCALE
  5
50
102
{ACAD_REACTORS
330
47
102
}
330
47
100
AcDbScale
 70
     0
300
1:30
140
1.0
141
30.0
290
     0
  0
SCALE
  5
51
102
{ACAD_REACTORS
330
47
102
}
330
47
100
AcDbScale
 70
     0
300
1:40
140
1.0
141
40.0
290
     0
  0
SCALE
  5
52
102
{ACAD_REACTORS
330
47
102
}
330
47
100
AcDbScale
 70
     0
300
1:50
140
1.0
141
50.0
290
     0
  0
SCALE
  5
53
102
{ACAD_REACTORS
330
47
102
}
330
47
100
AcDbScale
 70
     0
300
1:100
140
1.0
141
100.0
290
     0
  0
SCALE
  5
54
102
{ACAD_REACTORS
330
47
102
}
330
47
100
AcDbScale
 70
     0
300
2:1
140
2.0
141
1.0
290
     0
  0
SCALE
  5
55
102
{ACAD_REACTORS
330
47
102
}
330
47
100
AcDbScale
 70
     0
300
4:1
140
4.0
141
1.0
290
     0
  0
SCALE
  5
56
102
{ACAD_REACTORS
330
47
102
}
330
47
100
AcDbScale
 70
     0
300
8:1
140
8.0
141
1.0
290
     0
  0
SCALE
  5
57
102
{ACAD_REACTORS
330
47
102
}
330
47
100
AcDbScale
 70
     0
300
10:1
140
10.0
141
1.0
290
     0
  0
SCALE
  5
58
102
{ACAD_REACTORS
330
47
102
}
330
47
100
AcDbScale
 70
     0
300
100:1
140
100.0
141
1.0
290
     0
  0
SCALE
  5
59
102
{ACAD_REACTORS
330
47
102
}
330
47
100
AcDbScale
 70
     0
300
1/128" = 1'-0"
140
0.0078125
141
12.0
290
     0
  0
SCALE
  5
5A
102
{ACAD_REACTORS
330
47
102
}
330
47
100
AcDbScale
 70
     0
300
1/64" = 1'-0"
140
0.015625
141
12.0
290
     0
  0
SCALE
  5
5B
102
{ACAD_REACTORS
330
47
102
}
330
47
100
AcDbScale
 70
     0
300
1/32" = 1'-0"
140
0.03125
141
12.0
290
     0
  0
SCALE
  5
5C
102
{ACAD_REACTORS
330
47
102
}
330
47
100
AcDbScale
 70
     0
300
1/16" = 1'-0"
140
0.0625
141
12.0
290
     0
  0
SCALE
  5
5D
102
{ACAD_REACTORS
330
47
102
}
330
47
100
AcDbScale
 70
     0
300
3/32" = 1'-0"
140
0.09375
141
12.0
290
     0
  0
SCALE
  5
5E
102
{ACAD_REACTORS
330
47
102
}
330
47
100
AcDbScale
 70
     0
300
1/8" = 1'-0"
140
0.125
141
12.0
290
     0
  0
SCALE
  5
5F
102
{ACAD_REACTORS
330
47
102
}
330
47
100
AcDbScale
 70
     0
300
3/16" = 1'-0"
140
0.1875
141
12.0
290
     0
  0
SCALE
  5
60
102
{ACAD_REACTORS
330
47
102
}
330
47
100
AcDbScale
 70
     0
300
1/4" = 1'-0"
140
0.25
141
12.0
290
     0
  0
SCALE
  5
61
102
{ACAD_REACTORS
330
47
102
}
330
47
100
AcDbScale
 70
     0
300
3/8" = 1'-0"
140
0.375
141
12.0
290
     0
  0
SCALE
  5
62
102
{ACAD_REACTORS
330
47
102
}
330
47
100
AcDbScale
 70
     0
300
1/2" = 1'-0"
140
0.5
141
12.0
290
     0
  0
SCALE
  5
63
102
{ACAD_REACTORS
330
47
102
}
330
47
100
AcDbScale
 70
     0
300
3/4" = 1'-0"
140
0.75
141
12.0
290
     0
  0
SCALE
  5
64
102
{ACAD_REACTORS
330
47
102
}
330
47
100
AcDbScale
 70
     0
300
1" = 1'-0"
140
1.0
141
12.0
290
     0
  0
SCALE
  5
65
102
{ACAD_REACTORS
330
47
102
}
330
47
100
AcDbScale
 70
     0
300
1-1/2" = 1'-0"
140
1.5
141
12.0
290
     0
  0
SCALE
  5
66
102
{ACAD_REACTORS
330
47
102
}
330
47
100
AcDbScale
 70
     0
300
3" = 1'-0"
140
3.0
141
12.0
290
     0
  0
SCALE
  5
67
102
{ACAD_REACTORS
330
47
102
}
330
47
100
AcDbScale
 70
     0
300
6" = 1'-0"
140
6.0
141
12.0
290
     0
  0
SCALE
  5
68
102
{ACAD_REACTORS
330
47
102
}
330
47
100
AcDbScale
 70
     0
300
1'-0" = 1'-0"
140
12.0
141
12.0
290
     0
  0
ENDSEC
  0
EOF
