  0
SECTION
  2
HEADER
  9
$ACADVER
  1
AC1015
  9
$ACADMAINTVER
 70
     6
  9
$DWGCODEPAGE
  3
ANSI_949
  9
$INSBASE
 10
0.0
 20
0.0
 30
0.0
  9
$EXTMIN
 10
-58.92853404160413
 20
-49.97180738881174
 30
0.0
  9
$EXTMAX
 10
42.98254904936403
 20
30.30915911661226
 30
0.0
  9
$LIMMIN
 10
0.0
 20
0.0
  9
$LIMMAX
 10
420.0
 20
297.0
  9
$ORTHOMODE
 70
     1
  9
$REGENMODE
 70
     1
  9
$FILLMODE
 70
     1
  9
$QTEXTMODE
 70
     0
  9
$MIRRTEXT
 70
     1
  9
$LTSCALE
 40
1.0
  9
$ATTMODE
 70
     1
  9
$TEXTSIZE
 40
3.5
  9
$TRACEWID
 40
1.0
  9
$TEXTSTYLE
  7
Standard
  9
$CLAYER
  8
0
  9
$CELTYPE
  6
ByLayer
  9
$CECOLOR
 62
   256
  9
$CELTSCALE
 40
1.0
  9
$DISPSILH
 70
     0
  9
$DIMSCALE
 40
1.0
  9
$DIMASZ
 40
3.302
  9
$DIMEXO
 40
1.0
  9
$DIMDLI
 40
3.75
  9
$DIMRND
 40
0.0
  9
$DIMDLE
 40
0.0
  9
$DIMEXE
 40
1.0
  9
$DIMTP
 40
0.0
  9
$DIMTM
 40
0.0
  9
$DIMTXT
 40
3.5
  9
$DIMCEN
 40
2.5
  9
$DIMTSZ
 40
0.0
  9
$DIMTOL
 70
     0
  9
$DIMLIM
 70
     0
  9
$DIMTIH
 70
     1
  9
$DIMTOH
 70
     1
  9
$DIMSE1
 70
     0
  9
$DIMSE2
 70
     0
  9
$DIMTAD
 70
     1
  9
$DIMZIN
 70
     0
  9
$DIMBLK
  1

  9
$DIMASO
 70
     1
  9
$DIMSHO
 70
     1
  9
$DIMPOST
  1

  9
$DIMAPOST
  1

  9
$DIMALT
 70
     0
  9
$DIMALTD
 70
     3
  9
$DIMALTF
 40
0.0393700787401575
  9
$DIMLFAC
 40
1.0
  9
$DIMTOFL
 70
     1
  9
$DIMTVP
 40
0.0
  9
$DIMTIX
 70
     0
  9
$DIMSOXD
 70
     0
  9
$DIMSAH
 70
     0
  9
$DIMBLK1
  1

  9
$DIMBLK2
  1

  9
$DIMSTYLE
  2
ISO-25
  9
$DIMCLRD
 70
     0
  9
$DIMCLRE
 70
     0
  9
$DIMCLRT
 70
     0
  9
$DIMTFAC
 40
1.0
  9
$DIMGAP
 40
1.524
  9
$DIMJUST
 70
     0
  9
$DIMSD1
 70
     0
  9
$DIMSD2
 70
     0
  9
$DIMTOLJ
 70
     0
  9
$DIMTZIN
 70
     0
  9
$DIMALTZ
 70
     0
  9
$DIMALTTZ
 70
     0
  9
$DIMUPT
 70
     0
  9
$DIMDEC
 70
     2
  9
$DIMTDEC
 70
     2
  9
$DIMALTU
 70
     2
  9
$DIMALTTD
 70
     3
  9
$DIMTXSTY
  7
Standard
  9
$DIMAUNIT
 70
     0
  9
$DIMADEC
 70
     2
  9
$DIMALTRND
 40
0.0
  9
$DIMAZIN
 70
     0
  9
$DIMDSEP
 70
    44
  9
$DIMATFIT
 70
     3
  9
$DIMFRAC
 70
     0
  9
$DIMLDRBLK
  1

  9
$DIMLUNIT
 70
     2
  9
$DIMLWD
 70
    -2
  9
$DIMLWE
 70
    -2
  9
$DIMTMOVE
 70
     0
  9
$LUNITS
 70
     2
  9
$LUPREC
 70
     2
  9
$SKETCHINC
 40
1.0
  9
$FILLETRAD
 40
10.0
  9
$AUNITS
 70
     0
  9
$AUPREC
 70
     2
  9
$MENU
  1
.
  9
$ELEVATION
 40
0.0
  9
$PELEVATION
 40
0.0
  9
$THICKNESS
 40
0.0
  9
$LIMCHECK
 70
     0
  9
$CHAMFERA
 40
0.0
  9
$CHAMFERB
 40
0.0
  9
$CHAMFERC
 40
0.0
  9
$CHAMFERD
 40
0.0
  9
$SKPOLY
 70
     0
  9
$TDCREATE
 40
2458250.492661967
  9
$TDUCREATE
 40
2458250.117661967
  9
$TDUPDATE
 40
2458264.417140694
  9
$TDUUPDATE
 40
2458264.042140694
  9
$TDINDWG
 40
0.0021997106
  9
$TDUSRTIMER
 40
0.0005331829
  9
$USRTIMER
 70
     1
  9
$ANGBASE
 50
0.0
  9
$ANGDIR
 70
     0
  9
$PDMODE
 70
     0
  9
$PDSIZE
 40
-1.0
  9
$PLINEWID
 40
0.0
  9
$SPLFRAME
 70
     0
  9
$SPLINETYPE
 70
     6
  9
$SPLINESEGS
 70
     8
  9
$HANDSEED
  5
160
  9
$SURFTAB1
 70
     6
  9
$SURFTAB2
 70
     6
  9
$SURFTYPE
 70
     6
  9
$SURFU
 70
     6
  9
$SURFV
 70
     6
  9
$UCSBASE
  2

  9
$UCSNAME
  2

  9
$UCSORG
 10
0.0
 20
0.0
 30
0.0
  9
$UCSXDIR
 10
1.0
 20
0.0
 30
0.0
  9
$UCSYDIR
 10
0.0
 20
1.0
 30
0.0
  9
$UCSORTHOREF
  2

  9
$UCSORTHOVIEW
 70
     0
  9
$UCSORGTOP
 10
0.0
 20
0.0
 30
0.0
  9
$UCSORGBOTTOM
 10
0.0
 20
0.0
 30
0.0
  9
$UCSORGLEFT
 10
0.0
 20
0.0
 30
0.0
  9
$UCSORGRIGHT
 10
0.0
 20
0.0
 30
0.0
  9
$UCSORGFRONT
 10
0.0
 20
0.0
 30
0.0
  9
$UCSORGBACK
 10
0.0
 20
0.0
 30
0.0
  9
$PUCSBASE
  2

  9
$PUCSNAME
  2

  9
$PUCSORG
 10
0.0
 20
0.0
 30
0.0
  9
$PUCSXDIR
 10
1.0
 20
0.0
 30
0.0
  9
$PUCSYDIR
 10
0.0
 20
1.0
 30
0.0
  9
$PUCSORTHOREF
  2

  9
$PUCSORTHOVIEW
 70
     0
  9
$PUCSORGTOP
 10
0.0
 20
0.0
 30
0.0
  9
$PUCSORGBOTTOM
 10
0.0
 20
0.0
 30
0.0
  9
$PUCSORGLEFT
 10
0.0
 20
0.0
 30
0.0
  9
$PUCSORGRIGHT
 10
0.0
 20
0.0
 30
0.0
  9
$PUCSORGFRONT
 10
0.0
 20
0.0
 30
0.0
  9
$PUCSORGBACK
 10
0.0
 20
0.0
 30
0.0
  9
$USERI1
 70
     0
  9
$USERI2
 70
     0
  9
$USERI3
 70
     0
  9
$USERI4
 70
     0
  9
$USERI5
 70
     0
  9
$USERR1
 40
0.0
  9
$USERR2
 40
0.0
  9
$USERR3
 40
0.0
  9
$USERR4
 40
0.0
  9
$USERR5
 40
0.0
  9
$WORLDVIEW
 70
     1
  9
$SHADEDGE
 70
     3
  9
$SHADEDIF
 70
    70
  9
$TILEMODE
 70
     1
  9
$MAXACTVP
 70
    64
  9
$PINSBASE
 10
0.0
 20
0.0
 30
0.0
  9
$PLIMCHECK
 70
     0
  9
$PEXTMIN
 10
1.000000000000000E+20
 20
1.000000000000000E+20
 30
1.000000000000000E+20
  9
$PEXTMAX
 10
-1.000000000000000E+20
 20
-1.000000000000000E+20
 30
-1.000000000000000E+20
  9
$PLIMMIN
 10
0.0
 20
0.0
  9
$PLIMMAX
 10
0.0
 20
0.0
  9
$UNITMODE
 70
     0
  9
$VISRETAIN
 70
     1
  9
$PLINEGEN
 70
     0
  9
$PSLTSCALE
 70
     1
  9
$TREEDEPTH
 70
  3020
  9
$CMLSTYLE
  2
Standard
  9
$CMLJUST
 70
     0
  9
$CMLSCALE
 40
20.0
  9
$PROXYGRAPHICS
 70
     1
  9
$MEASUREMENT
 70
     1
  9
$CELWEIGHT
370
    -1
  9
$ENDCAPS
280
     0
  9
$JOINSTYLE
280
     0
  9
$LWDISPLAY
290
     1
  9
$INSUNITS
 70
     4
  9
$HYPERLINKBASE
  1

  9
$STYLESHEET
  1

  9
$XEDIT
290
     1
  9
$CEPSNTYPE
380
     0
  9
$PSTYLEMODE
290
     1
  9
$FINGERPRINTGUID
  2
{52FB9917-04C9-4992-8900-23228DC2A283}
  9
$VERSIONGUID
  2
{FAEB1C32-E019-11D5-929B-00C0DF256EC4}
  9
$EXTNAMES
290
     1
  9
$PSVPSCALE
 40
0.0
  9
$OLESTARTUP
290
     0
  0
ENDSEC
  0
SECTION
  2
CLASSES
  0
CLASS
  1
ACDBDICTIONARYWDFLT
  2
AcDbDictionaryWithDefault
  3
ObjectDBX Classes
 90
        0
280
     0
281
     0
  0
CLASS
  1
VISUALSTYLE
  2
AcDbVisualStyle
  3
ObjectDBX Classes
 90
     4095
280
     0
281
     0
  0
CLASS
  1
MATERIAL
  2
AcDbMaterial
  3
ObjectDBX Classes
 90
     1153
280
     0
281
     0
  0
CLASS
  1
SCALE
  2
AcDbScale
  3
ObjectDBX Classes
 90
     1153
280
     0
281
     0
  0
CLASS
  1
SUN
  2
AcDbSun
  3
SCENEOE
 90
     1153
280
     0
281
     0
  0
CLASS
  1
ACDBPLACEHOLDER
  2
AcDbPlaceHolder
  3
ObjectDBX Classes
 90
        0
280
     0
281
     0
  0
CLASS
  1
LAYOUT
  2
AcDbLayout
  3
ObjectDBX Classes
 90
        0
280
     0
281
     0
  0
CLASS
  1
TABLESTYLE
  2
AcDbTableStyle
  3
ObjectDBX Classes
 90
     4095
280
     0
281
     0
  0
CLASS
  1
MLEADERSTYLE
  2
AcDbMLeaderStyle
  3
ACDB_MLEADERSTYLE_CLASS
 90
     4095
280
     0
281
     0
  0
ENDSEC
  0
SECTION
  2
TABLES
  0
TABLE
  2
VPORT
  5
8
330
0
100
AcDbSymbolTable
 70
     1
  0
VPORT
  5
29
330
8
100
AcDbSymbolTableRecord
100
AcDbViewportTableRecord
  2
*Active
 70
     0
 10
0.0
 20
0.0
 11
1.0
 21
1.0
 12
8.250028399680435
 22
-24.50675734670159
 13
0.0
 23
0.0
 14
10.0
 24
10.0
 15
10.0
 25
10.0
 16
0.0
 26
0.0
 36
1.0
 17
0.0
 27
0.0
 37
0.0
 40
164.4221270846688
 41
2.223011363636364
 42
50.0
 43
0.0
 44
0.0
 50
0.0
 51
0.0
 71
    16
 72
  2000
 73
     1
 74
     3
 75
     0
 76
     0
 77
     0
 78
     0
281
     0
 65
     1
110
0.0
120
0.0
130
0.0
111
1.0
121
0.0
131
0.0
112
0.0
122
1.0
132
0.0
 79
     0
146
0.0
  0
ENDTAB
  0
TABLE
  2
LTYPE
  5
5
330
0
100
AcDbSymbolTable
 70
     6
  0
LTYPE
  5
14
330
5
100
AcDbSymbolTableRecord
100
AcDbLinetypeTableRecord
  2
ByBlock
 70
     0
  3

 72
    65
 73
     0
 40
0.0
  0
LTYPE
  5
15
330
5
100
AcDbSymbolTableRecord
100
AcDbLinetypeTableRecord
  2
ByLayer
 70
     0
  3

 72
    65
 73
     0
 40
0.0
  0
LTYPE
  5
16
330
5
100
AcDbSymbolTableRecord
100
AcDbLinetypeTableRecord
  2
Continuous
 70
     0
  3
Solid line
 72
    65
 73
     0
 40
0.0
  0
LTYPE
  5
6A
330
5
100
AcDbSymbolTableRecord
100
AcDbLinetypeTableRecord
  2
HIDDEN
 70
     0
  3
Hidden __ __ __ __ __ __ __ __ __ __ __ __ __ __
 72
    65
 73
     2
 40
1.905
 49
1.27
 74
     0
 49
-0.635
 74
     0
  0
LTYPE
  5
6B
330
5
100
AcDbSymbolTableRecord
100
AcDbLinetypeTableRecord
  2
PHANTOM
 70
     0
  3
Phantom ______  __  __  ______  __  __  ______
 72
    65
 73
     6
 40
12.7
 49
6.35
 74
     0
 49
-1.27
 74
     0
 49
1.27
 74
     0
 49
-1.27
 74
     0
 49
1.27
 74
     0
 49
-1.27
 74
     0
  0
LTYPE
  5
6C
330
5
100
AcDbSymbolTableRecord
100
AcDbLinetypeTableRecord
  2
CENTER
 70
     0
  3
Center ____ _ ____ _ ____ _ ____ _ ____ _ ____
 72
    65
 73
     4
 40
10.16
 49
6.35
 74
     0
 49
-1.27
 74
     0
 49
1.27
 74
     0
 49
-1.27
 74
     0
  0
LTYPE
  5
6D
330
5
100
AcDbSymbolTableRecord
100
AcDbLinetypeTableRecord
  2
CENTERX2
 70
     0
  3
Center (2x) ________  __  ________  __  _____
 72
    65
 73
     4
 40
20.32
 49
12.7
 74
     0
 49
-2.54
 74
     0
 49
2.54
 74
     0
 49
-2.54
 74
     0
  0
LTYPE
  5
6E
330
5
100
AcDbSymbolTableRecord
100
AcDbLinetypeTableRecord
  2
DOT2
 70
     0
  3
Dot (.5x) ........................................
 72
    65
 73
     2
 40
0.635
 49
0.0
 74
     0
 49
-0.635
 74
     0
  0
ENDTAB
  0
TABLE
  2
LAYER
  5
2
330
0
100
AcDbSymbolTable
 70
    17
  0
LAYER
  5
10
330
2
100
AcDbSymbolTableRecord
100
AcDbLayerTableRecord
  2
0
 70
     0
 62
     7
  6
Continuous
370
    -3
390
F
  0
LAYER
  5
6F
330
2
100
AcDbSymbolTableRecord
100
AcDbLayerTableRecord
  2
FORMAT
 70
     0
 62
     2
  6
Continuous
370
    -3
390
F
  0
LAYER
  5
70
330
2
100
AcDbSymbolTableRecord
100
AcDbLayerTableRecord
  2
외형선
 70
     0
 62
   100
  6
Continuous
370
    30
390
F
  0
LAYER
  5
71
330
2
100
AcDbSymbolTableRecord
100
AcDbLayerTableRecord
  2
숨은선
 70
     0
 62
     2
  6
HIDDEN
370
    15
390
F
  0
LAYER
  5
72
330
2
100
AcDbSymbolTableRecord
100
AcDbLayerTableRecord
  2
중심선
 70
     0
 62
     1
  6
CENTERX2
370
    -3
390
F
  0
LAYER
  5
73
330
2
100
AcDbSymbolTableRecord
100
AcDbLayerTableRecord
  2
파단선
 70
     0
 62
     4
  6
Continuous
370
    -3
390
F
  0
LAYER
  5
74
330
2
100
AcDbSymbolTableRecord
100
AcDbLayerTableRecord
  2
해칭선
 70
     0
 62
     4
  6
Continuous
370
    -3
390
F
  0
LAYER
  5
75
330
2
100
AcDbSymbolTableRecord
100
AcDbLayerTableRecord
  2
가는실선
 70
     0
 62
     4
  6
Continuous
370
    -3
390
F
  0
LAYER
  5
76
330
2
100
AcDbSymbolTableRecord
100
AcDbLayerTableRecord
  2
치수_보조선
 70
     0
 62
     4
  6
Continuous
370
    -3
390
F
  0
LAYER
  5
77
330
2
100
AcDbSymbolTableRecord
100
AcDbLayerTableRecord
  2
치수문자_일반주서
 70
     0
 62
     7
  6
Continuous
370
    15
390
F
  0
LAYER
  5
78
330
2
100
AcDbSymbolTableRecord
100
AcDbLayerTableRecord
  2
개별주서
 70
     0
 62
   100
  6
Continuous
370
    30
390
F
  0
LAYER
  5
79
330
2
100
AcDbSymbolTableRecord
100
AcDbLayerTableRecord
  2
중간선
 70
     0
 62
     2
  6
Continuous
370
    15
390
F
  0
LAYER
  5
7A
330
2
100
AcDbSymbolTableRecord
100
AcDbLayerTableRecord
  2
윤곽선
 70
     0
 62
     3
  6
Continuous
370
    40
390
F
  0
LAYER
  5
7B
330
2
100
AcDbSymbolTableRecord
100
AcDbLayerTableRecord
  2
중심마크
 70
     0
 62
   100
  6
Continuous
370
    30
390
F
  0
LAYER
  5
7C
330
2
100
AcDbSymbolTableRecord
100
AcDbLayerTableRecord
  2
가상선
 70
     0
 62
     4
  6
PHANTOM
370
    -3
390
F
  0
LAYER
  5
7D
330
2
100
AcDbSymbolTableRecord
100
AcDbLayerTableRecord
  2
특수지정선
 70
     0
 62
     5
  6
CENTERX2
370
    60
390
F
  0
LAYER
  5
130
330
2
100
AcDbSymbolTableRecord
100
AcDbLayerTableRecord
  2
Defpoints
 70
     0
 62
     7
  6
Continuous
290
     0
370
    -3
390
F
  0
ENDTAB
  0
TABLE
  2
STYLE
  5
3
330
0
100
AcDbSymbolTable
 70
     2
  0
STYLE
  5
11
330
3
100
AcDbSymbolTableRecord
100
AcDbTextStyleTableRecord
  2
Standard
 70
     0
 40
0.0
 41
1.0
 50
0.0
 71
     0
 42
3.5
  3
txt
  4

  0
STYLE
  5
93
330
3
100
AcDbSymbolTableRecord
100
AcDbTextStyleTableRecord
  2
SLDTEXTSTYLE0
 70
     0
 40
0.0
 41
0.75
 50
0.0
 71
     0
 42
3.5
  3
TXT
  4

  0
ENDTAB
  0
TABLE
  2
VIEW
  5
6
330
0
100
AcDbSymbolTable
 70
     0
  0
ENDTAB
  0
TABLE
  2
UCS
  5
7
330
0
100
AcDbSymbolTable
 70
     0
  0
ENDTAB
  0
TABLE
  2
APPID
  5
9
330
0
100
AcDbSymbolTable
 70
     2
  0
APPID
  5
12
330
9
100
AcDbSymbolTableRecord
100
AcDbRegAppTableRecord
  2
ACAD
 70
     0
  0
APPID
  5
12F
330
9
100
AcDbSymbolTableRecord
100
AcDbRegAppTableRecord
  2
PE_URL
 70
     0
  0
ENDTAB
  0
TABLE
  2
DIMSTYLE
  5
A
330
0
100
AcDbSymbolTable
 70
     3
100
AcDbDimStyleTable
  0
DIMSTYLE
105
27
330
A
100
AcDbSymbolTableRecord
100
AcDbDimStyleTableRecord
  2
ISO-25
 70
     0
 41
2.5
 42
0.625
 43
3.75
 44
1.25
 73
     0
 74
     0
 77
     1
 78
     8
140
2.5
141
2.5
143
0.03937007874016
147
0.625
171
     3
172
     1
178
     0
271
     2
272
     2
274
     3
278
    44
283
     0
284
     8
340
11
  0
DIMSTYLE
105
D7
102
{ACAD_REACTORS
330
D6
330
E1
102
}
330
A
100
AcDbSymbolTableRecord
100
AcDbDimStyleTableRecord
  2
SLDDIMSTYLE0
 70
     0
 41
3.302
 44
0.0
 45
0.000000001
 73
     0
 74
     0
 77
     1
 78
    12
 79
     3
140
3.5
147
0.875
173
     1
178
     0
271
     2
272
     2
276
     2
284
    12
340
93
  0
DIMSTYLE
105
EC
102
{ACAD_REACTORS
330
EB
330
F9
102
}
330
A
100
AcDbSymbolTableRecord
100
AcDbDimStyleTableRecord
  2
SLDDIMSTYLE1
 70
     0
 41
3.302
 44
0.0
 45
0.000000001
 73
     0
 74
     0
 77
     1
 78
    12
 79
     3
140
3.5
147
0.875
172
     1
173
     1
178
     0
271
     2
272
     2
276
     2
284
    12
289
     0
340
93
  0
ENDTAB
  0
TABLE
  2
BLOCK_RECORD
  5
1
330
0
100
AcDbSymbolTable
 70
     7
  0
BLOCK_RECORD
  5
1F
330
1
100
AcDbSymbolTableRecord
100
AcDbBlockTableRecord
  2
*Model_Space
340
22
  0
BLOCK_RECORD
  5
1B
330
1
100
AcDbSymbolTableRecord
100
AcDbBlockTableRecord
  2
*Paper_Space
340
1E
  0
BLOCK_RECORD
  5
23
330
1
100
AcDbSymbolTableRecord
100
AcDbBlockTableRecord
  2
*Paper_Space0
340
26
  0
BLOCK_RECORD
  5
7E
330
1
100
AcDbSymbolTableRecord
100
AcDbBlockTableRecord
  2
블럭10
340
0
102
{BLKREFS
331
CF
102
}
  0
BLOCK_RECORD
  5
D8
330
1
100
AcDbSymbolTableRecord
100
AcDbBlockTableRecord
  2
_D
340
0
  0
BLOCK_RECORD
  5
E2
330
1
100
AcDbSymbolTableRecord
100
AcDbBlockTableRecord
  2
_D_1
340
0
  0
BLOCK_RECORD
  5
ED
330
1
100
AcDbSymbolTableRecord
100
AcDbBlockTableRecord
  2
_D_2
340
0
  0
BLOCK_RECORD
  5
FA
330
1
100
AcDbSymbolTableRecord
100
AcDbBlockTableRecord
  2
_D_3
340
0
  0
BLOCK_RECORD
  5
106
330
1
100
AcDbSymbolTableRecord
100
AcDbBlockTableRecord
  2
SW_DOWELSYMBOL_0
340
0
102
{BLKREFS
331
10C
102
}
  0
ENDTAB
  0
ENDSEC
  0
SECTION
  2
BLOCKS
  0
BLOCK
  5
20
330
1F
100
AcDbEntity
  8
0
100
AcDbBlockBegin
  2
*Model_Space
 70
     0
 10
0.0
 20
0.0
 30
0.0
  3
*Model_Space
  1

  0
ENDBLK
  5
21
330
1F
100
AcDbEntity
  8
0
100
AcDbBlockEnd
  0
BLOCK
  5
1C
330
1B
100
AcDbEntity
 67
     1
  8
0
100
AcDbBlockBegin
  2
*Paper_Space
 70
     0
 10
0.0
 20
0.0
 30
0.0
  3
*Paper_Space
  1

  0
ENDBLK
  5
1D
330
1B
100
AcDbEntity
 67
     1
  8
0
100
AcDbBlockEnd
  0
BLOCK
  5
24
330
23
100
AcDbEntity
  8
0
100
AcDbBlockBegin
  2
*Paper_Space0
 70
     0
 10
0.0
 20
0.0
 30
0.0
  3
*Paper_Space0
  1

  0
ENDBLK
  5
25
330
23
100
AcDbEntity
  8
0
100
AcDbBlockEnd
  0
BLOCK
  5
7F
330
7E
100
AcDbEntity
  8
0
100
AcDbBlockBegin
  2
블럭10
 70
     2
 10
0.0
 20
0.0
 30
0.0
  3
블럭10
  1

  0
ELLIPSE
  5
81
330
7E
100
AcDbEntity
  8
중심선
100
AcDbEllipse
 10
20.54032771741204
 20
12.0471743016438
 30
0.0
 11
6.600054785286829
 21
-1.261213355974178E-13
 31
0.0
210
0.0
220
0.0
230
1.0
 40
0.636358354079598
 41
0.9219305317359503
 42
6.513795318482858
  0
ELLIPSE
  5
82
330
7E
100
AcDbEntity
  8
중심선
100
AcDbEllipse
 10
20.54032771746488
 20
12.04717430159265
 30
0.0
 11
3.960054785062283
 21
1.540847449632565E-10
 31
0.0
210
0.0
220
0.0
230
1.0
 40
0.3939339440162632
 41
1.131841032648279
 42
5.62031148352944
  0
LINE
  5
83
330
7E
100
AcDbEntity
  8
중심선
100
AcDbLine
 10
2.268634060543552
 20
16.24717430164393
 30
0.0
 11
5.714909304380834
 21
16.24717430164393
 31
0.0
  0
LINE
  5
84
330
7E
100
AcDbEntity
  8
중심선
100
AcDbLine
 10
5.245725140726316
 20
7.84717430164391
 30
0.0
 11
8.692000384563599
 21
7.84717430164391
 31
0.0
  0
LINE
  5
85
330
7E
100
AcDbEntity
  8
중심선
100
AcDbLine
 10
15.74043728645272
 20
16.24717430164393
 30
0.0
 11
8.692000384563599
 21
7.84717430164391
 31
0.0
  0
LINE
  5
86
330
7E
100
AcDbEntity
  8
중심선
100
AcDbLine
 10
0.1404042013395286
 20
13.71084872107135
 30
0.0
 11
3.58671253028996
 21
13.71088815037384
 31
0.0
  0
LINE
  5
87
330
7E
100
AcDbEntity
  8
중심선
100
AcDbLine
 10
2.750260043222114
 20
10.84717430164391
 30
0.0
 11
6.196535287059397
 21
10.84717430164391
 31
0.0
  0
LINE
  5
88
330
7E
100
AcDbEntity
  8
중심선
100
AcDbLine
 10
12.29416204261559
 20
16.24717430164393
 30
0.0
 11
5.245725140726316
 21
7.84717430164391
 31
0.0
  0
LINE
  5
89
330
7E
100
AcDbEntity
  8
중심선
100
AcDbLine
 10
10.72767329541681
 20
16.24717430164393
 30
0.0
 11
6.196535287059397
 21
10.84717430164391
 31
0.0
  0
LINE
  5
8A
330
7E
100
AcDbEntity
  8
중심선
100
AcDbLine
 10
7.28139805157953
 20
16.24717430164393
 30
0.0
 11
2.750260043222114
 21
10.84717430164391
 31
0.0
  0
LINE
  5
8B
330
7E
100
AcDbEntity
  8
중심선
100
AcDbLine
 10
5.714909304380834
 20
16.24717430164393
 30
0.0
 11
3.58671253028996
 21
13.71088815037384
 31
0.0
  0
LINE
  5
8C
330
7E
100
AcDbEntity
  8
중심선
100
AcDbLine
 10
2.268634060543552
 20
16.24717430164393
 30
0.0
 11
0.1404042013395286
 21
13.71084872107135
 31
0.0
  0
LINE
  5
8D
330
7E
100
AcDbEntity
  8
중심선
100
AcDbLine
 10
7.28139805157953
 20
16.24717430164393
 30
0.0
 11
10.72767329541681
 21
16.24717430164393
 31
0.0
  0
LINE
  5
8E
330
7E
100
AcDbEntity
  8
중심선
100
AcDbLine
 10
12.29416204261559
 20
16.24717430164393
 30
0.0
 11
15.74043728645272
 21
16.24717430164393
 31
0.0
  0
LINE
  5
8F
330
7E
100
AcDbEntity
  8
중심선
100
AcDbLine
 10
19.22036997980202
 20
11.08717430171403
 30
0.0
 11
23.66174974927406
 21
11.08717430171406
 31
0.0
  0
LINE
  5
90
330
7E
100
AcDbEntity
  8
중심선
100
AcDbLine
 10
19.22039502424796
 20
13.00717430171391
 30
0.0
 11
19.22036997980202
 21
11.08717430171403
 31
0.0
  0
LINE
  5
91
330
7E
100
AcDbEntity
  8
중심선
100
AcDbLine
 10
19.22039502424796
 20
13.00717430171391
 30
0.0
 11
26.96566020931264
 21
13.00717430171391
 31
0.0
  0
LINE
  5
92
330
7E
100
AcDbEntity
  8
중심선
100
AcDbLine
 10
22.22332737316547
 20
13.45928029700563
 30
0.0
 11
24.52862924686651
 21
15.39360700705356
 31
0.0
  0
ATTDEF
  5
94
330
7E
100
AcDbEntity
  8
FORMAT
 62
     2
100
AcDbText
 10
-12.95993919485777
 20
2.075366912832191
 30
0.0
 40
4.233333333333333
  1
SEME35090E [ 2 FLUTE ]
 41
0.75
  7
SLDTEXTSTYLE0
 11
-12.95993919485777
 21
-0.0412997538344756
 31
0.0
100
AcDbAttributeDefinition
  3

  2
AUTOATTR0
 70
     0
 74
     1
  0
ENDBLK
  5
80
330
7E
100
AcDbEntity
  8
0
100
AcDbBlockEnd
  0
BLOCK
  5
D9
330
D8
100
AcDbEntity
  8
0
100
AcDbBlockBegin
  2
_D
 70
     0
 10
0.0
 20
0.0
 30
0.0
  3
_D
  1

  0
LINE
  5
DB
330
D8
100
AcDbEntity
  8
치수문자_일반주서
 62
     0
370
    -2
100
AcDbLine
 10
26.86602540378442
 20
4.558696668533404
 30
0.0
 11
26.86602540378442
 21
16.74683055711118
 31
0.0
  0
LINE
  5
DC
330
D8
100
AcDbEntity
  8
치수문자_일반주서
 62
     0
370
    -2
100
AcDbLine
 10
4.866025403784427
 20
4.562500000000004
 30
0.0
 11
4.866025403784427
 21
16.74683055711118
 31
0.0
  0
LINE
  5
DD
330
D8
100
AcDbEntity
  8
치수문자_일반주서
 62
     0
370
    -2
100
AcDbLine
 10
23.56402540378442
 20
16.74683055711118
 30
0.0
 11
8.168025403784426
 21
16.74683055711118
 31
0.0
  0
SOLID
  5
DE
330
D8
100
AcDbEntity
  8
치수문자_일반주서
 62
     0
100
AcDbTrace
 10
23.56402540378442
 20
16.19649722377785
 30
0.0
 11
23.56402540378442
 21
17.29716389044452
 31
0.0
 12
26.86602540378442
 22
16.74683055711118
 32
0.0
 13
26.86602540378442
 23
16.74683055711118
 33
0.0
  0
SOLID
  5
DF
330
D8
100
AcDbEntity
  8
치수문자_일반주서
 62
     0
100
AcDbTrace
 10
8.168025403784426
 20
17.29716389044452
 30
0.0
 11
8.168025403784426
 21
16.19649722377785
 31
0.0
 12
4.866025403784427
 22
16.74683055711118
 32
0.0
 13
4.866025403784427
 23
16.74683055711118
 33
0.0
  0
MTEXT
  5
E0
330
D8
100
AcDbEntity
  8
치수문자_일반주서
 62
     0
100
AcDbMText
 10
15.86602540378441
 20
21.12183055711118
 30
0.0
 40
3.5
 41
0.0
 71
     2
 72
     1
  1
\A1;22
  7
SLDTEXTSTYLE0
 73
     1
 44
1.0
  0
POINT
  5
135
330
D8
100
AcDbEntity
  8
Defpoints
 62
     0
100
AcDbPoint
 10
26.86602540378442
 20
4.496196668533404
 30
0.0
  0
POINT
  5
136
330
D8
100
AcDbEntity
  8
Defpoints
 62
     0
100
AcDbPoint
 10
4.866025403784427
 20
4.500000000000004
 30
0.0
  0
POINT
  5
137
330
D8
100
AcDbEntity
  8
Defpoints
 62
     0
100
AcDbPoint
 10
4.866025403784427
 20
16.74683055711118
 30
0.0
  0
ENDBLK
  5
DA
330
D8
100
AcDbEntity
  8
0
100
AcDbBlockEnd
  0
BLOCK
  5
E3
330
E2
100
AcDbEntity
  8
0
100
AcDbBlockBegin
  2
_D_1
 70
     0
 10
0.0
 20
0.0
 30
0.0
  3
_D_1
  1

  0
LINE
  5
E5
330
E2
100
AcDbEntity
  8
치수문자_일반주서
 62
     0
370
    -2
100
AcDbLine
 10
26.86602540378442
 20
4.558696668533404
 30
0.0
 11
26.86602540378442
 21
25.93415911661226
 31
0.0
  0
LINE
  5
E6
330
E2
100
AcDbEntity
  8
치수문자_일반주서
 62
     0
370
    -2
100
AcDbLine
 10
-43.13397459621558
 20
4.062499999999998
 30
0.0
 11
-43.13397459621558
 21
25.93415911661226
 31
0.0
  0
LINE
  5
E7
330
E2
100
AcDbEntity
  8
치수문자_일반주서
 62
     0
370
    -2
100
AcDbLine
 10
23.56402540378442
 20
25.93415911661226
 30
0.0
 11
-39.83197459621558
 21
25.93415911661226
 31
0.0
  0
SOLID
  5
E8
330
E2
100
AcDbEntity
  8
치수문자_일반주서
 62
     0
100
AcDbTrace
 10
23.56402540378442
 20
25.38382578327893
 30
0.0
 11
23.56402540378442
 21
26.4844924499456
 31
0.0
 12
26.86602540378442
 22
25.93415911661226
 32
0.0
 13
26.86602540378442
 23
25.93415911661226
 33
0.0
  0
SOLID
  5
E9
330
E2
100
AcDbEntity
  8
치수문자_일반주서
 62
     0
100
AcDbTrace
 10
-39.83197459621558
 20
26.4844924499456
 30
0.0
 11
-39.83197459621558
 21
25.38382578327893
 31
0.0
 12
-43.13397459621558
 22
25.93415911661226
 32
0.0
 13
-43.13397459621558
 23
25.93415911661226
 33
0.0
  0
MTEXT
  5
EA
330
E2
100
AcDbEntity
  8
치수문자_일반주서
 62
     0
100
AcDbMText
 10
-8.13397459621557
 20
30.30915911661226
 30
0.0
 40
3.5
 41
0.0
 71
     2
 72
     1
  1
\A1;70
  7
SLDTEXTSTYLE0
 73
     1
 44
1.0
  0
POINT
  5
131
330
E2
100
AcDbEntity
  8
Defpoints
 62
     0
100
AcDbPoint
 10
26.86602540378442
 20
4.496196668533404
 30
0.0
  0
POINT
  5
132
330
E2
100
AcDbEntity
  8
Defpoints
 62
     0
100
AcDbPoint
 10
-43.13397459621558
 20
3.999999999999998
 30
0.0
  0
POINT
  5
133
330
E2
100
AcDbEntity
  8
Defpoints
 62
     0
100
AcDbPoint
 10
-43.13397459621558
 20
25.93415911661226
 30
0.0
  0
ENDBLK
  5
E4
330
E2
100
AcDbEntity
  8
0
100
AcDbBlockEnd
  0
BLOCK
  5
EE
330
ED
100
AcDbEntity
  8
0
100
AcDbBlockBegin
  2
_D_2
 70
     0
 10
0.0
 20
0.0
 30
0.0
  3
_D_2
  1

  0
LINE
  5
F0
330
ED
100
AcDbEntity
  8
치수문자_일반주서
 62
     0
370
    -2
100
AcDbLine
 10
26.92852540378442
 20
4.501196668533405
 30
0.0
 11
42.43221571603068
 21
4.501196668533463
 31
0.0
  0
LINE
  5
F1
330
ED
100
AcDbEntity
  8
치수문자_일반주서
 62
     0
370
    -2
100
AcDbLine
 10
26.92852540378442
 20
-4.496196668533394
 30
0.0
 11
42.4322157160307
 21
-4.496196668533336
 31
0.0
  0
LINE
  5
F2
330
ED
100
AcDbEntity
  8
치수문자_일반주서
 62
     0
370
    -2
100
AcDbLine
 10
42.43221571603068
 20
1.199196668533463
 30
0.0
 11
42.4322157160307
 21
-1.194196668533336
 31
0.0
  0
SOLID
  5
F3
330
ED
100
AcDbEntity
  8
치수문자_일반주서
 62
     0
100
AcDbTrace
 10
42.98254904936402
 20
1.199196668533465
 30
0.0
 11
41.88188238269735
 21
1.199196668533462
 31
0.0
 12
42.43221571603068
 22
4.501196668533463
 32
0.0
 13
42.43221571603068
 23
4.501196668533463
 33
0.0
  0
SOLID
  5
F4
330
ED
100
AcDbEntity
  8
치수문자_일반주서
 62
     0
100
AcDbTrace
 10
41.88188238269736
 20
-1.194196668533337
 30
0.0
 11
42.98254904936403
 21
-1.194196668533334
 31
0.0
 12
42.4322157160307
 22
-4.496196668533336
 32
0.0
 13
42.4322157160307
 23
-4.496196668533336
 33
0.0
  0
MTEXT
  5
F5
330
ED
100
AcDbEntity
  8
치수문자_일반주서
 62
     0
100
AcDbMText
 10
38.05721571603069
 20
-0.0000000000000093
 30
0.0
 40
3.5
 41
0.0
 71
     2
 72
     1
  1
\A1;%%c9
  7
SLDTEXTSTYLE0
 11
-3.158882619181973E-15
 21
1.0
 31
0.0
 73
     1
 44
1.0
  0
POINT
  5
F6
330
ED
100
AcDbEntity
  8
Defpoints
 62
     0
100
AcDbPoint
 10
26.86602540378442
 20
4.501196668533405
 30
0.0
  0
POINT
  5
F7
330
ED
100
AcDbEntity
  8
Defpoints
 62
     0
100
AcDbPoint
 10
26.86602540378442
 20
-4.496196668533394
 30
0.0
  0
POINT
  5
F8
330
ED
100
AcDbEntity
  8
Defpoints
 62
     0
100
AcDbPoint
 10
42.43221571603071
 20
-4.496196668533337
 30
0.0
  0
ENDBLK
  5
EF
330
ED
100
AcDbEntity
  8
0
100
AcDbBlockEnd
  0
BLOCK
  5
FB
330
FA
100
AcDbEntity
  8
0
100
AcDbBlockBegin
  2
_D_3
 70
     0
 10
0.0
 20
0.0
 30
0.0
  3
_D_3
  1

  0
LINE
  5
FD
330
FA
100
AcDbEntity
  8
치수문자_일반주서
 62
     0
370
    -2
100
AcDbLine
 10
-42.19647459621558
 20
4.999999999999999
 30
0.0
 11
-54.55353404160414
 21
4.999999999999953
 31
0.0
  0
LINE
  5
FE
330
FA
100
AcDbEntity
  8
치수문자_일반주서
 62
     0
370
    -2
100
AcDbLine
 10
-42.19647459621558
 20
-4.999999999999996
 30
0.0
 11
-54.5535340416041
 21
-5.000000000000042
 31
0.0
  0
LINE
  5
FF
330
FA
100
AcDbEntity
  8
치수문자_일반주서
 62
     0
370
    -2
100
AcDbLine
 10
-54.55353404160412
 20
1.697999999999953
 30
0.0
 11
-54.55353404160412
 21
-1.698000000000042
 31
0.0
  0
SOLID
  5
100
330
FA
100
AcDbEntity
  8
치수문자_일반주서
 62
     0
100
AcDbTrace
 10
-54.00320070827079
 20
1.697999999999955
 30
0.0
 11
-55.10386737493746
 21
1.697999999999951
 31
0.0
 12
-54.55353404160414
 22
4.999999999999953
 32
0.0
 13
-54.55353404160414
 23
4.999999999999953
 33
0.0
  0
SOLID
  5
101
330
FA
100
AcDbEntity
  8
치수문자_일반주서
 62
     0
100
AcDbTrace
 10
-55.10386737493745
 20
-1.698000000000044
 30
0.0
 11
-54.00320070827078
 21
-1.69800000000004
 31
0.0
 12
-54.5535340416041
 22
-5.000000000000042
 32
0.0
 13
-54.5535340416041
 23
-5.000000000000042
 33
0.0
  0
MTEXT
  5
102
330
FA
100
AcDbEntity
  8
치수문자_일반주서
 62
     0
100
AcDbMText
 10
-58.92853404160412
 20
-0.0000000000000138
 30
0.0
 40
3.5
 41
0.0
 71
     2
 72
     1
  1
\A1;%%c10
  7
SLDTEXTSTYLE0
 11
-3.552713678800503E-15
 21
1.0
 31
0.0
 73
     1
 44
1.0
  0
POINT
  5
103
330
FA
100
AcDbEntity
  8
Defpoints
 62
     0
100
AcDbPoint
 10
-42.13397459621558
 20
4.999999999999999
 30
0.0
  0
POINT
  5
104
330
FA
100
AcDbEntity
  8
Defpoints
 62
     0
100
AcDbPoint
 10
-42.13397459621558
 20
-4.999999999999996
 30
0.0
  0
POINT
  5
105
330
FA
100
AcDbEntity
  8
Defpoints
 62
     0
100
AcDbPoint
 10
-54.55353404160411
 20
-5.000000000000042
 30
0.0
  0
ENDBLK
  5
FC
330
FA
100
AcDbEntity
  8
0
100
AcDbBlockEnd
  0
BLOCK
  5
107
330
106
100
AcDbEntity
  8
0
100
AcDbBlockBegin
  2
SW_DOWELSYMBOL_0
 70
     0
 10
0.0
 20
0.0
 30
0.0
  3
SW_DOWELSYMBOL_0
  1

  0
CIRCLE
  5
109
330
106
100
AcDbEntity
  8
외형선
 62
     0
100
AcDbCircle
 10
0.0
 20
0.0
 30
0.0
 40
3.000000000000004
  0
HATCH
  5
10A
330
106
100
AcDbEntity
  8
0
  6
Continuous
 62
     0
370
    30
100
AcDbHatch
 10
0.0
 20
0.0
 30
0.0
210
0.0
220
0.0
230
1.0
  2
SOLID
 70
     1
 71
     0
 91
        1
 92
        0
 93
        3
 72
     2
 10
0.0000000000000087
 20
-0.0000000000000035
 40
3.000000000000004
 50
0.0
 51
90.0
 73
     1
 72
     1
 10
0.0000000000000087
 20
3.000000000000001
 11
0.0000000000000087
 21
-0.0000000000000036
 72
     1
 10
0.0000000000000087
 20
-0.0000000000000035
 11
3.000000000000013
 21
-0.0000000000000035
 97
        0
 75
     0
 76
     1
 98
        1
 10
0.0
 20
0.0
  0
HATCH
  5
10B
330
106
100
AcDbEntity
  8
0
  6
Continuous
 62
     0
370
    30
100
AcDbHatch
 10
0.0
 20
0.0
 30
0.0
210
0.0
220
0.0
230
1.0
  2
SOLID
 70
     1
 71
     0
 91
        1
 92
        0
 93
        3
 72
     2
 10
0.0000000000000087
 20
-0.0000000000000035
 40
3.000000000000004
 50
180.0
 51
270.0000000000007
 73
     1
 72
     1
 10
0.0000000000000087
 20
-3.000000000000008
 11
0.0000000000000087
 21
-0.0000000000000036
 72
     1
 10
0.0000000000000087
 20
-0.0000000000000035
 11
-2.999999999999996
 21
-0.0000000000000035
 97
        0
 75
     0
 76
     1
 98
        1
 10
0.0
 20
0.0
  0
ENDBLK
  5
108
330
106
100
AcDbEntity
  8
0
100
AcDbBlockEnd
  0
ENDSEC
  0
SECTION
  2
ENTITIES
  0
LINE
  5
95
330
1F
100
AcDbEntity
  8
0
  6
Continuous
 62
     4
370
    15
100
AcDbLine
 10
1.999999999999989
 20
5.0
 30
0.0
 11
-42.13397459621558
 21
4.999999999999999
 31
0.0
  0
LINE
  5
96
330
1F
100
AcDbEntity
  8
0
  6
Continuous
 62
     4
370
    15
100
AcDbLine
 10
-42.13397459621558
 20
-4.999999999999996
 30
0.0
 11
1.999999999999993
 21
-4.999999999999994
 31
0.0
  0
LINE
  5
97
330
1F
100
AcDbEntity
  8
0
  6
Continuous
 62
     4
370
    15
100
AcDbLine
 10
1.999999999999993
 20
-4.999999999999996
 30
0.0
 11
3.866025403784427
 21
-4.499999999999996
 31
0.0
1001
PE_URL
1000

  0
LINE
  5
98
330
1F
100
AcDbEntity
  8
0
  6
Continuous
 62
     4
370
    15
100
AcDbLine
 10
3.866025403784427
 20
4.500000000000004
 30
0.0
 11
1.999999999999989
 21
5.000000000000003
 31
0.0
1001
PE_URL
1000

  0
LINE
  5
99
330
1F
100
AcDbEntity
  8
0
  6
Continuous
 62
     4
370
    15
100
AcDbLine
 10
-42.13397459621558
 20
4.999999999999997
 30
0.0
 11
-43.13397459621558
 21
3.999999999999996
 31
0.0
  0
LINE
  5
9A
330
1F
100
AcDbEntity
  8
0
  6
Continuous
 62
     4
370
    15
100
AcDbLine
 10
-43.13397459621558
 20
-3.999999999999995
 30
0.0
 11
-42.13397459621558
 21
-4.999999999999996
 31
0.0
  0
LINE
  5
9B
330
1F
100
AcDbEntity
  8
0
  6
Continuous
 62
     4
370
    15
100
AcDbLine
 10
4.866025403784423
 20
4.500000000000004
 30
0.0
 11
3.866025403784427
 21
4.500000000000004
 31
0.0
1001
PE_URL
1000

  0
LINE
  5
9C
330
1F
100
AcDbEntity
  8
0
  6
Continuous
 62
     4
370
    15
100
AcDbLine
 10
3.866025403784427
 20
-4.499999999999996
 30
0.0
 11
4.866025403784423
 21
-4.499999999999996
 31
0.0
1001
PE_URL
1000

  0
LINE
  5
9D
330
1F
100
AcDbEntity
  8
0
  6
Continuous
 62
     1
370
    15
100
AcDbLine
 10
12.71430542058779
 20
1.269530475898853
 30
0.0
 11
12.67022846978646
 21
1.293772498433089
 31
0.0
  0
SPLINE
  5
9E
330
1F
100
AcDbEntity
  8
0
  6
Continuous
 62
     1
370
    15
100
AcDbSpline
210
0.0
220
0.0
230
1.0
 70
     8
 71
     3
 72
     9
 73
     5
 74
     0
 42
0.000000001
 43
0.00000001
 40
0.0
 40
0.0
 40
0.0
 40
0.0
 40
0.5256078286884618
 40
1.0
 40
1.0
 40
1.0
 40
1.0
 10
15.2084077839896
 20
1.153117591074619
 30
0.0
 10
14.98940656047165
 20
1.257447163952709
 30
0.0
 10
14.57274377204933
 20
1.455940350666501
 30
0.0
 10
14.15605277547005
 20
1.674088312061173
 30
0.0
 10
13.95837782883685
 20
1.777575997134377
 30
0.0
  0
SPLINE
  5
9F
330
1F
100
AcDbEntity
  8
0
  6
Continuous
 62
     1
370
    15
100
AcDbSpline
210
0.0
220
0.0
230
1.0
 70
     8
 71
     3
 72
    18
 73
    14
 74
     0
 42
0.000000001
 43
0.00000001
 40
0.0
 40
0.0
 40
0.0
 40
0.0
 40
0.1138068623811153
 40
0.2115732822226169
 40
0.2944734714754796
 40
0.3576198628762819
 40
0.4291916837075249
 40
0.529807683338081
 40
0.6247833743391983
 40
0.7065860720647866
 40
0.8008577609798594
 40
0.9187805144276905
 40
1.0
 40
1.0
 40
1.0
 40
1.0
 10
13.71988168287586
 20
3.57587636418357
 30
0.0
 10
13.58921945853893
 20
3.568873476117298
 30
0.0
 10
13.34631112166821
 20
3.555854718001846
 30
0.0
 10
12.97431824070571
 20
3.541639257155377
 30
0.0
 10
12.66936920589864
 20
3.5321987881929
 30
0.0
 10
12.39907548418477
 20
3.525111775580748
 30
0.0
 10
12.11404262564631
 20
3.519461181884143
 30
0.0
 10
11.78403092373813
 20
3.515227895895153
 30
0.0
 10
11.44248159760992
 20
3.513848851980466
 30
0.0
 10
11.11064291404172
 20
3.515056363967477
 30
0.0
 10
10.75564280143974
 20
3.518947924594648
 30
0.0
 10
10.39145457890737
 20
3.525964516502246
 30
0.0
 10
10.14459401122078
 20
3.534037375393746
 30
0.0
 10
10.04391276743118
 20
3.53732986346404
 30
0.0
  0
SPLINE
  5
A0
330
1F
100
AcDbEntity
  8
0
  6
Continuous
 62
     1
370
    15
100
AcDbSpline
210
0.0
220
0.0
230
1.0
 70
     8
 71
     3
 72
    28
 73
    24
 74
     0
 42
0.000000001
 43
0.00000001
 40
0.0
 40
0.0
 40
0.0
 40
0.0
 40
0.0658220209765228
 40
0.1213917689843226
 40
0.1689718754080222
 40
0.2101935914659531
 40
0.2489340050335278
 40
0.2899187050136705
 40
0.3591750550695368
 40
0.4206136617382527
 40
0.4907327279545385
 40
0.5381092868258986
 40
0.5724892523149823
 40
0.6039670236648828
 40
0.6545697604544091
 40
0.705522547184063
 40
0.7492200789210508
 40
0.7777850829450863
 40
0.8014796373770539
 40
0.8306099906079442
 40
0.8708254495790263
 40
0.9270302948382115
 40
1.0
 40
1.0
 40
1.0
 40
1.0
 10
25.19315566106766
 20
3.077785600428899
 30
0.0
 10
25.02705145376254
 20
3.063974134093467
 30
0.0
 10
24.72071501405189
 20
3.038502440793084
 30
0.0
 10
24.26464203859047
 20
3.010661393561426
 30
0.0
 10
23.87227624081374
 20
2.990198790285258
 30
0.0
 10
23.53626814148364
 20
2.977537709938221
 30
0.0
 10
23.24170694675522
 20
2.969607187798772
 30
0.0
 10
22.8491883807842
 20
2.961996041688884
 30
0.0
 10
22.39732355658624
 20
2.96015303541086
 30
0.0
 10
21.87895616956974
 20
2.966379530941317
 30
0.0
 10
21.40832068468668
 20
2.979941261712129
 30
0.0
 10
21.0057906379254
 20
2.997848172801056
 30
0.0
 10
20.70683243122768
 20
3.01415491700691
 30
0.0
 10
20.40136751098754
 20
3.033309516824851
 30
0.0
 10
20.05220229118837
 20
3.058726835455437
 30
0.0
 10
19.67091468837002
 20
3.091233965713498
 30
0.0
 10
19.34750146020405
 20
3.122654721542927
 30
0.0
 10
19.09554294337853
 20
3.149303488185545
 30
0.0
 10
18.88239132463173
 20
3.173072966148065
 30
0.0
 10
18.63618737807837
 20
3.201979906120639
 30
0.0
 10
18.3020920910288
 20
3.243784372846628
 30
0.0
 10
17.85847550779321
 20
3.303797616530036
 30
0.0
 10
17.52283357777281
 20
3.355430719978366
 30
0.0
 10
17.33323204563119
 20
3.384597861051696
 30
0.0
  0
SPLINE
  5
A1
330
1F
100
AcDbEntity
  8
0
  6
Continuous
 62
     1
370
    15
100
AcDbSpline
210
0.0
220
0.0
230
1.0
 70
     8
 71
     3
 72
    18
 73
    14
 74
     0
 42
0.000000001
 43
0.00000001
 40
0.0
 40
0.0
 40
0.0
 40
0.0
 40
0.1524925819176352
 40
0.2774588133219432
 40
0.366595817647305
 40
0.4231609211427698
 40
0.5046555976445207
 40
0.6081615795494624
 40
0.7089391770870278
 40
0.7933964334654492
 40
0.8864547476344016
 40
0.9935627404014942
 40
0.9999999999999999
 40
0.9999999999999999
 40
0.9999999999999999
 40
0.9999999999999999
 10
17.33323204563119
 20
-3.384597861051687
 30
0.0
 10
17.49255873406468
 20
-3.359435640267519
 30
0.0
 10
17.78245213968063
 20
-3.313653217073382
 30
0.0
 10
18.21148124274807
 20
-3.256002689394703
 30
0.0
 10
18.52458958646792
 20
-3.215727816996086
 30
0.0
 10
18.77551737704541
 20
-3.185445337188705
 30
0.0
 10
19.04717265118629
 20
-3.154321132609252
 30
0.0
 10
19.36827449308191
 20
-3.120355169849518
 30
0.0
 10
19.69287596265715
 20
-3.089479995866728
 30
0.0
 10
20.00589878131646
 20
-3.062739596787134
 30
0.0
 10
20.32622905315195
 20
-3.038671587835474
 30
0.0
 10
20.55879181225903
 20
-3.022767683469087
 30
0.0
 10
20.68652477947523
 20
-3.015765915727064
 30
0.0
 10
20.69376638801569
 20
-3.015368962127818
 30
0.0
  0
SPLINE
  5
A2
330
1F
100
AcDbEntity
  8
0
  6
Continuous
 62
     1
370
    15
100
AcDbSpline
210
0.0
220
0.0
230
1.0
 70
     8
 71
     3
 72
    28
 73
    24
 74
     0
 42
0.000000001
 43
0.00000001
 40
0.0
 40
0.0
 40
0.0
 40
0.0
 40
0.0690242073662298
 40
0.1244601744323529
 40
0.1692833642957122
 40
0.2033244157861041
 40
0.2401239210761903
 40
0.2905311636997514
 40
0.3454395385065049
 40
0.3918270972359845
 40
0.4370419003474153
 40
0.5009630009778213
 40
0.5561796562066625
 40
0.6016536993641802
 40
0.6411022678659765
 40
0.6784543041144218
 40
0.7278341939358977
 40
0.7798780182758912
 40
0.8126774565725208
 40
0.8469535622099653
 40
0.8908198652718179
 40
0.941452335380926
 40
0.9999999999999999
 40
0.9999999999999999
 40
0.9999999999999999
 40
0.9999999999999999
 10
6.951566802615634
 20
-3.744624008314152
 30
0.0
 10
7.097773754481585
 20
-3.729954129708394
 30
0.0
 10
7.361405072055563
 20
-3.703502313456644
 30
0.0
 10
7.754455792687382
 20
-3.669952016707099
 30
0.0
 10
8.061840951789017
 20
-3.645941214788729
 30
0.0
 10
8.327313760287016
 20
-3.626084823497191
 30
0.0
 10
8.598311102733657
 20
-3.60751818783443
 30
0.0
 10
8.921653520477346
 20
-3.587384647611982
 30
0.0
 10
9.26523645079173
 20
-3.568795596565074
 30
0.0
 10
9.597271059713425
 20
-3.55337696498426
 30
0.0
 10
9.950323293967237
 20
-3.53945761219657
 30
0.0
 10
10.32624744279165
 20
-3.52785933649412
 30
0.0
 10
10.70205433642915
 20
-3.519881099874778
 30
0.0
 10
11.01574945852924
 20
-3.51594807359991
 30
0.0
 10
11.28890636751421
 20
-3.514234930229621
 30
0.0
 10
11.5752784954943
 20
-3.514169814693402
 30
0.0
 10
11.88928431493977
 20
-3.516295471767164
 30
0.0
 10
12.19479900600262
 20
-3.520925113473834
 30
0.0
 10
12.45915823012335
 20
-3.526543536519254
 30
0.0
 10
12.7152958004628
 20
-3.533615614732707
 30
0.0
 10
13.01122130510449
 20
-3.542844064084189
 30
0.0
 10
13.36596643166802
 20
-3.556915880936772
 30
0.0
 10
13.59634276140947
 20
-3.569257950190956
 30
0.0
 10
13.71988168287586
 20
-3.575876364183559
 30
0.0
  0
LINE
  5
A3
330
1F
100
AcDbEntity
  8
0
  6
Continuous
 62
     4
370
    15
100
AcDbLine
 10
1.999999999999989
 20
5.000000000000003
 30
0.0
 11
1.999999999999993
 21
-4.999999999999994
 31
0.0
  0
LINE
  5
A4
330
1F
100
AcDbEntity
  8
0
  6
Continuous
 62
     4
370
    15
100
AcDbLine
 10
-42.13397459621558
 20
4.999999999999997
 30
0.0
 11
-42.13397459621558
 21
-4.999999999999996
 31
0.0
  0
LINE
  5
A5
330
1F
100
AcDbEntity
  8
0
  6
Continuous
 62
     4
370
    15
100
AcDbLine
 10
3.866025403784427
 20
4.500000000000004
 30
0.0
 11
3.866025403784427
 21
4.449831704537406
 31
0.0
1001
PE_URL
1000

  0
SPLINE
  5
A6
330
1F
100
AcDbEntity
  8
0
  6
Continuous
 62
     4
370
    15
100
AcDbSpline
210
0.0
220
0.0
230
1.0
 70
     8
 71
     3
 72
     8
 73
     4
 74
     0
 42
0.000000001
 43
0.00000001
 40
0.0
 40
0.0
 40
0.0
 40
0.0
 40
0.0005965391767206
 40
0.0005965391767206
 40
0.0005965391767206
 40
0.0005965391767206
 10
3.346033751479378
 20
4.619194924735935
 30
0.0
 10
3.519511409395955
 20
4.564969968707816
 30
0.0
 10
3.692868205390194
 20
4.508524330373314
 30
0.0
 10
3.866025403784489
 20
4.449831704537084
 30
0.0
1001
PE_URL
1000

  0
LINE
  5
A7
330
1F
100
AcDbEntity
  8
0
  6
Continuous
 62
     4
370
    15
100
AcDbLine
 10
3.346033751479378
 20
-4.56142876638818
 30
0.0
 11
3.346033751479378
 21
4.619200477393806
 31
0.0
1001
PE_URL
1000

  0
SPLINE
  5
A8
330
1F
100
AcDbEntity
  8
0
  6
Continuous
 62
     4
370
    15
100
AcDbSpline
210
0.0
220
0.0
230
1.0
 70
     8
 71
     3
 72
     8
 73
     4
 74
     0
 42
0.000000001
 43
0.00000001
 40
0.0
 40
0.0
 40
0.0
 40
0.0
 40
0.0005905170449766
 40
0.0005905170449766
 40
0.0005905170449766
 40
0.0005905170449766
 10
3.866025403784427
 20
-4.461819920699138
 30
0.0
 10
3.692406572330602
 20
-4.497516442556401
 30
0.0
 10
3.519039768333671
 20
-4.530774993489918
 30
0.0
 10
3.346042504198088
 20
-4.561451292560126
 30
0.0
1001
PE_URL
1000

  0
LINE
  5
A9
330
1F
100
AcDbEntity
  8
0
  6
Continuous
 62
     4
370
    15
100
AcDbLine
 10
3.866025403784427
 20
-4.461819920699138
 30
0.0
 11
3.866025403784427
 21
-4.499999999999996
 31
0.0
1001
PE_URL
1000

  0
LINE
  5
AA
330
1F
100
AcDbEntity
  8
0
  6
Continuous
 62
     4
370
    15
100
AcDbLine
 10
-43.13397459621558
 20
3.999999999999998
 30
0.0
 11
-43.13397459621558
 21
-4.000000000000002
 31
0.0
  0
SPLINE
  5
AB
330
1F
100
AcDbEntity
  8
0
  6
Continuous
 62
     4
370
    15
100
AcDbSpline
210
0.0
220
0.0
230
1.0
 70
     8
 71
     3
 72
    10
 73
     6
 74
     0
 42
0.000000001
 43
0.00000001
 40
0.0
 40
0.0
 40
0.0
 40
0.0
 40
0.5000000000000001
 40
0.5000000000000001
 40
1.0
 40
1.0
 40
1.0
 40
1.0
 10
4.866025403784427
 20
-1.129307167353807
 30
0.0
 10
4.611931425843428
 20
-1.018036328955217
 30
0.0
 10
4.359920373626156
 20
-0.9052780425681608
 30
0.0
 10
3.854878351549884
 20
-0.6771086574458295
 30
0.0
 10
3.60048846611949
 20
-0.5614876387559715
 30
0.0
 10
3.346036946564419
 20
-0.4451464559695095
 30
0.0
  0
SPLINE
  5
AC
330
1F
100
AcDbEntity
  8
0
  6
Continuous
 62
     4
370
    15
100
AcDbSpline
210
0.0
220
0.0
230
1.0
 70
     8
 71
     3
 72
    10
 73
     6
 74
     0
 42
0.000000001
 43
0.00000001
 40
0.0
 40
0.0
 40
0.0
 40
0.0
 40
0.5
 40
0.5
 40
1.0
 40
1.0
 40
1.0
 40
1.0
 10
4.866025403784423
 20
2.9909984765919
 30
0.0
 10
4.611931244898628
 20
3.023164225565603
 30
0.0
 10
4.359920016632083
 20
3.050494952212307
 30
0.0
 10
3.854877629595995
 20
3.09547252634647
 30
0.0
 10
3.600487560289139
 20
3.113140998040739
 30
0.0
 10
3.346035859367971
 20
3.125825912582548
 30
0.0
  0
SPLINE
  5
AD
330
1F
100
AcDbEntity
  8
0
  6
Continuous
 62
     1
370
    15
100
AcDbSpline
210
0.0
220
0.0
230
1.0
 70
    24
 71
     3
 72
    14
 73
    10
 74
     0
 42
0.000000001
 43
0.00000001
 40
0.0
 40
0.0
 40
0.0
 40
0.0
 40
0.25
 40
0.25
 40
0.5
 40
0.5
 40
0.75
 40
0.75
 40
1.0
 40
1.0
 40
1.0
 40
1.0
 10
4.866025403784427
 20
2.9909984765919
 30
0.0
 10
4.866025403784427
 20
2.788233526597061
 30
0.0
 10
4.866025403784427
 20
2.53688826985875
 30
0.0
 10
4.866025403784427
 20
1.947728459374188
 30
0.0
 10
4.866025403784427
 20
1.610032174728945
 30
0.0
 10
4.866025403784427
 20
0.8777350688141856
 30
0.0
 10
4.866025403784427
 20
0.4835244460587396
 30
0.0
 10
4.866025403784427
 20
-0.3209732527735263
 30
0.0
 10
4.866025403784427
 20
-0.7308396060660618
 30
0.0
 10
4.866025403784427
 20
-1.129307167353807
 30
0.0
  0
SPLINE
  5
AE
330
1F
100
AcDbEntity
  8
0
  6
Continuous
 62
     4
370
    15
100
AcDbSpline
210
0.0
220
0.0
230
1.0
 70
     8
 71
     3
 72
    10
 73
     6
 74
     0
 42
0.000000001
 43
0.00000001
 40
0.0
 40
0.0
 40
0.0
 40
0.0
 40
0.5
 40
0.5
 40
1.0
 40
1.0
 40
1.0
 40
1.0
 10
4.866025403784437
 20
-3.817612722337249
 30
0.0
 10
4.611932350814181
 20
-3.80987817719453
 30
0.0
 10
4.359922198542193
 20
-3.796106081828548
 30
0.0
 10
3.854882042102025
 20
-3.756598527385325
 30
0.0
 10
3.600493096628748
 20
-3.730804453599081
 30
0.0
 10
3.346042504198168
 20
-3.699108743774122
 30
0.0
  0
SPLINE
  5
AF
330
1F
100
AcDbEntity
  8
0
  6
Continuous
 62
     1
370
    15
100
AcDbSpline
210
0.0
220
0.0
230
1.0
 70
    24
 71
     3
 72
    14
 73
    10
 74
     0
 42
0.000000001
 43
0.00000001
 40
0.0
 40
0.0
 40
0.0
 40
0.0
 40
0.2500000000000001
 40
0.2500000000000001
 40
0.5000000000000002
 40
0.5000000000000002
 40
0.7500000000000001
 40
0.7500000000000001
 40
1.0
 40
1.0
 40
1.0
 40
1.0
 10
4.866025403784423
 20
-1.129307167353806
 30
0.0
 10
4.866025403784423
 20
-1.444046394470108
 30
0.0
 10
4.866025403784423
 20
-1.750709316847207
 30
0.0
 10
4.866025403784423
 20
-2.323439101357081
 30
0.0
 10
4.866025403784423
 20
-2.589307773311984
 30
0.0
 10
4.866025403784423
 20
-3.059155775227344
 30
0.0
 10
4.866025403784423
 20
-3.262999427347602
 30
0.0
 10
4.866025403784423
 20
-3.596362774413683
 30
0.0
 10
4.866025403784423
 20
-3.725872766315828
 30
0.0
 10
4.866025403784423
 20
-3.81761272233725
 30
0.0
  0
SPLINE
  5
B0
330
1F
100
AcDbEntity
  8
0
  6
Continuous
 62
     4
370
    15
100
AcDbSpline
210
0.0
220
0.0
230
1.0
 70
     8
 71
     3
 72
     8
 73
     4
 74
     0
 42
0.000000001
 43
0.00000001
 40
0.0
 40
0.0
 40
0.0
 40
0.0
 40
1.0
 40
1.0
 40
1.0
 40
1.0
 10
4.866025403784445
 20
4.327269415385929
 30
0.0
 10
4.531142689088114
 20
4.380244223606542
 30
0.0
 10
4.200159746436849
 20
4.421106045707526
 30
0.0
 10
3.866025403784427
 20
4.449831704537406
 30
0.0
1001
PE_URL
1000

  0
SPLINE
  5
B1
330
1F
100
AcDbEntity
  8
0
  6
Continuous
 62
     4
370
    15
100
AcDbSpline
210
0.0
220
0.0
230
1.0
 70
    24
 71
     3
 72
    10
 73
     6
 74
     0
 42
0.000000001
 43
0.00000001
 40
0.0
 40
0.0
 40
0.0
 40
0.0
 40
0.5
 40
0.5
 40
1.0
 40
1.0
 40
1.0
 40
1.0
 10
4.866025403784427
 20
4.327269415385929
 30
0.0
 10
4.866025403784427
 20
4.131368297185052
 30
0.0
 10
4.866025403784427
 20
3.90544501098177
 30
0.0
 10
4.866025403784427
 20
3.442558243873552
 30
0.0
 10
4.866025403784427
 20
3.206887952609758
 30
0.0
 10
4.866025403784427
 20
2.9909984765919
 30
0.0
  0
LINE
  5
B2
330
1F
100
AcDbEntity
  8
0
  6
Continuous
 62
     4
370
    15
100
AcDbLine
 10
4.866025403784423
 20
4.49999228634201
 30
0.0
 11
4.866025403784423
 21
4.327269415385933
 31
0.0
1001
PE_URL
1000

  0
SPLINE
  5
B3
330
1F
100
AcDbEntity
  8
0
  6
Continuous
 62
     4
370
    15
100
AcDbSpline
210
0.0
220
0.0
230
1.0
 70
     8
 71
     3
 72
     8
 73
     4
 74
     0
 42
0.000000001
 43
0.00000001
 40
0.0
 40
0.0
 40
0.0
 40
0.0
 40
1.0
 40
1.0
 40
1.0
 40
1.0
 10
4.866025403784423
 20
-4.499992286342003
 30
0.0
 10
4.531142689088099
 20
-4.499634830138009
 30
0.0
 10
4.200159746436842
 20
-4.486896275760889
 30
0.0
 10
3.866025403784427
 20
-4.461819920699138
 30
0.0
1001
PE_URL
1000

  0
SPLINE
  5
B4
330
1F
100
AcDbEntity
  8
0
  6
Continuous
 62
     1
370
    15
100
AcDbSpline
210
0.0
220
0.0
230
1.0
 70
    24
 71
     3
 72
     8
 73
     4
 74
     0
 42
0.000000001
 43
0.00000001
 40
0.0
 40
0.0
 40
0.0
 40
0.0
 40
1.0
 40
1.0
 40
1.0
 40
1.0
 10
4.866025403784427
 20
-3.817612722337249
 30
0.0
 10
4.866025403784427
 20
-4.049941850726113
 30
0.0
 10
4.866025403784427
 20
-4.278885203395652
 30
0.0
 10
4.866025403784427
 20
-4.499992286333725
 30
0.0
  0
SPLINE
  5
B5
330
1F
100
AcDbEntity
  8
0
  6
Continuous
 62
     1
370
    15
100
AcDbSpline
210
0.0
220
0.0
230
1.0
 70
     8
 71
     3
 72
    52
 73
    48
 74
     0
 42
0.000000001
 43
0.00000001
 40
0.0
 40
0.0
 40
0.0
 40
0.0
 40
0.0624999999999993
 40
0.0624999999999993
 40
0.0937499999999989
 40
0.0937499999999989
 40
0.1249999999999986
 40
0.1249999999999986
 40
0.1562499999999982
 40
0.1562499999999982
 40
0.1874999999999978
 40
0.1874999999999978
 40
0.2499999999999971
 40
0.2499999999999971
 40
0.2812499999999969
 40
0.2812499999999969
 40
0.3124999999999968
 40
0.3124999999999968
 40
0.3749999999999969
 40
0.3749999999999969
 40
0.406249999999997
 40
0.406249999999997
 40
0.4374999999999972
 40
0.4374999999999972
 40
0.4999999999999976
 40
0.4999999999999976
 40
0.5312499999999978
 40
0.5312499999999978
 40
0.5624999999999979
 40
0.5624999999999979
 40
0.6249999999999982
 40
0.6249999999999982
 40
0.6874999999999984
 40
0.6874999999999984
 40
0.7499999999999988
 40
0.7499999999999988
 40
0.781249999999999
 40
0.781249999999999
 40
0.8124999999999991
 40
0.8124999999999991
 40
0.8437499999999993
 40
0.8437499999999993
 40
0.8749999999999996
 40
0.8749999999999996
 40
0.9374999999999998
 40
0.9374999999999998
 40
1.0
 40
1.0
 40
1.0
 40
1.0
 10
26.86602540378442
 20
-4.496196668533393
 30
0.0
 10
26.41105610721176
 20
-4.485346379568335
 30
0.0
 10
25.94876518371523
 20
-4.451051373225129
 30
0.0
 10
25.26038350554354
 20
-4.3653358723136
 30
0.0
 10
25.0329272928009
 20
-4.331157460185092
 30
0.0
 10
24.57623987967486
 20
-4.251619959692358
 30
0.0
 10
24.34641208123033
 20
-4.206203268420274
 30
0.0
 10
23.88645669556128
 20
-4.104524887422379
 30
0.0
 10
23.65633258994081
 20
-4.048263931641781
 30
0.0
 10
23.19847140122625
 20
-3.925602585782487
 30
0.0
 10
22.97156561614356
 20
-3.859303841718301
 30
0.0
 10
22.28449041256694
 20
-3.645068412470025
 30
0.0
 10
21.82188635900537
 20
-3.48198792433295
 30
0.0
 10
21.13722217235628
 20
-3.212745265948175
 30
0.0
 10
20.90956264266568
 20
-3.118807660925055
 30
0.0
 10
20.45050874757332
 20
-2.922570948820624
 30
0.0
 10
20.22018974829565
 20
-2.820411486419576
 30
0.0
 10
19.53088768179971
 20
-2.50358622666029
 30
0.0
 10
19.07690569731638
 20
-2.279155019597227
 30
0.0
 10
18.38736161650394
 20
-1.925159622836669
 30
0.0
 10
18.15707114214297
 20
-1.804426196777499
 30
0.0
 10
17.6982915851197
 20
-1.55890770942716
 30
0.0
 10
17.47100700753561
 20
-1.434347984754107
 30
0.0
 10
16.78562191925459
 20
-1.0549556753672
 30
0.0
 10
16.32296901778792
 20
-0.7941591208251936
 30
0.0
 10
15.63647373181715
 20
-0.4002139216370402
 30
0.0
 10
15.40953622993339
 20
-0.268574308544821
 30
0.0
 10
14.95130587700056
 20
-0.0041051361239614
 30
0.0
 10
14.72110514518201
 20
0.1285150904394322
 30
0.0
 10
14.03127050290411
 20
0.5252117123116274
 30
0.0
 10
13.57703471367194
 20
0.7872385791090777
 30
0.0
 10
12.65867895875037
 20
1.302314096738227
 30
0.0
 10
12.19768011864218
 20
1.554721179187238
 30
0.0
 10
11.28659413523023
 20
2.038937520255599
 30
0.0
 10
10.82415676170027
 20
2.272903464838593
 30
0.0
 10
10.13621293338957
 20
2.603399658043415
 30
0.0
 10
9.909068298258697
 20
2.709992322585023
 30
0.0
 10
9.45191758498764
 20
2.916344711329784
 30
0.0
 10
9.221965203708093
 20
3.016079324878282
 30
0.0
 10
8.76197960015073
 20
3.207456011140819
 30
0.0
 10
8.53194986107417
 20
3.299096627644091
 30
0.0
 10
8.074492706951563
 20
3.473260794556158
 30
0.0
 10
7.847491773483506
 20
3.555752923570338
 30
0.0
 10
7.159889030202542
 20
3.789886525587233
 30
0.0
 10
6.697369906774984
 20
3.927439752321302
 30
0.0
 10
5.785514544983481
 20
4.159316339085229
 30
0.0
 10
5.325363473529265
 20
4.254607121737173
 30
0.0
 10
4.86602540378443
 20
4.327269415385936
 30
0.0
  0
SPLINE
  5
B6
330
1F
100
AcDbEntity
  8
0
  6
Continuous
 62
     1
370
    15
100
AcDbSpline
210
0.0
220
0.0
230
1.0
 70
     8
 71
     3
 72
    14
 73
    10
 74
     0
 42
0.000000001
 43
0.00000001
 40
0.0
 40
0.0
 40
0.0
 40
0.0
 40
0.1044569343630957
 40
0.2536226860828103
 40
0.4028179433603575
 40
0.55208363820394
 40
0.7014525504998022
 40
0.8507723144489401
 40
1.0
 40
1.0
 40
1.0
 40
1.0
 10
15.67549270420371
 20
-0.4221695564423641
 30
0.0
 10
15.29910515385447
 20
-0.2713997354972108
 30
0.0
 10
14.38523167949156
 20
0.0946711931729271
 30
0.0
 10
12.93396468931551
 20
0.6827662504025249
 30
0.0
 10
11.32115842285833
 20
1.304218432804365
 30
0.0
 10
9.70757417978006
 20
1.871475436751896
 30
0.0
 10
8.093356509443346
 20
2.355982901965506
 30
0.0
 10
6.479371518808245
 20
2.749285074795692
 30
0.0
 10
5.403696855126267
 20
2.910443910933418
 30
0.0
 10
4.866025403784427
 20
2.9909984765919
 30
0.0
  0
SPLINE
  5
B7
330
1F
100
AcDbEntity
  8
0
  6
Continuous
 62
     4
370
    15
100
AcDbSpline
210
0.0
220
0.0
230
1.0
 70
    24
 71
     3
 72
    10
 73
     6
 74
     0
 42
0.000000001
 43
0.00000001
 40
0.0
 40
0.0
 40
0.0
 40
0.0
 40
0.5
 40
0.5
 40
1.0
 40
1.0
 40
1.0
 40
1.0
 10
4.86602540378443
 20
4.327269415385929
 30
0.0
 10
4.86602540378443
 20
4.131368297185052
 30
0.0
 10
4.86602540378443
 20
3.90544501098177
 30
0.0
 10
4.86602540378443
 20
3.442558243873552
 30
0.0
 10
4.86602540378443
 20
3.20688795260976
 30
0.0
 10
4.86602540378443
 20
2.990998476591899
 30
0.0
  0
SPLINE
  5
B8
330
1F
100
AcDbEntity
  8
0
  6
Continuous
 62
     1
370
    15
100
AcDbSpline
210
0.0
220
0.0
230
1.0
 70
     8
 71
     3
 72
    52
 73
    48
 74
     0
 42
0.000000001
 43
0.00000001
 40
0.0
 40
0.0
 40
0.0
 40
0.0
 40
0.0625000000000008
 40
0.0625000000000008
 40
0.093750000000001
 40
0.093750000000001
 40
0.1250000000000012
 40
0.1250000000000012
 40
0.1562500000000015
 40
0.1562500000000015
 40
0.1875000000000017
 40
0.1875000000000017
 40
0.2500000000000021
 40
0.2500000000000021
 40
0.2812500000000022
 40
0.2812500000000022
 40
0.3125000000000023
 40
0.3125000000000023
 40
0.3750000000000021
 40
0.3750000000000021
 40
0.4062500000000021
 40
0.4062500000000021
 40
0.4375000000000021
 40
0.4375000000000021
 40
0.500000000000002
 40
0.500000000000002
 40
0.531250000000002
 40
0.531250000000002
 40
0.5625000000000019
 40
0.5625000000000019
 40
0.6250000000000017
 40
0.6250000000000017
 40
0.6875000000000014
 40
0.6875000000000014
 40
0.7500000000000011
 40
0.7500000000000011
 40
0.7812500000000011
 40
0.7812500000000011
 40
0.8125000000000011
 40
0.8125000000000011
 40
0.8437500000000009
 40
0.8437500000000009
 40
0.8750000000000008
 40
0.8750000000000008
 40
0.9375000000000004
 40
0.9375000000000004
 40
1.0
 40
1.0
 40
1.0
 40
1.0
 10
26.86602540378442
 20
-4.270233911543546
 30
0.0
 10
26.41105610721169
 20
-4.186965879743593
 30
0.0
 10
25.94876518371511
 20
-4.081042809663295
 30
0.0
 10
25.26038350554333
 20
-3.891579389663303
 30
0.0
 10
25.03292729280066
 20
-3.82348788496645
 30
0.0
 10
24.57623987967455
 20
-3.677434907803077
 30
0.0
 10
24.34641208123001
 20
-3.599389598124798
 30
0.0
 10
23.8864566955609
 20
-3.434103037827061
 30
0.0
 10
23.6563325899404
 20
-3.346863008230633
 30
0.0
 10
23.19847140122577
 20
-3.164246631611706
 30
0.0
 10
22.97156561614306
 20
-3.069003133145724
 30
0.0
 10
22.28449041256632
 20
-2.770845780883476
 30
0.0
 10
21.82188635900472
 20
-2.555909950362322
 30
0.0
 10
21.13722217235554
 20
-2.216800845747489
 30
0.0
 10
20.90956264266491
 20
-2.100848947495901
 30
0.0
 10
20.45050874757249
 20
-1.863162838070139
 30
0.0
 10
20.22018974829479
 20
-1.741605731575874
 30
0.0
 10
19.53088768179876
 20
-1.370912573977682
 30
0.0
 10
19.07690569731537
 20
-1.116396102195313
 30
0.0
 10
18.38736161650285
 20
-0.7263483038944324
 30
0.0
 10
18.15707114214184
 20
-0.5951346367481962
 30
0.0
 10
17.69829158511852
 20
-0.3318461735443723
 30
0.0
 10
17.4710070075344
 20
-0.2000052249458252
 30
0.0
 10
16.78562191925328
 20
0.1964584125049219
 30
0.0
 10
16.32296901778655
 20
0.4622145917265833
 30
0.0
 10
15.6364737318157
 20
0.8537793687525829
 30
0.0
 10
15.40953622993192
 20
0.983007634391314
 30
0.0
 10
14.95130587699901
 20
1.239404466262001
 30
0.0
 10
14.72110514518043
 20
1.366361624272243
 30
0.0
 10
14.03127050290244
 20
1.741270000847607
 30
0.0
 10
13.57703471367022
 20
1.982450281311189
 30
0.0
 10
12.65867895874851
 20
2.443536999979663
 30
0.0
 10
12.1976801186403
 20
2.662811933706085
 30
0.0
 10
11.2865941352282
 20
3.069952251939006
 30
0.0
 10
10.82415676169819
 20
3.259619381517989
 30
0.0
 10
10.13621293338741
 20
3.516512651092544
 30
0.0
 10
9.909068298256521
 20
3.597435587076027
 30
0.0
 10
9.451917584985384
 20
3.750115275315888
 30
0.0
 10
9.221965203705805
 20
3.821843565398511
 30
0.0
 10
8.761979600148377
 20
3.95518083553001
 30
0.0
 10
8.531949861071796
 20
4.016788797122697
 30
0.0
 10
8.074492706949153
 20
4.129222219376635
 30
0.0
 10
7.847491773481057
 20
4.18003988758108
 30
0.0
 10
7.159889030199986
 20
4.316542932007171
 30
0.0
 10
6.697369906772366
 20
4.385724397082862
 30
0.0
 10
5.785514544980805
 20
4.47748267206586
 30
0.0
 10
5.325363473526469
 20
4.500482587081904
 30
0.0
 10
4.866025403781583
 20
4.49999228634201
 30
0.0
  0
SPLINE
  5
B9
330
1F
100
AcDbEntity
  8
0
  6
Continuous
 62
     1
370
    15
100
AcDbSpline
210
0.0
220
0.0
230
1.0
 70
     8
 71
     3
 72
    15
 73
    11
 74
     0
 42
0.000000001
 43
0.00000001
 40
0.0
 40
0.0
 40
0.0
 40
0.0
 40
0.1257496919406541
 40
0.2513331872594915
 40
0.376880479027124
 40
0.5025220438878009
 40
0.6283287163000841
 40
0.7539884213673507
 40
0.8795396647269657
 40
1.0
 40
1.0
 40
1.0
 40
1.0
 10
26.86602540378442
 20
-3.550375189656966
 30
0.0
 10
26.37555899617835
 20
-3.448712719580356
 30
0.0
 10
25.39527440410534
 20
-3.245522141260007
 30
0.0
 10
23.92574120994717
 20
-2.791594671593855
 30
0.0
 10
22.45664768867931
 20
-2.247742511522719
 30
0.0
 10
20.98656185217272
 20
-1.621637830371881
 30
0.0
 10
19.51552292233411
 20
-0.9392100030365689
 30
0.0
 10
18.04529859965692
 20
-0.2234554017655513
 30
0.0
 10
16.59611487324761
 20
0.4935036626398312
 30
0.0
 10
15.63682177536072
 20
0.9488060480078357
 30
0.0
 10
15.16710092385107
 20
1.171746278288377
 30
0.0
  0
LINE
  5
BA
330
1F
100
AcDbEntity
  8
0
  6
Continuous
 62
     1
370
    15
100
AcDbLine
 10
26.86602540378442
 20
-4.270233911543546
 30
0.0
 11
26.86602540378442
 21
-3.550375189656966
 31
0.0
  0
LINE
  5
BB
330
1F
100
AcDbEntity
  8
0
  6
Continuous
 62
     1
370
    15
100
AcDbLine
 10
26.86602540378442
 20
-4.496196668533394
 30
0.0
 11
26.86602540378442
 21
-4.270233911543547
 31
0.0
  0
SPLINE
  5
BC
330
1F
100
AcDbEntity
  8
0
  6
Continuous
 62
     1
370
    15
100
AcDbSpline
210
0.0
220
0.0
230
1.0
 70
     8
 71
     3
 72
     8
 73
     4
 74
     0
 42
0.000000001
 43
0.00000001
 40
0.0
 40
0.0
 40
0.0
 40
0.0
 40
1.0
 40
1.0
 40
1.0
 40
1.0
 10
24.08133377395918
 20
1.259047804855773
 30
0.0
 10
23.87976174154462
 20
1.497877702846959
 30
0.0
 10
23.70477720491968
 20
1.726170523472031
 30
0.0
 10
23.56665094186369
 20
1.938527296221159
 30
0.0
  0
LINE
  5
BD
330
1F
100
AcDbEntity
  8
0
  6
Continuous
 62
     1
370
    15
100
AcDbLine
 10
23.56665094186369
 20
1.938527296221162
 30
0.0
 11
26.86602540378442
 21
0.0000000000000068
 31
0.0
  0
LINE
  5
BE
330
1F
100
AcDbEntity
  8
0
  6
Continuous
 62
     1
370
    15
100
AcDbLine
 10
26.86602540378442
 20
0.0000000000000068
 30
0.0
 11
26.86602540378442
 21
-1.202593257133395
 31
0.0
  0
SPLINE
  5
BF
330
1F
100
AcDbEntity
  8
0
  6
Continuous
 62
     1
370
    15
100
AcDbSpline
210
0.0
220
0.0
230
1.0
 70
     8
 71
     3
 72
    12
 73
     8
 74
     0
 42
0.000000001
 43
0.00000001
 40
0.0
 40
0.0
 40
0.0
 40
0.0
 40
0.5
 40
0.5
 40
0.75
 40
0.75
 40
1.0
 40
1.0
 40
1.0
 40
1.0
 10
26.86602540378443
 20
-1.202593257133397
 30
0.0
 10
26.38398207351885
 20
-0.8236249654548053
 30
0.0
 10
25.90999266588081
 20
-0.4291161234401592
 30
0.0
 10
25.21139562309529
 20
0.1865487677832505
 30
0.0
 10
24.98063146938438
 20
0.3958254271524809
 30
0.0
 10
24.52382254818972
 20
0.823485098485845
 30
0.0
 10
24.29902192608285
 20
1.040751463389952
 30
0.0
 10
24.08133377395916
 20
1.259047804855776
 30
0.0
  0
SPLINE
  5
C0
330
1F
100
AcDbEntity
  8
0
  6
Continuous
 62
     1
370
    15
100
AcDbSpline
210
0.0
220
0.0
230
1.0
 70
     8
 71
     3
 72
    14
 73
    10
 74
     0
 42
0.000000001
 43
0.00000001
 40
0.0
 40
0.0
 40
0.0
 40
0.0
 40
0.1482479841756029
 40
0.296593967594858
 40
0.4450872251948704
 40
0.5934637729419409
 40
0.7417245852623259
 40
0.8899572620764553
 40
1.0
 40
1.0
 40
1.0
 40
1.0
 10
24.08133377395918
 20
1.259047804855773
 30
0.0
 10
23.56930734789711
 20
1.475990272095628
 30
0.0
 10
22.54491602100206
 20
1.910018616267039
 30
0.0
 10
21.00753534097586
 20
2.474029509236995
 30
0.0
 10
19.46936409562081
 20
2.94494163733967
 30
0.0
 10
17.93177596400902
 20
3.302324733334336
 30
0.0
 10
16.39523951312003
 20
3.527182634084689
 30
0.0
 10
14.99115899861428
 20
3.623599560269827
 30
0.0
 10
14.09905612503583
 20
3.580711147526241
 30
0.0
 10
13.71896016112945
 20
3.56243779244019
 30
0.0
  0
SPLINE
  5
C1
330
1F
100
AcDbEntity
  8
0
  6
Continuous
 62
     1
370
    15
100
AcDbSpline
210
0.0
220
0.0
230
1.0
 70
    24
 71
     3
 72
    10
 73
     6
 74
     0
 42
0.000000001
 43
0.00000001
 40
0.0
 40
0.0
 40
0.0
 40
0.0
 40
0.5
 40
0.5
 40
1.0
 40
1.0
 40
1.0
 40
1.0
 10
26.86602540378442
 20
-3.550375189656966
 30
0.0
 10
26.86602540378442
 20
-3.278211250517114
 30
0.0
 10
26.86602540378443
 20
-2.934321677579105
 30
0.0
 10
26.86602540378442
 20
-2.134811516178055
 30
0.0
 10
26.86602540378443
 20
-1.67988349373089
 30
0.0
 10
26.86602540378443
 20
-1.202593257133542
 30
0.0
  0
LINE
  5
C2
330
1F
100
AcDbEntity
  8
0
  6
Continuous
 62
     1
370
    15
100
AcDbLine
 10
26.86602540378442
 20
3.150000000000007
 30
0.0
 11
25.19242192572009
 21
3.073972348770664
 31
0.0
  0
SPLINE
  5
C3
330
1F
100
AcDbEntity
  8
0
  6
Continuous
 62
     1
370
    15
100
AcDbSpline
210
0.0
220
0.0
230
1.0
 70
     8
 71
     3
 72
    10
 73
     6
 74
     0
 42
0.000000001
 43
0.00000001
 40
0.0
 40
0.0
 40
0.0
 40
0.0
 40
0.5
 40
0.5
 40
1.0
 40
1.0
 40
1.0
 40
1.0
 10
26.86602540378442
 20
3.150000000000007
 30
0.0
 10
26.30604254639314
 20
2.998064275349022
 30
0.0
 10
25.75026740817408
 20
2.823885731173382
 30
0.0
 10
24.64828837975287
 20
2.424933169704298
 30
0.0
 10
24.1019366510825
 20
2.200797928814812
 30
0.0
 10
23.56665094186369
 20
1.938527296221162
 30
0.0
  0
SPLINE
  5
C4
330
1F
100
AcDbEntity
  8
0
  6
Continuous
 62
     1
370
    15
100
AcDbSpline
210
0.0
220
0.0
230
1.0
 70
     8
 71
     3
 72
    15
 73
    11
 74
     0
 42
0.000000001
 43
0.00000001
 40
0.0
 40
0.0
 40
0.0
 40
0.0
 40
0.0756189846779036
 40
0.1987832962737244
 40
0.3219972372966796
 40
0.4575922588981203
 40
0.5932363824594806
 40
0.7288670306326587
 40
0.8644507748229725
 40
1.0
 40
1.0
 40
1.0
 40
1.0
 10
17.33818163245811
 20
-3.367985173150144
 30
0.0
 10
17.02383645902375
 20
-3.418941461654774
 30
0.0
 10
16.19750204036977
 20
-3.552892731140481
 30
0.0
 10
14.85904167343281
 20
-3.618235534468397
 30
0.0
 10
13.27118625944137
 20
-3.572458904797282
 30
0.0
 10
11.63117869351869
 20
-3.363878244082472
 30
0.0
 10
9.939493089931002
 20
-2.993095807469571
 30
0.0
 10
8.24787733128394
 20
-2.480485409747923
 30
0.0
 10
6.556751151111465
 20
-1.855491689731573
 30
0.0
 10
5.429552816863801
 20
-1.37134812873432
 30
0.0
 10
4.866025403784427
 20
-1.129307167353807
 30
0.0
  0
SPLINE
  5
C5
330
1F
100
AcDbEntity
  8
0
  6
Continuous
 62
     4
370
    15
100
AcDbSpline
210
0.0
220
0.0
230
1.0
 70
    24
 71
     3
 72
    14
 73
    10
 74
     0
 42
0.000000001
 43
0.00000001
 40
0.0
 40
0.0
 40
0.0
 40
0.0
 40
0.25
 40
0.25
 40
0.5
 40
0.5
 40
0.75
 40
0.75
 40
1.0
 40
1.0
 40
1.0
 40
1.0
 10
4.866025403784427
 20
2.9909984765919
 30
0.0
 10
4.866025403784427
 20
2.788233526597061
 30
0.0
 10
4.866025403784427
 20
2.53688826985875
 30
0.0
 10
4.866025403784427
 20
1.947728459374188
 30
0.0
 10
4.866025403784427
 20
1.610032174728945
 30
0.0
 10
4.866025403784427
 20
0.8777350688141856
 30
0.0
 10
4.866025403784427
 20
0.4835244460587396
 30
0.0
 10
4.866025403784427
 20
-0.3209732527735263
 30
0.0
 10
4.866025403784427
 20
-0.7308396060660618
 30
0.0
 10
4.866025403784427
 20
-1.129307167353807
 30
0.0
  0
SPLINE
  5
C6
330
1F
100
AcDbEntity
  8
0
  6
Continuous
 62
     1
370
    15
100
AcDbSpline
210
0.0
220
0.0
230
1.0
 70
     8
 71
     3
 72
     9
 73
     5
 74
     0
 42
0.000000001
 43
0.00000001
 40
0.0
 40
0.0
 40
0.0
 40
0.0
 40
0.3043504494435305
 40
1.0
 40
1.0
 40
1.0
 40
1.0
 10
6.954970656375904
 20
-3.72833150756487
 30
0.0
 10
6.743015311695492
 20
-3.75364056471336
 30
0.0
 10
6.046596610596323
 20
-3.836798178558733
 30
0.0
 10
5.350361231992029
 20
-3.82548366123103
 30
0.0
 10
4.866025403784437
 20
-3.81761272233725
 30
0.0
  0
SPLINE
  5
C7
330
1F
100
AcDbEntity
  8
0
  6
Continuous
 62
     4
370
    15
100
AcDbSpline
210
0.0
220
0.0
230
1.0
 70
    24
 71
     3
 72
    14
 73
    10
 74
     0
 42
0.000000001
 43
0.00000001
 40
0.0
 40
0.0
 40
0.0
 40
0.0
 40
0.2500000000000001
 40
0.2500000000000001
 40
0.5000000000000002
 40
0.5000000000000002
 40
0.7500000000000001
 40
0.7500000000000001
 40
1.0
 40
1.0
 40
1.0
 40
1.0
 10
4.866025403784423
 20
-1.129307167353806
 30
0.0
 10
4.866025403784423
 20
-1.444046394470108
 30
0.0
 10
4.866025403784423
 20
-1.750709316847207
 30
0.0
 10
4.866025403784423
 20
-2.323439101357081
 30
0.0
 10
4.866025403784423
 20
-2.589307773311984
 30
0.0
 10
4.866025403784423
 20
-3.059155775227344
 30
0.0
 10
4.866025403784423
 20
-3.262999427347602
 30
0.0
 10
4.866025403784423
 20
-3.596362774413683
 30
0.0
 10
4.866025403784423
 20
-3.725872766315828
 30
0.0
 10
4.866025403784423
 20
-3.81761272233725
 30
0.0
  0
LINE
  5
C8
330
1F
100
AcDbEntity
  8
0
  6
Continuous
 62
     1
370
    15
100
AcDbLine
 10
26.86602540378442
 20
0.0000000000000068
 30
0.0
 11
26.86602540378442
 21
3.150000000000007
 31
0.0
  0
SPLINE
  5
C9
330
1F
100
AcDbEntity
  8
0
  6
Continuous
 62
     1
370
    15
100
AcDbSpline
210
0.0
220
0.0
230
1.0
 70
     8
 71
     3
 72
    11
 73
     7
 74
     0
 42
0.000000001
 43
0.00000001
 40
0.0
 40
0.0
 40
0.0
 40
0.0
 40
0.1986388283446725
 40
0.4655051826937656
 40
0.7328744304774235
 40
1.0
 40
1.0
 40
1.0
 40
1.0
 10
10.04398980311484
 20
-3.53730406909558
 30
0.0
 10
9.701196416970129
 20
-3.657567272634098
 30
0.0
 10
8.897868592429079
 20
-3.939401116505727
 30
0.0
 10
7.633302494915906
 20
-4.240822679307315
 30
0.0
 10
6.249575262256856
 20
-4.460984009412588
 30
0.0
 10
5.327068498469009
 20
-4.486993479971715
 30
0.0
 10
4.866025403781579
 20
-4.499992286342003
 30
0.0
  0
SPLINE
  5
CA
330
1F
100
AcDbEntity
  8
0
  6
Continuous
 62
     4
370
    15
100
AcDbSpline
210
0.0
220
0.0
230
1.0
 70
    24
 71
     3
 72
     8
 73
     4
 74
     0
 42
0.000000001
 43
0.00000001
 40
0.0
 40
0.0
 40
0.0
 40
0.0
 40
1.0
 40
1.0
 40
1.0
 40
1.0
 10
4.866025403784427
 20
-3.817612722337249
 30
0.0
 10
4.866025403784427
 20
-4.049941850726116
 30
0.0
 10
4.866025403784427
 20
-4.278885203395656
 30
0.0
 10
4.866025403784427
 20
-4.499992286333731
 30
0.0
  0
SPLINE
  5
CB
330
1F
100
AcDbEntity
  8
0
  6
Continuous
 62
     1
370
    15
100
AcDbSpline
210
0.0
220
0.0
230
1.0
 70
    24
 71
     3
 72
    10
 73
     6
 74
     0
 42
0.000000001
 43
0.00000001
 40
0.0
 40
0.0
 40
0.0
 40
0.0
 40
0.5000000000000004
 40
0.5000000000000004
 40
1.0
 40
1.0
 40
1.0
 40
1.0
 10
26.86602540378442
 20
3.150000000000007
 30
0.0
 10
26.86602540378443
 20
3.34094515563292
 30
0.0
 10
26.86602540378442
 20
3.562841109902033
 30
0.0
 10
26.86602540378443
 20
4.028378224323856
 30
0.0
 10
26.86602540378442
 20
4.270830461106632
 30
0.0
 10
26.86602540378442
 20
4.496196668533404
 30
0.0
  0
SPLINE
  5
CC
330
1F
100
AcDbEntity
  8
0
  6
Continuous
 62
     1
370
    15
100
AcDbSpline
210
0.0
220
0.0
230
1.0
 70
     8
 71
     3
 72
    12
 73
     8
 74
     0
 42
0.000000001
 43
0.00000001
 40
0.0
 40
0.0
 40
0.0
 40
0.0
 40
0.1037718109000841
 40
0.3280796915506261
 40
0.551963466414815
 40
0.7757970714234456
 40
1.0
 40
1.0
 40
1.0
 40
1.0
 10
20.6936227356146
 20
3.015307320955245
 30
0.0
 10
20.9071222104828
 20
3.109042248607008
 30
0.0
 10
21.5821113164205
 20
3.405389839390792
 30
0.0
 10
22.71827609382818
 20
3.797133286266869
 30
0.0
 10
24.10056297649175
 20
4.172887919670819
 30
0.0
 10
25.48262260022274
 20
4.422268525129926
 30
0.0
 10
26.40463779205133
 20
4.471540415533934
 30
0.0
 10
26.86602540378442
 20
4.496196668533403
 30
0.0
  0
LINE
  5
CD
330
1F
100
AcDbEntity
  8
중심선
100
AcDbLine
 10
-46.13397459621556
 20
0.0
 30
0.0
 11
29.86602540378444
 21
0.0
 31
0.0
  0
CIRCLE
  5
CE
330
1F
100
AcDbEntity
  8
외형선
100
AcDbCircle
 10
0.0
 20
0.0
 30
0.0
 40
3.000000000000004
  0
INSERT
  5
CF
330
1F
100
AcDbEntity
  8
0
  6
Continuous
 62
     7
100
AcDbBlockReference
 66
     1
  2
블럭10
 10
-29.07224803572718
 20
-52.04717430164392
 30
0.0
  0
ATTRIB
  5
D0
330
CF
100
AcDbEntity
  8
FORMAT
 62
     2
100
AcDbText
 10
-42.03218723058495
 20
-49.97180738881173
 30
0.0
 40
4.233333333333333
  1
SEME35090E [ 2 FLUTE ]
 41
0.75
  7
SLDTEXTSTYLE0
 11
-42.03218723058495
 21
-52.0884740554784
 31
0.0
100
AcDbAttribute
  2
AUTOATTR0
 70
     0
 74
     1
  0
SEQEND
  5
D1
330
CF
100
AcDbEntity
  8
0
  6
Continuous
 62
     7
  0
HATCH
  5
D2
330
1F
100
AcDbEntity
  8
중심선
100
AcDbHatch
 10
0.0
 20
0.0
 30
0.0
210
0.0
220
0.0
230
1.0
  2
SOLID
 70
     1
 71
     0
 91
        1
 92
        0
 93
        4
 72
     1
 10
-23.35733873134633
 20
-35.79999999999999
 11
-26.80361397518361
 21
-35.79999999999999
 72
     1
 10
-26.80361397518361
 20
-35.79999999999999
 11
-28.93184383438763
 21
-38.33632558057258
 72
     1
 10
-28.93184383438763
 20
-38.33632558057258
 11
-25.4855355054372
 21
-38.33628615127009
 72
     1
 10
-25.4855355054372
 20
-38.33628615127009
 11
-23.35733873134633
 21
-35.79999999999999
 97
        0
 75
     0
 76
     1
 98
        1
 10
-5.133974596215568
 20
0.0000000000000035
  0
HATCH
  5
D3
330
1F
100
AcDbEntity
  8
중심선
100
AcDbHatch
 10
0.0
 20
0.0
 30
0.0
210
0.0
220
0.0
230
1.0
  2
SOLID
 70
     1
 71
     0
 91
        1
 92
        0
 93
        4
 72
     1
 10
-18.34457474031038
 20
-35.79999999999999
 11
-21.79084998414766
 21
-35.79999999999999
 72
     1
 10
-21.79084998414766
 20
-35.79999999999999
 11
-26.32198799250505
 21
-41.20000000000001
 72
     1
 10
-26.32198799250505
 20
-41.20000000000001
 11
-22.87571274866777
 21
-41.20000000000001
 72
     1
 10
-22.87571274866777
 20
-41.20000000000001
 11
-18.34457474031038
 21
-35.79999999999999
 97
        0
 75
     0
 76
     1
 98
        1
 10
-5.133974596215568
 20
0.0000000000000035
  0
HATCH
  5
D4
330
1F
100
AcDbEntity
  8
중심선
100
AcDbHatch
 10
0.0
 20
0.0
 30
0.0
210
0.0
220
0.0
230
1.0
  2
SOLID
 70
     1
 71
     0
 91
        1
 92
        0
 93
        4
 72
     1
 10
-13.33181074927448
 20
-35.80000000000003
 11
-16.7780859931116
 21
-35.79999999999999
 72
     1
 10
-16.7780859931116
 20
-35.79999999999999
 11
-23.82652289500084
 21
-44.20000000000001
 72
     1
 10
-23.82652289500084
 20
-44.20000000000001
 11
-20.38024765116356
 21
-44.20000000000001
 72
     1
 10
-20.38024765116356
 20
-44.20000000000001
 11
-13.33181074927448
 21
-35.80000000000003
 97
        0
 75
     0
 76
     1
 98
        1
 10
-5.133974596215568
 20
0.0000000000000035
  0
HATCH
  5
D5
330
1F
100
AcDbEntity
  8
중심선
100
AcDbHatch
 10
0.0
 20
0.0
 30
0.0
210
0.0
220
0.0
230
1.0
  2
SOLID
 70
     1
 71
     0
 91
        1
 92
        0
 93
        6
 72
     3
 10
-8.531920318262278
 20
-40.00000000005127
 11
3.960054785062284
 21
1.540882976769353E-10
 40
0.3939339440162627
 50
17.09539180608439
 51
320.0019657685082
 73
     0
 72
     1
 10
-6.848920662561685
 20
-38.58789400463829
 11
-4.543618788860648
 21
-36.65356729459037
 72
     3
 10
-8.531920318315128
 20
-40.00000000000014
 11
6.600054785286829
 21
-1.278976924368180E-13
 40
0.636358354079598
 50
39.99873849337411
 51
368.4976242363724
 73
     1
 72
     1
 10
-2.106587826414517
 20
-39.03999999993001
 11
-9.851853011479209
 21
-39.03999999992998
 72
     1
 10
-9.851853011479209
 20
-39.03999999992998
 11
-9.85187805592514
 21
-40.95999999992991
 72
     1
 10
-9.85187805592514
 20
-40.95999999992991
 11
-5.410498286453103
 21
-40.95999999992987
 97
        0
 75
     0
 76
     1
 98
        1
 10
-5.133974596215568
 20
0.0000000000000035
  0
DIMENSION
  5
D6
330
1F
100
AcDbEntity
  8
치수문자_일반주서
100
AcDbDimension
  2
_D
 10
4.866025403784427
 20
16.74683055711118
 30
0.0
 11
15.86602540378441
 21
16.74683055711118
 31
0.0
 70
   160
  1
<>
 71
     2
 42
21.99999999999999
  3
SLDDIMSTYLE0
100
AcDbAlignedDimension
 13
26.86602540378442
 23
4.496196668533404
 33
0.0
 14
4.866025403784427
 24
4.500000000000004
 34
0.0
100
AcDbRotatedDimension
  0
DIMENSION
  5
E1
330
1F
100
AcDbEntity
  8
치수문자_일반주서
100
AcDbDimension
  2
_D_1
 10
-43.13397459621558
 20
25.93415911661226
 30
0.0
 11
-8.13397459621557
 21
25.93415911661226
 31
0.0
 70
   160
  1
<>
 71
     2
 42
70.0
  3
SLDDIMSTYLE0
100
AcDbAlignedDimension
 13
26.86602540378442
 23
4.496196668533404
 33
0.0
 14
-43.13397459621558
 24
3.999999999999998
 34
0.0
 50
0.0000000000000029
100
AcDbRotatedDimension
  0
DIMENSION
  5
EB
330
1F
100
AcDbEntity
  8
치수문자_일반주서
100
AcDbDimension
  2
_D_2
 10
42.4322157160307
 20
-4.496196668533336
 30
0.0
 11
42.43221571603069
 21
0.0000000000000047
 31
0.0
 70
   160
  1
%%c<>
 71
     2
 42
8.9973933370668
 52
-270.0
  3
SLDDIMSTYLE1
100
AcDbAlignedDimension
 13
26.86602540378442
 23
4.501196668533405
 33
0.0
 14
26.86602540378442
 24
-4.496196668533394
 34
0.0
 50
90.0000000000002
100
AcDbRotatedDimension
  0
DIMENSION
  5
F9
330
1F
100
AcDbEntity
  8
치수문자_일반주서
100
AcDbDimension
  2
_D_3
 10
-54.5535340416041
 20
-5.000000000000042
 30
0.0
 11
-54.55353404160412
 21
0.0000000000000016
 31
0.0
 70
   160
  1
%%c<>
 71
     2
 42
9.999999999999995
 52
-270.0
  3
SLDDIMSTYLE1
100
AcDbAlignedDimension
 13
-42.13397459621558
 23
4.999999999999999
 33
0.0
 14
-42.13397459621558
 24
-4.999999999999996
 34
0.0
 50
90.0000000000002
100
AcDbRotatedDimension
  0
INSERT
  5
10C
330
1F
100
AcDbEntity
  8
외형선
100
AcDbBlockReference
  2
SW_DOWELSYMBOL_0
 10
0.0
 20
0.0
 30
0.0
  0
ENDSEC
  0
SECTION
  2
OBJECTS
  0
DICTIONARY
  5
C
330
0
100
AcDbDictionary
281
     1
  3
ACAD_GROUP
350
D
  3
ACAD_LAYOUT
350
1A
  3
ACAD_MLINESTYLE
350
17
  3
ACAD_PLOTSETTINGS
350
19
  3
ACAD_PLOTSTYLENAME
350
E
  3
ACAD_SCALELIST
350
47
  3
APPDATA
350
12E
  3
DWGPROPS
350
15F
  0
DICTIONARY
  5
D
102
{ACAD_REACTORS
330
C
102
}
330
C
100
AcDbDictionary
281
     1
  0
DICTIONARY
  5
1A
102
{ACAD_REACTORS
330
C
102
}
330
C
100
AcDbDictionary
281
     1
  3
Layout1
350
1E
  3
Layout2
350
26
  3
Model
350
22
  0
DICTIONARY
  5
17
102
{ACAD_REACTORS
330
C
102
}
330
C
100
AcDbDictionary
281
     1
  3
Standard
350
18
  0
DICTIONARY
  5
19
102
{ACAD_REACTORS
330
C
102
}
330
C
100
AcDbDictionary
281
     1
  0
ACDBDICTIONARYWDFLT
  5
E
102
{ACAD_REACTORS
330
C
102
}
330
C
100
AcDbDictionary
281
     1
  3
Normal
350
F
100
AcDbDictionaryWithDefault
340
F
  0
DICTIONARY
  5
47
102
{ACAD_REACTORS
330
C
102
}
330
C
100
AcDbDictionary
281
     1
  3
A0
350
48
  3
A1
350
49
  3
A2
350
4A
  3
A3
350
4B
  3
A4
350
4C
  3
A5
350
4D
  3
A6
350
4E
  3
A7
350
4F
  3
A8
350
50
  3
A9
350
51
  3
B0
350
52
  3
B1
350
53
  3
B2
350
54
  3
B3
350
55
  3
B4
350
56
  3
B5
350
57
  3
B6
350
58
  3
B7
350
59
  3
B8
350
5A
  3
B9
350
5B
  3
C0
350
5C
  3
C1
350
5D
  3
C2
350
5E
  3
C3
350
5F
  3
C4
350
60
  3
C5
350
61
  3
C6
350
62
  3
C7
350
63
  3
C8
350
64
  3
C9
350
65
  3
D0
350
66
  3
D1
350
67
  3
D2
350
68
  0
DICTIONARY
  5
12E
102
{ACAD_REACTORS
330
C
102
}
330
C
100
AcDbDictionary
281
     1
  0
XRECORD
  5
15F
102
{ACAD_REACTORS
330
C
102
}
330
C
100
AcDbXrecord
280
     1
  1
DWGPROPS COOKIE
  2

  3

  4

  6

  7

  8
12011908
  9

300
=
301
=
302
=
303
=
304
=
305
=
306
=
307
=
308
=
309
=
 40
0.0
 41
2458250.117661967
 42
2458264.042140694
  1

 90
        0
  0
LAYOUT
  5
1E
102
{ACAD_REACTORS
330
1A
102
}
330
1A
100
AcDbPlotSettings
  1

  2
none_device
  4

  6

 40
0.0
 41
0.0
 42
0.0
 43
0.0
 44
0.0
 45
0.0
 46
0.0
 47
0.0
 48
0.0
 49
0.0
140
0.0
141
0.0
142
1.0
143
1.0
 70
   688
 72
     1
 73
     0
 74
     5
  7

 75
    16
147
1.0
148
0.0
149
0.0
100
AcDbLayout
  1
Layout1
 70
     1
 71
     1
 10
0.0
 20
0.0
 11
420.0
 21
297.0
 12
0.0
 22
0.0
 32
0.0
 14
1.000000000000000E+20
 24
1.000000000000000E+20
 34
1.000000000000000E+20
 15
-1.000000000000000E+20
 25
-1.000000000000000E+20
 35
-1.000000000000000E+20
146
0.0
 13
0.0
 23
0.0
 33
0.0
 16
1.0
 26
0.0
 36
0.0
 17
0.0
 27
1.0
 37
0.0
 76
     0
330
1B
  0
LAYOUT
  5
26
102
{ACAD_REACTORS
330
1A
102
}
330
1A
100
AcDbPlotSettings
  1

  2
none_device
  4

  6

 40
0.0
 41
0.0
 42
0.0
 43
0.0
 44
0.0
 45
0.0
 46
0.0
 47
0.0
 48
0.0
 49
0.0
140
0.0
141
0.0
142
1.0
143
1.0
 70
   688
 72
     1
 73
     0
 74
     5
  7

 75
    16
147
1.0
148
0.0
149
0.0
100
AcDbLayout
  1
Layout2
 70
     1
 71
     2
 10
0.0
 20
0.0
 11
0.0
 21
0.0
 12
0.0
 22
0.0
 32
0.0
 14
0.0
 24
0.0
 34
0.0
 15
0.0
 25
0.0
 35
0.0
146
0.0
 13
0.0
 23
0.0
 33
0.0
 16
1.0
 26
0.0
 36
0.0
 17
0.0
 27
1.0
 37
0.0
 76
     0
330
23
  0
LAYOUT
  5
22
102
{ACAD_REACTORS
330
1A
102
}
330
1A
100
AcDbPlotSettings
  1

  2
none_device
  4
ANSI_A_(11.00_x_8.50_Inches)
  6

 40
6.35
 41
19.05
 42
6.35000508
 43
19.05000254
 44
279.4
 45
215.9
 46
140.484968793134
 47
115.5905772088659
 48
0.0
 49
0.0
140
0.0
141
0.0
142
0.1036819484778092
143
1.0
 70
  1696
 72
     0
 73
     0
 74
     0
  7

 75
     0
147
0.0235690232323232
148
0.0
149
0.0
100
AcDbLayout
  1
Model
 70
     1
 71
     0
 10
0.0
 20
0.0
 11
420.0
 21
297.0
 12
0.0
 22
0.0
 32
0.0
 14
-58.92853404160413
 24
-49.97180738881174
 34
0.0
 15
42.98254904936403
 25
30.30915911661226
 35
0.0
146
0.0
 13
0.0
 23
0.0
 33
0.0
 16
1.0
 26
0.0
 36
0.0
 17
0.0
 27
1.0
 37
0.0
 76
     0
330
1F
331
29
  0
MLINESTYLE
  5
18
102
{ACAD_REACTORS
330
17
102
}
330
17
100
AcDbMlineStyle
  2
Standard
 70
     0
  3

 62
   256
 51
90.0
 52
90.0
 71
     2
 49
0.5
 62
   256
  6
BYLAYER
 49
-0.5
 62
   256
  6
BYLAYER
  0
ACDBPLACEHOLDER
  5
F
102
{ACAD_REACTORS
330
E
102
}
330
E
  0
SCALE
  5
48
102
{ACAD_REACTORS
330
47
102
}
330
47
100
AcDbScale
 70
     0
300
1:1
140
1.0
141
1.0
290
     1
  0
SCALE
  5
49
102
{ACAD_REACTORS
330
47
102
}
330
47
100
AcDbScale
 70
     0
300
1:2
140
1.0
141
2.0
290
     0
  0
SCALE
  5
4A
102
{ACAD_REACTORS
330
47
102
}
330
47
100
AcDbScale
 70
     0
300
1:4
140
1.0
141
4.0
290
     0
  0
SCALE
  5
4B
102
{ACAD_REACTORS
330
47
102
}
330
47
100
AcDbScale
 70
     0
300
1:5
140
1.0
141
5.0
290
     0
  0
SCALE
  5
4C
102
{ACAD_REACTORS
330
47
102
}
330
47
100
AcDbScale
 70
     0
300
1:8
140
1.0
141
8.0
290
     0
  0
SCALE
  5
4D
102
{ACAD_REACTORS
330
47
102
}
330
47
100
AcDbScale
 70
     0
300
1:10
140
1.0
141
10.0
290
     0
  0
SCALE
  5
4E
102
{ACAD_REACTORS
330
47
102
}
330
47
100
AcDbScale
 70
     0
300
1:16
140
1.0
141
16.0
290
     0
  0
SCALE
  5
4F
102
{ACAD_REACTORS
330
47
102
}
330
47
100
AcDbScale
 70
     0
300
1:20
140
1.0
141
20.0
290
     0
  0
SCALE
  5
50
102
{ACAD_REACTORS
330
47
102
}
330
47
100
AcDbScale
 70
     0
300
1:30
140
1.0
141
30.0
290
     0
  0
SCALE
  5
51
102
{ACAD_REACTORS
330
47
102
}
330
47
100
AcDbScale
 70
     0
300
1:40
140
1.0
141
40.0
290
     0
  0
SCALE
  5
52
102
{ACAD_REACTORS
330
47
102
}
330
47
100
AcDbScale
 70
     0
300
1:50
140
1.0
141
50.0
290
     0
  0
SCALE
  5
53
102
{ACAD_REACTORS
330
47
102
}
330
47
100
AcDbScale
 70
     0
300
1:100
140
1.0
141
100.0
290
     0
  0
SCALE
  5
54
102
{ACAD_REACTORS
330
47
102
}
330
47
100
AcDbScale
 70
     0
300
2:1
140
2.0
141
1.0
290
     0
  0
SCALE
  5
55
102
{ACAD_REACTORS
330
47
102
}
330
47
100
AcDbScale
 70
     0
300
4:1
140
4.0
141
1.0
290
     0
  0
SCALE
  5
56
102
{ACAD_REACTORS
330
47
102
}
330
47
100
AcDbScale
 70
     0
300
8:1
140
8.0
141
1.0
290
     0
  0
SCALE
  5
57
102
{ACAD_REACTORS
330
47
102
}
330
47
100
AcDbScale
 70
     0
300
10:1
140
10.0
141
1.0
290
     0
  0
SCALE
  5
58
102
{ACAD_REACTORS
330
47
102
}
330
47
100
AcDbScale
 70
     0
300
100:1
140
100.0
141
1.0
290
     0
  0
SCALE
  5
59
102
{ACAD_REACTORS
330
47
102
}
330
47
100
AcDbScale
 70
     0
300
1/128" = 1'-0"
140
0.0078125
141
12.0
290
     0
  0
SCALE
  5
5A
102
{ACAD_REACTORS
330
47
102
}
330
47
100
AcDbScale
 70
     0
300
1/64" = 1'-0"
140
0.015625
141
12.0
290
     0
  0
SCALE
  5
5B
102
{ACAD_REACTORS
330
47
102
}
330
47
100
AcDbScale
 70
     0
300
1/32" = 1'-0"
140
0.03125
141
12.0
290
     0
  0
SCALE
  5
5C
102
{ACAD_REACTORS
330
47
102
}
330
47
100
AcDbScale
 70
     0
300
1/16" = 1'-0"
140
0.0625
141
12.0
290
     0
  0
SCALE
  5
5D
102
{ACAD_REACTORS
330
47
102
}
330
47
100
AcDbScale
 70
     0
300
3/32" = 1'-0"
140
0.09375
141
12.0
290
     0
  0
SCALE
  5
5E
102
{ACAD_REACTORS
330
47
102
}
330
47
100
AcDbScale
 70
     0
300
1/8" = 1'-0"
140
0.125
141
12.0
290
     0
  0
SCALE
  5
5F
102
{ACAD_REACTORS
330
47
102
}
330
47
100
AcDbScale
 70
     0
300
3/16" = 1'-0"
140
0.1875
141
12.0
290
     0
  0
SCALE
  5
60
102
{ACAD_REACTORS
330
47
102
}
330
47
100
AcDbScale
 70
     0
300
1/4" = 1'-0"
140
0.25
141
12.0
290
     0
  0
SCALE
  5
61
102
{ACAD_REACTORS
330
47
102
}
330
47
100
AcDbScale
 70
     0
300
3/8" = 1'-0"
140
0.375
141
12.0
290
     0
  0
SCALE
  5
62
102
{ACAD_REACTORS
330
47
102
}
330
47
100
AcDbScale
 70
     0
300
1/2" = 1'-0"
140
0.5
141
12.0
290
     0
  0
SCALE
  5
63
102
{ACAD_REACTORS
330
47
102
}
330
47
100
AcDbScale
 70
     0
300
3/4" = 1'-0"
140
0.75
141
12.0
290
     0
  0
SCALE
  5
64
102
{ACAD_REACTORS
330
47
102
}
330
47
100
AcDbScale
 70
     0
300
1" = 1'-0"
140
1.0
141
12.0
290
     0
  0
SCALE
  5
65
102
{ACAD_REACTORS
330
47
102
}
330
47
100
AcDbScale
 70
     0
300
1-1/2" = 1'-0"
140
1.5
141
12.0
290
     0
  0
SCALE
  5
66
102
{ACAD_REACTORS
330
47
102
}
330
47
100
AcDbScale
 70
     0
300
3" = 1'-0"
140
3.0
141
12.0
290
     0
  0
SCALE
  5
67
102
{ACAD_REACTORS
330
47
102
}
330
47
100
AcDbScale
 70
     0
300
6" = 1'-0"
140
6.0
141
12.0
290
     0
  0
SCALE
  5
68
102
{ACAD_REACTORS
330
47
102
}
330
47
100
AcDbScale
 70
     0
300
1'-0" = 1'-0"
140
12.0
141
12.0
290
     0
  0
ENDSEC
  0
EOF
