  0
SECTION
  2
HEADER
  9
$ACADVER
  1
AC1015
  9
$ACADMAINTVER
 70
     6
  9
$DWGCODEPAGE
  3
ANSI_949
  9
$INSBASE
 10
0.0
 20
0.0
 30
0.0
  9
$EXTMIN
 10
-58.99552133971191
 20
-49.97180738881174
 30
0.0
  9
$EXTMAX
 10
47.91556175125626
 20
30.83415911661228
 30
0.0
  9
$LIMMIN
 10
0.0
 20
0.0
  9
$LIMMAX
 10
420.0
 20
297.0
  9
$ORTHOMODE
 70
     1
  9
$REGENMODE
 70
     1
  9
$FILLMODE
 70
     1
  9
$QTEXTMODE
 70
     0
  9
$MIRRTEXT
 70
     1
  9
$LTSCALE
 40
1.0
  9
$ATTMODE
 70
     1
  9
$TEXTSIZE
 40
3.5
  9
$TRACEWID
 40
1.0
  9
$TEXTSTYLE
  7
Standard
  9
$CLAYER
  8
0
  9
$CELTYPE
  6
ByLayer
  9
$CECOLOR
 62
   256
  9
$CELTSCALE
 40
1.0
  9
$DISPSILH
 70
     0
  9
$DIMSCALE
 40
1.0
  9
$DIMASZ
 40
3.302
  9
$DIMEXO
 40
1.0
  9
$DIMDLI
 40
3.75
  9
$DIMRND
 40
0.0
  9
$DIMDLE
 40
0.0
  9
$DIMEXE
 40
1.0
  9
$DIMTP
 40
0.0
  9
$DIMTM
 40
0.0
  9
$DIMTXT
 40
3.5
  9
$DIMCEN
 40
2.5
  9
$DIMTSZ
 40
0.0
  9
$DIMTOL
 70
     0
  9
$DIMLIM
 70
     0
  9
$DIMTIH
 70
     1
  9
$DIMTOH
 70
     1
  9
$DIMSE1
 70
     0
  9
$DIMSE2
 70
     0
  9
$DIMTAD
 70
     1
  9
$DIMZIN
 70
     0
  9
$DIMBLK
  1

  9
$DIMASO
 70
     1
  9
$DIMSHO
 70
     1
  9
$DIMPOST
  1

  9
$DIMAPOST
  1

  9
$DIMALT
 70
     0
  9
$DIMALTD
 70
     3
  9
$DIMALTF
 40
0.0393700787401575
  9
$DIMLFAC
 40
1.0
  9
$DIMTOFL
 70
     1
  9
$DIMTVP
 40
0.0
  9
$DIMTIX
 70
     0
  9
$DIMSOXD
 70
     0
  9
$DIMSAH
 70
     0
  9
$DIMBLK1
  1

  9
$DIMBLK2
  1

  9
$DIMSTYLE
  2
ISO-25
  9
$DIMCLRD
 70
     0
  9
$DIMCLRE
 70
     0
  9
$DIMCLRT
 70
     0
  9
$DIMTFAC
 40
1.0
  9
$DIMGAP
 40
1.524
  9
$DIMJUST
 70
     0
  9
$DIMSD1
 70
     0
  9
$DIMSD2
 70
     0
  9
$DIMTOLJ
 70
     0
  9
$DIMTZIN
 70
     0
  9
$DIMALTZ
 70
     0
  9
$DIMALTTZ
 70
     0
  9
$DIMUPT
 70
     0
  9
$DIMDEC
 70
     2
  9
$DIMTDEC
 70
     2
  9
$DIMALTU
 70
     2
  9
$DIMALTTD
 70
     3
  9
$DIMTXSTY
  7
Standard
  9
$DIMAUNIT
 70
     0
  9
$DIMADEC
 70
     2
  9
$DIMALTRND
 40
0.0
  9
$DIMAZIN
 70
     0
  9
$DIMDSEP
 70
    44
  9
$DIMATFIT
 70
     3
  9
$DIMFRAC
 70
     0
  9
$DIMLDRBLK
  1

  9
$DIMLUNIT
 70
     2
  9
$DIMLWD
 70
    -2
  9
$DIMLWE
 70
    -2
  9
$DIMTMOVE
 70
     0
  9
$LUNITS
 70
     2
  9
$LUPREC
 70
     2
  9
$SKETCHINC
 40
1.0
  9
$FILLETRAD
 40
10.0
  9
$AUNITS
 70
     0
  9
$AUPREC
 70
     2
  9
$MENU
  1
.
  9
$ELEVATION
 40
0.0
  9
$PELEVATION
 40
0.0
  9
$THICKNESS
 40
0.0
  9
$LIMCHECK
 70
     0
  9
$CHAMFERA
 40
0.0
  9
$CHAMFERB
 40
0.0
  9
$CHAMFERC
 40
0.0
  9
$CHAMFERD
 40
0.0
  9
$SKPOLY
 70
     0
  9
$TDCREATE
 40
2458250.493258299
  9
$TDUCREATE
 40
2458250.118258299
  9
$TDUPDATE
 40
2458264.429566146
  9
$TDUUPDATE
 40
2458264.054566146
  9
$TDINDWG
 40
0.0129166204
  9
$TDUSRTIMER
 40
0.0115896991
  9
$USRTIMER
 70
     1
  9
$ANGBASE
 50
0.0
  9
$ANGDIR
 70
     0
  9
$PDMODE
 70
     0
  9
$PDSIZE
 40
-1.0
  9
$PLINEWID
 40
0.0
  9
$SPLFRAME
 70
     0
  9
$SPLINETYPE
 70
     6
  9
$SPLINESEGS
 70
     8
  9
$HANDSEED
  5
163
  9
$SURFTAB1
 70
     6
  9
$SURFTAB2
 70
     6
  9
$SURFTYPE
 70
     6
  9
$SURFU
 70
     6
  9
$SURFV
 70
     6
  9
$UCSBASE
  2

  9
$UCSNAME
  2

  9
$UCSORG
 10
0.0
 20
0.0
 30
0.0
  9
$UCSXDIR
 10
1.0
 20
0.0
 30
0.0
  9
$UCSYDIR
 10
0.0
 20
1.0
 30
0.0
  9
$UCSORTHOREF
  2

  9
$UCSORTHOVIEW
 70
     0
  9
$UCSORGTOP
 10
0.0
 20
0.0
 30
0.0
  9
$UCSORGBOTTOM
 10
0.0
 20
0.0
 30
0.0
  9
$UCSORGLEFT
 10
0.0
 20
0.0
 30
0.0
  9
$UCSORGRIGHT
 10
0.0
 20
0.0
 30
0.0
  9
$UCSORGFRONT
 10
0.0
 20
0.0
 30
0.0
  9
$UCSORGBACK
 10
0.0
 20
0.0
 30
0.0
  9
$PUCSBASE
  2

  9
$PUCSNAME
  2

  9
$PUCSORG
 10
0.0
 20
0.0
 30
0.0
  9
$PUCSXDIR
 10
1.0
 20
0.0
 30
0.0
  9
$PUCSYDIR
 10
0.0
 20
1.0
 30
0.0
  9
$PUCSORTHOREF
  2

  9
$PUCSORTHOVIEW
 70
     0
  9
$PUCSORGTOP
 10
0.0
 20
0.0
 30
0.0
  9
$PUCSORGBOTTOM
 10
0.0
 20
0.0
 30
0.0
  9
$PUCSORGLEFT
 10
0.0
 20
0.0
 30
0.0
  9
$PUCSORGRIGHT
 10
0.0
 20
0.0
 30
0.0
  9
$PUCSORGFRONT
 10
0.0
 20
0.0
 30
0.0
  9
$PUCSORGBACK
 10
0.0
 20
0.0
 30
0.0
  9
$USERI1
 70
     0
  9
$USERI2
 70
     0
  9
$USERI3
 70
     0
  9
$USERI4
 70
     0
  9
$USERI5
 70
     0
  9
$USERR1
 40
0.0
  9
$USERR2
 40
0.0
  9
$USERR3
 40
0.0
  9
$USERR4
 40
0.0
  9
$USERR5
 40
0.0
  9
$WORLDVIEW
 70
     1
  9
$SHADEDGE
 70
     3
  9
$SHADEDIF
 70
    70
  9
$TILEMODE
 70
     1
  9
$MAXACTVP
 70
    64
  9
$PINSBASE
 10
0.0
 20
0.0
 30
0.0
  9
$PLIMCHECK
 70
     0
  9
$PEXTMIN
 10
1.000000000000000E+20
 20
1.000000000000000E+20
 30
1.000000000000000E+20
  9
$PEXTMAX
 10
-1.000000000000000E+20
 20
-1.000000000000000E+20
 30
-1.000000000000000E+20
  9
$PLIMMIN
 10
0.0
 20
0.0
  9
$PLIMMAX
 10
0.0
 20
0.0
  9
$UNITMODE
 70
     0
  9
$VISRETAIN
 70
     1
  9
$PLINEGEN
 70
     0
  9
$PSLTSCALE
 70
     1
  9
$TREEDEPTH
 70
  3020
  9
$CMLSTYLE
  2
Standard
  9
$CMLJUST
 70
     0
  9
$CMLSCALE
 40
20.0
  9
$PROXYGRAPHICS
 70
     1
  9
$MEASUREMENT
 70
     1
  9
$CELWEIGHT
370
    -1
  9
$ENDCAPS
280
     0
  9
$JOINSTYLE
280
     0
  9
$LWDISPLAY
290
     1
  9
$INSUNITS
 70
     4
  9
$HYPERLINKBASE
  1

  9
$STYLESHEET
  1

  9
$XEDIT
290
     1
  9
$CEPSNTYPE
380
     0
  9
$PSTYLEMODE
290
     1
  9
$FINGERPRINTGUID
  2
{A40946B9-B487-4D55-A43A-F9B8477322B2}
  9
$VERSIONGUID
  2
{FAEB1C32-E019-11D5-929B-00C0DF256EC4}
  9
$EXTNAMES
290
     1
  9
$PSVPSCALE
 40
0.0
  9
$OLESTARTUP
290
     0
  0
ENDSEC
  0
SECTION
  2
CLASSES
  0
CLASS
  1
ACDBDICTIONARYWDFLT
  2
AcDbDictionaryWithDefault
  3
ObjectDBX Classes
 90
        0
280
     0
281
     0
  0
CLASS
  1
VISUALSTYLE
  2
AcDbVisualStyle
  3
ObjectDBX Classes
 90
     4095
280
     0
281
     0
  0
CLASS
  1
MATERIAL
  2
AcDbMaterial
  3
ObjectDBX Classes
 90
     1153
280
     0
281
     0
  0
CLASS
  1
SCALE
  2
AcDbScale
  3
ObjectDBX Classes
 90
     1153
280
     0
281
     0
  0
CLASS
  1
SUN
  2
AcDbSun
  3
SCENEOE
 90
     1153
280
     0
281
     0
  0
CLASS
  1
ACDBPLACEHOLDER
  2
AcDbPlaceHolder
  3
ObjectDBX Classes
 90
        0
280
     0
281
     0
  0
CLASS
  1
LAYOUT
  2
AcDbLayout
  3
ObjectDBX Classes
 90
        0
280
     0
281
     0
  0
CLASS
  1
TABLESTYLE
  2
AcDbTableStyle
  3
ObjectDBX Classes
 90
     4095
280
     0
281
     0
  0
CLASS
  1
MLEADERSTYLE
  2
AcDbMLeaderStyle
  3
ACDB_MLEADERSTYLE_CLASS
 90
     4095
280
     0
281
     0
  0
ENDSEC
  0
SECTION
  2
TABLES
  0
TABLE
  2
VPORT
  5
8
330
0
100
AcDbSymbolTable
 70
     1
  0
VPORT
  5
29
330
8
100
AcDbSymbolTableRecord
100
AcDbViewportTableRecord
  2
*Active
 70
     0
 10
0.0
 20
0.0
 11
1.0
 21
1.0
 12
16.34323008091225
 22
-17.20010751304117
 13
0.0
 23
0.0
 14
10.0
 24
10.0
 15
10.0
 25
10.0
 16
0.0
 26
0.0
 36
1.0
 17
0.0
 27
0.0
 37
0.0
 40
132.3744204177349
 41
2.223011363636364
 42
50.0
 43
0.0
 44
0.0
 50
0.0
 51
0.0
 71
    16
 72
  2000
 73
     1
 74
     3
 75
     0
 76
     0
 77
     0
 78
     0
281
     0
 65
     1
110
0.0
120
0.0
130
0.0
111
1.0
121
0.0
131
0.0
112
0.0
122
1.0
132
0.0
 79
     0
146
0.0
  0
ENDTAB
  0
TABLE
  2
LTYPE
  5
5
330
0
100
AcDbSymbolTable
 70
     6
  0
LTYPE
  5
14
330
5
100
AcDbSymbolTableRecord
100
AcDbLinetypeTableRecord
  2
ByBlock
 70
     0
  3

 72
    65
 73
     0
 40
0.0
  0
LTYPE
  5
15
330
5
100
AcDbSymbolTableRecord
100
AcDbLinetypeTableRecord
  2
ByLayer
 70
     0
  3

 72
    65
 73
     0
 40
0.0
  0
LTYPE
  5
16
330
5
100
AcDbSymbolTableRecord
100
AcDbLinetypeTableRecord
  2
Continuous
 70
     0
  3
Solid line
 72
    65
 73
     0
 40
0.0
  0
LTYPE
  5
6A
330
5
100
AcDbSymbolTableRecord
100
AcDbLinetypeTableRecord
  2
HIDDEN
 70
     0
  3
Hidden __ __ __ __ __ __ __ __ __ __ __ __ __ __
 72
    65
 73
     2
 40
1.905
 49
1.27
 74
     0
 49
-0.635
 74
     0
  0
LTYPE
  5
6B
330
5
100
AcDbSymbolTableRecord
100
AcDbLinetypeTableRecord
  2
PHANTOM
 70
     0
  3
Phantom ______  __  __  ______  __  __  ______
 72
    65
 73
     6
 40
12.7
 49
6.35
 74
     0
 49
-1.27
 74
     0
 49
1.27
 74
     0
 49
-1.27
 74
     0
 49
1.27
 74
     0
 49
-1.27
 74
     0
  0
LTYPE
  5
6C
330
5
100
AcDbSymbolTableRecord
100
AcDbLinetypeTableRecord
  2
CENTER
 70
     0
  3
Center ____ _ ____ _ ____ _ ____ _ ____ _ ____
 72
    65
 73
     4
 40
10.16
 49
6.35
 74
     0
 49
-1.27
 74
     0
 49
1.27
 74
     0
 49
-1.27
 74
     0
  0
LTYPE
  5
6D
330
5
100
AcDbSymbolTableRecord
100
AcDbLinetypeTableRecord
  2
CENTERX2
 70
     0
  3
Center (2x) ________  __  ________  __  _____
 72
    65
 73
     4
 40
20.32
 49
12.7
 74
     0
 49
-2.54
 74
     0
 49
2.54
 74
     0
 49
-2.54
 74
     0
  0
LTYPE
  5
6E
330
5
100
AcDbSymbolTableRecord
100
AcDbLinetypeTableRecord
  2
DOT2
 70
     0
  3
Dot (.5x) ........................................
 72
    65
 73
     2
 40
0.635
 49
0.0
 74
     0
 49
-0.635
 74
     0
  0
ENDTAB
  0
TABLE
  2
LAYER
  5
2
330
0
100
AcDbSymbolTable
 70
    17
  0
LAYER
  5
10
330
2
100
AcDbSymbolTableRecord
100
AcDbLayerTableRecord
  2
0
 70
     0
 62
     7
  6
Continuous
370
    -3
390
F
  0
LAYER
  5
6F
330
2
100
AcDbSymbolTableRecord
100
AcDbLayerTableRecord
  2
FORMAT
 70
     0
 62
     2
  6
Continuous
370
    -3
390
F
  0
LAYER
  5
70
330
2
100
AcDbSymbolTableRecord
100
AcDbLayerTableRecord
  2
외형선
 70
     0
 62
   100
  6
Continuous
370
    30
390
F
  0
LAYER
  5
71
330
2
100
AcDbSymbolTableRecord
100
AcDbLayerTableRecord
  2
숨은선
 70
     0
 62
     2
  6
HIDDEN
370
    15
390
F
  0
LAYER
  5
72
330
2
100
AcDbSymbolTableRecord
100
AcDbLayerTableRecord
  2
중심선
 70
     0
 62
     1
  6
CENTERX2
370
    -3
390
F
  0
LAYER
  5
73
330
2
100
AcDbSymbolTableRecord
100
AcDbLayerTableRecord
  2
파단선
 70
     0
 62
     4
  6
Continuous
370
    -3
390
F
  0
LAYER
  5
74
330
2
100
AcDbSymbolTableRecord
100
AcDbLayerTableRecord
  2
해칭선
 70
     0
 62
     4
  6
Continuous
370
    -3
390
F
  0
LAYER
  5
75
330
2
100
AcDbSymbolTableRecord
100
AcDbLayerTableRecord
  2
가는실선
 70
     0
 62
     4
  6
Continuous
370
    -3
390
F
  0
LAYER
  5
76
330
2
100
AcDbSymbolTableRecord
100
AcDbLayerTableRecord
  2
치수_보조선
 70
     0
 62
     4
  6
Continuous
370
    -3
390
F
  0
LAYER
  5
77
330
2
100
AcDbSymbolTableRecord
100
AcDbLayerTableRecord
  2
치수문자_일반주서
 70
     0
 62
     7
  6
Continuous
370
    15
390
F
  0
LAYER
  5
78
330
2
100
AcDbSymbolTableRecord
100
AcDbLayerTableRecord
  2
개별주서
 70
     0
 62
   100
  6
Continuous
370
    30
390
F
  0
LAYER
  5
79
330
2
100
AcDbSymbolTableRecord
100
AcDbLayerTableRecord
  2
중간선
 70
     0
 62
     2
  6
Continuous
370
    15
390
F
  0
LAYER
  5
7A
330
2
100
AcDbSymbolTableRecord
100
AcDbLayerTableRecord
  2
윤곽선
 70
     0
 62
     3
  6
Continuous
370
    40
390
F
  0
LAYER
  5
7B
330
2
100
AcDbSymbolTableRecord
100
AcDbLayerTableRecord
  2
중심마크
 70
     0
 62
   100
  6
Continuous
370
    30
390
F
  0
LAYER
  5
7C
330
2
100
AcDbSymbolTableRecord
100
AcDbLayerTableRecord
  2
가상선
 70
     0
 62
     4
  6
PHANTOM
370
    -3
390
F
  0
LAYER
  5
7D
330
2
100
AcDbSymbolTableRecord
100
AcDbLayerTableRecord
  2
특수지정선
 70
     0
 62
     5
  6
CENTERX2
370
    60
390
F
  0
LAYER
  5
131
330
2
100
AcDbSymbolTableRecord
100
AcDbLayerTableRecord
  2
Defpoints
 70
     0
 62
     7
  6
Continuous
290
     0
370
    -3
390
F
  0
ENDTAB
  0
TABLE
  2
STYLE
  5
3
330
0
100
AcDbSymbolTable
 70
     2
  0
STYLE
  5
11
330
3
100
AcDbSymbolTableRecord
100
AcDbTextStyleTableRecord
  2
Standard
 70
     0
 40
0.0
 41
1.0
 50
0.0
 71
     0
 42
3.5
  3
txt
  4

  0
STYLE
  5
93
330
3
100
AcDbSymbolTableRecord
100
AcDbTextStyleTableRecord
  2
SLDTEXTSTYLE0
 70
     0
 40
0.0
 41
0.75
 50
0.0
 71
     0
 42
3.5
  3
TXT
  4

  0
ENDTAB
  0
TABLE
  2
VIEW
  5
6
330
0
100
AcDbSymbolTable
 70
     0
  0
ENDTAB
  0
TABLE
  2
UCS
  5
7
330
0
100
AcDbSymbolTable
 70
     0
  0
ENDTAB
  0
TABLE
  2
APPID
  5
9
330
0
100
AcDbSymbolTable
 70
     2
  0
APPID
  5
12
330
9
100
AcDbSymbolTableRecord
100
AcDbRegAppTableRecord
  2
ACAD
 70
     0
  0
APPID
  5
136
330
9
100
AcDbSymbolTableRecord
100
AcDbRegAppTableRecord
  2
PE_URL
 70
     0
  0
ENDTAB
  0
TABLE
  2
DIMSTYLE
  5
A
330
0
100
AcDbSymbolTable
 70
     3
100
AcDbDimStyleTable
  0
DIMSTYLE
105
27
330
A
100
AcDbSymbolTableRecord
100
AcDbDimStyleTableRecord
  2
ISO-25
 70
     0
 41
2.5
 42
0.625
 43
3.75
 44
1.25
 73
     0
 74
     0
 77
     1
 78
     8
140
2.5
141
2.5
143
0.03937007874016
147
0.625
171
     3
172
     1
178
     0
271
     2
272
     2
274
     3
278
    44
283
     0
284
     8
340
11
  0
DIMSTYLE
105
D9
102
{ACAD_REACTORS
330
D8
330
E3
102
}
330
A
100
AcDbSymbolTableRecord
100
AcDbDimStyleTableRecord
  2
SLDDIMSTYLE0
 70
     0
 41
3.302
 44
0.0
 45
0.000000001
 73
     0
 74
     0
 77
     1
 78
    12
 79
     3
140
3.5
147
0.875
173
     1
178
     0
271
     2
272
     2
276
     2
284
    12
340
93
  0
DIMSTYLE
105
EE
102
{ACAD_REACTORS
330
ED
330
FB
102
}
330
A
100
AcDbSymbolTableRecord
100
AcDbDimStyleTableRecord
  2
SLDDIMSTYLE1
 70
     0
 41
3.302
 44
0.0
 45
0.000000001
 73
     0
 74
     0
 77
     1
 78
    12
 79
     3
140
3.5
147
0.875
172
     1
173
     1
178
     0
271
     2
272
     2
276
     2
284
    12
289
     0
340
93
  0
ENDTAB
  0
TABLE
  2
BLOCK_RECORD
  5
1
330
0
100
AcDbSymbolTable
 70
     7
  0
BLOCK_RECORD
  5
1F
330
1
100
AcDbSymbolTableRecord
100
AcDbBlockTableRecord
  2
*Model_Space
340
22
  0
BLOCK_RECORD
  5
1B
330
1
100
AcDbSymbolTableRecord
100
AcDbBlockTableRecord
  2
*Paper_Space
340
1E
  0
BLOCK_RECORD
  5
23
330
1
100
AcDbSymbolTableRecord
100
AcDbBlockTableRecord
  2
*Paper_Space0
340
26
  0
BLOCK_RECORD
  5
7E
330
1
100
AcDbSymbolTableRecord
100
AcDbBlockTableRecord
  2
블럭10
340
0
102
{BLKREFS
331
D1
102
}
  0
BLOCK_RECORD
  5
DA
330
1
100
AcDbSymbolTableRecord
100
AcDbBlockTableRecord
  2
_D
340
0
  0
BLOCK_RECORD
  5
E4
330
1
100
AcDbSymbolTableRecord
100
AcDbBlockTableRecord
  2
_D_1
340
0
  0
BLOCK_RECORD
  5
EF
330
1
100
AcDbSymbolTableRecord
100
AcDbBlockTableRecord
  2
_D_2
340
0
  0
BLOCK_RECORD
  5
FC
330
1
100
AcDbSymbolTableRecord
100
AcDbBlockTableRecord
  2
_D_3
340
0
  0
BLOCK_RECORD
  5
108
330
1
100
AcDbSymbolTableRecord
100
AcDbBlockTableRecord
  2
SW_DOWELSYMBOL_0
340
0
102
{BLKREFS
331
10E
102
}
  0
ENDTAB
  0
ENDSEC
  0
SECTION
  2
BLOCKS
  0
BLOCK
  5
20
330
1F
100
AcDbEntity
  8
0
100
AcDbBlockBegin
  2
*Model_Space
 70
     0
 10
0.0
 20
0.0
 30
0.0
  3
*Model_Space
  1

  0
ENDBLK
  5
21
330
1F
100
AcDbEntity
  8
0
100
AcDbBlockEnd
  0
BLOCK
  5
1C
330
1B
100
AcDbEntity
 67
     1
  8
0
100
AcDbBlockBegin
  2
*Paper_Space
 70
     0
 10
0.0
 20
0.0
 30
0.0
  3
*Paper_Space
  1

  0
ENDBLK
  5
1D
330
1B
100
AcDbEntity
 67
     1
  8
0
100
AcDbBlockEnd
  0
BLOCK
  5
24
330
23
100
AcDbEntity
  8
0
100
AcDbBlockBegin
  2
*Paper_Space0
 70
     0
 10
0.0
 20
0.0
 30
0.0
  3
*Paper_Space0
  1

  0
ENDBLK
  5
25
330
23
100
AcDbEntity
  8
0
100
AcDbBlockEnd
  0
BLOCK
  5
7F
330
7E
100
AcDbEntity
  8
0
100
AcDbBlockBegin
  2
블럭10
 70
     2
 10
0.0
 20
0.0
 30
0.0
  3
블럭10
  1

  0
ELLIPSE
  5
81
330
7E
100
AcDbEntity
  8
중심선
100
AcDbEllipse
 10
20.54032771741204
 20
12.0471743016438
 30
0.0
 11
6.600054785286829
 21
-1.261213355974178E-13
 31
0.0
210
0.0
220
0.0
230
1.0
 40
0.636358354079598
 41
0.9219305317359503
 42
6.513795318482858
  0
ELLIPSE
  5
82
330
7E
100
AcDbEntity
  8
중심선
100
AcDbEllipse
 10
20.54032771746488
 20
12.04717430159265
 30
0.0
 11
3.960054785062283
 21
1.540847449632565E-10
 31
0.0
210
0.0
220
0.0
230
1.0
 40
0.3939339440162632
 41
1.131841032648279
 42
5.62031148352944
  0
LINE
  5
83
330
7E
100
AcDbEntity
  8
중심선
100
AcDbLine
 10
2.268634060543552
 20
16.24717430164393
 30
0.0
 11
5.714909304380834
 21
16.24717430164393
 31
0.0
  0
LINE
  5
84
330
7E
100
AcDbEntity
  8
중심선
100
AcDbLine
 10
5.245725140726316
 20
7.84717430164391
 30
0.0
 11
8.692000384563599
 21
7.84717430164391
 31
0.0
  0
LINE
  5
85
330
7E
100
AcDbEntity
  8
중심선
100
AcDbLine
 10
15.74043728645272
 20
16.24717430164393
 30
0.0
 11
8.692000384563599
 21
7.84717430164391
 31
0.0
  0
LINE
  5
86
330
7E
100
AcDbEntity
  8
중심선
100
AcDbLine
 10
0.1404042013395286
 20
13.71084872107135
 30
0.0
 11
3.58671253028996
 21
13.71088815037384
 31
0.0
  0
LINE
  5
87
330
7E
100
AcDbEntity
  8
중심선
100
AcDbLine
 10
2.750260043222114
 20
10.84717430164391
 30
0.0
 11
6.196535287059397
 21
10.84717430164391
 31
0.0
  0
LINE
  5
88
330
7E
100
AcDbEntity
  8
중심선
100
AcDbLine
 10
12.29416204261559
 20
16.24717430164393
 30
0.0
 11
5.245725140726316
 21
7.84717430164391
 31
0.0
  0
LINE
  5
89
330
7E
100
AcDbEntity
  8
중심선
100
AcDbLine
 10
10.72767329541681
 20
16.24717430164393
 30
0.0
 11
6.196535287059397
 21
10.84717430164391
 31
0.0
  0
LINE
  5
8A
330
7E
100
AcDbEntity
  8
중심선
100
AcDbLine
 10
7.28139805157953
 20
16.24717430164393
 30
0.0
 11
2.750260043222114
 21
10.84717430164391
 31
0.0
  0
LINE
  5
8B
330
7E
100
AcDbEntity
  8
중심선
100
AcDbLine
 10
5.714909304380834
 20
16.24717430164393
 30
0.0
 11
3.58671253028996
 21
13.71088815037384
 31
0.0
  0
LINE
  5
8C
330
7E
100
AcDbEntity
  8
중심선
100
AcDbLine
 10
2.268634060543552
 20
16.24717430164393
 30
0.0
 11
0.1404042013395286
 21
13.71084872107135
 31
0.0
  0
LINE
  5
8D
330
7E
100
AcDbEntity
  8
중심선
100
AcDbLine
 10
7.28139805157953
 20
16.24717430164393
 30
0.0
 11
10.72767329541681
 21
16.24717430164393
 31
0.0
  0
LINE
  5
8E
330
7E
100
AcDbEntity
  8
중심선
100
AcDbLine
 10
12.29416204261559
 20
16.24717430164393
 30
0.0
 11
15.74043728645272
 21
16.24717430164393
 31
0.0
  0
LINE
  5
8F
330
7E
100
AcDbEntity
  8
중심선
100
AcDbLine
 10
19.22036997980202
 20
11.08717430171403
 30
0.0
 11
23.66174974927406
 21
11.08717430171406
 31
0.0
  0
LINE
  5
90
330
7E
100
AcDbEntity
  8
중심선
100
AcDbLine
 10
19.22039502424796
 20
13.00717430171391
 30
0.0
 11
19.22036997980202
 21
11.08717430171403
 31
0.0
  0
LINE
  5
91
330
7E
100
AcDbEntity
  8
중심선
100
AcDbLine
 10
19.22039502424796
 20
13.00717430171391
 30
0.0
 11
26.96566020931264
 21
13.00717430171391
 31
0.0
  0
LINE
  5
92
330
7E
100
AcDbEntity
  8
중심선
100
AcDbLine
 10
22.22332737316547
 20
13.45928029700563
 30
0.0
 11
24.52862924686651
 21
15.39360700705356
 31
0.0
  0
ATTDEF
  5
94
330
7E
100
AcDbEntity
  8
FORMAT
 62
     2
100
AcDbText
 10
-12.95993919485777
 20
2.075366912832191
 30
0.0
 40
4.233333333333333
  1
SEME35105E [ 2 FLUTE ]
 41
0.75
  7
SLDTEXTSTYLE0
 11
-12.95993919485777
 21
-0.0412997538344756
 31
0.0
100
AcDbAttributeDefinition
  3

  2
AUTOATTR0
 70
     0
 74
     1
  0
ENDBLK
  5
80
330
7E
100
AcDbEntity
  8
0
100
AcDbBlockEnd
  0
BLOCK
  5
DB
330
DA
100
AcDbEntity
  8
0
100
AcDbBlockBegin
  2
_D
 70
     0
 10
0.0
 20
0.0
 30
0.0
  3
_D
  1

  0
LINE
  5
DD
330
DA
100
AcDbEntity
  8
치수문자_일반주서
 62
     0
370
    -2
100
AcDbLine
 10
31.79903810567664
 20
5.308062779955638
 30
0.0
 11
31.79903810567664
 21
17.49619666853341
 31
0.0
  0
LINE
  5
DE
330
DA
100
AcDbEntity
  8
치수문자_일반주서
 62
     0
370
    -2
100
AcDbLine
 10
5.79903810567664
 20
5.312500000000004
 30
0.0
 11
5.79903810567664
 21
17.49619666853341
 31
0.0
  0
LINE
  5
DF
330
DA
100
AcDbEntity
  8
치수문자_일반주서
 62
     0
370
    -2
100
AcDbLine
 10
28.49703810567664
 20
17.49619666853341
 30
0.0
 11
9.10103810567664
 21
17.49619666853341
 31
0.0
  0
SOLID
  5
E0
330
DA
100
AcDbEntity
  8
치수문자_일반주서
 62
     0
100
AcDbTrace
 10
28.49703810567664
 20
16.94586333520008
 30
0.0
 11
28.49703810567664
 21
18.04653000186675
 31
0.0
 12
31.79903810567664
 22
17.49619666853341
 32
0.0
 13
31.79903810567664
 23
17.49619666853341
 33
0.0
  0
SOLID
  5
E1
330
DA
100
AcDbEntity
  8
치수문자_일반주서
 62
     0
100
AcDbTrace
 10
9.10103810567664
 20
18.04653000186675
 30
0.0
 11
9.10103810567664
 21
16.94586333520008
 31
0.0
 12
5.79903810567664
 22
17.49619666853341
 32
0.0
 13
5.79903810567664
 23
17.49619666853341
 33
0.0
  0
MTEXT
  5
E2
330
DA
100
AcDbEntity
  8
치수문자_일반주서
 62
     0
100
AcDbMText
 10
18.79903810567663
 20
21.87119666853341
 30
0.0
 40
3.5
 41
0.0
 71
     2
 72
     1
  1
\A1;26
  7
SLDTEXTSTYLE0
 73
     1
 44
1.0
  0
POINT
  5
138
330
DA
100
AcDbEntity
  8
Defpoints
 62
     0
100
AcDbPoint
 10
31.79903810567664
 20
5.245562779955638
 30
0.0
  0
POINT
  5
139
330
DA
100
AcDbEntity
  8
Defpoints
 62
     0
100
AcDbPoint
 10
5.79903810567664
 20
5.250000000000004
 30
0.0
  0
POINT
  5
13A
330
DA
100
AcDbEntity
  8
Defpoints
 62
     0
100
AcDbPoint
 10
5.79903810567664
 20
17.49619666853341
 30
0.0
  0
ENDBLK
  5
DC
330
DA
100
AcDbEntity
  8
0
100
AcDbBlockEnd
  0
BLOCK
  5
E5
330
E4
100
AcDbEntity
  8
0
100
AcDbBlockBegin
  2
_D_1
 70
     0
 10
0.0
 20
0.0
 30
0.0
  3
_D_1
  1

  0
LINE
  5
E7
330
E4
100
AcDbEntity
  8
치수문자_일반주서
 62
     0
370
    -2
100
AcDbLine
 10
31.79903810567664
 20
5.308062779955638
 30
0.0
 11
31.79903810567664
 21
26.45915911661227
 31
0.0
  0
LINE
  5
E8
330
E4
100
AcDbEntity
  8
치수문자_일반주서
 62
     0
370
    -2
100
AcDbLine
 10
-43.20096189432336
 20
5.062499999999998
 30
0.0
 11
-43.20096189432336
 21
26.45915911661227
 31
0.0
  0
LINE
  5
E9
330
E4
100
AcDbEntity
  8
치수문자_일반주서
 62
     0
370
    -2
100
AcDbLine
 10
28.49703810567664
 20
26.45915911661227
 30
0.0
 11
-39.89896189432336
 21
26.45915911661227
 31
0.0
  0
SOLID
  5
EA
330
E4
100
AcDbEntity
  8
치수문자_일반주서
 62
     0
100
AcDbTrace
 10
28.49703810567664
 20
25.90882578327894
 30
0.0
 11
28.49703810567664
 21
27.00949244994561
 31
0.0
 12
31.79903810567664
 22
26.45915911661227
 32
0.0
 13
31.79903810567664
 23
26.45915911661227
 33
0.0
  0
SOLID
  5
EB
330
E4
100
AcDbEntity
  8
치수문자_일반주서
 62
     0
100
AcDbTrace
 10
-39.89896189432336
 20
27.00949244994561
 30
0.0
 11
-39.89896189432336
 21
25.90882578327894
 31
0.0
 12
-43.20096189432336
 22
26.45915911661227
 32
0.0
 13
-43.20096189432336
 23
26.45915911661227
 33
0.0
  0
MTEXT
  5
EC
330
E4
100
AcDbEntity
  8
치수문자_일반주서
 62
     0
100
AcDbMText
 10
-5.700961894323351
 20
30.83415911661227
 30
0.0
 40
3.5
 41
0.0
 71
     2
 72
     1
  1
\A1;75
  7
SLDTEXTSTYLE0
 73
     1
 44
1.0
  0
POINT
  5
132
330
E4
100
AcDbEntity
  8
Defpoints
 62
     0
100
AcDbPoint
 10
31.79903810567664
 20
5.245562779955638
 30
0.0
  0
POINT
  5
133
330
E4
100
AcDbEntity
  8
Defpoints
 62
     0
100
AcDbPoint
 10
-43.20096189432336
 20
4.999999999999998
 30
0.0
  0
POINT
  5
134
330
E4
100
AcDbEntity
  8
Defpoints
 62
     0
100
AcDbPoint
 10
-43.20096189432336
 20
26.45915911661227
 30
0.0
  0
ENDBLK
  5
E6
330
E4
100
AcDbEntity
  8
0
100
AcDbBlockEnd
  0
BLOCK
  5
F0
330
EF
100
AcDbEntity
  8
0
100
AcDbBlockBegin
  2
_D_2
 70
     0
 10
0.0
 20
0.0
 30
0.0
  3
_D_2
  1

  0
LINE
  5
F2
330
EF
100
AcDbEntity
  8
치수문자_일반주서
 62
     0
370
    -2
100
AcDbLine
 10
31.86153810567635
 20
5.250562779955629
 30
0.0
 11
47.3652284179229
 21
5.250562779955688
 31
0.0
  0
LINE
  5
F3
330
EF
100
AcDbEntity
  8
치수문자_일반주서
 62
     0
370
    -2
100
AcDbLine
 10
31.86153810567664
 20
-5.245562779955629
 30
0.0
 11
47.36522841792294
 21
-5.245562779955571
 31
0.0
  0
LINE
  5
F4
330
EF
100
AcDbEntity
  8
치수문자_일반주서
 62
     0
370
    -2
100
AcDbLine
 10
47.36522841792291
 20
1.948562779955688
 30
0.0
 11
47.36522841792292
 21
-1.943562779955571
 31
0.0
  0
SOLID
  5
F5
330
EF
100
AcDbEntity
  8
치수문자_일반주서
 62
     0
100
AcDbTrace
 10
47.91556175125625
 20
1.94856277995569
 30
0.0
 11
46.81489508458958
 21
1.948562779955686
 31
0.0
 12
47.3652284179229
 22
5.250562779955688
 32
0.0
 13
47.3652284179229
 23
5.250562779955688
 33
0.0
  0
SOLID
  5
F6
330
EF
100
AcDbEntity
  8
치수문자_일반주서
 62
     0
100
AcDbTrace
 10
46.81489508458959
 20
-1.943562779955573
 30
0.0
 11
47.91556175125626
 21
-1.943562779955569
 31
0.0
 12
47.36522841792294
 22
-5.245562779955571
 32
0.0
 13
47.36522841792294
 23
-5.245562779955571
 33
0.0
  0
MTEXT
  5
F7
330
EF
100
AcDbEntity
  8
치수문자_일반주서
 62
     0
100
AcDbMText
 10
42.99022841792292
 20
-0.0000000000000094
 30
0.0
 40
3.5
 41
0.0
 71
     2
 72
     1
  1
\A1;%%c10.5
  7
SLDTEXTSTYLE0
 11
-3.384785803601360E-15
 21
1.0
 31
0.0
 73
     1
 44
1.0
  0
POINT
  5
F8
330
EF
100
AcDbEntity
  8
Defpoints
 62
     0
100
AcDbPoint
 10
31.79903810567635
 20
5.250562779955629
 30
0.0
  0
POINT
  5
F9
330
EF
100
AcDbEntity
  8
Defpoints
 62
     0
100
AcDbPoint
 10
31.79903810567664
 20
-5.245562779955629
 30
0.0
  0
POINT
  5
FA
330
EF
100
AcDbEntity
  8
Defpoints
 62
     0
100
AcDbPoint
 10
47.36522841792294
 20
-5.245562779955572
 30
0.0
  0
ENDBLK
  5
F1
330
EF
100
AcDbEntity
  8
0
100
AcDbBlockEnd
  0
BLOCK
  5
FD
330
FC
100
AcDbEntity
  8
0
100
AcDbBlockBegin
  2
_D_3
 70
     0
 10
0.0
 20
0.0
 30
0.0
  3
_D_3
  1

  0
LINE
  5
FF
330
FC
100
AcDbEntity
  8
치수문자_일반주서
 62
     0
370
    -2
100
AcDbLine
 10
-42.26346189432336
 20
5.999999999999999
 30
0.0
 11
-54.62052133971192
 21
5.999999999999953
 31
0.0
  0
LINE
  5
100
330
FC
100
AcDbEntity
  8
치수문자_일반주서
 62
     0
370
    -2
100
AcDbLine
 10
-42.26346189432336
 20
-5.999999999999997
 30
0.0
 11
-54.62052133971188
 21
-6.000000000000044
 31
0.0
  0
LINE
  5
101
330
FC
100
AcDbEntity
  8
치수문자_일반주서
 62
     0
370
    -2
100
AcDbLine
 10
-54.62052133971191
 20
2.697999999999953
 30
0.0
 11
-54.62052133971189
 21
-2.698000000000043
 31
0.0
  0
SOLID
  5
102
330
FC
100
AcDbEntity
  8
치수문자_일반주서
 62
     0
100
AcDbTrace
 10
-54.07018800637857
 20
2.697999999999955
 30
0.0
 11
-55.17085467304524
 21
2.697999999999951
 31
0.0
 12
-54.62052133971192
 22
5.999999999999953
 32
0.0
 13
-54.62052133971192
 23
5.999999999999953
 33
0.0
  0
SOLID
  5
103
330
FC
100
AcDbEntity
  8
치수문자_일반주서
 62
     0
100
AcDbTrace
 10
-55.17085467304523
 20
-2.698000000000045
 30
0.0
 11
-54.07018800637856
 21
-2.698000000000042
 31
0.0
 12
-54.62052133971188
 22
-6.000000000000044
 32
0.0
 13
-54.62052133971188
 23
-6.000000000000044
 33
0.0
  0
MTEXT
  5
104
330
FC
100
AcDbEntity
  8
치수문자_일반주서
 62
     0
100
AcDbMText
 10
-58.9955213397119
 20
-0.0000000000000138
 30
0.0
 40
3.5
 41
0.0
 71
     2
 72
     1
  1
\A1;%%c12
  7
SLDTEXTSTYLE0
 11
-3.552713678800502E-15
 21
1.0
 31
0.0
 73
     1
 44
1.0
  0
POINT
  5
105
330
FC
100
AcDbEntity
  8
Defpoints
 62
     0
100
AcDbPoint
 10
-42.20096189432336
 20
5.999999999999999
 30
0.0
  0
POINT
  5
106
330
FC
100
AcDbEntity
  8
Defpoints
 62
     0
100
AcDbPoint
 10
-42.20096189432336
 20
-5.999999999999997
 30
0.0
  0
POINT
  5
107
330
FC
100
AcDbEntity
  8
Defpoints
 62
     0
100
AcDbPoint
 10
-54.62052133971188
 20
-6.000000000000044
 30
0.0
  0
ENDBLK
  5
FE
330
FC
100
AcDbEntity
  8
0
100
AcDbBlockEnd
  0
BLOCK
  5
109
330
108
100
AcDbEntity
  8
0
100
AcDbBlockBegin
  2
SW_DOWELSYMBOL_0
 70
     0
 10
0.0
 20
0.0
 30
0.0
  3
SW_DOWELSYMBOL_0
  1

  0
CIRCLE
  5
10B
330
108
100
AcDbEntity
  8
외형선
 62
     0
100
AcDbCircle
 10
0.0
 20
0.0
 30
0.0
 40
3.000000000000004
  0
HATCH
  5
10C
330
108
100
AcDbEntity
  8
0
  6
Continuous
 62
     0
370
    30
100
AcDbHatch
 10
0.0
 20
0.0
 30
0.0
210
0.0
220
0.0
230
1.0
  2
SOLID
 70
     1
 71
     0
 91
        1
 92
        0
 93
        3
 72
     2
 10
0.0000000000000087
 20
-0.0000000000000035
 40
3.000000000000004
 50
0.0
 51
90.0
 73
     1
 72
     1
 10
0.0000000000000087
 20
3.000000000000001
 11
0.0000000000000087
 21
-0.0000000000000036
 72
     1
 10
0.0000000000000087
 20
-0.0000000000000035
 11
3.000000000000013
 21
-0.0000000000000035
 97
        0
 75
     0
 76
     1
 98
        1
 10
0.0
 20
0.0
  0
HATCH
  5
10D
330
108
100
AcDbEntity
  8
0
  6
Continuous
 62
     0
370
    30
100
AcDbHatch
 10
0.0
 20
0.0
 30
0.0
210
0.0
220
0.0
230
1.0
  2
SOLID
 70
     1
 71
     0
 91
        1
 92
        0
 93
        3
 72
     2
 10
0.0000000000000087
 20
-0.0000000000000035
 40
3.000000000000004
 50
180.0
 51
270.0000000000007
 73
     1
 72
     1
 10
0.0000000000000087
 20
-3.000000000000008
 11
0.0000000000000087
 21
-0.0000000000000036
 72
     1
 10
0.0000000000000087
 20
-0.0000000000000035
 11
-2.999999999999996
 21
-0.0000000000000035
 97
        0
 75
     0
 76
     1
 98
        1
 10
0.0
 20
0.0
  0
ENDBLK
  5
10A
330
108
100
AcDbEntity
  8
0
100
AcDbBlockEnd
  0
ENDSEC
  0
SECTION
  2
ENTITIES
  0
LINE
  5
95
330
1F
100
AcDbEntity
  8
0
  6
Continuous
 62
     4
370
    15
100
AcDbLine
 10
1.999999999999991
 20
6.000000000000001
 30
0.0
 11
-42.20096189432336
 21
5.999999999999999
 31
0.0
  0
LINE
  5
96
330
1F
100
AcDbEntity
  8
0
  6
Continuous
 62
     4
370
    15
100
AcDbLine
 10
-42.20096189432336
 20
-5.999999999999997
 30
0.0
 11
1.999999999999991
 21
-5.999999999999996
 31
0.0
  0
LINE
  5
97
330
1F
100
AcDbEntity
  8
0
  6
Continuous
 62
     4
370
    15
100
AcDbLine
 10
1.999999999999991
 20
-5.999999999999997
 30
0.0
 11
4.799038105676644
 21
-5.249999999999996
 31
0.0
1001
PE_URL
1000

  0
LINE
  5
98
330
1F
100
AcDbEntity
  8
0
  6
Continuous
 62
     4
370
    15
100
AcDbLine
 10
4.799038105676644
 20
5.250000000000004
 30
0.0
 11
1.999999999999991
 21
6.000000000000003
 31
0.0
1001
PE_URL
1000

  0
LINE
  5
99
330
1F
100
AcDbEntity
  8
0
  6
Continuous
 62
     4
370
    15
100
AcDbLine
 10
-42.20096189432336
 20
5.999999999999997
 30
0.0
 11
-43.20096189432336
 21
4.999999999999998
 31
0.0
  0
LINE
  5
9A
330
1F
100
AcDbEntity
  8
0
  6
Continuous
 62
     4
370
    15
100
AcDbLine
 10
-43.20096189432336
 20
-4.999999999999998
 30
0.0
 11
-42.20096189432336
 21
-5.999999999999997
 31
0.0
  0
LINE
  5
9B
330
1F
100
AcDbEntity
  8
0
  6
Continuous
 62
     4
370
    15
100
AcDbLine
 10
5.79903810567664
 20
5.250000000000004
 30
0.0
 11
4.799038105676644
 21
5.250000000000004
 31
0.0
1001
PE_URL
1000

  0
LINE
  5
9C
330
1F
100
AcDbEntity
  8
0
  6
Continuous
 62
     4
370
    15
100
AcDbLine
 10
4.799038105676644
 20
-5.249999999999996
 30
0.0
 11
5.79903810567664
 21
-5.249999999999996
 31
0.0
1001
PE_URL
1000

  0
SPLINE
  5
9D
330
1F
100
AcDbEntity
  8
0
  6
Continuous
 62
     1
370
    15
100
AcDbSpline
210
0.0
220
0.0
230
1.0
 70
     8
 71
     3
 72
     9
 73
     5
 74
     0
 42
0.000000001
 43
0.00000001
 40
0.0
 40
0.0
 40
0.0
 40
0.0
 40
0.4265024594795022
 40
1.0
 40
1.0
 40
1.0
 40
1.0
 10
18.19673757208251
 20
1.345347133899456
 30
0.0
 10
17.98935099185546
 20
1.444031364870215
 30
0.0
 10
17.50310155620123
 20
1.675411580335306
 30
0.0
 10
17.01921467532233
 20
1.928570769682066
 30
0.0
 10
16.74170673924814
 20
2.073756942132595
 30
0.0
  0
LINE
  5
9E
330
1F
100
AcDbEntity
  8
0
  6
Continuous
 62
     1
370
    15
100
AcDbLine
 10
6.148908122721974
 20
5.250000000000005
 30
0.0
 11
5.799038105676644
 21
5.250000000000005
 31
0.0
  0
SPLINE
  5
9F
330
1F
100
AcDbEntity
  8
0
  6
Continuous
 62
     1
370
    15
100
AcDbSpline
210
0.0
220
0.0
230
1.0
 70
     8
 71
     3
 72
    18
 73
    14
 74
     0
 42
0.000000001
 43
0.00000001
 40
0.0
 40
0.0
 40
0.0
 40
0.0
 40
0.1334136381161077
 40
0.2311374901841342
 40
0.319571700446564
 40
0.3905274218952093
 40
0.4878743629755967
 40
0.5707876021515514
 40
0.6367499451876857
 40
0.7323925531285417
 40
0.8324837837429572
 40
0.9142340845245682
 40
1.0
 40
1.0
 40
1.0
 40
1.0
 10
16.46201123250519
 20
4.17185587752294
 30
0.0
 10
16.2715320885062
 20
4.162297456523957
 30
0.0
 10
15.94152930994442
 20
4.145737609487135
 30
0.0
 10
15.48593399099145
 20
4.128553549629123
 30
0.0
 10
15.12254383177343
 20
4.117549007999755
 30
0.0
 10
14.76007651405845
 20
4.109086839905225
 30
0.0
 10
14.40217818237281
 20
4.103290126738144
 30
0.0
 10
14.05212532343627
 20
4.100342485289033
 30
0.0
 10
13.70448226017987
 20
4.099640159515435
 30
0.0
 10
13.33252681986449
 20
4.101479888704815
 30
0.0
 10
12.93810504661456
 20
4.106855632841024
 30
0.0
 10
12.55766611001588
 20
4.114724915166034
 30
0.0
 10
12.31953316817605
 20
4.121979696615753
 30
0.0
 10
12.19761249555047
 20
4.12569404133122
 30
0.0
  0
SPLINE
  5
A0
330
1F
100
AcDbEntity
  8
0
  6
Continuous
 62
     1
370
    15
100
AcDbSpline
210
0.0
220
0.0
230
1.0
 70
     8
 71
     3
 72
    30
 73
    26
 74
     0
 42
0.000000001
 43
0.00000001
 40
0.0
 40
0.0
 40
0.0
 40
0.0
 40
0.0737989504665744
 40
0.1315048254578242
 40
0.1773109378194559
 40
0.213783061468885
 40
0.2440566851197414
 40
0.2734883676135843
 40
0.3037419826888105
 40
0.3563599530011061
 40
0.4058423683721502
 40
0.4504985392079328
 40
0.5043257676357374
 40
0.5455657284867507
 40
0.5768613349637369
 40
0.6017730184395914
 40
0.6397904756109777
 40
0.684345947007264
 40
0.715354713123459
 40
0.7599328136108559
 40
0.8156937464015132
 40
0.8489794796601958
 40
0.8867662438540166
 40
0.9363742015618598
 40
1.0
 40
1.0
 40
1.0
 40
1.0
 10
29.84780504264876
 20
3.590745491991571
 30
0.0
 10
29.63062640639614
 20
3.572844120279725
 30
0.0
 10
29.24362850909535
 20
3.540945065516227
 30
0.0
 10
28.69392149653185
 20
3.507986945081425
 30
0.0
 10
28.25617716012679
 20
3.487234506814147
 30
0.0
 10
27.90813532411738
 20
3.474197822057797
 30
0.0
 10
27.61489041613267
 20
3.465705395750486
 30
0.0
 10
27.33947686425479
 20
3.459860076950684
 30
0.0
 10
26.99577994976016
 20
3.455219490770634
 30
0.0
 10
26.58981918248642
 20
3.454067568047202
 30
0.0
 10
26.14527702157549
 20
3.458660117190348
 30
0.0
 10
25.70278790496371
 20
3.468199308993078
 30
0.0
 10
25.27074171945704
 20
3.483318114141352
 30
0.0
 10
24.87935116088839
 20
3.501751238620117
 30
0.0
 10
24.57842631457172
 20
3.518615191058681
 30
0.0
 10
24.28998945250499
 20
3.536811347310989
 30
0.0
 10
23.96120053406335
 20
3.560128036635647
 30
0.0
 10
23.61397706424681
 20
3.588412889923477
 30
0.0
 10
23.24608007963304
 20
3.621730102720174
 30
0.0
 10
22.84441542362002
 20
3.661614391810304
 30
0.0
 10
22.43478587230839
 20
3.70704644465915
 30
0.0
 10
22.04150461697743
 20
3.754672308962319
 30
0.0
 10
21.6654387900098
 20
3.803151081555642
 30
0.0
 10
21.20605930877598
 20
3.867320204914066
 30
0.0
 10
20.86736590847625
 20
3.919427804011378
 30
0.0
 10
20.67705483205117
 20
3.948706949295461
 30
0.0
  0
SPLINE
  5
A1
330
1F
100
AcDbEntity
  8
0
  6
Continuous
 62
     1
370
    15
100
AcDbSpline
210
0.0
220
0.0
230
1.0
 70
     8
 71
     3
 72
    30
 73
    26
 74
     0
 42
0.000000001
 43
0.00000001
 40
0.0
 40
0.0
 40
0.0
 40
0.0
 40
0.0736662304130162
 40
0.1303676477201104
 40
0.1733288559672429
 40
0.2067818919673601
 40
0.2347694869338027
 40
0.2652463007747089
 40
0.2990684995918494
 40
0.3551070150771977
 40
0.4174556870036724
 40
0.4659810199305249
 40
0.506339709117283
 40
0.5463699874113204
 40
0.5944746570489992
 40
0.6447450646847528
 40
0.6796761051954768
 40
0.7156485199551493
 40
0.7545999071926929
 40
0.7934661556964403
 40
0.8229488803051747
 40
0.8414247935608633
 40
0.8751948172174681
 40
0.9279618659980315
 40
1.0
 40
1.0
 40
1.0
 40
1.0
 10
8.566322412026542
 20
-4.368730519983843
 30
0.0
 10
8.757106364059634
 20
-4.350125470861699
 30
0.0
 10
9.094738070064592
 20
-4.317199984160776
 30
0.0
 10
9.551650900824109
 20
-4.27782669092166
 30
0.0
 10
9.906597903680835
 20
-4.249957685042764
 30
0.0
 10
10.18333285863938
 20
-4.229688029229221
 30
0.0
 10
10.42494178644998
 20
-4.213105255425232
 30
0.0
 10
10.66804804314428
 20
-4.197466502818743
 30
0.0
 10
10.98496099533698
 20
-4.178599396077419
 30
0.0
 10
11.38567532200072
 20
-4.157399921991802
 30
0.0
 10
11.82497711903312
 20
-4.138191350438411
 30
0.0
 10
12.22311245134528
 20
-4.124310926309243
 30
0.0
 10
12.56251230950199
 20
-4.114847495913001
 30
0.0
 10
12.90081131230896
 20
-4.107558834214166
 30
0.0
 10
13.26517476134935
 20
-4.102244940566491
 30
0.0
 10
13.616049882951
 20
-4.099884931486927
 30
0.0
 10
13.93509471776005
 20
-4.099931221939054
 30
0.0
 10
14.22435048519094
 20
-4.101608511976384
 30
0.0
 10
14.52419441996056
 20
-4.105135633918591
 30
0.0
 10
14.8067151087131
 20
-4.110204253747991
 30
0.0
 10
15.03444564000532
 20
-4.115537283439478
 30
0.0
 10
15.24669281013353
 20
-4.121271962785052
 30
0.0
 10
15.52335395997204
 20
-4.129974159282614
 30
0.0
 10
15.94131667876556
 20
-4.145725722011943
 30
0.0
 10
16.2714542725376
 20
-4.162293106101774
 30
0.0
 10
16.46201123250518
 20
-4.171855877522931
 30
0.0
  0
SPLINE
  5
A2
330
1F
100
AcDbEntity
  8
0
  6
Continuous
 62
     1
370
    15
100
AcDbSpline
210
0.0
220
0.0
230
1.0
 70
     8
 71
     3
 72
    18
 73
    14
 74
     0
 42
0.000000001
 43
0.00000001
 40
0.0
 40
0.0
 40
0.0
 40
0.0
 40
0.1493206933158543
 40
0.2657435095437782
 40
0.3544236670599111
 40
0.4325405455859276
 40
0.5444390255356183
 40
0.6371709088131593
 40
0.7219936720508751
 40
0.8496484545651727
 40
0.9222074587997221
 40
0.9715541532944735
 40
1.0
 40
1.0
 40
1.0
 40
1.0
 10
20.67705483205117
 20
-3.948706949295452
 30
0.0
 10
20.86736629745648
 20
-3.919427764317363
 30
0.0
 10
21.20606039001772
 20
-3.867320094577309
 30
0.0
 10
21.66543586512364
 20
-3.803151380029532
 30
0.0
 10
22.04151236982157
 20
-3.754671517813025
 30
0.0
 10
22.40969924368322
 20
-3.710083833686253
 30
0.0
 10
22.77960079107391
 20
-3.668714247928694
 30
0.0
 10
23.15648138002748
 20
-3.630362954550687
 30
0.0
 10
23.55488866881742
 20
-3.593311000125914
 30
0.0
 10
23.92607790845246
 20
-3.562737597651219
 30
0.0
 10
24.25153160765892
 20
-3.539585475808543
 30
0.0
 10
24.44727082713627
 20
-3.526752407898754
 30
0.0
 10
24.54931991030675
 20
-3.520751509220213
 30
0.0
 10
24.58663547464645
 20
-3.518557203168871
 30
0.0
  0
LINE
  5
A3
330
1F
100
AcDbEntity
  8
0
  6
Continuous
 62
     1
370
    15
100
AcDbLine
 10
5.799038105676644
 20
-5.250000000000001
 30
0.0
 11
6.148908122721977
 21
-5.250000000000001
 31
0.0
  0
LINE
  5
A4
330
1F
100
AcDbEntity
  8
0
  6
Continuous
 62
     4
370
    15
100
AcDbLine
 10
1.999999999999991
 20
6.000000000000003
 30
0.0
 11
1.999999999999991
 21
-5.999999999999996
 31
0.0
  0
LINE
  5
A5
330
1F
100
AcDbEntity
  8
0
  6
Continuous
 62
     4
370
    15
100
AcDbLine
 10
-42.20096189432336
 20
5.999999999999997
 30
0.0
 11
-42.20096189432336
 21
-5.999999999999997
 31
0.0
  0
LINE
  5
A6
330
1F
100
AcDbEntity
  8
0
  6
Continuous
 62
     4
370
    15
100
AcDbLine
 10
4.799038105676644
 20
5.250000000000004
 30
0.0
 11
4.799038105676644
 21
5.204909939370398
 31
0.0
1001
PE_URL
1000

  0
SPLINE
  5
A7
330
1F
100
AcDbEntity
  8
0
  6
Continuous
 62
     4
370
    15
100
AcDbSpline
210
0.0
220
0.0
230
1.0
 70
     8
 71
     3
 72
     8
 73
     4
 74
     0
 42
0.000000001
 43
0.00000001
 40
0.0
 40
0.0
 40
0.0
 40
0.0
 40
1.0
 40
1.0
 40
1.0
 40
1.0
 10
3.768927703161805
 20
5.522259483916216
 30
0.0
 10
4.112747312033395
 20
5.423985401680961
 30
0.0
 10
4.456099674890801
 20
5.318289773753341
 30
0.0
 10
4.799038105676644
 20
5.204909939370401
 30
0.0
1001
PE_URL
1000

  0
LINE
  5
A8
330
1F
100
AcDbEntity
  8
0
  6
Continuous
 62
     4
370
    15
100
AcDbLine
 10
3.768927703161808
 20
-5.369312785220862
 30
0.0
 11
3.768927703161805
 21
5.522263115647903
 31
0.0
1001
PE_URL
1000

  0
SPLINE
  5
A9
330
1F
100
AcDbEntity
  8
0
  6
Continuous
 62
     4
370
    15
100
AcDbSpline
210
0.0
220
0.0
230
1.0
 70
     8
 71
     3
 72
     8
 73
     4
 74
     0
 42
0.000000001
 43
0.00000001
 40
0.0
 40
0.0
 40
0.0
 40
0.0
 40
1.0
 40
1.0
 40
1.0
 40
1.0
 10
4.799038105676644
 20
-5.192092950546268
 30
0.0
 10
4.454445123036281
 20
-5.259829088145268
 30
0.0
 10
4.111039908892344
 20
-5.31918348227617
 30
0.0
 10
3.768812058070236
 20
-5.369369107131637
 30
0.0
1001
PE_URL
1000

  0
LINE
  5
AA
330
1F
100
AcDbEntity
  8
0
  6
Continuous
 62
     4
370
    15
100
AcDbLine
 10
4.799038105676644
 20
-5.192092950545536
 30
0.0
 11
4.799038105676644
 21
-5.249999999999996
 31
0.0
1001
PE_URL
1000

  0
LINE
  5
AB
330
1F
100
AcDbEntity
  8
0
  6
Continuous
 62
     4
370
    15
100
AcDbLine
 10
-43.20096189432336
 20
4.999999999999998
 30
0.0
 11
-43.20096189432336
 21
-4.999999999999998
 31
0.0
  0
SPLINE
  5
AC
330
1F
100
AcDbEntity
  8
0
  6
Continuous
 62
     4
370
    15
100
AcDbSpline
210
0.0
220
0.0
230
1.0
 70
     8
 71
     3
 72
    10
 73
     6
 74
     0
 42
0.000000001
 43
0.00000001
 40
0.0
 40
0.0
 40
0.0
 40
0.0
 40
0.5
 40
0.5
 40
1.0
 40
1.0
 40
1.0
 40
1.0
 10
5.799038105679214
 20
-4.440727779508016
 30
0.0
 10
5.460344934192257
 20
-4.424339335788583
 30
0.0
 10
5.124895572511338
 20
-4.398802765990024
 30
0.0
 10
4.447767291522
 20
-4.329438321803571
 30
0.0
 10
4.107536078946723
 20
-4.285603305534216
 30
0.0
 10
3.76881205807024
 20
-4.233020258275242
 30
0.0
  0
SPLINE
  5
AD
330
1F
100
AcDbEntity
  8
0
  6
Continuous
 62
     4
370
    15
100
AcDbSpline
210
0.0
220
0.0
230
1.0
 70
     8
 71
     3
 72
    10
 73
     6
 74
     0
 42
0.000000001
 43
0.00000001
 40
0.0
 40
0.0
 40
0.0
 40
0.0
 40
0.5
 40
0.5
 40
1.0
 40
1.0
 40
1.0
 40
1.0
 10
5.799038105676644
 20
-1.170464376038229
 30
0.0
 10
5.460357169110097
 20
-1.020326290731279
 30
0.0
 10
5.124919912728048
 20
-0.8682424359985289
 30
0.0
 10
4.44781633284291
 20
-0.560172552405115
 30
0.0
 10
4.107597476721601
 20
-0.4043973655659402
 30
0.0
 10
3.768885474300071
 20
-0.248334708079529
 30
0.0
  0
SPLINE
  5
AE
330
1F
100
AcDbEntity
  8
0
  6
Continuous
 62
     1
370
    15
100
AcDbSpline
210
0.0
220
0.0
230
1.0
 70
    24
 71
     3
 72
    14
 73
    10
 74
     0
 42
0.000000001
 43
0.00000001
 40
0.0
 40
0.0
 40
0.0
 40
0.0
 40
0.25
 40
0.25
 40
0.5
 40
0.5
 40
0.75
 40
0.75
 40
1.0
 40
1.0
 40
1.0
 40
1.0
 10
5.79903810567664
 20
-1.170464376038229
 30
0.0
 10
5.79903810567664
 20
-1.54366633466137
 30
0.0
 10
5.79903810567664
 20
-1.909031958765409
 30
0.0
 10
5.79903810567664
 20
-2.595363815894694
 30
0.0
 10
5.79903810567664
 20
-2.916097129509114
 30
0.0
 10
5.79903810567664
 20
-3.487656684191733
 30
0.0
 10
5.79903810567664
 20
-3.738317876210858
 30
0.0
 10
5.79903810567664
 20
-4.154227988129737
 30
0.0
 10
5.79903810567664
 20
-4.319456929999772
 30
0.0
 10
5.79903810567664
 20
-4.440727779507892
 30
0.0
  0
SPLINE
  5
AF
330
1F
100
AcDbEntity
  8
0
  6
Continuous
 62
     4
370
    15
100
AcDbSpline
210
0.0
220
0.0
230
1.0
 70
     8
 71
     3
 72
    10
 73
     6
 74
     0
 42
0.000000001
 43
0.00000001
 40
0.0
 40
0.0
 40
0.0
 40
0.0
 40
0.5
 40
0.5
 40
1.0
 40
1.0
 40
1.0
 40
1.0
 10
5.799038105676651
 20
3.529409130959563
 30
0.0
 10
5.460359563499495
 20
3.567529763995457
 30
0.0
 10
5.124924676138267
 20
3.598217071157817
 30
0.0
 10
4.447825930290341
 20
3.644733149759741
 30
0.0
 10
4.107609492344098
 20
3.660481631580875
 30
0.0
 10
3.768899841955092
 20
3.668570060866275
 30
0.0
  0
SPLINE
  5
B0
330
1F
100
AcDbEntity
  8
0
  6
Continuous
 62
     1
370
    15
100
AcDbSpline
210
0.0
220
0.0
230
1.0
 70
    24
 71
     3
 72
    14
 73
    10
 74
     0
 42
0.000000001
 43
0.00000001
 40
0.0
 40
0.0
 40
0.0
 40
0.0
 40
0.25
 40
0.25
 40
0.5
 40
0.5
 40
0.75
 40
0.75
 40
1.0
 40
1.0
 40
1.0
 40
1.0
 10
5.79903810567664
 20
3.529409130959563
 30
0.0
 10
5.79903810567664
 20
3.307685566787204
 30
0.0
 10
5.79903810567664
 20
3.0287315291492
 30
0.0
 10
5.79903810567664
 20
2.367221706717331
 30
0.0
 10
5.79903810567664
 20
1.984786048177106
 30
0.0
 10
5.79903810567664
 20
1.149483023413129
 30
0.0
 10
5.79903810567664
 20
0.6970607415635042
 30
0.0
 10
5.79903810567664
 20
-0.231120728807419
 30
0.0
 10
5.79903810567664
 20
-0.7063852363566124
 30
0.0
 10
5.79903810567664
 20
-1.170464376038229
 30
0.0
  0
SPLINE
  5
B1
330
1F
100
AcDbEntity
  8
0
  6
Continuous
 62
     4
370
    15
100
AcDbSpline
210
0.0
220
0.0
230
1.0
 70
     8
 71
     3
 72
     8
 73
     4
 74
     0
 42
0.000000001
 43
0.00000001
 40
0.0
 40
0.0
 40
0.0
 40
0.0
 40
1.0
 40
1.0
 40
1.0
 40
1.0
 10
4.799038105676644
 20
5.204909939370398
 30
0.0
 10
5.133324797492619
 20
5.179676745250262
 30
0.0
 10
5.464582369078473
 20
5.144007607309891
 30
0.0
 10
5.799038105675763
 20
5.097892142578156
 30
0.0
1001
PE_URL
1000

  0
SPLINE
  5
B2
330
1F
100
AcDbEntity
  8
0
  6
Continuous
 62
     4
370
    15
100
AcDbSpline
210
0.0
220
0.0
230
1.0
 70
    24
 71
     3
 72
    10
 73
     6
 74
     0
 42
0.000000001
 43
0.00000001
 40
0.0
 40
0.0
 40
0.0
 40
0.0
 40
0.5
 40
0.5
 40
1.0
 40
1.0
 40
1.0
 40
1.0
 10
5.799038105676644
 20
5.097892142578032
 30
0.0
 10
5.799038105676644
 20
4.864129787041934
 30
0.0
 10
5.799038105676644
 20
4.596921966089649
 30
0.0
 10
5.799038105676644
 20
4.053703911829865
 30
0.0
 10
5.799038105676644
 20
3.779196070819526
 30
0.0
 10
5.799038105676644
 20
3.529409130959563
 30
0.0
  0
SPLINE
  5
B3
330
1F
100
AcDbEntity
  8
0
  6
Continuous
 62
     4
370
    15
100
AcDbSpline
210
0.0
220
0.0
230
1.0
 70
     8
 71
     3
 72
     8
 73
     4
 74
     0
 42
0.000000001
 43
0.00000001
 40
0.0
 40
0.0
 40
0.0
 40
0.0
 40
1.0
 40
1.0
 40
1.0
 40
1.0
 10
5.799038105679017
 20
-5.246106828824312
 30
0.0
 10
5.464582369080626
 20
-5.238676454564344
 30
0.0
 10
5.133324797493694
 20
-5.220670906785903
 30
0.0
 10
4.79903810567663
 20
-5.192092950545534
 30
0.0
  0
SPLINE
  5
B4
330
1F
100
AcDbEntity
  8
0
  6
Continuous
 62
     1
370
    15
100
AcDbSpline
210
0.0
220
0.0
230
1.0
 70
    24
 71
     3
 72
     8
 73
     4
 74
     0
 42
0.000000001
 43
0.00000001
 40
0.0
 40
0.0
 40
0.0
 40
0.0
 40
1.0
 40
1.0
 40
1.0
 40
1.0
 10
5.79903810567664
 20
-4.440727779507894
 30
0.0
 10
5.79903810567664
 20
-4.714070507667566
 30
0.0
 10
5.79903810567664
 20
-4.98427725703877
 30
0.0
 10
5.79903810567664
 20
-5.2461068288136
 30
0.0
  0
LINE
  5
B5
330
1F
100
AcDbEntity
  8
0
  6
Continuous
 62
     4
370
    15
100
AcDbLine
 10
5.79903810567664
 20
5.250000000000004
 30
0.0
 11
5.79903810567664
 21
5.09789214257854
 31
0.0
1001
PE_URL
1000

  0
LINE
  5
B6
330
1F
100
AcDbEntity
  8
0
  6
Continuous
 62
     1
370
    15
100
AcDbLine
 10
5.79903810567664
 20
-5.246106828824257
 30
0.0
 11
5.79903810567664
 21
-5.249999999999996
 31
0.0
  0
SPLINE
  5
B7
330
1F
100
AcDbEntity
  8
0
  6
Continuous
 62
     1
370
    15
100
AcDbSpline
210
0.0
220
0.0
230
1.0
 70
     8
 71
     3
 72
    23
 73
    19
 74
     0
 42
0.000000001
 43
0.00000001
 40
0.0
 40
0.0
 40
0.0
 40
0.0
 40
0.063613006438603
 40
0.1271655302133965
 40
0.1906981235543423
 40
0.2542515283437907
 40
0.3178662413504713
 40
0.3803430056547205
 40
0.4427546860672568
 40
0.5051511542683367
 40
0.5675824476033018
 40
0.6313516580011166
 40
0.6950800450126572
 40
0.7587613091831684
 40
0.8224350508958841
 40
0.886140940921724
 40
0.9499094879756284
 40
1.0
 40
1.0
 40
1.0
 40
1.0
 10
31.79903810567666
 20
-4.981939563467469
 30
0.0
 10
31.25505301936316
 20
-4.867480395218749
 30
0.0
 10
30.16760006277318
 20
-4.638670885449998
 30
0.0
 10
28.53730074634678
 20
-4.103654493187133
 30
0.0
 10
26.90756610027043
 20
-3.448581984386702
 30
0.0
 10
25.27724263245598
 20
-2.679671872498468
 30
0.0
 10
23.65548008537222
 20
-1.831054249649892
 30
0.0
 10
22.04352496644199
 20
-0.9300159415032377
 30
0.0
 10
20.44246961354296
 20
-0.0052549667914706
 30
0.0
 10
18.84183255125874
 20
0.919515574426645
 30
0.0
 10
17.22945828917075
 20
1.822082999218425
 30
0.0
 10
15.60510528299608
 20
2.672599842139594
 30
0.0
 10
13.97046140194883
 20
3.443339007109078
 30
0.0
 10
12.33689137003184
 20
4.102735955857791
 30
0.0
 10
10.70353436109331
 20
4.631342521174245
 30
0.0
 10
9.069322728303284
 20
5.005590352732732
 30
0.0
 10
7.550703594116198
 20
5.221384542766272
 30
0.0
 10
6.577190139218498
 20
5.23136387595013
 30
0.0
 10
6.148908122721974
 20
5.235754127484684
 30
0.0
  0
SPLINE
  5
B8
330
1F
100
AcDbEntity
  8
0
  6
Continuous
 62
     1
370
    15
100
AcDbSpline
210
0.0
220
0.0
230
1.0
 70
     8
 71
     3
 72
    15
 73
    11
 74
     0
 42
0.000000001
 43
0.00000001
 40
0.0
 40
0.0
 40
0.0
 40
0.0
 40
0.1285380004301213
 40
0.257005405993886
 40
0.3854299367818714
 40
0.5138395197673657
 40
0.6422621541835942
 40
0.7707257761673945
 40
0.8992581240434708
 40
1.0
 40
1.0
 40
1.0
 40
1.0
 10
31.79903810567664
 20
-4.142104387933126
 30
0.0
 10
31.21471568295038
 20
-4.02062738683382
 30
0.0
 10
30.04639175553925
 20
-3.777740101502039
 30
0.0
 10
28.29445729584395
 20
-3.232458126880177
 30
0.0
 10
26.54317905215508
 20
-2.578627105507657
 30
0.0
 10
24.79213954998398
 20
-1.826589491865472
 30
0.0
 10
23.04089077664701
 20
-1.00734868428794
 30
0.0
 10
21.28901628905009
 20
-0.1519739062206457
 30
0.0
 10
19.66277944025361
 20
0.6519063122691037
 30
0.0
 10
18.6205334356005
 20
1.142157125686794
 30
0.0
 10
18.16257607797965
 20
1.357570728695965
 30
0.0
  0
LINE
  5
B9
330
1F
100
AcDbEntity
  8
0
  6
Continuous
 62
     1
370
    15
100
AcDbLine
 10
31.7990381056765
 20
-4.981939563467471
 30
0.0
 11
31.79903810567664
 21
-4.142104387933126
 31
0.0
  0
SPLINE
  5
BA
330
1F
100
AcDbEntity
  8
0
  6
Continuous
 62
     1
370
    15
100
AcDbSpline
210
0.0
220
0.0
230
1.0
 70
     8
 71
     3
 72
    50
 73
    46
 74
     0
 42
0.000000001
 43
0.00000001
 40
0.0
 40
0.0
 40
0.0
 40
0.0
 40
0.0624999999999999
 40
0.0624999999999999
 40
0.1249999999999999
 40
0.1249999999999999
 40
0.1562499999999998
 40
0.1562499999999998
 40
0.1874999999999998
 40
0.1874999999999998
 40
0.2499999999999997
 40
0.2499999999999997
 40
0.2812499999999996
 40
0.2812499999999996
 40
0.3124999999999994
 40
0.3124999999999994
 40
0.3749999999999993
 40
0.3749999999999993
 40
0.4374999999999991
 40
0.4374999999999991
 40
0.4687499999999991
 40
0.4687499999999991
 40
0.4999999999999991
 40
0.4999999999999991
 40
0.5624999999999989
 40
0.5624999999999989
 40
0.5937499999999989
 40
0.5937499999999989
 40
0.6249999999999989
 40
0.6249999999999989
 40
0.6874999999999993
 40
0.6874999999999993
 40
0.7499999999999997
 40
0.7499999999999997
 40
0.7812499999999999
 40
0.7812499999999999
 40
0.8125
 40
0.8125
 40
0.8750000000000001
 40
0.8750000000000001
 40
0.9062500000000001
 40
0.9062500000000001
 40
0.9375000000000002
 40
0.9375000000000002
 40
1.0
 40
1.0
 40
1.0
 40
1.0
 10
5.79903810567664
 20
5.097892142578038
 30
0.0
 10
6.341192946752807
 20
5.023138685791313
 30
0.0
 10
6.885262757113074
 20
4.921006232424976
 30
0.0
 10
7.963855768177364
 20
4.666334565021008
 30
0.0
 10
8.510404898871032
 20
4.512791906409057
 30
0.0
 10
9.32163077557974
 20
4.248538024881486
 30
0.0
 10
9.590304857761641
 20
4.154892759186869
 30
0.0
 10
10.13236710965104
 20
3.956257744847656
 30
0.0
 10
10.40442195642237
 20
3.851405905221927
 30
0.0
 10
11.21877414066642
 20
3.522105715525171
 30
0.0
 10
11.7562895634625
 20
3.283392353082395
 30
0.0
 10
12.57121824016528
 20
2.89978970415026
 30
0.0
 10
12.84308866340538
 20
2.767842542337272
 30
0.0
 10
13.38403621372834
 20
2.497399604088783
 30
0.0
 10
13.65265401211023
 20
2.358996858104756
 30
0.0
 10
14.46560334699528
 20
1.933722148090635
 30
0.0
 10
15.01040471212529
 20
1.637846455366472
 30
0.0
 10
16.08831778351988
 20
1.033999383939445
 30
0.0
 10
16.63482384567625
 20
0.7235364122585671
 30
0.0
 10
17.44643549618113
 20
0.2560696159365758
 30
0.0
 10
17.71500826609625
 20
0.1000777760800925
 30
0.0
 10
18.25687502331054
 20
-0.2126647525820347
 30
0.0
 10
18.52890690735221
 20
-0.3691718851142719
 30
0.0
 10
19.34341592501206
 20
-0.836288935072268
 30
0.0
 10
19.88085468493625
 20
-1.143843287907143
 30
0.0
 10
20.69570961767958
 20
-1.595249242150971
 30
0.0
 10
20.96763084129534
 20
-1.743843278678928
 30
0.0
 10
21.508828739791
 20
-2.035521198375005
 30
0.0
 10
21.77736773752373
 20
-2.178485188393336
 30
0.0
 10
22.59001352132986
 20
-2.599360715696279
 30
0.0
 10
23.13558414731973
 20
-2.868157880805654
 30
0.0
 10
24.21279028865838
 20
-3.37029294394993
 30
0.0
 10
24.75923914825713
 20
-3.605897911921567
 30
0.0
 10
25.57121606153822
 20
-3.927577873272456
 30
0.0
 10
25.83973254408636
 20
-4.029456165524126
 30
0.0
 10
26.38139006549342
 20
-4.22281569246773
 30
0.0
 10
26.65339202296081
 20
-4.314133885160081
 30
0.0
 10
27.46803711726079
 20
-4.57031951567776
 30
0.0
 10
28.00543754412047
 20
-4.717104026721419
 30
0.0
 10
28.82019794671649
 20
-4.899306424123647
 30
0.0
 10
29.09216301632401
 20
-4.953605771258205
 30
0.0
 10
29.63359757852806
 20
-5.048727178387751
 30
0.0
 10
29.90210280336497
 20
-5.089526118413364
 30
0.0
 10
30.71442443747956
 20
-5.191821337715635
 30
0.0
 10
31.26080196546795
 20
-5.232735367542042
 30
0.0
 10
31.79903810567665
 20
-5.245562779955628
 30
0.0
  0
SPLINE
  5
BB
330
1F
100
AcDbEntity
  8
0
  6
Continuous
 62
     1
370
    15
100
AcDbSpline
210
0.0
220
0.0
230
1.0
 70
     8
 71
     3
 72
    15
 73
    11
 74
     0
 42
0.000000001
 43
0.00000001
 40
0.0
 40
0.0
 40
0.0
 40
0.0
 40
0.0748989520369677
 40
0.2101285057830206
 40
0.345309010005606
 40
0.4804710600486811
 40
0.6156453415875868
 40
0.7437153714301787
 40
0.8719025833753106
 40
1.0
 40
1.0
 40
1.0
 40
1.0
 10
18.75384211261867
 20
-0.4969155572047953
 30
0.0
 10
18.43038340922097
 20
-0.3677664993196689
 30
0.0
 10
17.5229221940904
 20
-0.0054396867456814
 30
0.0
 10
16.03179595687336
 20
0.6008184120372847
 30
0.0
 10
14.28048078993795
 20
1.287640410710231
 30
0.0
 10
12.52944212366109
 20
1.927481137081156
 30
0.0
 10
10.80906303083704
 20
2.486428755473058
 30
0.0
 10
9.118841893568142
 20
2.946489175198189
 30
0.0
 10
7.458870714336811
 20
3.308411402659107
 30
0.0
 10
6.352186390974921
 20
3.455760430586766
 30
0.0
 10
5.799038105676651
 20
3.529409130959563
 30
0.0
  0
SPLINE
  5
BC
330
1F
100
AcDbEntity
  8
0
  6
Continuous
 62
     4
370
    15
100
AcDbSpline
210
0.0
220
0.0
230
1.0
 70
    24
 71
     3
 72
    10
 73
     6
 74
     0
 42
0.000000001
 43
0.00000001
 40
0.0
 40
0.0
 40
0.0
 40
0.0
 40
0.5
 40
0.5
 40
1.0
 40
1.0
 40
1.0
 40
1.0
 10
5.799038105676644
 20
5.097892142578032
 30
0.0
 10
5.799038105676644
 20
4.864129787041934
 30
0.0
 10
5.799038105676644
 20
4.596921966089649
 30
0.0
 10
5.799038105676644
 20
4.053703911829865
 30
0.0
 10
5.799038105676644
 20
3.779196070819526
 30
0.0
 10
5.799038105676644
 20
3.529409130959563
 30
0.0
  0
LINE
  5
BD
330
1F
100
AcDbEntity
  8
0
  6
Continuous
 62
     1
370
    15
100
AcDbLine
 10
31.79903810567664
 20
-5.245562779955629
 30
0.0
 11
31.79903810567647
 21
-4.981939563467464
 31
0.0
  0
SPLINE
  5
BE
330
1F
100
AcDbEntity
  8
0
  6
Continuous
 62
     1
370
    15
100
AcDbSpline
210
0.0
220
0.0
230
1.0
 70
     8
 71
     3
 72
     8
 73
     4
 74
     0
 42
0.000000001
 43
0.00000001
 40
0.0
 40
0.0
 40
0.0
 40
0.0
 40
1.0
 40
1.0
 40
1.0
 40
1.0
 10
28.55058808932176
 20
1.468520324034336
 30
0.0
 10
28.31528555637014
 20
1.747279984823985
 30
0.0
 10
28.11097294686914
 20
2.013776524722249
 30
0.0
 10
27.94971712601281
 20
2.261645010930667
 30
0.0
  0
LINE
  5
BF
330
1F
100
AcDbEntity
  8
0
  6
Continuous
 62
     1
370
    15
100
AcDbLine
 10
27.94971712601283
 20
2.261645010930668
 30
0.0
 11
31.79903810567664
 21
0.0000000000000064
 31
0.0
  0
LINE
  5
C0
330
1F
100
AcDbEntity
  8
0
  6
Continuous
 62
     1
370
    15
100
AcDbLine
 10
31.79903810567664
 20
0.0000000000000064
 30
0.0
 11
31.79903810567664
 21
-1.403025466655629
 31
0.0
  0
SPLINE
  5
C1
330
1F
100
AcDbEntity
  8
0
  6
Continuous
 62
     1
370
    15
100
AcDbSpline
210
0.0
220
0.0
230
1.0
 70
     8
 71
     3
 72
    12
 73
     8
 74
     0
 42
0.000000001
 43
0.00000001
 40
0.0
 40
0.0
 40
0.0
 40
0.0
 40
0.5000000000000009
 40
0.5000000000000009
 40
0.7500000000000004
 40
0.7500000000000004
 40
1.0
 40
1.0
 40
1.0
 40
1.0
 10
31.79903810567664
 20
-1.403025466655629
 30
0.0
 10
31.23672150839859
 20
-0.9609497291696573
 30
0.0
 10
30.68379720536538
 20
-0.5007476677505799
 30
0.0
 10
29.86886132522627
 20
0.2174437960536144
 30
0.0
 10
29.59966638485289
 20
0.4615699222124047
 30
0.0
 10
29.06677439893411
 20
0.9604326409404743
 30
0.0
 10
28.80453151460202
 20
1.213874691415495
 30
0.0
 10
28.55058808932175
 20
1.468520324034339
 30
0.0
  0
SPLINE
  5
C2
330
1F
100
AcDbEntity
  8
0
  6
Continuous
 62
     1
370
    15
100
AcDbSpline
210
0.0
220
0.0
230
1.0
 70
     8
 71
     3
 72
    14
 73
    10
 74
     0
 42
0.000000001
 43
0.00000001
 40
0.0
 40
0.0
 40
0.0
 40
0.0
 40
0.1554151711495325
 40
0.3108294382774383
 40
0.4556609496942151
 40
0.6005393368312804
 40
0.7454963205002358
 40
0.8904658415918912
 40
1.0
 40
1.0
 40
1.0
 40
1.0
 10
28.55058808932176
 20
1.468520324034335
 30
0.0
 10
27.92419280676619
 20
1.733562813019376
 30
0.0
 10
26.67140588528186
 20
2.263646249285773
 30
0.0
 10
24.83483154137573
 20
2.930218200885931
 30
0.0
 10
23.04092020813279
 20
3.469726565426761
 30
0.0
 10
21.28903082642372
 20
3.868322028142813
 30
0.0
 10
19.53644033942955
 20
4.11895548266641
 30
0.0
 10
17.92626394428217
 20
4.226540641282397
 30
0.0
 10
16.90051496024885
 20
4.178216677755421
 30
0.0
 10
16.45904962691891
 20
4.157418846123771
 30
0.0
  0
SPLINE
  5
C3
330
1F
100
AcDbEntity
  8
0
  6
Continuous
 62
     1
370
    15
100
AcDbSpline
210
0.0
220
0.0
230
1.0
 70
    24
 71
     3
 72
    10
 73
     6
 74
     0
 42
0.000000001
 43
0.00000001
 40
0.0
 40
0.0
 40
0.0
 40
0.0
 40
0.5
 40
0.5
 40
1.0
 40
1.0
 40
1.0
 40
1.0
 10
31.79903810567664
 20
-4.142104387933126
 30
0.0
 10
31.79903810567664
 20
-3.824579792269968
 30
0.0
 10
31.79903810567663
 20
-3.423375290508953
 30
0.0
 10
31.79903810567664
 20
-2.490613435541064
 30
0.0
 10
31.79903810567664
 20
-1.95986407601937
 30
0.0
 10
31.79903810567664
 20
-1.403025466655796
 30
0.0
  0
SPLINE
  5
C4
330
1F
100
AcDbEntity
  8
0
  6
Continuous
 62
     1
370
    15
100
AcDbSpline
210
0.0
220
0.0
230
1.0
 70
     8
 71
     3
 72
     9
 73
     5
 74
     0
 42
0.000000001
 43
0.00000001
 40
0.0
 40
0.0
 40
0.0
 40
0.0
 40
0.8974910738105765
 40
1.0
 40
1.0
 40
1.0
 40
1.0
 10
31.79903810567664
 20
3.675000000000006
 30
0.0
 10
31.21471295060708
 20
3.672308251501688
 30
0.0
 10
30.56364780676269
 20
3.669309059000653
 30
0.0
 10
29.91264023150898
 20
3.591896351054978
 30
0.0
 10
29.84590614402854
 20
3.583960857490052
 30
0.0
  0
SPLINE
  5
C5
330
1F
100
AcDbEntity
  8
0
  6
Continuous
 62
     1
370
    15
100
AcDbSpline
210
0.0
220
0.0
230
1.0
 70
     8
 71
     3
 72
    10
 73
     6
 74
     0
 42
0.000000001
 43
0.00000001
 40
0.0
 40
0.0
 40
0.0
 40
0.0
 40
0.5
 40
0.5
 40
1.0
 40
1.0
 40
1.0
 40
1.0
 10
31.79903810567664
 20
3.675000000000006
 30
0.0
 10
31.14571221729779
 20
3.497777240713162
 30
0.0
 10
30.49731403991341
 20
3.294504814698501
 30
0.0
 10
29.21164678369872
 20
2.829127513152208
 30
0.0
 10
28.57428551109623
 20
2.567418556581821
 30
0.0
 10
27.94971712601281
 20
2.261645010930668
 30
0.0
  0
SPLINE
  5
C6
330
1F
100
AcDbEntity
  8
0
  6
Continuous
 62
     1
370
    15
100
AcDbSpline
210
0.0
220
0.0
230
1.0
 70
     8
 71
     3
 72
     9
 73
     5
 74
     0
 42
0.000000001
 43
0.00000001
 40
0.0
 40
0.0
 40
0.0
 40
0.0
 40
0.4011674280867291
 40
0.9999999999999999
 40
0.9999999999999999
 40
0.9999999999999999
 40
0.9999999999999999
 10
8.570317295114458
 20
-4.352159820788561
 30
0.0
 10
8.199705412785704
 20
-4.39035109913766
 30
0.0
 10
7.275871979706906
 20
-4.485551446113096
 30
0.0
 10
6.352176841157815
 20
-4.45751619877537
 30
0.0
 10
5.799038105676679
 20
-4.440727779507895
 30
0.0
  0
SPLINE
  5
C7
330
1F
100
AcDbEntity
  8
0
  6
Continuous
 62
     1
370
    15
100
AcDbSpline
210
0.0
220
0.0
230
1.0
 70
     8
 71
     3
 72
    16
 73
    12
 74
     0
 42
0.000000001
 43
0.00000001
 40
0.0
 40
0.0
 40
0.0
 40
0.0
 40
0.0771069903010021
 40
0.1948665570472976
 40
0.3125592309722379
 40
0.4302103279349295
 40
0.5478457818558075
 40
0.6654916026023445
 40
0.7769535510923069
 40
0.8885148339257115
 40
1.0
 40
1.0
 40
1.0
 40
1.0
 10
20.68431243265808
 20
-3.930946994051713
 30
0.0
 10
20.30170460286821
 20
-3.991775822461741
 30
0.0
 10
19.33476930686662
 20
-4.145503834866461
 30
0.0
 10
17.78376585669487
 20
-4.220563079582567
 30
0.0
 10
16.03177925664377
 20
-4.170977725104126
 30
0.0
 10
14.28046849082805
 20
-3.961258183659077
 30
0.0
 10
12.52943538457479
 20
-3.606510429216482
 30
0.0
 10
10.80905479912214
 20
-3.126743457291497
 30
0.0
 10
9.1188608540693
 20
-2.546400588620493
 30
0.0
 10
7.458846246670536
 20
-1.895418821410303
 30
0.0
 10
6.352181599334564
 20
-1.412060874303281
 30
0.0
 10
5.799038105676644
 20
-1.170464376038229
 30
0.0
  0
SPLINE
  5
C8
330
1F
100
AcDbEntity
  8
0
  6
Continuous
 62
     4
370
    15
100
AcDbSpline
210
0.0
220
0.0
230
1.0
 70
    24
 71
     3
 72
    14
 73
    10
 74
     0
 42
0.000000001
 43
0.00000001
 40
0.0
 40
0.0
 40
0.0
 40
0.0
 40
0.25
 40
0.25
 40
0.5
 40
0.5
 40
0.75
 40
0.75
 40
1.0
 40
1.0
 40
1.0
 40
1.0
 10
5.79903810567664
 20
-1.170464376038229
 30
0.0
 10
5.79903810567664
 20
-1.54366633466137
 30
0.0
 10
5.79903810567664
 20
-1.909031958765409
 30
0.0
 10
5.79903810567664
 20
-2.595363815894694
 30
0.0
 10
5.79903810567664
 20
-2.916097129509114
 30
0.0
 10
5.79903810567664
 20
-3.487656684191733
 30
0.0
 10
5.79903810567664
 20
-3.738317876210858
 30
0.0
 10
5.79903810567664
 20
-4.154227988129737
 30
0.0
 10
5.79903810567664
 20
-4.319456929999772
 30
0.0
 10
5.79903810567664
 20
-4.440727779507892
 30
0.0
  0
SPLINE
  5
C9
330
1F
100
AcDbEntity
  8
0
  6
Continuous
 62
     4
370
    15
100
AcDbSpline
210
0.0
220
0.0
230
1.0
 70
    24
 71
     3
 72
    14
 73
    10
 74
     0
 42
0.000000001
 43
0.00000001
 40
0.0
 40
0.0
 40
0.0
 40
0.0
 40
0.25
 40
0.25
 40
0.5
 40
0.5
 40
0.75
 40
0.75
 40
1.0
 40
1.0
 40
1.0
 40
1.0
 10
5.79903810567664
 20
3.529409130959563
 30
0.0
 10
5.79903810567664
 20
3.307685566787204
 30
0.0
 10
5.79903810567664
 20
3.0287315291492
 30
0.0
 10
5.79903810567664
 20
2.367221706717331
 30
0.0
 10
5.79903810567664
 20
1.984786048177106
 30
0.0
 10
5.79903810567664
 20
1.149483023413129
 30
0.0
 10
5.79903810567664
 20
0.6970607415635042
 30
0.0
 10
5.79903810567664
 20
-0.231120728807419
 30
0.0
 10
5.79903810567664
 20
-0.7063852363566124
 30
0.0
 10
5.79903810567664
 20
-1.170464376038229
 30
0.0
  0
LINE
  5
CA
330
1F
100
AcDbEntity
  8
0
  6
Continuous
 62
     1
370
    15
100
AcDbLine
 10
31.79903810567664
 20
0.0000000000000064
 30
0.0
 11
31.79903810567664
 21
3.675000000000006
 31
0.0
  0
SPLINE
  5
CB
330
1F
100
AcDbEntity
  8
0
  6
Continuous
 62
     1
370
    15
100
AcDbSpline
210
0.0
220
0.0
230
1.0
 70
     8
 71
     3
 72
    11
 73
     7
 74
     0
 42
0.000000001
 43
0.00000001
 40
0.0
 40
0.0
 40
0.0
 40
0.0
 40
0.2334984566918574
 40
0.4888832016355298
 40
0.7445191266368809
 40
0.9999999999999999
 40
0.9999999999999999
 40
0.9999999999999999
 40
0.9999999999999999
 10
12.19763406206691
 20
-4.125687114151359
 30
0.0
 10
11.69969161145796
 20
-4.294767107178188
 30
0.0
 10
10.65713354519542
 20
-4.648775307037748
 30
0.0
 10
9.069320230240963
 20
-5.004861750703216
 30
0.0
 10
7.434062826512097
 20
-5.233834697812429
 30
0.0
 10
6.343936112876834
 20
-5.242016945871865
 30
0.0
 10
5.799038105675351
 20
-5.246106828824231
 30
0.0
  0
SPLINE
  5
CC
330
1F
100
AcDbEntity
  8
0
  6
Continuous
 62
     4
370
    15
100
AcDbSpline
210
0.0
220
0.0
230
1.0
 70
    24
 71
     3
 72
     8
 73
     4
 74
     0
 42
0.000000001
 43
0.00000001
 40
0.0
 40
0.0
 40
0.0
 40
0.0
 40
1.0
 40
1.0
 40
1.0
 40
1.0
 10
5.79903810567664
 20
-4.440727779507894
 30
0.0
 10
5.79903810567664
 20
-4.714070507667561
 30
0.0
 10
5.79903810567664
 20
-4.984277257038761
 30
0.0
 10
5.79903810567664
 20
-5.246106828813587
 30
0.0
  0
SPLINE
  5
CD
330
1F
100
AcDbEntity
  8
0
  6
Continuous
 62
     1
370
    15
100
AcDbSpline
210
0.0
220
0.0
230
1.0
 70
     8
 71
     3
 72
    14
 73
    10
 74
     0
 42
0.000000001
 43
0.00000001
 40
0.0
 40
0.0
 40
0.0
 40
0.0
 40
0.0629208989673219
 40
0.2726175127751396
 40
0.3779430618332126
 40
0.531990437752014
 40
0.6866162147338297
 40
0.8430048440295033
 40
1.0
 40
1.0
 40
1.0
 40
1.0
 10
24.57605247235777
 20
3.519123907123594
 30
0.0
 10
24.72760883939628
 20
3.584060061284129
 30
0.0
 10
25.38425743319229
 20
3.865409074520924
 30
0.0
 10
26.2937037122739
 20
4.201747783058187
 30
0.0
 10
27.42374991902977
 20
4.557812238933978
 30
0.0
 10
28.41959724393084
 20
4.821796106256358
 30
0.0
 10
29.54015880865754
 20
5.04305579797843
 30
0.0
 10
30.66634971546415
 20
5.195224726065532
 30
0.0
 10
31.4209884633607
 20
5.228761792647505
 30
0.0
 10
31.79903810567635
 20
5.245562779955629
 30
0.0
  0
SPLINE
  5
CE
330
1F
100
AcDbEntity
  8
0
  6
Continuous
 62
     1
370
    15
100
AcDbSpline
210
0.0
220
0.0
230
1.0
 70
    24
 71
     3
 72
    10
 73
     6
 74
     0
 42
0.000000001
 43
0.00000001
 40
0.0
 40
0.0
 40
0.0
 40
0.0
 40
0.5
 40
0.5
 40
1.0
 40
1.0
 40
1.0
 40
1.0
 10
31.79903810567664
 20
3.675000000000006
 30
0.0
 10
31.79903810567664
 20
3.897769348238405
 30
0.0
 10
31.79903810567665
 20
4.156647961552371
 30
0.0
 10
31.79903810567666
 20
4.6997745950445
 30
0.0
 10
31.79903810567665
 20
4.982635537957739
 30
0.0
 10
31.79903810567664
 20
5.245562779955638
 30
0.0
  0
LINE
  5
CF
330
1F
100
AcDbEntity
  8
중심선
100
AcDbLine
 10
-46.20096189432333
 20
-0.0000000000000009
 30
0.0
 11
34.79903810567667
 21
-0.0000000000000009
 31
0.0
  0
CIRCLE
  5
D0
330
1F
100
AcDbEntity
  8
외형선
100
AcDbCircle
 10
0.0
 20
0.0
 30
0.0
 40
3.000000000000004
  0
INSERT
  5
D1
330
1F
100
AcDbEntity
  8
0
  6
Continuous
 62
     7
100
AcDbBlockReference
 66
     1
  2
블럭10
 10
-28.13923533383496
 20
-52.04717430164393
 30
0.0
  0
ATTRIB
  5
D2
330
D1
100
AcDbEntity
  8
FORMAT
 62
     2
100
AcDbText
 10
-41.09917452869273
 20
-49.97180738881174
 30
0.0
 40
4.233333333333333
  1
SEME35105E [ 2 FLUTE ]
 41
0.75
  7
SLDTEXTSTYLE0
 11
-41.09917452869273
 21
-52.08847405547841
 31
0.0
100
AcDbAttribute
  2
AUTOATTR0
 70
     0
 74
     1
  0
SEQEND
  5
D3
330
D1
100
AcDbEntity
  8
0
  6
Continuous
 62
     7
  0
HATCH
  5
D4
330
1F
100
AcDbEntity
  8
중심선
100
AcDbHatch
 10
0.0
 20
0.0
 30
0.0
210
0.0
220
0.0
230
1.0
  2
SOLID
 70
     1
 71
     0
 91
        1
 92
        0
 93
        4
 72
     1
 10
-22.42432602945411
 20
-35.8
 11
-25.87060127329139
 21
-35.8
 72
     1
 10
-25.87060127329139
 20
-35.8
 11
-27.99883113249542
 21
-38.33632558057259
 72
     1
 10
-27.99883113249542
 20
-38.33632558057259
 11
-24.55252280354498
 21
-38.3362861512701
 72
     1
 10
-24.55252280354498
 20
-38.3362861512701
 11
-22.42432602945411
 21
-35.8
 97
        0
 75
     0
 76
     1
 98
        1
 10
-4.200961894323351
 20
0.0000000000000026
  0
HATCH
  5
D5
330
1F
100
AcDbEntity
  8
중심선
100
AcDbHatch
 10
0.0
 20
0.0
 30
0.0
210
0.0
220
0.0
230
1.0
  2
SOLID
 70
     1
 71
     0
 91
        1
 92
        0
 93
        4
 72
     1
 10
-17.41156203841816
 20
-35.8
 11
-20.85783728225544
 21
-35.8
 72
     1
 10
-20.85783728225544
 20
-35.8
 11
-25.38897529061283
 21
-41.20000000000002
 72
     1
 10
-25.38897529061283
 20
-41.20000000000002
 11
-21.94270004677555
 21
-41.20000000000002
 72
     1
 10
-21.94270004677555
 20
-41.20000000000002
 11
-17.41156203841816
 21
-35.8
 97
        0
 75
     0
 76
     1
 98
        1
 10
-4.200961894323351
 20
0.0000000000000026
  0
HATCH
  5
D6
330
1F
100
AcDbEntity
  8
중심선
100
AcDbHatch
 10
0.0
 20
0.0
 30
0.0
210
0.0
220
0.0
230
1.0
  2
SOLID
 70
     1
 71
     0
 91
        1
 92
        0
 93
        4
 72
     1
 10
-12.39879804738226
 20
-35.80000000000003
 11
-15.84507329121938
 21
-35.8
 72
     1
 10
-15.84507329121938
 20
-35.8
 11
-22.89351019310863
 21
-44.20000000000002
 72
     1
 10
-22.89351019310863
 20
-44.20000000000002
 11
-19.44723494927135
 21
-44.20000000000002
 72
     1
 10
-19.44723494927135
 20
-44.20000000000002
 11
-12.39879804738226
 21
-35.80000000000003
 97
        0
 75
     0
 76
     1
 98
        1
 10
-4.200961894323351
 20
0.0000000000000026
  0
HATCH
  5
D7
330
1F
100
AcDbEntity
  8
중심선
100
AcDbHatch
 10
0.0
 20
0.0
 30
0.0
210
0.0
220
0.0
230
1.0
  2
SOLID
 70
     1
 71
     0
 91
        1
 92
        0
 93
        6
 72
     3
 10
-7.598907616370065
 20
-40.00000000005127
 11
3.960054785062284
 21
1.540882976769353E-10
 40
0.3939339440162627
 50
17.09539180608439
 51
320.0019657685082
 73
     0
 72
     1
 10
-5.915907960669469
 20
-38.5878940046383
 11
-3.61060608696843
 21
-36.65356729459038
 72
     3
 10
-7.598907616422911
 20
-40.00000000000015
 11
6.600054785286829
 21
-1.278976924368180E-13
 40
0.636358354079598
 50
39.99873849337411
 51
368.4976242363724
 73
     1
 72
     1
 10
-1.173575124522302
 20
-39.03999999993002
 11
-8.918840309586988
 21
-39.03999999992999
 72
     1
 10
-8.918840309586988
 20
-39.03999999992999
 11
-8.918865354032919
 21
-40.95999999992991
 72
     1
 10
-8.918865354032919
 20
-40.95999999992991
 11
-4.477485584560886
 21
-40.95999999992988
 97
        0
 75
     0
 76
     1
 98
        1
 10
-4.200961894323351
 20
0.0000000000000026
  0
DIMENSION
  5
D8
330
1F
100
AcDbEntity
  8
치수문자_일반주서
100
AcDbDimension
  2
_D
 10
5.79903810567664
 20
17.49619666853341
 30
0.0
 11
18.79903810567663
 21
17.49619666853341
 31
0.0
 70
   160
  1
<>
 71
     2
 42
26.0
  3
SLDDIMSTYLE0
100
AcDbAlignedDimension
 13
31.79903810567664
 23
5.245562779955638
 33
0.0
 14
5.79903810567664
 24
5.250000000000004
 34
0.0
100
AcDbRotatedDimension
  0
DIMENSION
  5
E3
330
1F
100
AcDbEntity
  8
치수문자_일반주서
100
AcDbDimension
  2
_D_1
 10
-43.20096189432336
 20
26.45915911661227
 30
0.0
 11
-5.700961894323351
 21
26.45915911661227
 31
0.0
 70
   160
  1
<>
 71
     2
 42
75.0
  3
SLDDIMSTYLE0
100
AcDbAlignedDimension
 13
31.79903810567664
 23
5.245562779955638
 33
0.0
 14
-43.20096189432336
 24
4.999999999999998
 34
0.0
 50
0.0000000000000054
100
AcDbRotatedDimension
  0
DIMENSION
  5
ED
330
1F
100
AcDbEntity
  8
치수문자_일반주서
100
AcDbDimension
  2
_D_2
 10
47.36522841792294
 20
-5.245562779955571
 30
0.0
 11
47.36522841792292
 21
0.0000000000000056
 31
0.0
 70
   160
  1
%%c<>
 71
     2
 42
10.49612555991126
 52
-270.0
  3
SLDDIMSTYLE1
100
AcDbAlignedDimension
 13
31.79903810567635
 23
5.250562779955629
 33
0.0
 14
31.79903810567664
 24
-5.245562779955629
 34
0.0
 50
90.0000000000002
100
AcDbRotatedDimension
  0
DIMENSION
  5
FB
330
1F
100
AcDbEntity
  8
치수문자_일반주서
100
AcDbDimension
  2
_D_3
 10
-54.62052133971188
 20
-6.000000000000044
 30
0.0
 11
-54.6205213397119
 21
0.0000000000000016
 31
0.0
 70
   160
  1
%%c<>
 71
     2
 42
12.0
 52
-270.0
  3
SLDDIMSTYLE1
100
AcDbAlignedDimension
 13
-42.20096189432336
 23
5.999999999999999
 33
0.0
 14
-42.20096189432336
 24
-5.999999999999997
 34
0.0
 50
90.0000000000002
100
AcDbRotatedDimension
  0
INSERT
  5
10E
330
1F
100
AcDbEntity
  8
외형선
100
AcDbBlockReference
  2
SW_DOWELSYMBOL_0
 10
0.0
 20
0.0
 30
0.0
  0
ENDSEC
  0
SECTION
  2
OBJECTS
  0
DICTIONARY
  5
C
330
0
100
AcDbDictionary
281
     1
  3
ACAD_GROUP
350
D
  3
ACAD_LAYOUT
350
1A
  3
ACAD_MLINESTYLE
350
17
  3
ACAD_PLOTSETTINGS
350
19
  3
ACAD_PLOTSTYLENAME
350
E
  3
ACAD_SCALELIST
350
47
  3
APPDATA
350
130
  3
DWGPROPS
350
162
  0
DICTIONARY
  5
D
102
{ACAD_REACTORS
330
C
102
}
330
C
100
AcDbDictionary
281
     1
  0
DICTIONARY
  5
1A
102
{ACAD_REACTORS
330
C
102
}
330
C
100
AcDbDictionary
281
     1
  3
Layout1
350
1E
  3
Layout2
350
26
  3
Model
350
22
  0
DICTIONARY
  5
17
102
{ACAD_REACTORS
330
C
102
}
330
C
100
AcDbDictionary
281
     1
  3
Standard
350
18
  0
DICTIONARY
  5
19
102
{ACAD_REACTORS
330
C
102
}
330
C
100
AcDbDictionary
281
     1
  0
ACDBDICTIONARYWDFLT
  5
E
102
{ACAD_REACTORS
330
C
102
}
330
C
100
AcDbDictionary
281
     1
  3
Normal
350
F
100
AcDbDictionaryWithDefault
340
F
  0
DICTIONARY
  5
47
102
{ACAD_REACTORS
330
C
102
}
330
C
100
AcDbDictionary
281
     1
  3
A0
350
48
  3
A1
350
49
  3
A2
350
4A
  3
A3
350
4B
  3
A4
350
4C
  3
A5
350
4D
  3
A6
350
4E
  3
A7
350
4F
  3
A8
350
50
  3
A9
350
51
  3
B0
350
52
  3
B1
350
53
  3
B2
350
54
  3
B3
350
55
  3
B4
350
56
  3
B5
350
57
  3
B6
350
58
  3
B7
350
59
  3
B8
350
5A
  3
B9
350
5B
  3
C0
350
5C
  3
C1
350
5D
  3
C2
350
5E
  3
C3
350
5F
  3
C4
350
60
  3
C5
350
61
  3
C6
350
62
  3
C7
350
63
  3
C8
350
64
  3
C9
350
65
  3
D0
350
66
  3
D1
350
67
  3
D2
350
68
  0
DICTIONARY
  5
130
102
{ACAD_REACTORS
330
C
102
}
330
C
100
AcDbDictionary
281
     1
  0
XRECORD
  5
162
102
{ACAD_REACTORS
330
C
102
}
330
C
100
AcDbXrecord
280
     1
  1
DWGPROPS COOKIE
  2

  3

  4

  6

  7

  8
12011908
  9

300
=
301
=
302
=
303
=
304
=
305
=
306
=
307
=
308
=
309
=
 40
0.0
 41
2458250.118258299
 42
2458264.054566146
  1

 90
        0
  0
LAYOUT
  5
1E
102
{ACAD_REACTORS
330
1A
102
}
330
1A
100
AcDbPlotSettings
  1

  2
none_device
  4

  6

 40
0.0
 41
0.0
 42
0.0
 43
0.0
 44
0.0
 45
0.0
 46
0.0
 47
0.0
 48
0.0
 49
0.0
140
0.0
141
0.0
142
1.0
143
1.0
 70
   688
 72
     1
 73
     0
 74
     5
  7

 75
    16
147
1.0
148
0.0
149
0.0
100
AcDbLayout
  1
Layout1
 70
     1
 71
     1
 10
0.0
 20
0.0
 11
420.0
 21
297.0
 12
0.0
 22
0.0
 32
0.0
 14
1.000000000000000E+20
 24
1.000000000000000E+20
 34
1.000000000000000E+20
 15
-1.000000000000000E+20
 25
-1.000000000000000E+20
 35
-1.000000000000000E+20
146
0.0
 13
0.0
 23
0.0
 33
0.0
 16
1.0
 26
0.0
 36
0.0
 17
0.0
 27
1.0
 37
0.0
 76
     0
330
1B
  0
LAYOUT
  5
26
102
{ACAD_REACTORS
330
1A
102
}
330
1A
100
AcDbPlotSettings
  1

  2
none_device
  4

  6

 40
0.0
 41
0.0
 42
0.0
 43
0.0
 44
0.0
 45
0.0
 46
0.0
 47
0.0
 48
0.0
 49
0.0
140
0.0
141
0.0
142
1.0
143
1.0
 70
   688
 72
     1
 73
     0
 74
     5
  7

 75
    16
147
1.0
148
0.0
149
0.0
100
AcDbLayout
  1
Layout2
 70
     1
 71
     2
 10
0.0
 20
0.0
 11
0.0
 21
0.0
 12
0.0
 22
0.0
 32
0.0
 14
0.0
 24
0.0
 34
0.0
 15
0.0
 25
0.0
 35
0.0
146
0.0
 13
0.0
 23
0.0
 33
0.0
 16
1.0
 26
0.0
 36
0.0
 17
0.0
 27
1.0
 37
0.0
 76
     0
330
23
  0
LAYOUT
  5
22
102
{ACAD_REACTORS
330
1A
102
}
330
1A
100
AcDbPlotSettings
  1

  2
none_device
  4
ANSI_A_(11.00_x_8.50_Inches)
  6

 40
6.35
 41
19.05
 42
6.35000508
 43
19.05000254
 44
279.4
 45
215.9
 46
136.4601198741049
 47
114.2950284185916
 48
0.0
 49
0.0
140
0.0
141
0.0
142
0.101254327240549
143
1.0
 70
  1696
 72
     0
 73
     0
 74
     0
  7

 75
     0
147
0.0235690232323232
148
0.0
149
0.0
100
AcDbLayout
  1
Model
 70
     1
 71
     0
 10
0.0
 20
0.0
 11
420.0
 21
297.0
 12
0.0
 22
0.0
 32
0.0
 14
-58.99552133971191
 24
-49.97180738881174
 34
0.0
 15
47.91556175125626
 25
30.83415911661228
 35
0.0
146
0.0
 13
0.0
 23
0.0
 33
0.0
 16
1.0
 26
0.0
 36
0.0
 17
0.0
 27
1.0
 37
0.0
 76
     0
330
1F
331
29
  0
MLINESTYLE
  5
18
102
{ACAD_REACTORS
330
17
102
}
330
17
100
AcDbMlineStyle
  2
Standard
 70
     0
  3

 62
   256
 51
90.0
 52
90.0
 71
     2
 49
0.5
 62
   256
  6
BYLAYER
 49
-0.5
 62
   256
  6
BYLAYER
  0
ACDBPLACEHOLDER
  5
F
102
{ACAD_REACTORS
330
E
102
}
330
E
  0
SCALE
  5
48
102
{ACAD_REACTORS
330
47
102
}
330
47
100
AcDbScale
 70
     0
300
1:1
140
1.0
141
1.0
290
     1
  0
SCALE
  5
49
102
{ACAD_REACTORS
330
47
102
}
330
47
100
AcDbScale
 70
     0
300
1:2
140
1.0
141
2.0
290
     0
  0
SCALE
  5
4A
102
{ACAD_REACTORS
330
47
102
}
330
47
100
AcDbScale
 70
     0
300
1:4
140
1.0
141
4.0
290
     0
  0
SCALE
  5
4B
102
{ACAD_REACTORS
330
47
102
}
330
47
100
AcDbScale
 70
     0
300
1:5
140
1.0
141
5.0
290
     0
  0
SCALE
  5
4C
102
{ACAD_REACTORS
330
47
102
}
330
47
100
AcDbScale
 70
     0
300
1:8
140
1.0
141
8.0
290
     0
  0
SCALE
  5
4D
102
{ACAD_REACTORS
330
47
102
}
330
47
100
AcDbScale
 70
     0
300
1:10
140
1.0
141
10.0
290
     0
  0
SCALE
  5
4E
102
{ACAD_REACTORS
330
47
102
}
330
47
100
AcDbScale
 70
     0
300
1:16
140
1.0
141
16.0
290
     0
  0
SCALE
  5
4F
102
{ACAD_REACTORS
330
47
102
}
330
47
100
AcDbScale
 70
     0
300
1:20
140
1.0
141
20.0
290
     0
  0
SCALE
  5
50
102
{ACAD_REACTORS
330
47
102
}
330
47
100
AcDbScale
 70
     0
300
1:30
140
1.0
141
30.0
290
     0
  0
SCALE
  5
51
102
{ACAD_REACTORS
330
47
102
}
330
47
100
AcDbScale
 70
     0
300
1:40
140
1.0
141
40.0
290
     0
  0
SCALE
  5
52
102
{ACAD_REACTORS
330
47
102
}
330
47
100
AcDbScale
 70
     0
300
1:50
140
1.0
141
50.0
290
     0
  0
SCALE
  5
53
102
{ACAD_REACTORS
330
47
102
}
330
47
100
AcDbScale
 70
     0
300
1:100
140
1.0
141
100.0
290
     0
  0
SCALE
  5
54
102
{ACAD_REACTORS
330
47
102
}
330
47
100
AcDbScale
 70
     0
300
2:1
140
2.0
141
1.0
290
     0
  0
SCALE
  5
55
102
{ACAD_REACTORS
330
47
102
}
330
47
100
AcDbScale
 70
     0
300
4:1
140
4.0
141
1.0
290
     0
  0
SCALE
  5
56
102
{ACAD_REACTORS
330
47
102
}
330
47
100
AcDbScale
 70
     0
300
8:1
140
8.0
141
1.0
290
     0
  0
SCALE
  5
57
102
{ACAD_REACTORS
330
47
102
}
330
47
100
AcDbScale
 70
     0
300
10:1
140
10.0
141
1.0
290
     0
  0
SCALE
  5
58
102
{ACAD_REACTORS
330
47
102
}
330
47
100
AcDbScale
 70
     0
300
100:1
140
100.0
141
1.0
290
     0
  0
SCALE
  5
59
102
{ACAD_REACTORS
330
47
102
}
330
47
100
AcDbScale
 70
     0
300
1/128" = 1'-0"
140
0.0078125
141
12.0
290
     0
  0
SCALE
  5
5A
102
{ACAD_REACTORS
330
47
102
}
330
47
100
AcDbScale
 70
     0
300
1/64" = 1'-0"
140
0.015625
141
12.0
290
     0
  0
SCALE
  5
5B
102
{ACAD_REACTORS
330
47
102
}
330
47
100
AcDbScale
 70
     0
300
1/32" = 1'-0"
140
0.03125
141
12.0
290
     0
  0
SCALE
  5
5C
102
{ACAD_REACTORS
330
47
102
}
330
47
100
AcDbScale
 70
     0
300
1/16" = 1'-0"
140
0.0625
141
12.0
290
     0
  0
SCALE
  5
5D
102
{ACAD_REACTORS
330
47
102
}
330
47
100
AcDbScale
 70
     0
300
3/32" = 1'-0"
140
0.09375
141
12.0
290
     0
  0
SCALE
  5
5E
102
{ACAD_REACTORS
330
47
102
}
330
47
100
AcDbScale
 70
     0
300
1/8" = 1'-0"
140
0.125
141
12.0
290
     0
  0
SCALE
  5
5F
102
{ACAD_REACTORS
330
47
102
}
330
47
100
AcDbScale
 70
     0
300
3/16" = 1'-0"
140
0.1875
141
12.0
290
     0
  0
SCALE
  5
60
102
{ACAD_REACTORS
330
47
102
}
330
47
100
AcDbScale
 70
     0
300
1/4" = 1'-0"
140
0.25
141
12.0
290
     0
  0
SCALE
  5
61
102
{ACAD_REACTORS
330
47
102
}
330
47
100
AcDbScale
 70
     0
300
3/8" = 1'-0"
140
0.375
141
12.0
290
     0
  0
SCALE
  5
62
102
{ACAD_REACTORS
330
47
102
}
330
47
100
AcDbScale
 70
     0
300
1/2" = 1'-0"
140
0.5
141
12.0
290
     0
  0
SCALE
  5
63
102
{ACAD_REACTORS
330
47
102
}
330
47
100
AcDbScale
 70
     0
300
3/4" = 1'-0"
140
0.75
141
12.0
290
     0
  0
SCALE
  5
64
102
{ACAD_REACTORS
330
47
102
}
330
47
100
AcDbScale
 70
     0
300
1" = 1'-0"
140
1.0
141
12.0
290
     0
  0
SCALE
  5
65
102
{ACAD_REACTORS
330
47
102
}
330
47
100
AcDbScale
 70
     0
300
1-1/2" = 1'-0"
140
1.5
141
12.0
290
     0
  0
SCALE
  5
66
102
{ACAD_REACTORS
330
47
102
}
330
47
100
AcDbScale
 70
     0
300
3" = 1'-0"
140
3.0
141
12.0
290
     0
  0
SCALE
  5
67
102
{ACAD_REACTORS
330
47
102
}
330
47
100
AcDbScale
 70
     0
300
6" = 1'-0"
140
6.0
141
12.0
290
     0
  0
SCALE
  5
68
102
{ACAD_REACTORS
330
47
102
}
330
47
100
AcDbScale
 70
     0
300
1'-0" = 1'-0"
140
12.0
141
12.0
290
     0
  0
ENDSEC
  0
EOF
