  0
SECTION
  2
HEADER
  9
$ACADVER
  1
AC1015
  9
$ACADMAINTVER
 70
     6
  9
$DWGCODEPAGE
  3
ANSI_949
  9
$INSBASE
 10
0.0
 20
0.0
 30
0.0
  9
$EXTMIN
 10
-61.76465746600244
 20
-49.97180738881174
 30
0.0
  9
$EXTMAX
 10
50.14642562496574
 20
31.18415911661226
 30
0.0
  9
$LIMMIN
 10
0.0
 20
0.0
  9
$LIMMAX
 10
420.0
 20
297.0
  9
$ORTHOMODE
 70
     1
  9
$REGENMODE
 70
     1
  9
$FILLMODE
 70
     1
  9
$QTEXTMODE
 70
     0
  9
$MIRRTEXT
 70
     1
  9
$LTSCALE
 40
1.0
  9
$ATTMODE
 70
     1
  9
$TEXTSIZE
 40
3.5
  9
$TRACEWID
 40
1.0
  9
$TEXTSTYLE
  7
Standard
  9
$CLAYER
  8
0
  9
$CELTYPE
  6
ByLayer
  9
$CECOLOR
 62
   256
  9
$CELTSCALE
 40
1.0
  9
$DISPSILH
 70
     0
  9
$DIMSCALE
 40
1.0
  9
$DIMASZ
 40
3.302
  9
$DIMEXO
 40
1.0
  9
$DIMDLI
 40
3.75
  9
$DIMRND
 40
0.0
  9
$DIMDLE
 40
0.0
  9
$DIMEXE
 40
1.0
  9
$DIMTP
 40
0.0
  9
$DIMTM
 40
0.0
  9
$DIMTXT
 40
3.5
  9
$DIMCEN
 40
2.5
  9
$DIMTSZ
 40
0.0
  9
$DIMTOL
 70
     0
  9
$DIMLIM
 70
     0
  9
$DIMTIH
 70
     1
  9
$DIMTOH
 70
     1
  9
$DIMSE1
 70
     0
  9
$DIMSE2
 70
     0
  9
$DIMTAD
 70
     1
  9
$DIMZIN
 70
     0
  9
$DIMBLK
  1

  9
$DIMASO
 70
     1
  9
$DIMSHO
 70
     1
  9
$DIMPOST
  1

  9
$DIMAPOST
  1

  9
$DIMALT
 70
     0
  9
$DIMALTD
 70
     3
  9
$DIMALTF
 40
0.0393700787401575
  9
$DIMLFAC
 40
1.0
  9
$DIMTOFL
 70
     1
  9
$DIMTVP
 40
0.0
  9
$DIMTIX
 70
     0
  9
$DIMSOXD
 70
     0
  9
$DIMSAH
 70
     0
  9
$DIMBLK1
  1

  9
$DIMBLK2
  1

  9
$DIMSTYLE
  2
ISO-25
  9
$DIMCLRD
 70
     0
  9
$DIMCLRE
 70
     0
  9
$DIMCLRT
 70
     0
  9
$DIMTFAC
 40
1.0
  9
$DIMGAP
 40
1.524
  9
$DIMJUST
 70
     0
  9
$DIMSD1
 70
     0
  9
$DIMSD2
 70
     0
  9
$DIMTOLJ
 70
     0
  9
$DIMTZIN
 70
     0
  9
$DIMALTZ
 70
     0
  9
$DIMALTTZ
 70
     0
  9
$DIMUPT
 70
     0
  9
$DIMDEC
 70
     2
  9
$DIMTDEC
 70
     2
  9
$DIMALTU
 70
     2
  9
$DIMALTTD
 70
     3
  9
$DIMTXSTY
  7
Standard
  9
$DIMAUNIT
 70
     0
  9
$DIMADEC
 70
     2
  9
$DIMALTRND
 40
0.0
  9
$DIMAZIN
 70
     0
  9
$DIMDSEP
 70
    44
  9
$DIMATFIT
 70
     3
  9
$DIMFRAC
 70
     0
  9
$DIMLDRBLK
  1

  9
$DIMLUNIT
 70
     2
  9
$DIMLWD
 70
    -2
  9
$DIMLWE
 70
    -2
  9
$DIMTMOVE
 70
     0
  9
$LUNITS
 70
     2
  9
$LUPREC
 70
     2
  9
$SKETCHINC
 40
1.0
  9
$FILLETRAD
 40
10.0
  9
$AUNITS
 70
     0
  9
$AUPREC
 70
     2
  9
$MENU
  1
.
  9
$ELEVATION
 40
0.0
  9
$PELEVATION
 40
0.0
  9
$THICKNESS
 40
0.0
  9
$LIMCHECK
 70
     0
  9
$CHAMFERA
 40
0.0
  9
$CHAMFERB
 40
0.0
  9
$CHAMFERC
 40
0.0
  9
$CHAMFERD
 40
0.0
  9
$SKPOLY
 70
     0
  9
$TDCREATE
 40
2458250.493549387
  9
$TDUCREATE
 40
2458250.118549387
  9
$TDUPDATE
 40
2459699.701872801
  9
$TDUUPDATE
 40
2459699.326872801
  9
$TDINDWG
 40
0.0017686921
  9
$TDUSRTIMER
 40
0.0003896528
  9
$USRTIMER
 70
     1
  9
$ANGBASE
 50
0.0
  9
$ANGDIR
 70
     0
  9
$PDMODE
 70
     0
  9
$PDSIZE
 40
-1.0
  9
$PLINEWID
 40
0.0
  9
$SPLFRAME
 70
     0
  9
$SPLINETYPE
 70
     6
  9
$SPLINESEGS
 70
     8
  9
$HANDSEED
  5
165
  9
$SURFTAB1
 70
     6
  9
$SURFTAB2
 70
     6
  9
$SURFTYPE
 70
     6
  9
$SURFU
 70
     6
  9
$SURFV
 70
     6
  9
$UCSBASE
  2

  9
$UCSNAME
  2

  9
$UCSORG
 10
0.0
 20
0.0
 30
0.0
  9
$UCSXDIR
 10
1.0
 20
0.0
 30
0.0
  9
$UCSYDIR
 10
0.0
 20
1.0
 30
0.0
  9
$UCSORTHOREF
  2

  9
$UCSORTHOVIEW
 70
     0
  9
$UCSORGTOP
 10
0.0
 20
0.0
 30
0.0
  9
$UCSORGBOTTOM
 10
0.0
 20
0.0
 30
0.0
  9
$UCSORGLEFT
 10
0.0
 20
0.0
 30
0.0
  9
$UCSORGRIGHT
 10
0.0
 20
0.0
 30
0.0
  9
$UCSORGFRONT
 10
0.0
 20
0.0
 30
0.0
  9
$UCSORGBACK
 10
0.0
 20
0.0
 30
0.0
  9
$PUCSBASE
  2

  9
$PUCSNAME
  2

  9
$PUCSORG
 10
0.0
 20
0.0
 30
0.0
  9
$PUCSXDIR
 10
1.0
 20
0.0
 30
0.0
  9
$PUCSYDIR
 10
0.0
 20
1.0
 30
0.0
  9
$PUCSORTHOREF
  2

  9
$PUCSORTHOVIEW
 70
     0
  9
$PUCSORGTOP
 10
0.0
 20
0.0
 30
0.0
  9
$PUCSORGBOTTOM
 10
0.0
 20
0.0
 30
0.0
  9
$PUCSORGLEFT
 10
0.0
 20
0.0
 30
0.0
  9
$PUCSORGRIGHT
 10
0.0
 20
0.0
 30
0.0
  9
$PUCSORGFRONT
 10
0.0
 20
0.0
 30
0.0
  9
$PUCSORGBACK
 10
0.0
 20
0.0
 30
0.0
  9
$USERI1
 70
     0
  9
$USERI2
 70
     0
  9
$USERI3
 70
     0
  9
$USERI4
 70
     0
  9
$USERI5
 70
     0
  9
$USERR1
 40
0.0
  9
$USERR2
 40
0.0
  9
$USERR3
 40
0.0
  9
$USERR4
 40
0.0
  9
$USERR5
 40
0.0
  9
$WORLDVIEW
 70
     1
  9
$SHADEDGE
 70
     3
  9
$SHADEDIF
 70
    70
  9
$TILEMODE
 70
     1
  9
$MAXACTVP
 70
    64
  9
$PINSBASE
 10
0.0
 20
0.0
 30
0.0
  9
$PLIMCHECK
 70
     0
  9
$PEXTMIN
 10
1.000000000000000E+20
 20
1.000000000000000E+20
 30
1.000000000000000E+20
  9
$PEXTMAX
 10
-1.000000000000000E+20
 20
-1.000000000000000E+20
 30
-1.000000000000000E+20
  9
$PLIMMIN
 10
0.0
 20
0.0
  9
$PLIMMAX
 10
0.0
 20
0.0
  9
$UNITMODE
 70
     0
  9
$VISRETAIN
 70
     1
  9
$PLINEGEN
 70
     0
  9
$PSLTSCALE
 70
     1
  9
$TREEDEPTH
 70
  3020
  9
$CMLSTYLE
  2
Standard
  9
$CMLJUST
 70
     0
  9
$CMLSCALE
 40
20.0
  9
$PROXYGRAPHICS
 70
     1
  9
$MEASUREMENT
 70
     1
  9
$CELWEIGHT
370
    -1
  9
$ENDCAPS
280
     0
  9
$JOINSTYLE
280
     0
  9
$LWDISPLAY
290
     1
  9
$INSUNITS
 70
     4
  9
$HYPERLINKBASE
  1

  9
$STYLESHEET
  1

  9
$XEDIT
290
     1
  9
$CEPSNTYPE
380
     0
  9
$PSTYLEMODE
290
     1
  9
$FINGERPRINTGUID
  2
{4930D98B-F873-424C-9AE0-50DF89BCE9E7}
  9
$VERSIONGUID
  2
{FAEB1C32-E019-11D5-929B-00C0DF256EC4}
  9
$EXTNAMES
290
     1
  9
$PSVPSCALE
 40
0.0
  9
$OLESTARTUP
290
     0
  0
ENDSEC
  0
SECTION
  2
CLASSES
  0
CLASS
  1
ACDBDICTIONARYWDFLT
  2
AcDbDictionaryWithDefault
  3
ObjectDBX Classes
 90
        0
280
     0
281
     0
  0
CLASS
  1
VISUALSTYLE
  2
AcDbVisualStyle
  3
ObjectDBX Classes
 90
     4095
280
     0
281
     0
  0
CLASS
  1
MATERIAL
  2
AcDbMaterial
  3
ObjectDBX Classes
 90
     1153
280
     0
281
     0
  0
CLASS
  1
SCALE
  2
AcDbScale
  3
ObjectDBX Classes
 90
     1153
280
     0
281
     0
  0
CLASS
  1
SUN
  2
AcDbSun
  3
SCENEOE
 90
     1153
280
     0
281
     0
  0
CLASS
  1
ACDBPLACEHOLDER
  2
AcDbPlaceHolder
  3
ObjectDBX Classes
 90
        0
280
     0
281
     0
  0
CLASS
  1
LAYOUT
  2
AcDbLayout
  3
ObjectDBX Classes
 90
        0
280
     0
281
     0
  0
CLASS
  1
TABLESTYLE
  2
AcDbTableStyle
  3
ObjectDBX Classes
 90
     4095
280
     0
281
     0
  0
CLASS
  1
MLEADERSTYLE
  2
AcDbMLeaderStyle
  3
ACDB_MLEADERSTYLE_CLASS
 90
     4095
280
     0
281
     0
  0
ENDSEC
  0
SECTION
  2
TABLES
  0
TABLE
  2
VPORT
  5
8
330
0
100
AcDbSymbolTable
 70
     1
  0
VPORT
  5
29
330
8
100
AcDbSymbolTableRecord
100
AcDbViewportTableRecord
  2
*Active
 70
     0
 10
0.0
 20
0.0
 11
1.0
 21
1.0
 12
12.80847717014504
 22
6.284076546208574
 13
0.0
 23
0.0
 14
10.0
 24
10.0
 15
10.0
 25
10.0
 16
0.0
 26
0.0
 36
1.0
 17
0.0
 27
0.0
 37
0.0
 40
43.55923408248337
 41
2.315548780487805
 42
50.0
 43
0.0
 44
0.0
 50
0.0
 51
0.0
 71
    16
 72
  2000
 73
     1
 74
     3
 75
     0
 76
     0
 77
     0
 78
     0
281
     0
 65
     1
110
0.0
120
0.0
130
0.0
111
1.0
121
0.0
131
0.0
112
0.0
122
1.0
132
0.0
 79
     0
146
0.0
  0
ENDTAB
  0
TABLE
  2
LTYPE
  5
5
330
0
100
AcDbSymbolTable
 70
     6
  0
LTYPE
  5
14
330
5
100
AcDbSymbolTableRecord
100
AcDbLinetypeTableRecord
  2
ByBlock
 70
     0
  3

 72
    65
 73
     0
 40
0.0
  0
LTYPE
  5
15
330
5
100
AcDbSymbolTableRecord
100
AcDbLinetypeTableRecord
  2
ByLayer
 70
     0
  3

 72
    65
 73
     0
 40
0.0
  0
LTYPE
  5
16
330
5
100
AcDbSymbolTableRecord
100
AcDbLinetypeTableRecord
  2
Continuous
 70
     0
  3
Solid line
 72
    65
 73
     0
 40
0.0
  0
LTYPE
  5
6A
330
5
100
AcDbSymbolTableRecord
100
AcDbLinetypeTableRecord
  2
HIDDEN
 70
     0
  3
Hidden __ __ __ __ __ __ __ __ __ __ __ __ __ __
 72
    65
 73
     2
 40
1.905
 49
1.27
 74
     0
 49
-0.635
 74
     0
  0
LTYPE
  5
6B
330
5
100
AcDbSymbolTableRecord
100
AcDbLinetypeTableRecord
  2
PHANTOM
 70
     0
  3
Phantom ______  __  __  ______  __  __  ______
 72
    65
 73
     6
 40
12.7
 49
6.35
 74
     0
 49
-1.27
 74
     0
 49
1.27
 74
     0
 49
-1.27
 74
     0
 49
1.27
 74
     0
 49
-1.27
 74
     0
  0
LTYPE
  5
6C
330
5
100
AcDbSymbolTableRecord
100
AcDbLinetypeTableRecord
  2
CENTER
 70
     0
  3
Center ____ _ ____ _ ____ _ ____ _ ____ _ ____
 72
    65
 73
     4
 40
10.16
 49
6.35
 74
     0
 49
-1.27
 74
     0
 49
1.27
 74
     0
 49
-1.27
 74
     0
  0
LTYPE
  5
6D
330
5
100
AcDbSymbolTableRecord
100
AcDbLinetypeTableRecord
  2
CENTERX2
 70
     0
  3
Center (2x) ________  __  ________  __  _____
 72
    65
 73
     4
 40
20.32
 49
12.7
 74
     0
 49
-2.54
 74
     0
 49
2.54
 74
     0
 49
-2.54
 74
     0
  0
LTYPE
  5
6E
330
5
100
AcDbSymbolTableRecord
100
AcDbLinetypeTableRecord
  2
DOT2
 70
     0
  3
Dot (.5x) ........................................
 72
    65
 73
     2
 40
0.635
 49
0.0
 74
     0
 49
-0.635
 74
     0
  0
ENDTAB
  0
TABLE
  2
LAYER
  5
2
330
0
100
AcDbSymbolTable
 70
    17
  0
LAYER
  5
10
330
2
100
AcDbSymbolTableRecord
100
AcDbLayerTableRecord
  2
0
 70
     0
 62
     7
  6
Continuous
370
    -3
390
F
  0
LAYER
  5
6F
330
2
100
AcDbSymbolTableRecord
100
AcDbLayerTableRecord
  2
FORMAT
 70
     0
 62
     2
  6
Continuous
370
    -3
390
F
  0
LAYER
  5
70
330
2
100
AcDbSymbolTableRecord
100
AcDbLayerTableRecord
  2
외형선
 70
     0
 62
   100
  6
Continuous
370
    30
390
F
  0
LAYER
  5
71
330
2
100
AcDbSymbolTableRecord
100
AcDbLayerTableRecord
  2
숨은선
 70
     0
 62
     2
  6
HIDDEN
370
    15
390
F
  0
LAYER
  5
72
330
2
100
AcDbSymbolTableRecord
100
AcDbLayerTableRecord
  2
중심선
 70
     0
 62
     1
  6
CENTERX2
370
    -3
390
F
  0
LAYER
  5
73
330
2
100
AcDbSymbolTableRecord
100
AcDbLayerTableRecord
  2
파단선
 70
     0
 62
     4
  6
Continuous
370
    -3
390
F
  0
LAYER
  5
74
330
2
100
AcDbSymbolTableRecord
100
AcDbLayerTableRecord
  2
해칭선
 70
     0
 62
     4
  6
Continuous
370
    -3
390
F
  0
LAYER
  5
75
330
2
100
AcDbSymbolTableRecord
100
AcDbLayerTableRecord
  2
가는실선
 70
     0
 62
     4
  6
Continuous
370
    -3
390
F
  0
LAYER
  5
76
330
2
100
AcDbSymbolTableRecord
100
AcDbLayerTableRecord
  2
치수_보조선
 70
     0
 62
     4
  6
Continuous
370
    -3
390
F
  0
LAYER
  5
77
330
2
100
AcDbSymbolTableRecord
100
AcDbLayerTableRecord
  2
치수문자_일반주서
 70
     0
 62
     7
  6
Continuous
370
    15
390
F
  0
LAYER
  5
78
330
2
100
AcDbSymbolTableRecord
100
AcDbLayerTableRecord
  2
개별주서
 70
     0
 62
   100
  6
Continuous
370
    30
390
F
  0
LAYER
  5
79
330
2
100
AcDbSymbolTableRecord
100
AcDbLayerTableRecord
  2
중간선
 70
     0
 62
     2
  6
Continuous
370
    15
390
F
  0
LAYER
  5
7A
330
2
100
AcDbSymbolTableRecord
100
AcDbLayerTableRecord
  2
윤곽선
 70
     0
 62
     3
  6
Continuous
370
    40
390
F
  0
LAYER
  5
7B
330
2
100
AcDbSymbolTableRecord
100
AcDbLayerTableRecord
  2
중심마크
 70
     0
 62
   100
  6
Continuous
370
    30
390
F
  0
LAYER
  5
7C
330
2
100
AcDbSymbolTableRecord
100
AcDbLayerTableRecord
  2
가상선
 70
     0
 62
     4
  6
PHANTOM
370
    -3
390
F
  0
LAYER
  5
7D
330
2
100
AcDbSymbolTableRecord
100
AcDbLayerTableRecord
  2
특수지정선
 70
     0
 62
     5
  6
CENTERX2
370
    60
390
F
  0
LAYER
  5
137
330
2
100
AcDbSymbolTableRecord
100
AcDbLayerTableRecord
  2
Defpoints
 70
     0
 62
     7
  6
Continuous
290
     0
370
    -3
390
F
  0
ENDTAB
  0
TABLE
  2
STYLE
  5
3
330
0
100
AcDbSymbolTable
 70
     2
  0
STYLE
  5
11
330
3
100
AcDbSymbolTableRecord
100
AcDbTextStyleTableRecord
  2
Standard
 70
     0
 40
0.0
 41
1.0
 50
0.0
 71
     0
 42
3.5
  3
txt
  4

  0
STYLE
  5
93
330
3
100
AcDbSymbolTableRecord
100
AcDbTextStyleTableRecord
  2
SLDTEXTSTYLE0
 70
     0
 40
0.0
 41
0.75
 50
0.0
 71
     0
 42
3.5
  3
TXT
  4

  0
ENDTAB
  0
TABLE
  2
VIEW
  5
6
330
0
100
AcDbSymbolTable
 70
     0
  0
ENDTAB
  0
TABLE
  2
UCS
  5
7
330
0
100
AcDbSymbolTable
 70
     0
  0
ENDTAB
  0
TABLE
  2
APPID
  5
9
330
0
100
AcDbSymbolTable
 70
     2
  0
APPID
  5
12
330
9
100
AcDbSymbolTableRecord
100
AcDbRegAppTableRecord
  2
ACAD
 70
     0
  0
APPID
  5
135
330
9
100
AcDbSymbolTableRecord
100
AcDbRegAppTableRecord
  2
PE_URL
 70
     0
  0
ENDTAB
  0
TABLE
  2
DIMSTYLE
  5
A
330
0
100
AcDbSymbolTable
 70
     3
100
AcDbDimStyleTable
  0
DIMSTYLE
105
27
330
A
100
AcDbSymbolTableRecord
100
AcDbDimStyleTableRecord
  2
ISO-25
 70
     0
 41
2.5
 42
0.625
 43
3.75
 44
1.25
 73
     0
 74
     0
 77
     1
 78
     8
140
2.5
141
2.5
143
0.03937007874016
147
0.625
171
     3
172
     1
178
     0
271
     2
272
     2
274
     3
278
    44
283
     0
284
     8
340
11
  0
DIMSTYLE
105
DC
102
{ACAD_REACTORS
330
DB
330
E6
102
}
330
A
100
AcDbSymbolTableRecord
100
AcDbDimStyleTableRecord
  2
SLDDIMSTYLE0
 70
     0
 41
3.302
 44
0.0
 45
0.000000001
 73
     0
 74
     0
 77
     1
 78
    12
 79
     3
140
3.5
147
0.875
173
     1
178
     0
271
     2
272
     2
276
     2
284
    12
340
93
  0
DIMSTYLE
105
F1
102
{ACAD_REACTORS
330
F0
330
FE
102
}
330
A
100
AcDbSymbolTableRecord
100
AcDbDimStyleTableRecord
  2
SLDDIMSTYLE1
 70
     0
 41
3.302
 44
0.0
 45
0.000000001
 73
     0
 74
     0
 77
     1
 78
    12
 79
     3
140
3.5
147
0.875
172
     1
173
     1
178
     0
271
     2
272
     2
276
     2
284
    12
289
     0
340
93
  0
ENDTAB
  0
TABLE
  2
BLOCK_RECORD
  5
1
330
0
100
AcDbSymbolTable
 70
     7
  0
BLOCK_RECORD
  5
1F
102
{ACAD_XDICTIONARY
360
162
102
}
330
1
100
AcDbSymbolTableRecord
100
AcDbBlockTableRecord
  2
*Model_Space
340
22
  0
BLOCK_RECORD
  5
1B
330
1
100
AcDbSymbolTableRecord
100
AcDbBlockTableRecord
  2
*Paper_Space
340
1E
  0
BLOCK_RECORD
  5
23
330
1
100
AcDbSymbolTableRecord
100
AcDbBlockTableRecord
  2
*Paper_Space0
340
26
  0
BLOCK_RECORD
  5
7E
330
1
100
AcDbSymbolTableRecord
100
AcDbBlockTableRecord
  2
블럭10
340
0
102
{BLKREFS
331
D4
102
}
  0
BLOCK_RECORD
  5
DD
330
1
100
AcDbSymbolTableRecord
100
AcDbBlockTableRecord
  2
_D
340
0
  0
BLOCK_RECORD
  5
E7
330
1
100
AcDbSymbolTableRecord
100
AcDbBlockTableRecord
  2
_D_1
340
0
  0
BLOCK_RECORD
  5
F2
330
1
100
AcDbSymbolTableRecord
100
AcDbBlockTableRecord
  2
_D_2
340
0
  0
BLOCK_RECORD
  5
FF
330
1
100
AcDbSymbolTableRecord
100
AcDbBlockTableRecord
  2
_D_3
340
0
  0
BLOCK_RECORD
  5
10B
330
1
100
AcDbSymbolTableRecord
100
AcDbBlockTableRecord
  2
SW_DOWELSYMBOL_0
340
0
102
{BLKREFS
331
111
102
}
  0
ENDTAB
  0
ENDSEC
  0
SECTION
  2
BLOCKS
  0
BLOCK
  5
20
330
1F
100
AcDbEntity
  8
0
100
AcDbBlockBegin
  2
*Model_Space
 70
     0
 10
0.0
 20
0.0
 30
0.0
  3
*Model_Space
  1

  0
ENDBLK
  5
21
330
1F
100
AcDbEntity
  8
0
100
AcDbBlockEnd
  0
BLOCK
  5
1C
330
1B
100
AcDbEntity
 67
     1
  8
0
100
AcDbBlockBegin
  2
*Paper_Space
 70
     0
 10
0.0
 20
0.0
 30
0.0
  3
*Paper_Space
  1

  0
ENDBLK
  5
1D
330
1B
100
AcDbEntity
 67
     1
  8
0
100
AcDbBlockEnd
  0
BLOCK
  5
24
330
23
100
AcDbEntity
  8
0
100
AcDbBlockBegin
  2
*Paper_Space0
 70
     0
 10
0.0
 20
0.0
 30
0.0
  3
*Paper_Space0
  1

  0
ENDBLK
  5
25
330
23
100
AcDbEntity
  8
0
100
AcDbBlockEnd
  0
BLOCK
  5
7F
330
7E
100
AcDbEntity
  8
0
100
AcDbBlockBegin
  2
블럭10
 70
     2
 10
0.0
 20
0.0
 30
0.0
  3
블럭10
  1

  0
ELLIPSE
  5
81
330
7E
100
AcDbEntity
  8
중심선
100
AcDbEllipse
 10
20.54032771741204
 20
12.0471743016438
 30
0.0
 11
6.600054785286829
 21
-1.261213355974178E-13
 31
0.0
210
0.0
220
0.0
230
1.0
 40
0.636358354079598
 41
0.9219305317359503
 42
6.513795318482858
  0
ELLIPSE
  5
82
330
7E
100
AcDbEntity
  8
중심선
100
AcDbEllipse
 10
20.54032771746488
 20
12.04717430159265
 30
0.0
 11
3.960054785062283
 21
1.540847449632565E-10
 31
0.0
210
0.0
220
0.0
230
1.0
 40
0.3939339440162632
 41
1.131841032648279
 42
5.62031148352944
  0
LINE
  5
83
330
7E
100
AcDbEntity
  8
중심선
100
AcDbLine
 10
2.268634060543552
 20
16.24717430164393
 30
0.0
 11
5.714909304380834
 21
16.24717430164393
 31
0.0
  0
LINE
  5
84
330
7E
100
AcDbEntity
  8
중심선
100
AcDbLine
 10
5.245725140726316
 20
7.84717430164391
 30
0.0
 11
8.692000384563599
 21
7.84717430164391
 31
0.0
  0
LINE
  5
85
330
7E
100
AcDbEntity
  8
중심선
100
AcDbLine
 10
15.74043728645272
 20
16.24717430164393
 30
0.0
 11
8.692000384563599
 21
7.84717430164391
 31
0.0
  0
LINE
  5
86
330
7E
100
AcDbEntity
  8
중심선
100
AcDbLine
 10
0.1404042013395286
 20
13.71084872107135
 30
0.0
 11
3.58671253028996
 21
13.71088815037384
 31
0.0
  0
LINE
  5
87
330
7E
100
AcDbEntity
  8
중심선
100
AcDbLine
 10
2.750260043222114
 20
10.84717430164391
 30
0.0
 11
6.196535287059397
 21
10.84717430164391
 31
0.0
  0
LINE
  5
88
330
7E
100
AcDbEntity
  8
중심선
100
AcDbLine
 10
12.29416204261559
 20
16.24717430164393
 30
0.0
 11
5.245725140726316
 21
7.84717430164391
 31
0.0
  0
LINE
  5
89
330
7E
100
AcDbEntity
  8
중심선
100
AcDbLine
 10
10.72767329541681
 20
16.24717430164393
 30
0.0
 11
6.196535287059397
 21
10.84717430164391
 31
0.0
  0
LINE
  5
8A
330
7E
100
AcDbEntity
  8
중심선
100
AcDbLine
 10
7.28139805157953
 20
16.24717430164393
 30
0.0
 11
2.750260043222114
 21
10.84717430164391
 31
0.0
  0
LINE
  5
8B
330
7E
100
AcDbEntity
  8
중심선
100
AcDbLine
 10
5.714909304380834
 20
16.24717430164393
 30
0.0
 11
3.58671253028996
 21
13.71088815037384
 31
0.0
  0
LINE
  5
8C
330
7E
100
AcDbEntity
  8
중심선
100
AcDbLine
 10
2.268634060543552
 20
16.24717430164393
 30
0.0
 11
0.1404042013395286
 21
13.71084872107135
 31
0.0
  0
LINE
  5
8D
330
7E
100
AcDbEntity
  8
중심선
100
AcDbLine
 10
7.28139805157953
 20
16.24717430164393
 30
0.0
 11
10.72767329541681
 21
16.24717430164393
 31
0.0
  0
LINE
  5
8E
330
7E
100
AcDbEntity
  8
중심선
100
AcDbLine
 10
12.29416204261559
 20
16.24717430164393
 30
0.0
 11
15.74043728645272
 21
16.24717430164393
 31
0.0
  0
LINE
  5
8F
330
7E
100
AcDbEntity
  8
중심선
100
AcDbLine
 10
19.22036997980202
 20
11.08717430171403
 30
0.0
 11
23.66174974927406
 21
11.08717430171406
 31
0.0
  0
LINE
  5
90
330
7E
100
AcDbEntity
  8
중심선
100
AcDbLine
 10
19.22039502424796
 20
13.00717430171391
 30
0.0
 11
19.22036997980202
 21
11.08717430171403
 31
0.0
  0
LINE
  5
91
330
7E
100
AcDbEntity
  8
중심선
100
AcDbLine
 10
19.22039502424796
 20
13.00717430171391
 30
0.0
 11
26.96566020931264
 21
13.00717430171391
 31
0.0
  0
LINE
  5
92
330
7E
100
AcDbEntity
  8
중심선
100
AcDbLine
 10
22.22332737316547
 20
13.45928029700563
 30
0.0
 11
24.52862924686651
 21
15.39360700705356
 31
0.0
  0
ATTDEF
  5
94
330
7E
100
AcDbEntity
  8
FORMAT
 62
     2
100
AcDbText
 10
-12.95993919485777
 20
2.075366912832191
 30
0.0
 40
4.233333333333333
  1
SEME35115E [ 2 FLUTE ]
 41
0.75
  7
SLDTEXTSTYLE0
 11
-12.95993919485777
 21
-0.0412997538344756
 31
0.0
100
AcDbAttributeDefinition
  3

  2
AUTOATTR0
 70
     0
 74
     1
  0
ENDBLK
  5
80
330
7E
100
AcDbEntity
  8
0
100
AcDbBlockEnd
  0
BLOCK
  5
DE
330
DD
100
AcDbEntity
  8
0
100
AcDbBlockBegin
  2
_D
 70
     0
 10
0.0
 20
0.0
 30
0.0
  3
_D
  1

  0
LINE
  5
E0
330
DD
100
AcDbEntity
  8
치수문자_일반주서
 62
     0
370
    -2
100
AcDbLine
 10
34.02990197938612
 20
5.807640187570459
 30
0.0
 11
34.02990197938612
 21
17.99577407614824
 31
0.0
  0
LINE
  5
E1
330
DD
100
AcDbEntity
  8
치수문자_일반주서
 62
     0
370
    -2
100
AcDbLine
 10
4.029901979386114
 20
5.790160173422478
 30
0.0
 11
4.029901979386114
 21
17.99577407614824
 31
0.0
  0
LINE
  5
E2
330
DD
100
AcDbEntity
  8
치수문자_일반주서
 62
     0
370
    -2
100
AcDbLine
 10
30.72790197938612
 20
17.99577407614824
 30
0.0
 11
7.331901979386114
 21
17.99577407614824
 31
0.0
  0
SOLID
  5
E3
330
DD
100
AcDbEntity
  8
치수문자_일반주서
 62
     0
100
AcDbTrace
 10
30.72790197938612
 20
17.44544074281491
 30
0.0
 11
30.72790197938612
 21
18.54610740948157
 31
0.0
 12
34.02990197938612
 22
17.99577407614824
 32
0.0
 13
34.02990197938612
 23
17.99577407614824
 33
0.0
  0
SOLID
  5
E4
330
DD
100
AcDbEntity
  8
치수문자_일반주서
 62
     0
100
AcDbTrace
 10
7.331901979386114
 20
18.54610740948157
 30
0.0
 11
7.331901979386114
 21
17.44544074281491
 31
0.0
 12
4.029901979386114
 22
17.99577407614824
 32
0.0
 13
4.029901979386114
 23
17.99577407614824
 33
0.0
  0
MTEXT
  5
E5
330
DD
100
AcDbEntity
  8
치수문자_일반주서
 62
     0
100
AcDbMText
 10
19.02990197938611
 20
22.37077407614824
 30
0.0
 40
3.5
 41
0.0
 71
     2
 72
     1
  1
\A1;30
  7
SLDTEXTSTYLE0
 73
     1
 44
1.0
  0
POINT
  5
13C
330
DD
100
AcDbEntity
  8
Defpoints
 62
     0
100
AcDbPoint
 10
34.02990197938612
 20
5.745140187570459
 30
0.0
  0
POINT
  5
13D
330
DD
100
AcDbEntity
  8
Defpoints
 62
     0
100
AcDbPoint
 10
4.029901979386114
 20
5.727660173422478
 30
0.0
  0
POINT
  5
13E
330
DD
100
AcDbEntity
  8
Defpoints
 62
     0
100
AcDbPoint
 10
4.029901979386114
 20
17.99577407614824
 30
0.0
  0
ENDBLK
  5
DF
330
DD
100
AcDbEntity
  8
0
100
AcDbBlockEnd
  0
BLOCK
  5
E8
330
E7
100
AcDbEntity
  8
0
100
AcDbBlockBegin
  2
_D_1
 70
     0
 10
0.0
 20
0.0
 30
0.0
  3
_D_1
  1

  0
LINE
  5
EA
330
E7
100
AcDbEntity
  8
치수문자_일반주서
 62
     0
370
    -2
100
AcDbLine
 10
34.02990197938612
 20
5.807640187570461
 30
0.0
 11
34.02990197938612
 21
26.80915911661226
 31
0.0
  0
LINE
  5
EB
330
E7
100
AcDbEntity
  8
치수문자_일반주서
 62
     0
370
    -2
100
AcDbLine
 10
-45.97009802061388
 20
5.062499999999999
 30
0.0
 11
-45.97009802061388
 21
26.80915911661226
 31
0.0
  0
LINE
  5
EC
330
E7
100
AcDbEntity
  8
치수문자_일반주서
 62
     0
370
    -2
100
AcDbLine
 10
30.72790197938613
 20
26.80915911661226
 30
0.0
 11
-42.66809802061388
 21
26.80915911661226
 31
0.0
  0
SOLID
  5
ED
330
E7
100
AcDbEntity
  8
치수문자_일반주서
 62
     0
100
AcDbTrace
 10
30.72790197938613
 20
26.25882578327893
 30
0.0
 11
30.72790197938613
 21
27.3594924499456
 31
0.0
 12
34.02990197938612
 22
26.80915911661226
 32
0.0
 13
34.02990197938612
 23
26.80915911661226
 33
0.0
  0
SOLID
  5
EE
330
E7
100
AcDbEntity
  8
치수문자_일반주서
 62
     0
100
AcDbTrace
 10
-42.66809802061388
 20
27.3594924499456
 30
0.0
 11
-42.66809802061388
 21
26.25882578327893
 31
0.0
 12
-45.97009802061388
 22
26.80915911661226
 32
0.0
 13
-45.97009802061388
 23
26.80915911661226
 33
0.0
  0
MTEXT
  5
EF
330
E7
100
AcDbEntity
  8
치수문자_일반주서
 62
     0
100
AcDbMText
 10
-5.970098020613879
 20
31.18415911661226
 30
0.0
 40
3.5
 41
0.0
 71
     2
 72
     1
  1
\A1;80
  7
SLDTEXTSTYLE0
 73
     1
 44
1.0
  0
POINT
  5
138
330
E7
100
AcDbEntity
  8
Defpoints
 62
     0
100
AcDbPoint
 10
34.02990197938612
 20
5.745140187570461
 30
0.0
  0
POINT
  5
139
330
E7
100
AcDbEntity
  8
Defpoints
 62
     0
100
AcDbPoint
 10
-45.97009802061388
 20
4.999999999999999
 30
0.0
  0
POINT
  5
13A
330
E7
100
AcDbEntity
  8
Defpoints
 62
     0
100
AcDbPoint
 10
-45.97009802061388
 20
26.80915911661226
 30
0.0
  0
ENDBLK
  5
E9
330
E7
100
AcDbEntity
  8
0
100
AcDbBlockEnd
  0
BLOCK
  5
F3
330
F2
100
AcDbEntity
  8
0
100
AcDbBlockBegin
  2
_D_2
 70
     0
 10
0.0
 20
0.0
 30
0.0
  3
_D_2
  1

  0
LINE
  5
F5
330
F2
100
AcDbEntity
  8
치수문자_일반주서
 62
     0
370
    -2
100
AcDbLine
 10
34.09240197938612
 20
5.750140187570461
 30
0.0
 11
49.59609229163237
 21
5.750140187570519
 31
0.0
  0
LINE
  5
F6
330
F2
100
AcDbEntity
  8
치수문자_일반주서
 62
     0
370
    -2
100
AcDbLine
 10
34.09240197938612
 20
-5.745140187570448
 30
0.0
 11
49.59609229163242
 21
-5.74514018757039
 31
0.0
  0
LINE
  5
F7
330
F2
100
AcDbEntity
  8
치수문자_일반주서
 62
     0
370
    -2
100
AcDbLine
 10
49.59609229163239
 20
2.44814018757052
 30
0.0
 11
49.5960922916324
 21
-2.44314018757039
 31
0.0
  0
SOLID
  5
F8
330
F2
100
AcDbEntity
  8
치수문자_일반주서
 62
     0
100
AcDbTrace
 10
50.14642562496572
 20
2.448140187570522
 30
0.0
 11
49.04575895829905
 21
2.448140187570517
 31
0.0
 12
49.59609229163237
 22
5.750140187570519
 32
0.0
 13
49.59609229163237
 23
5.750140187570519
 33
0.0
  0
SOLID
  5
F9
330
F2
100
AcDbEntity
  8
치수문자_일반주서
 62
     0
100
AcDbTrace
 10
49.04575895829907
 20
-2.443140187570392
 30
0.0
 11
50.14642562496574
 21
-2.443140187570388
 31
0.0
 12
49.59609229163242
 22
-5.74514018757039
 32
0.0
 13
49.59609229163242
 23
-5.74514018757039
 33
0.0
  0
MTEXT
  5
FA
330
F2
100
AcDbEntity
  8
치수문자_일반주서
 62
     0
100
AcDbMText
 10
45.2210922916324
 20
-0.0000000000000115
 30
0.0
 40
3.5
 41
0.0
 71
     2
 72
     1
  1
\A1;%%c11.5
  7
SLDTEXTSTYLE0
 11
-3.708701550055356E-15
 21
1.0
 31
0.0
 73
     1
 44
1.0
  0
POINT
  5
FB
330
F2
100
AcDbEntity
  8
Defpoints
 62
     0
100
AcDbPoint
 10
34.02990197938612
 20
5.750140187570461
 30
0.0
  0
POINT
  5
FC
330
F2
100
AcDbEntity
  8
Defpoints
 62
     0
100
AcDbPoint
 10
34.02990197938612
 20
-5.745140187570448
 30
0.0
  0
POINT
  5
FD
330
F2
100
AcDbEntity
  8
Defpoints
 62
     0
100
AcDbPoint
 10
49.59609229163242
 20
-5.74514018757039
 30
0.0
  0
ENDBLK
  5
F4
330
F2
100
AcDbEntity
  8
0
100
AcDbBlockEnd
  0
BLOCK
  5
100
330
FF
100
AcDbEntity
  8
0
100
AcDbBlockBegin
  2
_D_3
 70
     0
 10
0.0
 20
0.0
 30
0.0
  3
_D_3
  1

  0
LINE
  5
102
330
FF
100
AcDbEntity
  8
치수문자_일반주서
 62
     0
370
    -2
100
AcDbLine
 10
-45.03259802061388
 20
6.000000000000002
 30
0.0
 11
-57.38965746600245
 21
5.999999999999956
 31
0.0
  0
LINE
  5
103
330
FF
100
AcDbEntity
  8
치수문자_일반주서
 62
     0
370
    -2
100
AcDbLine
 10
-45.03259802061388
 20
-5.999999999999998
 30
0.0
 11
-57.3896574660024
 21
-6.000000000000044
 31
0.0
  0
LINE
  5
104
330
FF
100
AcDbEntity
  8
치수문자_일반주서
 62
     0
370
    -2
100
AcDbLine
 10
-57.38965746600243
 20
2.697999999999956
 30
0.0
 11
-57.38965746600242
 21
-2.698000000000045
 31
0.0
  0
SOLID
  5
105
330
FF
100
AcDbEntity
  8
치수문자_일반주서
 62
     0
100
AcDbTrace
 10
-56.8393241326691
 20
2.697999999999958
 30
0.0
 11
-57.93999079933577
 21
2.697999999999954
 31
0.0
 12
-57.38965746600245
 22
5.999999999999956
 32
0.0
 13
-57.38965746600245
 23
5.999999999999956
 33
0.0
  0
SOLID
  5
106
330
FF
100
AcDbEntity
  8
치수문자_일반주서
 62
     0
100
AcDbTrace
 10
-57.93999079933575
 20
-2.698000000000047
 30
0.0
 11
-56.83932413266908
 21
-2.698000000000043
 31
0.0
 12
-57.3896574660024
 22
-6.000000000000044
 32
0.0
 13
-57.3896574660024
 23
-6.000000000000044
 33
0.0
  0
MTEXT
  5
107
330
FF
100
AcDbEntity
  8
치수문자_일반주서
 62
     0
100
AcDbMText
 10
-61.76465746600243
 20
-0.000000000000013
 30
0.0
 40
3.5
 41
0.0
 71
     2
 72
     1
  1
\A1;%%c12
  7
SLDTEXTSTYLE0
 11
-3.552713678800501E-15
 21
1.0
 31
0.0
 73
     1
 44
1.0
  0
POINT
  5
108
330
FF
100
AcDbEntity
  8
Defpoints
 62
     0
100
AcDbPoint
 10
-44.97009802061388
 20
6.000000000000002
 30
0.0
  0
POINT
  5
109
330
FF
100
AcDbEntity
  8
Defpoints
 62
     0
100
AcDbPoint
 10
-44.97009802061388
 20
-5.999999999999998
 30
0.0
  0
POINT
  5
10A
330
FF
100
AcDbEntity
  8
Defpoints
 62
     0
100
AcDbPoint
 10
-57.38965746600243
 20
-6.000000000000044
 30
0.0
  0
ENDBLK
  5
101
330
FF
100
AcDbEntity
  8
0
100
AcDbBlockEnd
  0
BLOCK
  5
10C
330
10B
100
AcDbEntity
  8
0
100
AcDbBlockBegin
  2
SW_DOWELSYMBOL_0
 70
     0
 10
0.0
 20
0.0
 30
0.0
  3
SW_DOWELSYMBOL_0
  1

  0
CIRCLE
  5
10E
330
10B
100
AcDbEntity
  8
외형선
 62
     0
100
AcDbCircle
 10
0.0
 20
0.0
 30
0.0
 40
3.000000000000004
  0
HATCH
  5
10F
330
10B
100
AcDbEntity
  8
0
  6
Continuous
 62
     0
370
    30
100
AcDbHatch
 10
0.0
 20
0.0
 30
0.0
210
0.0
220
0.0
230
1.0
  2
SOLID
 70
     1
 71
     0
 91
        1
 92
        0
 93
        3
 72
     2
 10
0.0000000000000087
 20
-0.0000000000000035
 40
3.000000000000004
 50
0.0
 51
90.0
 73
     1
 72
     1
 10
0.0000000000000087
 20
3.000000000000001
 11
0.0000000000000087
 21
-0.0000000000000036
 72
     1
 10
0.0000000000000087
 20
-0.0000000000000035
 11
3.000000000000013
 21
-0.0000000000000035
 97
        0
 75
     0
 76
     1
 98
        1
 10
0.0
 20
0.0
  0
HATCH
  5
110
330
10B
100
AcDbEntity
  8
0
  6
Continuous
 62
     0
370
    30
100
AcDbHatch
 10
0.0
 20
0.0
 30
0.0
210
0.0
220
0.0
230
1.0
  2
SOLID
 70
     1
 71
     0
 91
        1
 92
        0
 93
        3
 72
     2
 10
0.0000000000000087
 20
-0.0000000000000035
 40
3.000000000000004
 50
180.0
 51
270.0000000000007
 73
     1
 72
     1
 10
0.0000000000000087
 20
-3.000000000000008
 11
0.0000000000000087
 21
-0.0000000000000036
 72
     1
 10
0.0000000000000087
 20
-0.0000000000000035
 11
-2.999999999999996
 21
-0.0000000000000035
 97
        0
 75
     0
 76
     1
 98
        1
 10
0.0
 20
0.0
  0
ENDBLK
  5
10D
330
10B
100
AcDbEntity
  8
0
100
AcDbBlockEnd
  0
ENDSEC
  0
SECTION
  2
ENTITIES
  0
LINE
  5
95
330
1F
100
AcDbEntity
  8
0
  6
Continuous
 62
     4
370
    15
100
AcDbLine
 10
1.999999999999986
 20
6.000000000000004
 30
0.0
 11
-44.97009802061388
 21
6.000000000000002
 31
0.0
1001
PE_URL
1000

  0
LINE
  5
96
330
1F
100
AcDbEntity
  8
0
  6
Continuous
 62
     4
370
    15
100
AcDbLine
 10
-44.97009802061388
 20
-5.999999999999998
 30
0.0
 11
1.999999999999986
 21
-5.999999999999996
 31
0.0
  0
LINE
  5
97
330
1F
100
AcDbEntity
  8
0
  6
Continuous
 62
     4
370
    15
100
AcDbLine
 10
-44.97009802061388
 20
6.0
 30
0.0
 11
-45.97009802061388
 21
4.999999999999997
 31
0.0
  0
LINE
  5
98
330
1F
100
AcDbEntity
  8
0
  6
Continuous
 62
     4
370
    15
100
AcDbLine
 10
-45.97009802061388
 20
-4.999999999999996
 30
0.0
 11
-44.97009802061388
 21
-5.999999999999996
 31
0.0
  0
LINE
  5
99
330
1F
100
AcDbEntity
  8
0
  6
Continuous
 62
     4
370
    15
100
AcDbLine
 10
3.150615582026417
 20
-5.749999999999996
 30
0.0
 11
4.029901979386114
 21
-5.749999999999996
 31
0.0
1001
PE_URL
1000

  0
LINE
  5
9A
330
1F
100
AcDbEntity
  8
0
  6
Continuous
 62
     1
370
    15
100
AcDbLine
 10
4.029901979386114
 20
5.750000000000004
 30
0.0
 11
3.150615582026417
 21
5.750000000000004
 31
0.0
  0
SPLINE
  5
9B
330
1F
100
AcDbEntity
  8
0
  6
Continuous
 62
     1
370
    15
100
AcDbSpline
210
0.0
220
0.0
230
1.0
 70
     8
 71
     3
 72
    10
 73
     6
 74
     0
 42
0.000000001
 43
0.00000001
 40
0.0
 40
0.0
 40
0.0
 40
0.0
 40
0.4989416335781571
 40
0.6863765940428437
 40
1.0
 40
1.0
 40
1.0
 40
1.0
 10
19.13225209330282
 20
1.473425042757943
 30
0.0
 10
18.86719825498513
 20
1.600029698412729
 30
0.0
 10
18.50257293903828
 20
1.774195305149347
 30
0.0
 10
17.97169820884047
 20
2.044099261259114
 30
0.0
 10
17.70527787959677
 20
2.183816097228183
 30
0.0
 10
17.53851956026101
 20
2.271267925004442
 30
0.0
  0
LINE
  5
9C
330
1F
100
AcDbEntity
  8
0
  6
Continuous
 62
     1
370
    15
100
AcDbLine
 10
15.9545754992911
 20
1.618414391983218
 30
0.0
 11
15.8919391402197
 21
1.653066819998009
 31
0.0
  0
LINE
  5
9D
330
1F
100
AcDbEntity
  8
0
  6
Continuous
 62
     1
370
    15
100
AcDbLine
 10
5.937709055707801
 20
5.750000000000007
 30
0.0
 11
4.029901979386118
 21
5.750000000000007
 31
0.0
  0
SPLINE
  5
9E
330
1F
100
AcDbEntity
  8
0
  6
Continuous
 62
     1
370
    15
100
AcDbSpline
210
0.0
220
0.0
230
1.0
 70
     8
 71
     3
 72
    21
 73
    17
 74
     0
 42
0.000000001
 43
0.00000001
 40
0.0
 40
0.0
 40
0.0
 40
0.0
 40
0.1312986959159338
 40
0.2293256581946084
 40
0.2946998225911681
 40
0.3316166580765559
 40
0.3702701898263127
 40
0.4342515367365963
 40
0.5088991501756271
 40
0.5723040001811174
 40
0.6376905056184753
 40
0.712497351991342
 40
0.8044722353210234
 40
0.9051268653946838
 40
0.9811834096972154
 40
1.0
 40
1.0
 40
1.0
 40
1.0
 10
17.23220539063645
 20
4.569175458827507
 30
0.0
 10
17.02453981633678
 20
4.558757218332094
 30
0.0
 10
16.66183214297858
 20
4.540560770589994
 30
0.0
 10
16.19994052670404
 20
4.523132070273323
 30
0.0
 10
15.88488564430118
 20
4.513363991176973
 30
0.0
 10
15.6759234141103
 20
4.507589219202607
 30
0.0
 10
15.45991472081342
 20
4.502271047097547
 30
0.0
 10
15.17913827803842
 20
4.49696729071253
 30
0.0
 10
14.85719734758269
 20
4.492927776868204
 30
0.0
 10
14.53384761454224
 20
4.490655897083782
 30
0.0
 10
14.21289513062624
 20
4.490183051235544
 30
0.0
 10
13.84794993275924
 20
4.491900136891224
 30
0.0
 10
13.42719037353153
 20
4.496906663122686
 30
0.0
 10
13.00442305924274
 20
4.505642395697228
 30
0.0
 10
12.69702746367834
 20
4.513884093439233
 30
0.0
 10
12.54752889715685
 20
4.518995612376844
 30
0.0
 10
12.51787821375959
 20
4.520009401560409
 30
0.0
  0
SPLINE
  5
9F
330
1F
100
AcDbEntity
  8
0
  6
Continuous
 62
     1
370
    15
100
AcDbSpline
210
0.0
220
0.0
230
1.0
 70
     8
 71
     3
 72
    32
 73
    28
 74
     0
 42
0.000000001
 43
0.00000001
 40
0.0
 40
0.0
 40
0.0
 40
0.0
 40
0.068647245447354
 40
0.1223491492622142
 40
0.1618210079970817
 40
0.1910212071822705
 40
0.2114686866079761
 40
0.2558233515375233
 40
0.3141268454620928
 40
0.3579434959117701
 40
0.4027630846716726
 40
0.4352683104005253
 40
0.4625849162568535
 40
0.5003012183224205
 40
0.5436575208926381
 40
0.5864151868229475
 40
0.6238380082581463
 40
0.6542848250033724
 40
0.6777575159494881
 40
0.7055254409504125
 40
0.7438586433288222
 40
0.7822366059415421
 40
0.8130297145328841
 40
0.8425731183721339
 40
0.882966814442826
 40
0.9345103925751024
 40
1.0
 40
1.0
 40
1.0
 40
1.0
 10
31.89279727089992
 20
3.932717806981319
 30
0.0
 10
31.6667159659611
 20
3.914218115656858
 30
0.0
 10
31.26377401041579
 20
3.881246341182714
 30
0.0
 10
30.72300480837499
 20
3.847661827786871
 30
0.0
 10
30.30505201778048
 20
3.826510373790958
 30
0.0
 10
30.0020027683105
 20
3.813754562391416
 30
0.0
 10
29.68651115841413
 20
3.80243952838226
 30
0.0
 10
29.2740918593218
 20
3.79103862949688
 30
0.0
 10
28.78250014135966
 20
3.784020933864575
 30
0.0
 10
28.28967140033505
 20
3.783446344477357
 30
0.0
 10
27.88351448049547
 20
3.787593723039878
 30
0.0
 10
27.53269072238647
 20
3.794669149062087
 30
0.0
 10
27.20562354294091
 20
3.803821451761511
 30
0.0
 10
26.84227616170174
 20
3.816999032824832
 30
0.0
 10
26.42700731030522
 20
3.836290158813193
 30
0.0
 10
26.01263738574858
 20
3.860004007331355
 30
0.0
 10
25.64154531068949
 20
3.884964463131589
 30
0.0
 10
25.3355676406242
 20
3.908154146012503
 30
0.0
 10
25.06391807694138
 20
3.93059110501418
 30
0.0
 10
24.76424801332977
 20
3.957195464402177
 30
0.0
 10
24.4129524282413
 20
3.991079184577377
 30
0.0
 10
24.05026543697713
 20
4.029362606575995
 30
0.0
 10
23.72592327515462
 20
4.066015811579175
 30
0.0
 10
23.38496670135404
 20
4.107137759761561
 30
0.0
 10
22.96618336804406
 20
4.160565012755893
 30
0.0
 10
22.42653420951432
 20
4.23481077591663
 30
0.0
 10
22.05602661329452
 20
4.292493630373557
 30
0.0
 10
21.84869741082208
 20
4.324771889531822
 30
0.0
  0
SPLINE
  5
A0
330
1F
100
AcDbEntity
  8
0
  6
Continuous
 62
     1
370
    15
100
AcDbSpline
210
0.0
220
0.0
230
1.0
 70
     8
 71
     3
 72
    30
 73
    26
 74
     0
 42
0.000000001
 43
0.00000001
 40
0.0
 40
0.0
 40
0.0
 40
0.0
 40
0.0654348809413656
 40
0.1159901221779332
 40
0.1532507716713799
 40
0.1942989618492663
 40
0.2447785982083251
 40
0.2973765239649774
 40
0.3416296669825406
 40
0.3797526738641412
 40
0.4225748971189931
 40
0.4744150488100454
 40
0.5158390450932551
 40
0.5488567304188968
 40
0.5777438483022084
 40
0.6168783524626926
 40
0.6636647626184567
 40
0.7017703663514447
 40
0.7300933568872616
 40
0.7561096001497675
 40
0.7825422354943605
 40
0.8146385658733427
 40
0.861532502224333
 40
0.9231757243746307
 40
1.0
 40
1.0
 40
1.0
 40
1.0
 10
8.58454654937429
 20
-4.784800107949575
 30
0.0
 10
8.771460133034351
 20
-4.766567464384234
 30
0.0
 10
9.102783871895776
 20
-4.734248210121878
 30
0.0
 10
9.542562521102871
 20
-4.695602024482595
 30
0.0
 10
9.917296686722384
 20
-4.66512764536272
 30
0.0
 10
10.29087058081692
 20
-4.636900129594477
 30
0.0
 10
10.70718887570211
 20
-4.60824773871251
 30
0.0
 10
11.13168078528519
 20
-4.582281993764442
 30
0.0
 10
11.52063192664153
 20
-4.561290776432214
 30
0.0
 10
11.8813975846838
 20
-4.544051720538853
 30
0.0
 10
12.26426253345256
 20
-4.528248975375836
 30
0.0
 10
12.65658401281039
 20
-4.51498719457365
 30
0.0
 10
13.02062403844251
 20
-4.50535543998587
 30
0.0
 10
13.31852267855958
 20
-4.499220392085851
 30
0.0
 10
13.60984196102887
 20
-4.494647638608674
 30
0.0
 10
13.94065201737124
 20
-4.491239922491358
 30
0.0
 10
14.29808468629784
 20
-4.49003153336772
 30
0.0
 10
14.62453415043064
 20
-4.491147760709519
 30
0.0
 10
14.89115689020479
 20
-4.493469550730871
 30
0.0
 10
15.12403001852024
 20
-4.496502547081829
 30
0.0
 10
15.36767776466756
 20
-4.500693183168319
 30
0.0
 10
15.6712955398232
 20
-4.507315189356634
 30
0.0
 10
16.07639291111202
 20
-4.51877652643368
 30
0.0
 10
16.61053977791195
 20
-4.538129630772691
 30
0.0
 10
17.01037150620931
 20
-4.558097129108611
 30
0.0
 10
17.23220539063646
 20
-4.569175458827498
 30
0.0
  0
SPLINE
  5
A1
330
1F
100
AcDbEntity
  8
0
  6
Continuous
 62
     1
370
    15
100
AcDbSpline
210
0.0
220
0.0
230
1.0
 70
     8
 71
     3
 72
    19
 73
    15
 74
     0
 42
0.000000001
 43
0.00000001
 40
0.0
 40
0.0
 40
0.0
 40
0.0
 40
0.1381301669441509
 40
0.2498702371635471
 40
0.3402809830774996
 40
0.4102725159188213
 40
0.4697837553254248
 40
0.5490942271103868
 40
0.6471545462106739
 40
0.7307920372294436
 40
0.7906331934379063
 40
0.8643038574037579
 40
0.9580557113556093
 40
1.0
 40
1.0
 40
1.0
 40
1.0
 10
21.84869741082208
 20
-4.324771889531811
 30
0.0
 10
22.03545084274366
 20
-4.295697631881607
 30
0.0
 10
22.3732780195125
 20
-4.243103822613654
 30
0.0
 10
22.86732957590176
 20
-4.173636046956971
 30
0.0
 10
23.26731187945173
 20
-4.122075928869821
 30
0.0
 10
23.59140707834326
 20
-4.081930117573712
 30
0.0
 10
23.88376516176098
 20
-4.047997259528703
 30
0.0
 10
24.22331701079736
 20
-4.010653021118646
 30
0.0
 10
24.59907694890084
 20
-3.972678081675233
 30
0.0
 10
24.94599424993721
 20
-3.940775736430599
 30
0.0
 10
25.25467483728025
 20
-3.914568246895013
 30
0.0
 10
25.57983706220418
 20
-3.889500606050863
 30
0.0
 10
25.88019254545636
 20
-3.868241683699367
 30
0.0
 10
26.07483061270403
 20
-3.857297089111172
 30
0.0
 10
26.13499411564245
 20
-3.853914065646245
 30
0.0
  0
LINE
  5
A2
330
1F
100
AcDbEntity
  8
0
  6
Continuous
 62
     1
370
    15
100
AcDbLine
 10
4.029901979386118
 20
-5.749999999999998
 30
0.0
 11
5.937709055707769
 21
-5.749999999999998
 31
0.0
  0
SPLINE
  5
A3
330
1F
100
AcDbEntity
  8
0
  6
Continuous
 62
     4
370
    15
100
AcDbSpline
210
0.0
220
0.0
230
1.0
 70
     8
 71
     3
 72
     8
 73
     4
 74
     0
 42
0.000000001
 43
0.00000001
 40
0.0
 40
0.0
 40
0.0
 40
0.0
 40
1.0
 40
1.0
 40
1.0
 40
1.0
 10
2.096889277493895
 20
5.975270537917868
 30
0.0
 10
2.064603239176304
 20
5.973508107933617
 30
0.0
 10
2.032306052719768
 20
5.971651463271783
 30
0.0
 10
1.999999999999986
 20
5.969700677120712
 30
0.0
1001
PE_URL
1000

  0
SPLINE
  5
A4
330
1F
100
AcDbEntity
  8
0
  6
Continuous
 62
     4
370
    15
100
AcDbSpline
210
0.0
220
0.0
230
1.0
 70
     8
 71
     3
 72
     8
 73
     4
 74
     0
 42
0.000000001
 43
0.00000001
 40
0.0
 40
0.0
 40
0.0
 40
0.0
 40
1.0
 40
1.0
 40
1.0
 40
1.0
 10
2.096889277493895
 20
-5.600972293056143
 30
0.0
 10
2.064637456713784
 20
-5.594011638641873
 30
0.0
 10
2.032374511413167
 20
-5.586962248019449
 30
0.0
 10
2.000102716217816
 20
-5.579824564756426
 30
0.0
1001
PE_URL
1000

  0
LINE
  5
A5
330
1F
100
AcDbEntity
  8
0
  6
Continuous
 62
     4
370
    15
100
AcDbLine
 10
2.096889277493895
 20
-5.600972293056141
 30
0.0
 11
2.096889277493895
 21
-5.975270537916426
 31
0.0
1001
PE_URL
1000

  0
SPLINE
  5
A6
330
1F
100
AcDbEntity
  8
0
  6
Continuous
 62
     4
370
    15
100
AcDbSpline
210
0.0
220
0.0
230
1.0
 70
     8
 71
     3
 72
     8
 73
     4
 74
     0
 42
0.000000001
 43
0.00000001
 40
0.0
 40
0.0
 40
0.0
 40
0.0
 40
1.0
 40
1.0
 40
1.0
 40
1.0
 10
2.096889277493895
 20
-5.975270537917859
 30
0.0
 10
2.064603239176304
 20
-5.973508107933609
 30
0.0
 10
2.032306052719772
 20
-5.971651463271774
 30
0.0
 10
1.999999999999986
 20
-5.969700677120705
 30
0.0
1001
PE_URL
1000

  0
LINE
  5
A7
330
1F
100
AcDbEntity
  8
0
  6
Continuous
 62
     4
370
    15
100
AcDbLine
 10
1.999999999999986
 20
-5.999999999999996
 30
0.0
 11
1.999999999999986
 21
-5.969690720787549
 31
0.0
1001
PE_URL
1000

  0
LINE
  5
A8
330
1F
100
AcDbEntity
  8
0
  6
Continuous
 62
     4
370
    15
100
AcDbLine
 10
-44.97009802061388
 20
6.0
 30
0.0
 11
-44.97009802061388
 21
-5.999999999999998
 31
0.0
  0
LINE
  5
A9
330
1F
100
AcDbEntity
  8
0
  6
Continuous
 62
     4
370
    15
100
AcDbLine
 10
1.999999999999983
 20
-5.579774705996122
 30
0.0
 11
1.999999999999986
 21
6.000000000000004
 31
0.0
1001
PE_URL
1000

  0
LINE
  5
AA
330
1F
100
AcDbEntity
  8
0
  6
Continuous
 62
     4
370
    15
100
AcDbLine
 10
-45.97009802061388
 20
4.999999999999999
 30
0.0
 11
-45.97009802061388
 21
-4.999999999999996
 31
0.0
  0
SPLINE
  5
AB
330
1F
100
AcDbEntity
  8
0
  6
Continuous
 62
     1
370
    15
100
AcDbSpline
210
0.0
220
0.0
230
1.0
 70
    24
 71
     3
 72
    14
 73
    10
 74
     0
 42
0.000000001
 43
0.00000001
 40
0.0
 40
0.0
 40
0.0
 40
0.0
 40
0.25
 40
0.25
 40
0.5
 40
0.5
 40
0.75
 40
0.75
 40
1.0
 40
1.0
 40
1.0
 40
1.0
 10
4.029901979386107
 20
-0.5931026074614478
 30
0.0
 10
4.029901979386107
 20
-1.023296026397179
 30
0.0
 10
4.029901979386107
 20
-1.452259736251354
 30
0.0
 10
4.029901979386107
 20
-2.27576705713672
 30
0.0
 10
4.029901979386107
 20
-2.67005152746615
 30
0.0
 10
4.029901979386107
 20
-3.393635193625649
 30
0.0
 10
4.029901979386107
 20
-3.722725440458108
 30
0.0
 10
4.029901979386107
 20
-4.294635759649839
 30
0.0
 10
4.029901979386107
 20
-4.537394809298861
 30
0.0
 10
4.029901979386107
 20
-4.733194682562539
 30
0.0
  0
SPLINE
  5
AC
330
1F
100
AcDbEntity
  8
0
  6
Continuous
 62
     4
370
    15
100
AcDbSpline
210
0.0
220
0.0
230
1.0
 70
     8
 71
     3
 72
    10
 73
     6
 74
     0
 42
0.000000001
 43
0.00000001
 40
0.0
 40
0.0
 40
0.0
 40
0.0
 40
0.5
 40
0.5
 40
1.0
 40
1.0
 40
1.0
 40
1.0
 10
4.029901979386107
 20
-4.733194682562539
 30
0.0
 10
3.690521898554755
 20
-4.691756240786871
 30
0.0
 10
3.3507004711074
 20
-4.64206656497735
 30
0.0
 10
2.675454328885206
 20
-4.527041210412157
 30
0.0
 10
2.339196431150251
 20
-4.461693690386691
 30
0.0
 10
2.000102716217816
 20
-4.388546244049008
 30
0.0
  0
SPLINE
  5
AD
330
1F
100
AcDbEntity
  8
0
  6
Continuous
 62
     4
370
    15
100
AcDbSpline
210
0.0
220
0.0
230
1.0
 70
     8
 71
     3
 72
    10
 73
     6
 74
     0
 42
0.000000001
 43
0.00000001
 40
0.0
 40
0.0
 40
0.0
 40
0.0
 40
0.5
 40
0.5
 40
1.0
 40
1.0
 40
1.0
 40
1.0
 10
4.029901979386111
 20
-0.5931026074614495
 30
0.0
 10
3.690511020495947
 20
-0.4379563740595751
 30
0.0
 10
3.350678687013684
 20
-0.2817122591178036
 30
0.0
 10
2.675411182541348
 20
0.0305349605826833
 30
0.0
 10
2.33914221199862
 20
0.1866660823113528
 30
0.0
 10
2.000037502925761
 20
0.3426397272743823
 30
0.0
  0
SPLINE
  5
AE
330
1F
100
AcDbEntity
  8
0
  6
Continuous
 62
     1
370
    15
100
AcDbSpline
210
0.0
220
0.0
230
1.0
 70
    24
 71
     3
 72
    14
 73
    10
 74
     0
 42
0.000000001
 43
0.00000001
 40
0.0
 40
0.0
 40
0.0
 40
0.0
 40
0.25
 40
0.25
 40
0.5
 40
0.5
 40
0.75
 40
0.75
 40
1.0
 40
1.0
 40
1.0
 40
1.0
 10
4.029901979386114
 20
3.991403331603163
 30
0.0
 10
4.029901979386114
 20
3.819698868334884
 30
0.0
 10
4.029901979386114
 20
3.583699688562199
 30
0.0
 10
4.029901979386114
 20
2.987476834501536
 30
0.0
 10
4.029901979386114
 20
2.62730144588096
 30
0.0
 10
4.029901979386114
 20
1.812502564113759
 30
0.0
 10
4.029901979386114
 20
1.358313229876633
 30
0.0
 10
4.029901979386114
 20
0.4038668665035843
 30
0.0
 10
4.029901979386114
 20
-0.0958387327172663
 30
0.0
 10
4.029901979386114
 20
-0.593102607461451
 30
0.0
  0
SPLINE
  5
AF
330
1F
100
AcDbEntity
  8
0
  6
Continuous
 62
     4
370
    15
100
AcDbSpline
210
0.0
220
0.0
230
1.0
 70
     8
 71
     3
 72
    10
 73
     6
 74
     0
 42
0.000000001
 43
0.00000001
 40
0.0
 40
0.0
 40
0.0
 40
0.0
 40
0.5
 40
0.5
 40
1.0
 40
1.0
 40
1.0
 40
1.0
 10
4.029901979386121
 20
3.991403331603161
 30
0.0
 10
3.690508891974067
 20
4.009054127130211
 30
0.0
 10
3.350674424495699
 20
4.01976870138046
 30
0.0
 10
2.675402740051432
 20
4.02723067424143
 30
0.0
 10
2.339131602872383
 20
4.024012437575292
 30
0.0
 10
2.000024742565413
 20
4.013818135837484
 30
0.0
  0
SPLINE
  5
B0
330
1F
100
AcDbEntity
  8
0
  6
Continuous
 62
     4
370
    15
100
AcDbSpline
210
0.0
220
0.0
230
1.0
 70
     8
 71
     3
 72
     8
 73
     4
 74
     0
 42
0.000000001
 43
0.00000001
 40
0.0
 40
0.0
 40
0.0
 40
0.0
 40
1.0
 40
1.0
 40
1.0
 40
1.0
 10
4.029901979386111
 20
-5.644736090886449
 30
0.0
 10
3.696158672815987
 20
-5.608106855591887
 30
0.0
 10
3.361988402793131
 20
-5.561967282451669
 30
0.0
 10
3.029901979386118
 20
-5.506710820527661
 30
0.0
1001
PE_URL
1000

  0
SPLINE
  5
B1
330
1F
100
AcDbEntity
  8
0
  6
Continuous
 62
     4
370
    15
100
AcDbSpline
210
0.0
220
0.0
230
1.0
 70
     8
 71
     3
 72
     8
 73
     4
 74
     0
 42
0.000000001
 43
0.00000001
 40
0.0
 40
0.0
 40
0.0
 40
0.0
 40
1.0
 40
1.0
 40
1.0
 40
1.0
 10
3.029901979386118
 20
-5.50671082052773
 30
0.0
 10
2.717920814662786
 20
-5.545202374251164
 30
0.0
 10
2.407219260956504
 20
-5.57648168778364
 30
0.0
 10
2.096889277493895
 20
-5.600972293056141
 30
0.0
1001
PE_URL
1000

  0
SPLINE
  5
B2
330
1F
100
AcDbEntity
  8
0
  6
Continuous
 62
     1
370
    15
100
AcDbSpline
210
0.0
220
0.0
230
1.0
 70
    24
 71
     3
 72
     8
 73
     4
 74
     0
 42
0.000000001
 43
0.00000001
 40
0.0
 40
0.0
 40
0.0
 40
0.0
 40
1.0
 40
1.0
 40
1.0
 40
1.0
 10
4.029901979386114
 20
-4.733194682562539
 30
0.0
 10
4.029901979386114
 20
-5.038676412257402
 30
0.0
 10
4.029901979386114
 20
-5.344483636460201
 30
0.0
 10
4.029901979386114
 20
-5.644736090878359
 30
0.0
  0
LINE
  5
B3
330
1F
100
AcDbEntity
  8
0
  6
Continuous
 62
     4
370
    15
100
AcDbLine
 10
3.029901979386118
 20
-5.506710820527661
 30
0.0
 11
3.029901979386118
 21
-5.749577913848867
 31
0.0
1001
PE_URL
1000

  0
SPLINE
  5
B4
330
1F
100
AcDbEntity
  8
0
  6
Continuous
 62
     4
370
    15
100
AcDbSpline
210
0.0
220
0.0
230
1.0
 70
     8
 71
     3
 72
     8
 73
     4
 74
     0
 42
0.000000001
 43
0.00000001
 40
0.0
 40
0.0
 40
0.0
 40
0.0
 40
1.0
 40
1.0
 40
1.0
 40
1.0
 10
2.096889277493895
 20
-5.975270537916426
 30
0.0
 10
2.408435646387373
 20
-5.906013553243662
 30
0.0
 10
2.719118909554121
 20
-5.83097171669754
 30
0.0
 10
3.029901979386114
 20
-5.749577913848873
 30
0.0
1001
PE_URL
1000

  0
LINE
  5
B5
330
1F
100
AcDbEntity
  8
0
  6
Continuous
 62
     4
370
    15
100
AcDbLine
 10
3.02990197938613
 20
-5.749577913848867
 30
0.0
 11
3.15061558202642
 21
-5.748466547324464
 31
0.0
1001
PE_URL
1000

  0
LINE
  5
B6
330
1F
100
AcDbEntity
  8
0
  6
Continuous
 62
     1
370
    15
100
AcDbLine
 10
4.029901979386114
 20
-5.644736090886447
 30
0.0
 11
4.029901979386114
 21
-5.749999999999996
 31
0.0
  0
SPLINE
  5
B7
330
1F
100
AcDbEntity
  8
0
  6
Continuous
 62
     4
370
    15
100
AcDbSpline
210
0.0
220
0.0
230
1.0
 70
     8
 71
     3
 72
     8
 73
     4
 74
     0
 42
0.000000001
 43
0.00000001
 40
0.0
 40
0.0
 40
0.0
 40
0.0
 40
1.0
 40
1.0
 40
1.0
 40
1.0
 10
2.096889277493895
 20
5.975270537916433
 30
0.0
 10
2.408435646387373
 20
5.906013553243671
 30
0.0
 10
2.719118909554121
 20
5.830971716697549
 30
0.0
 10
3.029901979386114
 20
5.749577913848882
 30
0.0
1001
PE_URL
1000

  0
SPLINE
  5
B8
330
1F
100
AcDbEntity
  8
0
  6
Continuous
 62
     4
370
    15
100
AcDbSpline
210
0.0
220
0.0
230
1.0
 70
     8
 71
     3
 72
     8
 73
     4
 74
     0
 42
0.000000001
 43
0.00000001
 40
0.0
 40
0.0
 40
0.0
 40
0.0
 40
1.0
 40
1.0
 40
1.0
 40
1.0
 10
4.029901979386111
 20
5.727660173422478
 30
0.0
 10
3.69615867281599
 20
5.744595849917973
 30
0.0
 10
3.361988402793141
 20
5.751904169405545
 30
0.0
 10
3.02990197938613
 20
5.749577913848874
 30
0.0
  0
SPLINE
  5
B9
330
1F
100
AcDbEntity
  8
0
  6
Continuous
 62
     4
370
    15
100
AcDbSpline
210
0.0
220
0.0
230
1.0
 70
    24
 71
     3
 72
    10
 73
     6
 74
     0
 42
0.000000001
 43
0.00000001
 40
0.0
 40
0.0
 40
0.0
 40
0.0
 40
0.5
 40
0.5
 40
1.0
 40
1.0
 40
1.0
 40
1.0
 10
4.029901979386111
 20
5.727660173422477
 30
0.0
 10
4.029901979386111
 20
5.451596285119035
 30
0.0
 10
4.029901979386111
 20
5.14663558076303
 30
0.0
 10
4.029901979386111
 20
4.545798424684349
 30
0.0
 10
4.029901979386111
 20
4.251514750266427
 30
0.0
 10
4.029901979386111
 20
3.991403331603163
 30
0.0
  0
SPLINE
  5
BA
330
1F
100
AcDbEntity
  8
0
  6
Continuous
 62
     1
370
    15
100
AcDbSpline
210
0.0
220
0.0
230
1.0
 70
     8
 71
     3
 72
    22
 73
    18
 74
     0
 42
0.000000001
 43
0.00000001
 40
0.0
 40
0.0
 40
0.0
 40
0.0
 40
0.0670186726625955
 40
0.1339945709471604
 40
0.2009473900117819
 40
0.2678969618083937
 40
0.334863137563706
 40
0.4006751380853915
 40
0.4665100046807803
 40
0.5322937136721975
 40
0.5980487595575698
 40
0.6651453621693606
 40
0.7322589950472502
 40
0.7994087234631112
 40
0.8665846318252239
 40
0.9337185653763646
 40
1.0
 40
1.0
 40
1.0
 40
1.0
 10
34.02990197938612
 20
-5.456409998083417
 30
0.0
 10
33.40224547566692
 20
-5.323365495160777
 30
0.0
 10
32.14733306727798
 20
-5.057361404394189
 30
0.0
 10
30.26571445057901
 20
-4.426180498916208
 30
0.0
 10
28.38484828441477
 20
-3.651508022266502
 30
0.0
 10
26.50409638921764
 20
-2.743190066699883
 30
0.0
 10
24.63393783273878
 20
-1.744072635355993
 30
0.0
 10
22.77399309940549
 20
-0.6901291970379162
 30
0.0
 10
20.9248702585728
 20
0.3807532028661513
 30
0.0
 10
19.07673819946304
 20
1.439063978121679
 30
0.0
 10
17.2169359300803
 20
2.454588066917156
 30
0.0
 10
15.34461673261191
 20
3.390945434124849
 30
0.0
 10
13.45916692894298
 20
4.21219988807999
 30
0.0
 10
11.57275346249904
 20
4.883984351251029
 30
0.0
 10
9.685889894061743
 20
5.376957446616374
 30
0.0
 10
7.807537704533999
 20
5.691824994964252
 30
0.0
 10
6.558324526801158
 20
5.729858982799265
 30
0.0
 10
5.937709055707794
 20
5.748754461728351
 30
0.0
  0
SPLINE
  5
BB
330
1F
100
AcDbEntity
  8
0
  6
Continuous
 62
     1
370
    15
100
AcDbSpline
210
0.0
220
0.0
230
1.0
 70
     8
 71
     3
 72
    15
 73
    11
 74
     0
 42
0.000000001
 43
0.00000001
 40
0.0
 40
0.0
 40
0.0
 40
0.0
 40
0.1342012053816319
 40
0.2683601298791907
 40
0.4024878178752736
 40
0.5365953957495755
 40
0.6706940427905402
 40
0.8047949618130528
 40
0.9389093496451891
 40
1.0
 40
1.0
 40
1.0
 40
1.0
 10
34.02990197938612
 20
-4.536590520117236
 30
0.0
 10
33.36223912963135
 20
-4.397027592708297
 30
0.0
 10
32.02712378125442
 20
-4.117945708016751
 30
0.0
 10
30.02483647755709
 20
-3.484472999756971
 30
0.0
 10
28.02307584552844
 20
-2.723785891901437
 30
0.0
 10
26.02166169270109
 20
-1.850200702320576
 30
0.0
 10
24.02040093590998
 20
-0.9021643229932079
 30
0.0
 10
22.01909765372369
 20
0.0790193590217816
 30
0.0
 10
20.38095828859569
 20
0.8899317740799944
 30
0.0
 10
19.40986893426715
 20
1.33848835015332
 30
0.0
 10
19.10596038375245
 20
1.478866965417355
 30
0.0
  0
LINE
  5
BC
330
1F
100
AcDbEntity
  8
0
  6
Continuous
 62
     1
370
    15
100
AcDbLine
 10
34.02990197938598
 20
-5.456409998083418
 30
0.0
 11
34.02990197938612
 21
-4.536590520117236
 31
0.0
  0
SPLINE
  5
BD
330
1F
100
AcDbEntity
  8
0
  6
Continuous
 62
     1
370
    15
100
AcDbSpline
210
0.0
220
0.0
230
1.0
 70
     8
 71
     3
 72
    56
 73
    52
 74
     0
 42
0.000000001
 43
0.00000001
 40
0.0
 40
0.0
 40
0.0
 40
0.0
 40
0.0625
 40
0.0625
 40
0.09375
 40
0.09375
 40
0.125
 40
0.125
 40
0.15625
 40
0.15625
 40
0.1875
 40
0.1875
 40
0.25
 40
0.25
 40
0.2812499999999999
 40
0.2812499999999999
 40
0.3124999999999999
 40
0.3124999999999999
 40
0.3749999999999999
 40
0.3749999999999999
 40
0.4374999999999999
 40
0.4374999999999999
 40
0.4687499999999999
 40
0.4687499999999999
 40
0.4999999999999999
 40
0.4999999999999999
 40
0.5312499999999999
 40
0.5312499999999999
 40
0.5624999999999999
 40
0.5624999999999999
 40
0.6249999999999999
 40
0.6249999999999999
 40
0.65625
 40
0.65625
 40
0.6875
 40
0.6875
 40
0.71875
 40
0.71875
 40
0.75
 40
0.75
 40
0.8125000000000001
 40
0.8125000000000001
 40
0.8437500000000001
 40
0.8437500000000001
 40
0.8750000000000001
 40
0.8750000000000001
 40
0.9062500000000002
 40
0.9062500000000002
 40
0.9375000000000002
 40
0.9375000000000002
 40
1.0
 40
1.0
 40
1.0
 40
1.0
 10
34.02990197938612
 20
-5.745140187570446
 30
0.0
 10
33.4088210012105
 20
-5.730338391009181
 30
0.0
 10
32.77784191179271
 20
-5.681360968689807
 30
0.0
 10
31.84144913787269
 20
-5.558311961414423
 30
0.0
 10
31.53145687253615
 20
-5.509149021304927
 30
0.0
 10
30.90585711364351
 20
-5.394410951453496
 30
0.0
 10
30.59185682067446
 20
-5.328894073442112
 30
0.0
 10
29.96562594404909
 20
-5.182418930431729
 30
0.0
 10
29.6548918244345
 20
-5.101607334252802
 30
0.0
 10
29.03174117878889
 20
-4.925070349312817
 30
0.0
 10
28.71817181506687
 20
-4.829207929258922
 30
0.0
 10
27.77770895518756
 20
-4.520614447053073
 30
0.0
 10
27.15719174168719
 20
-4.287654692583748
 30
0.0
 10
26.21745662200464
 20
-3.901270304006045
 30
0.0
 10
25.90349581971979
 20
-3.766403400150792
 30
0.0
 10
25.2783114872646
 20
-3.486340117527818
 30
0.0
 10
24.96847573860077
 20
-3.341379383418835
 30
0.0
 10
24.03130789219897
 20
-2.891178733257735
 30
0.0
 10
23.40198722483514
 20
-2.571350479974476
 30
0.0
 10
22.15828353395457
 20
-1.907761605978305
 30
0.0
 10
21.52719983775388
 20
-1.561040932875951
 30
0.0
 10
20.59166304957683
 20
-1.032227558523126
 30
0.0
 10
20.2813469597895
 20
-0.8544651760553076
 30
0.0
 10
19.65538610437016
 20
-0.4959298607603232
 30
0.0
 10
19.34137383445017
 20
-0.3154654431830284
 30
0.0
 10
18.71545667415374
 20
0.0454596964965158
 30
0.0
 10
18.4051919462689
 20
0.2256030190610511
 30
0.0
 10
17.78142382053291
 20
0.5853166814739242
 30
0.0
 10
17.46771220477628
 20
0.7649249140373121
 30
0.0
 10
16.52733143928835
 20
1.299413538468175
 30
0.0
 10
15.90700727981169
 20
1.648913893849574
 30
0.0
 10
14.96696523812756
 20
2.15727122721757
 30
0.0
 10
14.65307142870166
 20
2.323873765948705
 30
0.0
 10
14.02835673209217
 20
2.649187751820902
 30
0.0
 10
13.71851014707621
 20
2.807749413185358
 30
0.0
 10
13.0932689596223
 20
3.117061239228994
 30
0.0
 10
12.77930149291969
 20
3.267552801736636
 30
0.0
 10
12.1528419039909
 20
3.558190191219863
 30
0.0
 10
11.84156313478921
 20
3.698161290751339
 30
0.0
 10
10.90770893517895
 20
4.101149767656952
 30
0.0
 10
10.27657655001126
 20
4.348242893511017
 30
0.0
 10
9.341976413230412
 20
4.676738941011418
 30
0.0
 10
9.031169284813132
 20
4.779431503422082
 30
0.0
 10
8.40490176760037
 20
4.970893042540865
 30
0.0
 10
8.090905037968668
 20
5.059485624792691
 30
0.0
 10
7.465356016046293
 20
5.221234656885631
 30
0.0
 10
7.155393450867521
 20
5.294292084676463
 30
0.0
 10
6.531061644386853
 20
5.424938651600971
 30
0.0
 10
6.217235205877207
 20
5.482450131649895
 30
0.0
 10
5.277018605286539
 20
5.630308408383161
 30
0.0
 10
4.656746640524121
 20
5.695851180747612
 30
0.0
 10
4.029901979387304
 20
5.727660173422422
 30
0.0
  0
SPLINE
  5
BE
330
1F
100
AcDbEntity
  8
0
  6
Continuous
 62
     1
370
    15
100
AcDbSpline
210
0.0
220
0.0
230
1.0
 70
     8
 71
     3
 72
    15
 73
    11
 74
     0
 42
0.000000001
 43
0.00000001
 40
0.0
 40
0.0
 40
0.0
 40
0.0
 40
0.1103925245032024
 40
0.2377652574544888
 40
0.3651755265472006
 40
0.4925561721016513
 40
0.6198994458100237
 40
0.7466116685485599
 40
0.8733076965423308
 40
1.0
 40
1.0
 40
1.0
 40
1.0
 10
19.75125277622302
 20
-0.5489171040684474
 30
0.0
 10
19.17275183084374
 20
-0.3160152484361975
 30
0.0
 10
17.92676686189072
 20
0.1856126463441561
 30
0.0
 10
16.0130417716909
 20
0.9568896303028805
 30
0.0
 10
14.01019450132081
 20
1.723423796316695
 30
0.0
 10
12.0075830167251
 20
2.420967787442209
 30
0.0
 10
10.00868663871973
 20
3.020697844179709
 30
0.0
 10
8.013431590975626
 20
3.495399819311858
 30
0.0
 10
6.021613233163125
 20
3.841333583986542
 30
0.0
 10
4.693799224832251
 20
3.941380572592017
 30
0.0
 10
4.029901979386128
 20
3.991403331603161
 30
0.0
  0
SPLINE
  5
BF
330
1F
100
AcDbEntity
  8
0
  6
Continuous
 62
     4
370
    15
100
AcDbSpline
210
0.0
220
0.0
230
1.0
 70
    24
 71
     3
 72
    10
 73
     6
 74
     0
 42
0.000000001
 43
0.00000001
 40
0.0
 40
0.0
 40
0.0
 40
0.0
 40
0.5
 40
0.5
 40
1.0
 40
1.0
 40
1.0
 40
1.0
 10
4.029901979386111
 20
5.727660173422477
 30
0.0
 10
4.029901979386111
 20
5.451596285119035
 30
0.0
 10
4.029901979386111
 20
5.146635580763028
 30
0.0
 10
4.029901979386111
 20
4.545798424684349
 30
0.0
 10
4.029901979386111
 20
4.251514750266427
 30
0.0
 10
4.029901979386111
 20
3.991403331603163
 30
0.0
  0
LINE
  5
C0
330
1F
100
AcDbEntity
  8
0
  6
Continuous
 62
     1
370
    15
100
AcDbLine
 10
34.02990197938612
 20
-5.745140187570448
 30
0.0
 11
34.02990197938595
 21
-5.456409998083411
 31
0.0
  0
SPLINE
  5
C1
330
1F
100
AcDbEntity
  8
0
  6
Continuous
 62
     1
370
    15
100
AcDbSpline
210
0.0
220
0.0
230
1.0
 70
     8
 71
     3
 72
     8
 73
     4
 74
     0
 42
0.000000001
 43
0.00000001
 40
0.0
 40
0.0
 40
0.0
 40
0.0
 40
1.0
 40
1.0
 40
1.0
 40
1.0
 10
30.47207577099746
 20
1.608379402513783
 30
0.0
 10
30.21436455463181
 20
1.913686321035343
 30
0.0
 10
29.99058945173401
 20
2.205569481044918
 30
0.0
 10
29.81397900165909
 20
2.477039773876448
 30
0.0
  0
LINE
  5
C2
330
1F
100
AcDbEntity
  8
0
  6
Continuous
 62
     1
370
    15
100
AcDbLine
 10
29.81397900165908
 20
2.477039773876448
 30
0.0
 11
34.02990197938612
 21
0.0000000000000077
 31
0.0
  0
LINE
  5
C3
330
1F
100
AcDbEntity
  8
0
  6
Continuous
 62
     1
370
    15
100
AcDbLine
 10
34.02990197938612
 20
0.0000000000000077
 30
0.0
 11
34.02990197938612
 21
-1.53664693967045
 31
0.0
  0
SPLINE
  5
C4
330
1F
100
AcDbEntity
  8
0
  6
Continuous
 62
     1
370
    15
100
AcDbSpline
210
0.0
220
0.0
230
1.0
 70
     8
 71
     3
 72
    12
 73
     8
 74
     0
 42
0.000000001
 43
0.00000001
 40
0.0
 40
0.0
 40
0.0
 40
0.0
 40
0.5
 40
0.5
 40
0.75
 40
0.75
 40
1.0
 40
1.0
 40
1.0
 40
1.0
 10
34.02990197938612
 20
-1.536646939670448
 30
0.0
 10
33.41403142046251
 20
-1.052468750995332
 30
0.0
 10
32.8084476599976
 20
-0.5484379218220615
 30
0.0
 10
31.91589883889289
 20
0.2381527290110977
 30
0.0
 10
31.6210662851506
 20
0.5055289624231041
 30
0.0
 10
31.03742268152526
 20
1.051902416268128
 30
0.0
 10
30.75020428439965
 20
1.329481804883628
 30
0.0
 10
30.47207577099745
 20
1.60837940251379
 30
0.0
  0
SPLINE
  5
C5
330
1F
100
AcDbEntity
  8
0
  6
Continuous
 62
     1
370
    15
100
AcDbSpline
210
0.0
220
0.0
230
1.0
 70
     8
 71
     3
 72
    15
 73
    11
 74
     0
 42
0.000000001
 43
0.00000001
 40
0.0
 40
0.0
 40
0.0
 40
0.0
 40
0.1119032171315
 40
0.2240811195128007
 40
0.3360929393213039
 40
0.4872076098289238
 40
0.6383248752481807
 40
0.78945752912751
 40
0.9406183243322115
 40
0.9999999999999999
 40
0.9999999999999999
 40
0.9999999999999999
 40
0.9999999999999999
 10
30.47207577099746
 20
1.608379402513784
 30
0.0
 10
29.97826854680351
 20
1.818922575728648
 30
0.0
 10
28.98944196560826
 20
2.24052573575508
 30
0.0
 10
27.50541225465827
 20
2.812026663558781
 30
0.0
 10
25.84910302607121
 20
3.385037330665934
 30
0.0
 10
24.0203450025063
 20
3.908931158276808
 30
0.0
 10
22.01908423596697
 20
4.328371425921204
 30
0.0
 10
20.01753210091907
 20
4.561904956407277
 30
0.0
 10
18.42092879226774
 20
4.636030475664339
 30
0.0
 10
17.49144759460498
 20
4.56659933316588
 30
0.0
 10
17.22929549393764
 20
4.547016882328279
 30
0.0
  0
SPLINE
  5
C6
330
1F
100
AcDbEntity
  8
0
  6
Continuous
 62
     1
370
    15
100
AcDbSpline
210
0.0
220
0.0
230
1.0
 70
    24
 71
     3
 72
    10
 73
     6
 74
     0
 42
0.000000001
 43
0.00000001
 40
0.0
 40
0.0
 40
0.0
 40
0.0
 40
0.5
 40
0.5
 40
1.0
 40
1.0
 40
1.0
 40
1.0
 10
34.02990197938612
 20
-4.536590520117234
 30
0.0
 10
34.02990197938612
 20
-4.188825486771871
 30
0.0
 10
34.02990197938612
 20
-3.749411032462187
 30
0.0
 10
34.02990197938612
 20
-2.7278147151164
 30
0.0
 10
34.02990197938612
 20
-2.146517797545022
 30
0.0
 10
34.02990197938612
 20
-1.536646939670631
 30
0.0
  0
SPLINE
  5
C7
330
1F
100
AcDbEntity
  8
0
  6
Continuous
 62
     1
370
    15
100
AcDbSpline
210
0.0
220
0.0
230
1.0
 70
     8
 71
     3
 72
     9
 73
     5
 74
     0
 42
0.000000001
 43
0.00000001
 40
0.0
 40
0.0
 40
0.0
 40
0.0
 40
0.936557513585832
 40
1.0
 40
1.0
 40
1.0
 40
1.0
 10
34.02990197938612
 20
4.025000000000006
 30
0.0
 10
33.3622339013349
 20
4.022782099688958
 30
0.0
 10
32.64933793032839
 20
4.020413958620335
 30
0.0
 10
31.93647810059607
 20
3.933205089430902
 30
0.0
 10
31.89125250053308
 20
3.927672341932156
 30
0.0
  0
SPLINE
  5
C8
330
1F
100
AcDbEntity
  8
0
  6
Continuous
 62
     1
370
    15
100
AcDbSpline
210
0.0
220
0.0
230
1.0
 70
     8
 71
     3
 72
    10
 73
     6
 74
     0
 42
0.000000001
 43
0.00000001
 40
0.0
 40
0.0
 40
0.0
 40
0.0
 40
0.5
 40
0.5
 40
1.0
 40
1.0
 40
1.0
 40
1.0
 10
34.02990197938612
 20
4.025000000000006
 30
0.0
 10
33.31435457782833
 20
3.830898882685843
 30
0.0
 10
32.60420419307398
 20
3.608267178003118
 30
0.0
 10
31.19609243626741
 20
3.098568228690514
 30
0.0
 10
30.49803009008379
 20
2.811934609589613
 30
0.0
 10
29.81397900165909
 20
2.477039773876443
 30
0.0
  0
SPLINE
  5
C9
330
1F
100
AcDbEntity
  8
0
  6
Continuous
 62
     1
370
    15
100
AcDbSpline
210
0.0
220
0.0
230
1.0
 70
     8
 71
     3
 72
    10
 73
     6
 74
     0
 42
0.000000001
 43
0.00000001
 40
0.0
 40
0.0
 40
0.0
 40
0.0
 40
0.1262278430118374
 40
0.5631200867371419
 40
1.0
 40
1.0
 40
1.0
 40
1.0
 10
8.58886872760091
 20
-4.764721949970751
 30
0.0
 10
8.397042062174368
 20
-4.789530392383967
 30
0.0
 10
7.541276441087414
 20
-4.900204328579117
 30
0.0
 10
6.02163400910146
 20
-4.914104810618675
 30
0.0
 10
4.693806409963361
 20
-4.793497491254094
 30
0.0
 10
4.029901979386111
 20
-4.733194682562541
 30
0.0
  0
SPLINE
  5
CA
330
1F
100
AcDbEntity
  8
0
  6
Continuous
 62
     1
370
    15
100
AcDbSpline
210
0.0
220
0.0
230
1.0
 70
     8
 71
     3
 72
    16
 73
    12
 74
     0
 42
0.000000001
 43
0.00000001
 40
0.0
 40
0.0
 40
0.0
 40
0.0
 40
0.102893141941862
 40
0.2152250220457803
 40
0.3275872365889304
 40
0.4399817018911301
 40
0.5523507126591799
 40
0.6646876138147296
 40
0.776468751377703
 40
0.8882359755694997
 40
1.0
 40
1.0
 40
1.0
 40
1.0
 10
21.85130331265806
 20
-4.317587604836252
 30
0.0
 10
21.24008968710194
 20
-4.402472393923546
 30
0.0
 10
19.9615937295256
 20
-4.580028742751797
 30
0.0
 10
18.0155779165724
 20
-4.625300215145924
 30
0.0
 10
16.01305901923675
 20
-4.500890257337213
 30
0.0
 10
14.01019470006403
 20
-4.191158650924469
 30
0.0
 10
12.00758433210702
 20
-3.71364659757871
 30
0.0
 10
10.00868842362987
 20
-3.087410638947156
 30
0.0
 10
8.013434693334023
 20
-2.338241399406283
 30
0.0
 10
6.021615800537635
 20
-1.498705027196001
 30
0.0
 10
4.693800250718713
 20
-0.8949671999503371
 30
0.0
 10
4.029901979386114
 20
-0.593102607461451
 30
0.0
  0
SPLINE
  5
CB
330
1F
100
AcDbEntity
  8
0
  6
Continuous
 62
     4
370
    15
100
AcDbSpline
210
0.0
220
0.0
230
1.0
 70
    24
 71
     3
 72
    14
 73
    10
 74
     0
 42
0.000000001
 43
0.00000001
 40
0.0
 40
0.0
 40
0.0
 40
0.0
 40
0.25
 40
0.25
 40
0.5
 40
0.5
 40
0.75
 40
0.75
 40
1.0
 40
1.0
 40
1.0
 40
1.0
 10
4.029901979386107
 20
-0.5931026074614478
 30
0.0
 10
4.029901979386107
 20
-1.023296026397179
 30
0.0
 10
4.029901979386107
 20
-1.452259736251354
 30
0.0
 10
4.029901979386107
 20
-2.27576705713672
 30
0.0
 10
4.029901979386107
 20
-2.67005152746615
 30
0.0
 10
4.029901979386107
 20
-3.393635193625649
 30
0.0
 10
4.029901979386107
 20
-3.722725440458108
 30
0.0
 10
4.029901979386107
 20
-4.294635759649839
 30
0.0
 10
4.029901979386107
 20
-4.537394809298861
 30
0.0
 10
4.029901979386107
 20
-4.733194682562539
 30
0.0
  0
SPLINE
  5
CC
330
1F
100
AcDbEntity
  8
0
  6
Continuous
 62
     4
370
    15
100
AcDbSpline
210
0.0
220
0.0
230
1.0
 70
    24
 71
     3
 72
    14
 73
    10
 74
     0
 42
0.000000001
 43
0.00000001
 40
0.0
 40
0.0
 40
0.0
 40
0.0
 40
0.25
 40
0.25
 40
0.5
 40
0.5
 40
0.75
 40
0.75
 40
1.0
 40
1.0
 40
1.0
 40
1.0
 10
4.029901979386114
 20
3.991403331603163
 30
0.0
 10
4.029901979386114
 20
3.819698868334884
 30
0.0
 10
4.029901979386114
 20
3.583699688562199
 30
0.0
 10
4.029901979386114
 20
2.987476834501536
 30
0.0
 10
4.029901979386114
 20
2.62730144588096
 30
0.0
 10
4.029901979386114
 20
1.812502564113759
 30
0.0
 10
4.029901979386114
 20
1.358313229876633
 30
0.0
 10
4.029901979386114
 20
0.4038668665035843
 30
0.0
 10
4.029901979386114
 20
-0.0958387327172663
 30
0.0
 10
4.029901979386114
 20
-0.593102607461451
 30
0.0
  0
LINE
  5
CD
330
1F
100
AcDbEntity
  8
0
  6
Continuous
 62
     1
370
    15
100
AcDbLine
 10
34.02990197938612
 20
0.0000000000000077
 30
0.0
 11
34.02990197938612
 21
4.025000000000006
 31
0.0
  0
SPLINE
  5
CE
330
1F
100
AcDbEntity
  8
0
  6
Continuous
 62
     1
370
    15
100
AcDbSpline
210
0.0
220
0.0
230
1.0
 70
     8
 71
     3
 72
    12
 73
     8
 74
     0
 42
0.000000001
 43
0.00000001
 40
0.0
 40
0.0
 40
0.0
 40
0.0
 40
0.111227551895039
 40
0.3335809100727473
 40
0.5557953309378679
 40
0.777913936866962
 40
1.0
 40
1.0
 40
1.0
 40
1.0
 10
12.51701124069769
 20
-4.520315923847416
 30
0.0
 10
12.20233201115691
 20
-4.635643554798204
 30
0.0
 10
11.25858217595186
 20
-4.981520951483165
 30
0.0
 10
9.68588139650406
 20
-5.374858534275056
 30
0.0
 10
7.799830351821383
 20
-5.682579407048062
 30
0.0
 10
5.914658526811911
 20
-5.79314535447344
 30
0.0
 10
4.658123476931836
 20
-5.694203429226501
 30
0.0
 10
4.029901979382673
 20
-5.644736090886072
 30
0.0
  0
SPLINE
  5
CF
330
1F
100
AcDbEntity
  8
0
  6
Continuous
 62
     4
370
    15
100
AcDbSpline
210
0.0
220
0.0
230
1.0
 70
    24
 71
     3
 72
     8
 73
     4
 74
     0
 42
0.000000001
 43
0.00000001
 40
0.0
 40
0.0
 40
0.0
 40
0.0
 40
1.0
 40
1.0
 40
1.0
 40
1.0
 10
4.029901979386114
 20
-4.733194682562539
 30
0.0
 10
4.029901979386114
 20
-5.038676412257402
 30
0.0
 10
4.029901979386114
 20
-5.344483636460201
 30
0.0
 10
4.029901979386114
 20
-5.644736090878359
 30
0.0
  0
SPLINE
  5
D0
330
1F
100
AcDbEntity
  8
0
  6
Continuous
 62
     1
370
    15
100
AcDbSpline
210
0.0
220
0.0
230
1.0
 70
     8
 71
     3
 72
    12
 73
     8
 74
     0
 42
0.000000001
 43
0.00000001
 40
0.0
 40
0.0
 40
0.0
 40
0.0
 40
0.044715808626562
 40
0.283448307295834
 40
0.5221945047031251
 40
0.761022520371418
 40
1.0
 40
1.0
 40
1.0
 40
1.0
 10
26.13470765664239
 20
3.853785390486531
 30
0.0
 10
26.25238493703792
 20
3.907244127197803
 30
0.0
 10
26.9983275233356
 20
4.246112838206256
 30
0.0
 10
28.37246436204523
 20
4.737331692884305
 30
0.0
 10
30.25747172772198
 20
5.281642941226501
 30
0.0
 10
32.14321745263292
 20
5.640277271815136
 30
0.0
 10
33.4008759996541
 20
5.710178593628696
 30
0.0
 10
34.02990197938612
 20
5.745140187570459
 30
0.0
  0
SPLINE
  5
D1
330
1F
100
AcDbEntity
  8
0
  6
Continuous
 62
     1
370
    15
100
AcDbSpline
210
0.0
220
0.0
230
1.0
 70
    24
 71
     3
 72
    10
 73
     6
 74
     0
 42
0.000000001
 43
0.00000001
 40
0.0
 40
0.0
 40
0.0
 40
0.0
 40
0.5
 40
0.5
 40
1.0
 40
1.0
 40
1.0
 40
1.0
 10
34.02990197938612
 20
4.025000000000006
 30
0.0
 10
34.02990197938612
 20
4.268985476642061
 30
0.0
 10
34.02990197938612
 20
4.552519195985929
 30
0.0
 10
34.02990197938612
 20
5.147372175524925
 30
0.0
 10
34.02990197938612
 20
5.457172255858473
 30
0.0
 10
34.02990197938612
 20
5.745140187570461
 30
0.0
  0
LINE
  5
D2
330
1F
100
AcDbEntity
  8
중심선
100
AcDbLine
 10
-48.97009802061388
 20
0.0
 30
0.0
 11
37.02990197938613
 21
0.0
 31
0.0
  0
CIRCLE
  5
D3
330
1F
100
AcDbEntity
  8
외형선
100
AcDbCircle
 10
0.0
 20
0.0
 30
0.0
 40
3.000000000000004
  0
INSERT
  5
D4
330
1F
100
AcDbEntity
  8
0
  6
Continuous
 62
     7
100
AcDbBlockReference
 66
     1
  2
블럭10
 10
-29.90837146012549
 20
-52.04717430164393
 30
0.0
  0
ATTRIB
  5
D5
330
D4
100
AcDbEntity
  8
FORMAT
 62
     2
100
AcDbText
 10
-42.86831065498325
 20
-49.97180738881174
 30
0.0
 40
4.233333333333333
  1
SEME35115E [ 2 FLUTE ]
 41
0.75
  7
SLDTEXTSTYLE0
 11
-42.86831065498325
 21
-52.08847405547841
 31
0.0
100
AcDbAttribute
  2
AUTOATTR0
 70
     0
 74
     1
  0
SEQEND
  5
D6
330
D4
100
AcDbEntity
  8
0
  6
Continuous
 62
     7
  0
HATCH
  5
D7
330
1F
100
AcDbEntity
  8
중심선
100
AcDbHatch
 10
0.0
 20
0.0
 30
0.0
210
0.0
220
0.0
230
1.0
  2
SOLID
 70
     1
 71
     0
 91
        1
 92
        0
 93
        4
 72
     1
 10
-24.19346215574463
 20
-35.8
 11
-27.63973739958192
 21
-35.8
 72
     1
 10
-27.63973739958192
 20
-35.8
 11
-29.76796725878594
 21
-38.33632558057259
 72
     1
 10
-29.76796725878594
 20
-38.33632558057259
 11
-26.32165892983551
 21
-38.3362861512701
 72
     1
 10
-26.32165892983551
 20
-38.3362861512701
 11
-24.19346215574463
 21
-35.8
 97
        0
 75
     0
 76
     1
 98
        1
 10
-5.970098020613877
 20
0.0000000000000035
  0
HATCH
  5
D8
330
1F
100
AcDbEntity
  8
중심선
100
AcDbHatch
 10
0.0
 20
0.0
 30
0.0
210
0.0
220
0.0
230
1.0
  2
SOLID
 70
     1
 71
     0
 91
        1
 92
        0
 93
        4
 72
     1
 10
-19.18069816470869
 20
-35.8
 11
-22.62697340854597
 21
-35.8
 72
     1
 10
-22.62697340854596
 20
-35.8
 11
-27.15811141690335
 21
-41.20000000000002
 72
     1
 10
-27.15811141690335
 20
-41.20000000000002
 11
-23.71183617306607
 21
-41.20000000000002
 72
     1
 10
-23.71183617306608
 20
-41.20000000000002
 11
-19.18069816470869
 21
-35.8
 97
        0
 75
     0
 76
     1
 98
        1
 10
-5.970098020613877
 20
0.0000000000000035
  0
HATCH
  5
D9
330
1F
100
AcDbEntity
  8
중심선
100
AcDbHatch
 10
0.0
 20
0.0
 30
0.0
210
0.0
220
0.0
230
1.0
  2
SOLID
 70
     1
 71
     0
 91
        1
 92
        0
 93
        4
 72
     1
 10
-14.16793417367279
 20
-35.80000000000003
 11
-17.6142094175099
 21
-35.8
 72
     1
 10
-17.6142094175099
 20
-35.8
 11
-24.66264631939915
 21
-44.20000000000002
 72
     1
 10
-24.66264631939915
 20
-44.20000000000002
 11
-21.21637107556187
 21
-44.20000000000002
 72
     1
 10
-21.21637107556187
 20
-44.20000000000002
 11
-14.16793417367279
 21
-35.80000000000003
 97
        0
 75
     0
 76
     1
 98
        1
 10
-5.970098020613877
 20
0.0000000000000035
  0
HATCH
  5
DA
330
1F
100
AcDbEntity
  8
중심선
100
AcDbHatch
 10
0.0
 20
0.0
 30
0.0
210
0.0
220
0.0
230
1.0
  2
SOLID
 70
     1
 71
     0
 91
        1
 92
        0
 93
        6
 72
     3
 10
-9.368043742660591
 20
-40.00000000005127
 11
3.960054785062284
 21
1.540882976769353E-10
 40
0.3939339440162627
 50
17.09539180608436
 51
320.0019657685081
 73
     0
 72
     1
 10
-7.685044086959995
 20
-38.5878940046383
 11
-5.379742213258957
 21
-36.65356729459038
 72
     3
 10
-9.368043742713438
 20
-40.00000000000015
 11
6.600054785286829
 21
-1.278976924368180E-13
 40
0.636358354079598
 50
39.99873849337411
 51
368.4976242363724
 73
     1
 72
     1
 10
-2.942711250812827
 20
-39.03999999993002
 11
-10.68797643587751
 21
-39.03999999992999
 72
     1
 10
-10.68797643587751
 20
-39.03999999992999
 11
-10.68800148032345
 21
-40.95999999992991
 72
     1
 10
-10.68800148032345
 20
-40.95999999992991
 11
-6.246621710851412
 21
-40.95999999992988
 97
        0
 75
     0
 76
     1
 98
        1
 10
-5.970098020613877
 20
0.0000000000000035
  0
DIMENSION
  5
DB
330
1F
100
AcDbEntity
  8
치수문자_일반주서
100
AcDbDimension
  2
_D
 10
4.029901979386114
 20
17.99577407614824
 30
0.0
 11
19.02990197938611
 21
17.99577407614824
 31
0.0
 70
   160
  1
<>
 71
     2
 42
30.0
  3
SLDDIMSTYLE0
100
AcDbAlignedDimension
 13
34.02990197938612
 23
5.745140187570459
 33
0.0
 14
4.029901979386114
 24
5.727660173422478
 34
0.0
100
AcDbRotatedDimension
  0
DIMENSION
  5
E6
330
1F
100
AcDbEntity
  8
치수문자_일반주서
100
AcDbDimension
  2
_D_1
 10
-45.97009802061388
 20
26.80915911661226
 30
0.0
 11
-5.970098020613879
 21
26.80915911661226
 31
0.0
 70
   160
  1
<>
 71
     2
 42
80.0
  3
SLDDIMSTYLE0
100
AcDbAlignedDimension
 13
34.02990197938612
 23
5.745140187570461
 33
0.0
 14
-45.97009802061388
 24
4.999999999999999
 34
0.0
 50
0.0000000000000051
100
AcDbRotatedDimension
  0
DIMENSION
  5
F0
330
1F
100
AcDbEntity
  8
치수문자_일반주서
100
AcDbDimension
  2
_D_2
 10
49.59609229163242
 20
-5.74514018757039
 30
0.0
 11
49.5960922916324
 21
0.0000000000000047
 31
0.0
 70
   160
  1
%%c<>
 71
     2
 42
11.49528037514091
 52
-270.0
  3
SLDDIMSTYLE1
100
AcDbAlignedDimension
 13
34.02990197938612
 23
5.750140187570461
 33
0.0
 14
34.02990197938612
 24
-5.745140187570448
 34
0.0
 50
90.0000000000002
100
AcDbRotatedDimension
  0
DIMENSION
  5
FE
330
1F
100
AcDbEntity
  8
치수문자_일반주서
100
AcDbDimension
  2
_D_3
 10
-57.3896574660024
 20
-6.000000000000044
 30
0.0
 11
-57.38965746600243
 21
0.0000000000000025
 31
0.0
 70
   160
  1
%%c<>
 71
     2
 42
12.0
 52
-270.0
  3
SLDDIMSTYLE1
100
AcDbAlignedDimension
 13
-44.97009802061388
 23
6.000000000000002
 33
0.0
 14
-44.97009802061388
 24
-5.999999999999998
 34
0.0
 50
90.0000000000002
100
AcDbRotatedDimension
  0
INSERT
  5
111
330
1F
100
AcDbEntity
  8
외형선
100
AcDbBlockReference
  2
SW_DOWELSYMBOL_0
 10
0.0
 20
0.0
 30
0.0
  0
ENDSEC
  0
SECTION
  2
OBJECTS
  0
DICTIONARY
  5
C
330
0
100
AcDbDictionary
281
     1
  3
ACAD_GROUP
350
D
  3
ACAD_LAYOUT
350
1A
  3
ACAD_MLINESTYLE
350
17
  3
ACAD_PLOTSETTINGS
350
19
  3
ACAD_PLOTSTYLENAME
350
E
  3
ACAD_SCALELIST
350
47
  3
APPDATA
350
133
  3
DWGPROPS
350
164
  0
DICTIONARY
  5
162
330
1F
100
AcDbDictionary
280
     1
281
     1
  3
DIM_BOUNDING_BOXES_V1
360
163
  0
DICTIONARY
  5
D
102
{ACAD_REACTORS
330
C
102
}
330
C
100
AcDbDictionary
281
     1
  0
DICTIONARY
  5
1A
102
{ACAD_REACTORS
330
C
102
}
330
C
100
AcDbDictionary
281
     1
  3
Layout1
350
1E
  3
Layout2
350
26
  3
Model
350
22
  0
DICTIONARY
  5
17
102
{ACAD_REACTORS
330
C
102
}
330
C
100
AcDbDictionary
281
     1
  3
Standard
350
18
  0
DICTIONARY
  5
19
102
{ACAD_REACTORS
330
C
102
}
330
C
100
AcDbDictionary
281
     1
  0
ACDBDICTIONARYWDFLT
  5
E
102
{ACAD_REACTORS
330
C
102
}
330
C
100
AcDbDictionary
281
     1
  3
Normal
350
F
100
AcDbDictionaryWithDefault
340
F
  0
DICTIONARY
  5
47
102
{ACAD_REACTORS
330
C
102
}
330
C
100
AcDbDictionary
281
     1
  3
A0
350
48
  3
A1
350
49
  3
A2
350
4A
  3
A3
350
4B
  3
A4
350
4C
  3
A5
350
4D
  3
A6
350
4E
  3
A7
350
4F
  3
A8
350
50
  3
A9
350
51
  3
B0
350
52
  3
B1
350
53
  3
B2
350
54
  3
B3
350
55
  3
B4
350
56
  3
B5
350
57
  3
B6
350
58
  3
B7
350
59
  3
B8
350
5A
  3
B9
350
5B
  3
C0
350
5C
  3
C1
350
5D
  3
C2
350
5E
  3
C3
350
5F
  3
C4
350
60
  3
C5
350
61
  3
C6
350
62
  3
C7
350
63
  3
C8
350
64
  3
C9
350
65
  3
D0
350
66
  3
D1
350
67
  3
D2
350
68
  0
DICTIONARY
  5
133
102
{ACAD_REACTORS
330
C
102
}
330
C
100
AcDbDictionary
281
     1
  0
XRECORD
  5
164
102
{ACAD_REACTORS
330
C
102
}
330
C
100
AcDbXrecord
280
     1
  1
DWGPROPS COOKIE
  2

  3

  4

  6

  7

  8
12017152
  9

300
=
301
=
302
=
303
=
304
=
305
=
306
=
307
=
308
=
309
=
 40
0.0
 41
2458250.118549387
 42
2459699.326872801
  1

 90
        0
  0
DICTIONARY
  5
163
102
{ACAD_REACTORS
330
162
102
}
330
162
100
AcDbDictionary
281
     1
  0
LAYOUT
  5
1E
102
{ACAD_REACTORS
330
1A
102
}
330
1A
100
AcDbPlotSettings
  1

  2
none_device
  4

  6

 40
0.0
 41
0.0
 42
0.0
 43
0.0
 44
0.0
 45
0.0
 46
0.0
 47
0.0
 48
0.0
 49
0.0
140
0.0
141
0.0
142
1.0
143
1.0
 70
   688
 72
     1
 73
     0
 74
     5
  7

 75
    16
147
1.0
148
0.0
149
0.0
100
AcDbLayout
  1
Layout1
 70
     1
 71
     1
 10
0.0
 20
0.0
 11
420.0
 21
297.0
 12
0.0
 22
0.0
 32
0.0
 14
1.000000000000000E+20
 24
1.000000000000000E+20
 34
1.000000000000000E+20
 15
-1.000000000000000E+20
 25
-1.000000000000000E+20
 35
-1.000000000000000E+20
146
0.0
 13
0.0
 23
0.0
 33
0.0
 16
1.0
 26
0.0
 36
0.0
 17
0.0
 27
1.0
 37
0.0
 76
     0
330
1B
  0
LAYOUT
  5
26
102
{ACAD_REACTORS
330
1A
102
}
330
1A
100
AcDbPlotSettings
  1

  2
none_device
  4

  6

 40
0.0
 41
0.0
 42
0.0
 43
0.0
 44
0.0
 45
0.0
 46
0.0
 47
0.0
 48
0.0
 49
0.0
140
0.0
141
0.0
142
1.0
143
1.0
 70
   688
 72
     1
 73
     0
 74
     5
  7

 75
    16
147
1.0
148
0.0
149
0.0
100
AcDbLayout
  1
Layout2
 70
     1
 71
     2
 10
0.0
 20
0.0
 11
0.0
 21
0.0
 12
0.0
 22
0.0
 32
0.0
 14
0.0
 24
0.0
 34
0.0
 15
0.0
 25
0.0
 35
0.0
146
0.0
 13
0.0
 23
0.0
 33
0.0
 16
1.0
 26
0.0
 36
0.0
 17
0.0
 27
1.0
 37
0.0
 76
     0
330
23
  0
LAYOUT
  5
22
102
{ACAD_REACTORS
330
1A
102
}
330
1A
100
AcDbPlotSettings
  1

  2
none_device
  4
ANSI_A_(11.00_x_8.50_Inches)
  6

 40
6.35
 41
19.05
 42
6.35000508
 43
19.05000254
 44
279.4
 45
215.9
 46
132.6355446256553
 47
112.7324894542969
 48
0.0
 49
0.0
140
0.0
141
0.0
142
0.0967561724438666
143
1.0
 70
  1696
 72
     0
 73
     0
 74
     0
  7

 75
     0
147
0.0235690232323232
148
0.0
149
0.0
100
AcDbLayout
  1
Model
 70
     1
 71
     0
 10
0.0
 20
0.0
 11
420.0
 21
297.0
 12
0.0
 22
0.0
 32
0.0
 14
-61.76465746600244
 24
-49.97180738881174
 34
0.0
 15
50.14642562496574
 25
31.18415911661226
 35
0.0
146
0.0
 13
0.0
 23
0.0
 33
0.0
 16
1.0
 26
0.0
 36
0.0
 17
0.0
 27
1.0
 37
0.0
 76
     0
330
1F
331
29
  0
MLINESTYLE
  5
18
102
{ACAD_REACTORS
330
17
102
}
330
17
100
AcDbMlineStyle
  2
Standard
 70
     0
  3

 62
   256
 51
90.0
 52
90.0
 71
     2
 49
0.5
 62
   256
  6
BYLAYER
 49
-0.5
 62
   256
  6
BYLAYER
  0
ACDBPLACEHOLDER
  5
F
102
{ACAD_REACTORS
330
E
102
}
330
E
  0
SCALE
  5
48
102
{ACAD_REACTORS
330
47
102
}
330
47
100
AcDbScale
 70
     0
300
1:1
140
1.0
141
1.0
290
     1
  0
SCALE
  5
49
102
{ACAD_REACTORS
330
47
102
}
330
47
100
AcDbScale
 70
     0
300
1:2
140
1.0
141
2.0
290
     0
  0
SCALE
  5
4A
102
{ACAD_REACTORS
330
47
102
}
330
47
100
AcDbScale
 70
     0
300
1:4
140
1.0
141
4.0
290
     0
  0
SCALE
  5
4B
102
{ACAD_REACTORS
330
47
102
}
330
47
100
AcDbScale
 70
     0
300
1:5
140
1.0
141
5.0
290
     0
  0
SCALE
  5
4C
102
{ACAD_REACTORS
330
47
102
}
330
47
100
AcDbScale
 70
     0
300
1:8
140
1.0
141
8.0
290
     0
  0
SCALE
  5
4D
102
{ACAD_REACTORS
330
47
102
}
330
47
100
AcDbScale
 70
     0
300
1:10
140
1.0
141
10.0
290
     0
  0
SCALE
  5
4E
102
{ACAD_REACTORS
330
47
102
}
330
47
100
AcDbScale
 70
     0
300
1:16
140
1.0
141
16.0
290
     0
  0
SCALE
  5
4F
102
{ACAD_REACTORS
330
47
102
}
330
47
100
AcDbScale
 70
     0
300
1:20
140
1.0
141
20.0
290
     0
  0
SCALE
  5
50
102
{ACAD_REACTORS
330
47
102
}
330
47
100
AcDbScale
 70
     0
300
1:30
140
1.0
141
30.0
290
     0
  0
SCALE
  5
51
102
{ACAD_REACTORS
330
47
102
}
330
47
100
AcDbScale
 70
     0
300
1:40
140
1.0
141
40.0
290
     0
  0
SCALE
  5
52
102
{ACAD_REACTORS
330
47
102
}
330
47
100
AcDbScale
 70
     0
300
1:50
140
1.0
141
50.0
290
     0
  0
SCALE
  5
53
102
{ACAD_REACTORS
330
47
102
}
330
47
100
AcDbScale
 70
     0
300
1:100
140
1.0
141
100.0
290
     0
  0
SCALE
  5
54
102
{ACAD_REACTORS
330
47
102
}
330
47
100
AcDbScale
 70
     0
300
2:1
140
2.0
141
1.0
290
     0
  0
SCALE
  5
55
102
{ACAD_REACTORS
330
47
102
}
330
47
100
AcDbScale
 70
     0
300
4:1
140
4.0
141
1.0
290
     0
  0
SCALE
  5
56
102
{ACAD_REACTORS
330
47
102
}
330
47
100
AcDbScale
 70
     0
300
8:1
140
8.0
141
1.0
290
     0
  0
SCALE
  5
57
102
{ACAD_REACTORS
330
47
102
}
330
47
100
AcDbScale
 70
     0
300
10:1
140
10.0
141
1.0
290
     0
  0
SCALE
  5
58
102
{ACAD_REACTORS
330
47
102
}
330
47
100
AcDbScale
 70
     0
300
100:1
140
100.0
141
1.0
290
     0
  0
SCALE
  5
59
102
{ACAD_REACTORS
330
47
102
}
330
47
100
AcDbScale
 70
     0
300
1/128" = 1'-0"
140
0.0078125
141
12.0
290
     0
  0
SCALE
  5
5A
102
{ACAD_REACTORS
330
47
102
}
330
47
100
AcDbScale
 70
     0
300
1/64" = 1'-0"
140
0.015625
141
12.0
290
     0
  0
SCALE
  5
5B
102
{ACAD_REACTORS
330
47
102
}
330
47
100
AcDbScale
 70
     0
300
1/32" = 1'-0"
140
0.03125
141
12.0
290
     0
  0
SCALE
  5
5C
102
{ACAD_REACTORS
330
47
102
}
330
47
100
AcDbScale
 70
     0
300
1/16" = 1'-0"
140
0.0625
141
12.0
290
     0
  0
SCALE
  5
5D
102
{ACAD_REACTORS
330
47
102
}
330
47
100
AcDbScale
 70
     0
300
3/32" = 1'-0"
140
0.09375
141
12.0
290
     0
  0
SCALE
  5
5E
102
{ACAD_REACTORS
330
47
102
}
330
47
100
AcDbScale
 70
     0
300
1/8" = 1'-0"
140
0.125
141
12.0
290
     0
  0
SCALE
  5
5F
102
{ACAD_REACTORS
330
47
102
}
330
47
100
AcDbScale
 70
     0
300
3/16" = 1'-0"
140
0.1875
141
12.0
290
     0
  0
SCALE
  5
60
102
{ACAD_REACTORS
330
47
102
}
330
47
100
AcDbScale
 70
     0
300
1/4" = 1'-0"
140
0.25
141
12.0
290
     0
  0
SCALE
  5
61
102
{ACAD_REACTORS
330
47
102
}
330
47
100
AcDbScale
 70
     0
300
3/8" = 1'-0"
140
0.375
141
12.0
290
     0
  0
SCALE
  5
62
102
{ACAD_REACTORS
330
47
102
}
330
47
100
AcDbScale
 70
     0
300
1/2" = 1'-0"
140
0.5
141
12.0
290
     0
  0
SCALE
  5
63
102
{ACAD_REACTORS
330
47
102
}
330
47
100
AcDbScale
 70
     0
300
3/4" = 1'-0"
140
0.75
141
12.0
290
     0
  0
SCALE
  5
64
102
{ACAD_REACTORS
330
47
102
}
330
47
100
AcDbScale
 70
     0
300
1" = 1'-0"
140
1.0
141
12.0
290
     0
  0
SCALE
  5
65
102
{ACAD_REACTORS
330
47
102
}
330
47
100
AcDbScale
 70
     0
300
1-1/2" = 1'-0"
140
1.5
141
12.0
290
     0
  0
SCALE
  5
66
102
{ACAD_REACTORS
330
47
102
}
330
47
100
AcDbScale
 70
     0
300
3" = 1'-0"
140
3.0
141
12.0
290
     0
  0
SCALE
  5
67
102
{ACAD_REACTORS
330
47
102
}
330
47
100
AcDbScale
 70
     0
300
6" = 1'-0"
140
6.0
141
12.0
290
     0
  0
SCALE
  5
68
102
{ACAD_REACTORS
330
47
102
}
330
47
100
AcDbScale
 70
     0
300
1'-0" = 1'-0"
140
12.0
141
12.0
290
     0
  0
ENDSEC
  0
EOF
