  0
SECTION
  2
HEADER
  9
$ACADVER
  1
AC1015
  9
$ACADMAINTVER
 70
     6
  9
$DWGCODEPAGE
  3
ANSI_949
  9
$INSBASE
 10
0.0
 20
0.0
 30
0.0
  9
$EXTMIN
 10
-52.64455944538858
 20
-49.97180738881174
 30
0.0
  9
$EXTMAX
 10
59.26652364557961
 20
31.35915911661226
 30
0.0
  9
$LIMMIN
 10
0.0
 20
0.0
  9
$LIMMAX
 10
420.0
 20
297.0
  9
$ORTHOMODE
 70
     1
  9
$REGENMODE
 70
     1
  9
$FILLMODE
 70
     1
  9
$QTEXTMODE
 70
     0
  9
$MIRRTEXT
 70
     1
  9
$LTSCALE
 40
1.0
  9
$ATTMODE
 70
     1
  9
$TEXTSIZE
 40
3.5
  9
$TRACEWID
 40
1.0
  9
$TEXTSTYLE
  7
Standard
  9
$CLAYER
  8
0
  9
$CELTYPE
  6
ByLayer
  9
$CECOLOR
 62
   256
  9
$CELTSCALE
 40
1.0
  9
$DISPSILH
 70
     0
  9
$DIMSCALE
 40
1.0
  9
$DIMASZ
 40
3.302
  9
$DIMEXO
 40
1.0
  9
$DIMDLI
 40
3.75
  9
$DIMRND
 40
0.0
  9
$DIMDLE
 40
0.0
  9
$DIMEXE
 40
1.0
  9
$DIMTP
 40
0.0
  9
$DIMTM
 40
0.0
  9
$DIMTXT
 40
3.5
  9
$DIMCEN
 40
2.5
  9
$DIMTSZ
 40
0.0
  9
$DIMTOL
 70
     0
  9
$DIMLIM
 70
     0
  9
$DIMTIH
 70
     1
  9
$DIMTOH
 70
     1
  9
$DIMSE1
 70
     0
  9
$DIMSE2
 70
     0
  9
$DIMTAD
 70
     1
  9
$DIMZIN
 70
     0
  9
$DIMBLK
  1

  9
$DIMASO
 70
     1
  9
$DIMSHO
 70
     1
  9
$DIMPOST
  1

  9
$DIMAPOST
  1

  9
$DIMALT
 70
     0
  9
$DIMALTD
 70
     3
  9
$DIMALTF
 40
0.0393700787401575
  9
$DIMLFAC
 40
1.0
  9
$DIMTOFL
 70
     1
  9
$DIMTVP
 40
0.0
  9
$DIMTIX
 70
     0
  9
$DIMSOXD
 70
     0
  9
$DIMSAH
 70
     0
  9
$DIMBLK1
  1

  9
$DIMBLK2
  1

  9
$DIMSTYLE
  2
ISO-25
  9
$DIMCLRD
 70
     0
  9
$DIMCLRE
 70
     0
  9
$DIMCLRT
 70
     0
  9
$DIMTFAC
 40
1.0
  9
$DIMGAP
 40
1.524
  9
$DIMJUST
 70
     0
  9
$DIMSD1
 70
     0
  9
$DIMSD2
 70
     0
  9
$DIMTOLJ
 70
     0
  9
$DIMTZIN
 70
     0
  9
$DIMALTZ
 70
     0
  9
$DIMALTTZ
 70
     0
  9
$DIMUPT
 70
     0
  9
$DIMDEC
 70
     2
  9
$DIMTDEC
 70
     2
  9
$DIMALTU
 70
     2
  9
$DIMALTTD
 70
     3
  9
$DIMTXSTY
  7
Standard
  9
$DIMAUNIT
 70
     0
  9
$DIMADEC
 70
     2
  9
$DIMALTRND
 40
0.0
  9
$DIMAZIN
 70
     0
  9
$DIMDSEP
 70
    44
  9
$DIMATFIT
 70
     3
  9
$DIMFRAC
 70
     0
  9
$DIMLDRBLK
  1

  9
$DIMLUNIT
 70
     2
  9
$DIMLWD
 70
    -2
  9
$DIMLWE
 70
    -2
  9
$DIMTMOVE
 70
     0
  9
$LUNITS
 70
     2
  9
$LUPREC
 70
     2
  9
$SKETCHINC
 40
1.0
  9
$FILLETRAD
 40
10.0
  9
$AUNITS
 70
     0
  9
$AUPREC
 70
     2
  9
$MENU
  1
.
  9
$ELEVATION
 40
0.0
  9
$PELEVATION
 40
0.0
  9
$THICKNESS
 40
0.0
  9
$LIMCHECK
 70
     0
  9
$CHAMFERA
 40
0.0
  9
$CHAMFERB
 40
0.0
  9
$CHAMFERC
 40
0.0
  9
$CHAMFERD
 40
0.0
  9
$SKPOLY
 70
     0
  9
$TDCREATE
 40
2458250.493676562
  9
$TDUCREATE
 40
2458250.118676562
  9
$TDUPDATE
 40
2459702.686682176
  9
$TDUUPDATE
 40
2459702.311682176
  9
$TDINDWG
 40
0.0035558218
  9
$TDUSRTIMER
 40
0.0013780093
  9
$USRTIMER
 70
     1
  9
$ANGBASE
 50
0.0
  9
$ANGDIR
 70
     0
  9
$PDMODE
 70
     0
  9
$PDSIZE
 40
-1.0
  9
$PLINEWID
 40
0.0
  9
$SPLFRAME
 70
     0
  9
$SPLINETYPE
 70
     6
  9
$SPLINESEGS
 70
     8
  9
$HANDSEED
  5
175
  9
$SURFTAB1
 70
     6
  9
$SURFTAB2
 70
     6
  9
$SURFTYPE
 70
     6
  9
$SURFU
 70
     6
  9
$SURFV
 70
     6
  9
$UCSBASE
  2

  9
$UCSNAME
  2

  9
$UCSORG
 10
0.0
 20
0.0
 30
0.0
  9
$UCSXDIR
 10
1.0
 20
0.0
 30
0.0
  9
$UCSYDIR
 10
0.0
 20
1.0
 30
0.0
  9
$UCSORTHOREF
  2

  9
$UCSORTHOVIEW
 70
     0
  9
$UCSORGTOP
 10
0.0
 20
0.0
 30
0.0
  9
$UCSORGBOTTOM
 10
0.0
 20
0.0
 30
0.0
  9
$UCSORGLEFT
 10
0.0
 20
0.0
 30
0.0
  9
$UCSORGRIGHT
 10
0.0
 20
0.0
 30
0.0
  9
$UCSORGFRONT
 10
0.0
 20
0.0
 30
0.0
  9
$UCSORGBACK
 10
0.0
 20
0.0
 30
0.0
  9
$PUCSBASE
  2

  9
$PUCSNAME
  2

  9
$PUCSORG
 10
0.0
 20
0.0
 30
0.0
  9
$PUCSXDIR
 10
1.0
 20
0.0
 30
0.0
  9
$PUCSYDIR
 10
0.0
 20
1.0
 30
0.0
  9
$PUCSORTHOREF
  2

  9
$PUCSORTHOVIEW
 70
     0
  9
$PUCSORGTOP
 10
0.0
 20
0.0
 30
0.0
  9
$PUCSORGBOTTOM
 10
0.0
 20
0.0
 30
0.0
  9
$PUCSORGLEFT
 10
0.0
 20
0.0
 30
0.0
  9
$PUCSORGRIGHT
 10
0.0
 20
0.0
 30
0.0
  9
$PUCSORGFRONT
 10
0.0
 20
0.0
 30
0.0
  9
$PUCSORGBACK
 10
0.0
 20
0.0
 30
0.0
  9
$USERI1
 70
     0
  9
$USERI2
 70
     0
  9
$USERI3
 70
     0
  9
$USERI4
 70
     0
  9
$USERI5
 70
     0
  9
$USERR1
 40
0.0
  9
$USERR2
 40
0.0
  9
$USERR3
 40
0.0
  9
$USERR4
 40
0.0
  9
$USERR5
 40
0.0
  9
$WORLDVIEW
 70
     1
  9
$SHADEDGE
 70
     3
  9
$SHADEDIF
 70
    70
  9
$TILEMODE
 70
     1
  9
$MAXACTVP
 70
    64
  9
$PINSBASE
 10
0.0
 20
0.0
 30
0.0
  9
$PLIMCHECK
 70
     0
  9
$PEXTMIN
 10
1.000000000000000E+20
 20
1.000000000000000E+20
 30
1.000000000000000E+20
  9
$PEXTMAX
 10
-1.000000000000000E+20
 20
-1.000000000000000E+20
 30
-1.000000000000000E+20
  9
$PLIMMIN
 10
0.0
 20
0.0
  9
$PLIMMAX
 10
0.0
 20
0.0
  9
$UNITMODE
 70
     0
  9
$VISRETAIN
 70
     1
  9
$PLINEGEN
 70
     0
  9
$PSLTSCALE
 70
     1
  9
$TREEDEPTH
 70
  3020
  9
$CMLSTYLE
  2
Standard
  9
$CMLJUST
 70
     0
  9
$CMLSCALE
 40
20.0
  9
$PROXYGRAPHICS
 70
     1
  9
$MEASUREMENT
 70
     1
  9
$CELWEIGHT
370
    -1
  9
$ENDCAPS
280
     0
  9
$JOINSTYLE
280
     0
  9
$LWDISPLAY
290
     1
  9
$INSUNITS
 70
     4
  9
$HYPERLINKBASE
  1

  9
$STYLESHEET
  1

  9
$XEDIT
290
     1
  9
$CEPSNTYPE
380
     0
  9
$PSTYLEMODE
290
     1
  9
$FINGERPRINTGUID
  2
{16DA51FA-1D72-4692-B9BA-27F26AC56F94}
  9
$VERSIONGUID
  2
{FAEB1C32-E019-11D5-929B-00C0DF256EC4}
  9
$EXTNAMES
290
     1
  9
$PSVPSCALE
 40
0.0
  9
$OLESTARTUP
290
     0
  0
ENDSEC
  0
SECTION
  2
CLASSES
  0
CLASS
  1
ACDBDICTIONARYWDFLT
  2
AcDbDictionaryWithDefault
  3
ObjectDBX Classes
 90
        0
280
     0
281
     0
  0
CLASS
  1
VISUALSTYLE
  2
AcDbVisualStyle
  3
ObjectDBX Classes
 90
     4095
280
     0
281
     0
  0
CLASS
  1
MATERIAL
  2
AcDbMaterial
  3
ObjectDBX Classes
 90
     1153
280
     0
281
     0
  0
CLASS
  1
SCALE
  2
AcDbScale
  3
ObjectDBX Classes
 90
     1153
280
     0
281
     0
  0
CLASS
  1
SUN
  2
AcDbSun
  3
SCENEOE
 90
     1153
280
     0
281
     0
  0
CLASS
  1
ACDBPLACEHOLDER
  2
AcDbPlaceHolder
  3
ObjectDBX Classes
 90
        0
280
     0
281
     0
  0
CLASS
  1
LAYOUT
  2
AcDbLayout
  3
ObjectDBX Classes
 90
        0
280
     0
281
     0
  0
CLASS
  1
TABLESTYLE
  2
AcDbTableStyle
  3
ObjectDBX Classes
 90
     4095
280
     0
281
     0
  0
CLASS
  1
MLEADERSTYLE
  2
AcDbMLeaderStyle
  3
ACDB_MLEADERSTYLE_CLASS
 90
     4095
280
     0
281
     0
  0
CLASS
  1
DIMASSOC
  2
AcDbDimAssoc
  3
"AcDbDimAssoc|Product Desc:     AcDim ARX App For Dimension|Company:          Autodesk, Inc.|WEB Address:      www.autodesk.com"
 90
        0
280
     0
281
     0
  0
CLASS
  1
BREAKDATA
  2
AcDbBreakData
  3
ObjectDBX Classes
 90
     1024
280
     0
281
     0
  0
ENDSEC
  0
SECTION
  2
TABLES
  0
TABLE
  2
VPORT
  5
8
330
0
100
AcDbSymbolTable
 70
     1
  0
VPORT
  5
29
330
8
100
AcDbSymbolTableRecord
100
AcDbViewportTableRecord
  2
*Active
 70
     0
 10
0.0
 20
0.0
 11
1.0
 21
1.0
 12
-17.97606979562136
 22
-3.066060850443758
 13
0.0
 23
0.0
 14
10.0
 24
10.0
 15
10.0
 25
10.0
 16
0.0
 26
0.0
 36
1.0
 17
0.0
 27
0.0
 37
0.0
 40
63.36076471348161
 41
1.531481481481481
 42
50.0
 43
0.0
 44
0.0
 50
0.0
 51
0.0
 71
    16
 72
  2000
 73
     1
 74
     3
 75
     0
 76
     0
 77
     0
 78
     0
281
     0
 65
     1
110
0.0
120
0.0
130
0.0
111
1.0
121
0.0
131
0.0
112
0.0
122
1.0
132
0.0
 79
     0
146
0.0
  0
ENDTAB
  0
TABLE
  2
LTYPE
  5
5
330
0
100
AcDbSymbolTable
 70
     6
  0
LTYPE
  5
14
330
5
100
AcDbSymbolTableRecord
100
AcDbLinetypeTableRecord
  2
ByBlock
 70
     0
  3

 72
    65
 73
     0
 40
0.0
  0
LTYPE
  5
15
330
5
100
AcDbSymbolTableRecord
100
AcDbLinetypeTableRecord
  2
ByLayer
 70
     0
  3

 72
    65
 73
     0
 40
0.0
  0
LTYPE
  5
16
330
5
100
AcDbSymbolTableRecord
100
AcDbLinetypeTableRecord
  2
Continuous
 70
     0
  3
Solid line
 72
    65
 73
     0
 40
0.0
  0
LTYPE
  5
6A
330
5
100
AcDbSymbolTableRecord
100
AcDbLinetypeTableRecord
  2
HIDDEN
 70
     0
  3
Hidden __ __ __ __ __ __ __ __ __ __ __ __ __ __
 72
    65
 73
     2
 40
1.905
 49
1.27
 74
     0
 49
-0.635
 74
     0
  0
LTYPE
  5
6B
330
5
100
AcDbSymbolTableRecord
100
AcDbLinetypeTableRecord
  2
PHANTOM
 70
     0
  3
Phantom ______  __  __  ______  __  __  ______
 72
    65
 73
     6
 40
12.7
 49
6.35
 74
     0
 49
-1.27
 74
     0
 49
1.27
 74
     0
 49
-1.27
 74
     0
 49
1.27
 74
     0
 49
-1.27
 74
     0
  0
LTYPE
  5
6C
330
5
100
AcDbSymbolTableRecord
100
AcDbLinetypeTableRecord
  2
CENTER
 70
     0
  3
Center ____ _ ____ _ ____ _ ____ _ ____ _ ____
 72
    65
 73
     4
 40
10.16
 49
6.35
 74
     0
 49
-1.27
 74
     0
 49
1.27
 74
     0
 49
-1.27
 74
     0
  0
LTYPE
  5
6D
330
5
100
AcDbSymbolTableRecord
100
AcDbLinetypeTableRecord
  2
CENTERX2
 70
     0
  3
Center (2x) ________  __  ________  __  _____
 72
    65
 73
     4
 40
20.32
 49
12.7
 74
     0
 49
-2.54
 74
     0
 49
2.54
 74
     0
 49
-2.54
 74
     0
  0
LTYPE
  5
6E
330
5
100
AcDbSymbolTableRecord
100
AcDbLinetypeTableRecord
  2
DOT2
 70
     0
  3
Dot (.5x) ........................................
 72
    65
 73
     2
 40
0.635
 49
0.0
 74
     0
 49
-0.635
 74
     0
  0
ENDTAB
  0
TABLE
  2
LAYER
  5
2
330
0
100
AcDbSymbolTable
 70
    17
  0
LAYER
  5
10
330
2
100
AcDbSymbolTableRecord
100
AcDbLayerTableRecord
  2
0
 70
     0
 62
     7
  6
Continuous
370
    -3
390
F
  0
LAYER
  5
6F
330
2
100
AcDbSymbolTableRecord
100
AcDbLayerTableRecord
  2
FORMAT
 70
     0
 62
     2
  6
Continuous
370
    -3
390
F
  0
LAYER
  5
70
330
2
100
AcDbSymbolTableRecord
100
AcDbLayerTableRecord
  2
외형선
 70
     0
 62
   100
  6
Continuous
370
    30
390
F
  0
LAYER
  5
71
330
2
100
AcDbSymbolTableRecord
100
AcDbLayerTableRecord
  2
숨은선
 70
     0
 62
     2
  6
HIDDEN
370
    15
390
F
  0
LAYER
  5
72
330
2
100
AcDbSymbolTableRecord
100
AcDbLayerTableRecord
  2
중심선
 70
     0
 62
     1
  6
CENTERX2
370
    -3
390
F
  0
LAYER
  5
73
330
2
100
AcDbSymbolTableRecord
100
AcDbLayerTableRecord
  2
파단선
 70
     0
 62
     4
  6
Continuous
370
    -3
390
F
  0
LAYER
  5
74
330
2
100
AcDbSymbolTableRecord
100
AcDbLayerTableRecord
  2
해칭선
 70
     0
 62
     4
  6
Continuous
370
    -3
390
F
  0
LAYER
  5
75
330
2
100
AcDbSymbolTableRecord
100
AcDbLayerTableRecord
  2
가는실선
 70
     0
 62
     4
  6
Continuous
370
    -3
390
F
  0
LAYER
  5
76
330
2
100
AcDbSymbolTableRecord
100
AcDbLayerTableRecord
  2
치수_보조선
 70
     0
 62
     4
  6
Continuous
370
    -3
390
F
  0
LAYER
  5
77
330
2
100
AcDbSymbolTableRecord
100
AcDbLayerTableRecord
  2
치수문자_일반주서
 70
     0
 62
     7
  6
Continuous
370
    15
390
F
  0
LAYER
  5
78
330
2
100
AcDbSymbolTableRecord
100
AcDbLayerTableRecord
  2
개별주서
 70
     0
 62
   100
  6
Continuous
370
    30
390
F
  0
LAYER
  5
79
330
2
100
AcDbSymbolTableRecord
100
AcDbLayerTableRecord
  2
중간선
 70
     0
 62
     2
  6
Continuous
370
    15
390
F
  0
LAYER
  5
7A
330
2
100
AcDbSymbolTableRecord
100
AcDbLayerTableRecord
  2
윤곽선
 70
     0
 62
     3
  6
Continuous
370
    40
390
F
  0
LAYER
  5
7B
330
2
100
AcDbSymbolTableRecord
100
AcDbLayerTableRecord
  2
중심마크
 70
     0
 62
   100
  6
Continuous
370
    30
390
F
  0
LAYER
  5
7C
330
2
100
AcDbSymbolTableRecord
100
AcDbLayerTableRecord
  2
가상선
 70
     0
 62
     4
  6
PHANTOM
370
    -3
390
F
  0
LAYER
  5
7D
330
2
100
AcDbSymbolTableRecord
100
AcDbLayerTableRecord
  2
특수지정선
 70
     0
 62
     5
  6
CENTERX2
370
    60
390
F
  0
LAYER
  5
12C
330
2
100
AcDbSymbolTableRecord
100
AcDbLayerTableRecord
  2
Defpoints
 70
     0
 62
     7
  6
Continuous
290
     0
370
    -3
390
F
  0
ENDTAB
  0
TABLE
  2
STYLE
  5
3
330
0
100
AcDbSymbolTable
 70
     2
  0
STYLE
  5
11
330
3
100
AcDbSymbolTableRecord
100
AcDbTextStyleTableRecord
  2
Standard
 70
     0
 40
0.0
 41
1.0
 50
0.0
 71
     0
 42
3.5
  3
txt
  4

  0
STYLE
  5
93
330
3
100
AcDbSymbolTableRecord
100
AcDbTextStyleTableRecord
  2
SLDTEXTSTYLE0
 70
     0
 40
0.0
 41
0.75
 50
0.0
 71
     0
 42
3.5
  3
TXT
  4

  0
ENDTAB
  0
TABLE
  2
VIEW
  5
6
330
0
100
AcDbSymbolTable
 70
     0
  0
ENDTAB
  0
TABLE
  2
UCS
  5
7
330
0
100
AcDbSymbolTable
 70
     0
  0
ENDTAB
  0
TABLE
  2
APPID
  5
9
330
0
100
AcDbSymbolTable
 70
     3
  0
APPID
  5
12
330
9
100
AcDbSymbolTableRecord
100
AcDbRegAppTableRecord
  2
ACAD
 70
     0
  0
APPID
  5
129
330
9
100
AcDbSymbolTableRecord
100
AcDbRegAppTableRecord
  2
PE_URL
 70
     0
  0
APPID
  5
16C
330
9
100
AcDbSymbolTableRecord
100
AcDbRegAppTableRecord
  2
ENABLE_CUSTOM_SPLIT
 70
     0
  0
ENDTAB
  0
TABLE
  2
DIMSTYLE
  5
A
330
0
100
AcDbSymbolTable
 70
     3
100
AcDbDimStyleTable
  0
DIMSTYLE
105
27
330
A
100
AcDbSymbolTableRecord
100
AcDbDimStyleTableRecord
  2
ISO-25
 70
     0
 41
2.5
 42
0.625
 43
3.75
 44
1.25
 73
     0
 74
     0
 77
     1
 78
     8
140
2.5
141
2.5
143
0.03937007874016
147
0.625
171
     3
172
     1
178
     0
271
     2
272
     2
274
     3
278
    44
283
     0
284
     8
340
11
  0
DIMSTYLE
105
D1
102
{ACAD_REACTORS
330
D0
330
DB
330
15B
102
}
330
A
100
AcDbSymbolTableRecord
100
AcDbDimStyleTableRecord
  2
SLDDIMSTYLE0
 70
     0
 41
3.302
 44
0.0
 45
0.000000001
 73
     0
 74
     0
 77
     1
 78
    12
 79
     3
140
3.5
147
0.875
173
     1
178
     0
271
     2
272
     2
276
     2
284
    12
340
93
  0
DIMSTYLE
105
E6
102
{ACAD_REACTORS
330
E5
330
F3
102
}
330
A
100
AcDbSymbolTableRecord
100
AcDbDimStyleTableRecord
  2
SLDDIMSTYLE1
 70
     0
 41
3.302
 44
0.0
 45
0.000000001
 73
     0
 74
     0
 77
     1
 78
    12
 79
     3
140
3.5
147
0.875
172
     1
173
     1
178
     0
271
     2
272
     2
276
     2
284
    12
289
     0
340
93
  0
ENDTAB
  0
TABLE
  2
BLOCK_RECORD
  5
1
330
0
100
AcDbSymbolTable
 70
     8
  0
BLOCK_RECORD
  5
1F
102
{ACAD_XDICTIONARY
360
171
102
}
330
1
100
AcDbSymbolTableRecord
100
AcDbBlockTableRecord
  2
*Model_Space
340
22
  0
BLOCK_RECORD
  5
1B
330
1
100
AcDbSymbolTableRecord
100
AcDbBlockTableRecord
  2
*Paper_Space
340
1E
  0
BLOCK_RECORD
  5
23
330
1
100
AcDbSymbolTableRecord
100
AcDbBlockTableRecord
  2
*Paper_Space0
340
26
  0
BLOCK_RECORD
  5
7E
330
1
100
AcDbSymbolTableRecord
100
AcDbBlockTableRecord
  2
블럭10
340
0
102
{BLKREFS
331
C9
102
}
  0
BLOCK_RECORD
  5
D2
330
1
100
AcDbSymbolTableRecord
100
AcDbBlockTableRecord
  2
_D
340
0
  0
BLOCK_RECORD
  5
DC
330
1
100
AcDbSymbolTableRecord
100
AcDbBlockTableRecord
  2
_D_1
340
0
  0
BLOCK_RECORD
  5
E7
330
1
100
AcDbSymbolTableRecord
100
AcDbBlockTableRecord
  2
_D_2
340
0
  0
BLOCK_RECORD
  5
F4
330
1
100
AcDbSymbolTableRecord
100
AcDbBlockTableRecord
  2
_D_3
340
0
  0
BLOCK_RECORD
  5
100
330
1
100
AcDbSymbolTableRecord
100
AcDbBlockTableRecord
  2
SW_DOWELSYMBOL_0
340
0
102
{BLKREFS
331
106
102
}
  0
BLOCK_RECORD
  5
15E
330
1
100
AcDbSymbolTableRecord
100
AcDbBlockTableRecord
  2
*D7
340
0
  0
ENDTAB
  0
ENDSEC
  0
SECTION
  2
BLOCKS
  0
BLOCK
  5
20
330
1F
100
AcDbEntity
  8
0
100
AcDbBlockBegin
  2
*Model_Space
 70
     0
 10
0.0
 20
0.0
 30
0.0
  3
*Model_Space
  1

  0
ENDBLK
  5
21
330
1F
100
AcDbEntity
  8
0
100
AcDbBlockEnd
  0
BLOCK
  5
1C
330
1B
100
AcDbEntity
 67
     1
  8
0
100
AcDbBlockBegin
  2
*Paper_Space
 70
     0
 10
0.0
 20
0.0
 30
0.0
  3
*Paper_Space
  1

  0
ENDBLK
  5
1D
330
1B
100
AcDbEntity
 67
     1
  8
0
100
AcDbBlockEnd
  0
BLOCK
  5
24
330
23
100
AcDbEntity
  8
0
100
AcDbBlockBegin
  2
*Paper_Space0
 70
     0
 10
0.0
 20
0.0
 30
0.0
  3
*Paper_Space0
  1

  0
ENDBLK
  5
25
330
23
100
AcDbEntity
  8
0
100
AcDbBlockEnd
  0
BLOCK
  5
7F
330
7E
100
AcDbEntity
  8
0
100
AcDbBlockBegin
  2
블럭10
 70
     2
 10
0.0
 20
0.0
 30
0.0
  3
블럭10
  1

  0
ELLIPSE
  5
81
330
7E
100
AcDbEntity
  8
중심선
100
AcDbEllipse
 10
20.54032771741204
 20
12.0471743016438
 30
0.0
 11
6.600054785286829
 21
-1.261213355974178E-13
 31
0.0
210
0.0
220
0.0
230
1.0
 40
0.636358354079598
 41
0.9219305317359503
 42
6.513795318482858
  0
ELLIPSE
  5
82
330
7E
100
AcDbEntity
  8
중심선
100
AcDbEllipse
 10
20.54032771746488
 20
12.04717430159265
 30
0.0
 11
3.960054785062283
 21
1.540847449632565E-10
 31
0.0
210
0.0
220
0.0
230
1.0
 40
0.3939339440162632
 41
1.131841032648279
 42
5.62031148352944
  0
LINE
  5
83
330
7E
100
AcDbEntity
  8
중심선
100
AcDbLine
 10
2.268634060543552
 20
16.24717430164393
 30
0.0
 11
5.714909304380834
 21
16.24717430164393
 31
0.0
  0
LINE
  5
84
330
7E
100
AcDbEntity
  8
중심선
100
AcDbLine
 10
5.245725140726316
 20
7.84717430164391
 30
0.0
 11
8.692000384563599
 21
7.84717430164391
 31
0.0
  0
LINE
  5
85
330
7E
100
AcDbEntity
  8
중심선
100
AcDbLine
 10
15.74043728645272
 20
16.24717430164393
 30
0.0
 11
8.692000384563599
 21
7.84717430164391
 31
0.0
  0
LINE
  5
86
330
7E
100
AcDbEntity
  8
중심선
100
AcDbLine
 10
0.1404042013395286
 20
13.71084872107135
 30
0.0
 11
3.58671253028996
 21
13.71088815037384
 31
0.0
  0
LINE
  5
87
330
7E
100
AcDbEntity
  8
중심선
100
AcDbLine
 10
2.750260043222114
 20
10.84717430164391
 30
0.0
 11
6.196535287059397
 21
10.84717430164391
 31
0.0
  0
LINE
  5
88
330
7E
100
AcDbEntity
  8
중심선
100
AcDbLine
 10
12.29416204261559
 20
16.24717430164393
 30
0.0
 11
5.245725140726316
 21
7.84717430164391
 31
0.0
  0
LINE
  5
89
330
7E
100
AcDbEntity
  8
중심선
100
AcDbLine
 10
10.72767329541681
 20
16.24717430164393
 30
0.0
 11
6.196535287059397
 21
10.84717430164391
 31
0.0
  0
LINE
  5
8A
330
7E
100
AcDbEntity
  8
중심선
100
AcDbLine
 10
7.28139805157953
 20
16.24717430164393
 30
0.0
 11
2.750260043222114
 21
10.84717430164391
 31
0.0
  0
LINE
  5
8B
330
7E
100
AcDbEntity
  8
중심선
100
AcDbLine
 10
5.714909304380834
 20
16.24717430164393
 30
0.0
 11
3.58671253028996
 21
13.71088815037384
 31
0.0
  0
LINE
  5
8C
330
7E
100
AcDbEntity
  8
중심선
100
AcDbLine
 10
2.268634060543552
 20
16.24717430164393
 30
0.0
 11
0.1404042013395286
 21
13.71084872107135
 31
0.0
  0
LINE
  5
8D
330
7E
100
AcDbEntity
  8
중심선
100
AcDbLine
 10
7.28139805157953
 20
16.24717430164393
 30
0.0
 11
10.72767329541681
 21
16.24717430164393
 31
0.0
  0
LINE
  5
8E
330
7E
100
AcDbEntity
  8
중심선
100
AcDbLine
 10
12.29416204261559
 20
16.24717430164393
 30
0.0
 11
15.74043728645272
 21
16.24717430164393
 31
0.0
  0
LINE
  5
8F
330
7E
100
AcDbEntity
  8
중심선
100
AcDbLine
 10
19.22036997980202
 20
11.08717430171403
 30
0.0
 11
23.66174974927406
 21
11.08717430171406
 31
0.0
  0
LINE
  5
90
330
7E
100
AcDbEntity
  8
중심선
100
AcDbLine
 10
19.22039502424796
 20
13.00717430171391
 30
0.0
 11
19.22036997980202
 21
11.08717430171403
 31
0.0
  0
LINE
  5
91
330
7E
100
AcDbEntity
  8
중심선
100
AcDbLine
 10
19.22039502424796
 20
13.00717430171391
 30
0.0
 11
26.96566020931264
 21
13.00717430171391
 31
0.0
  0
LINE
  5
92
330
7E
100
AcDbEntity
  8
중심선
100
AcDbLine
 10
22.22332737316547
 20
13.45928029700563
 30
0.0
 11
24.52862924686651
 21
15.39360700705356
 31
0.0
  0
ATTDEF
  5
94
330
7E
100
AcDbEntity
  8
FORMAT
 62
     2
100
AcDbText
 10
-12.95993919485777
 20
2.075366912832191
 30
0.0
 40
4.233333333333333
  1
SEME35120E [ 2 FLUTE ]
 41
0.75
  7
SLDTEXTSTYLE0
 11
-12.95993919485777
 21
-0.0412997538344756
 31
0.0
100
AcDbAttributeDefinition
  3

  2
AUTOATTR0
 70
     0
 74
     1
  0
ENDBLK
  5
80
330
7E
100
AcDbEntity
  8
0
100
AcDbBlockEnd
  0
BLOCK
  5
D3
330
D2
100
AcDbEntity
  8
0
100
AcDbBlockBegin
  2
_D
 70
     0
 10
0.0
 20
0.0
 30
0.0
  3
_D
  1

  0
LINE
  5
D5
330
D2
100
AcDbEntity
  8
치수문자_일반주서
 62
     0
370
    -2
100
AcDbLine
 10
43.14999999999999
 20
6.057428891377868
 30
0.0
 11
43.14999999999999
 21
12.14746444568894
 31
0.0
  0
LINE
  5
D6
330
D2
100
AcDbEntity
  8
치수문자_일반주서
 62
     0
370
    -2
100
AcDbLine
 10
13.14999999999999
 20
6.062500000000001
 30
0.0
 11
13.14999999999999
 21
12.14746444568894
 31
0.0
  0
LINE
  5
D7
330
D2
100
AcDbEntity
  8
치수문자_일반주서
 62
     0
370
    -2
100
AcDbLine
 10
39.84799999999999
 20
12.14746444568894
 30
0.0
 11
16.45199999999999
 21
12.14746444568894
 31
0.0
  0
SOLID
  5
D8
330
D2
100
AcDbEntity
  8
치수문자_일반주서
 62
     0
100
AcDbTrace
 10
39.84799999999999
 20
11.5971311123556
 30
0.0
 11
39.84799999999999
 21
12.69779777902227
 31
0.0
 12
43.14999999999999
 22
12.14746444568894
 32
0.0
 13
43.14999999999999
 23
12.14746444568894
 33
0.0
  0
SOLID
  5
D9
330
D2
100
AcDbEntity
  8
치수문자_일반주서
 62
     0
100
AcDbTrace
 10
16.45199999999999
 20
12.69779777902227
 30
0.0
 11
16.45199999999999
 21
11.5971311123556
 31
0.0
 12
13.14999999999999
 22
12.14746444568894
 32
0.0
 13
13.14999999999999
 23
12.14746444568894
 33
0.0
  0
MTEXT
  5
DA
330
D2
100
AcDbEntity
  8
치수문자_일반주서
 62
     0
100
AcDbMText
 10
28.06062997902637
 20
16.52246444568894
 30
0.0
 40
3.5
 41
0.0
 71
     2
 72
     1
  1
\A1;30
  7
SLDTEXTSTYLE0
 73
     1
 44
1.0
  0
POINT
  5
16D
330
D2
100
AcDbEntity
  8
Defpoints
 62
     0
100
AcDbPoint
 10
43.14999999999999
 20
5.994928891377868
 30
0.0
  0
POINT
  5
16E
330
D2
100
AcDbEntity
  8
Defpoints
 62
     0
100
AcDbPoint
 10
13.14999999999999
 20
6.000000000000001
 30
0.0
  0
POINT
  5
16F
330
D2
100
AcDbEntity
  8
Defpoints
 62
     0
100
AcDbPoint
 10
13.14999999999999
 20
12.14746444568894
 30
0.0
  0
ENDBLK
  5
D4
330
D2
100
AcDbEntity
  8
0
100
AcDbBlockEnd
  0
BLOCK
  5
DD
330
DC
100
AcDbEntity
  8
0
100
AcDbBlockBegin
  2
_D_1
 70
     0
 10
0.0
 20
0.0
 30
0.0
  3
_D_1
  1

  0
LINE
  5
DF
330
DC
100
AcDbEntity
  8
치수문자_일반주서
 62
     0
370
    -2
100
AcDbLine
 10
43.14999999999999
 20
6.05742889137787
 30
0.0
 11
43.14999999999999
 21
26.98415911661226
 31
0.0
  0
LINE
  5
E0
330
DC
100
AcDbEntity
  8
치수문자_일반주서
 62
     0
370
    -2
100
AcDbLine
 10
-36.85000000000001
 20
5.062499999999996
 30
0.0
 11
-36.85000000000001
 21
26.98415911661226
 31
0.0
  0
LINE
  5
E1
330
DC
100
AcDbEntity
  8
치수문자_일반주서
 62
     0
370
    -2
100
AcDbLine
 10
39.84799999999999
 20
26.98415911661226
 30
0.0
 11
-33.54800000000001
 21
26.98415911661226
 31
0.0
  0
SOLID
  5
E2
330
DC
100
AcDbEntity
  8
치수문자_일반주서
 62
     0
100
AcDbTrace
 10
39.84799999999999
 20
26.43382578327893
 30
0.0
 11
39.84799999999999
 21
27.5344924499456
 31
0.0
 12
43.14999999999999
 22
26.98415911661226
 32
0.0
 13
43.14999999999999
 23
26.98415911661226
 33
0.0
  0
SOLID
  5
E3
330
DC
100
AcDbEntity
  8
치수문자_일반주서
 62
     0
100
AcDbTrace
 10
-33.54800000000001
 20
27.5344924499456
 30
0.0
 11
-33.54800000000001
 21
26.43382578327893
 31
0.0
 12
-36.85000000000001
 22
26.98415911661226
 32
0.0
 13
-36.85000000000001
 23
26.98415911661226
 33
0.0
  0
MTEXT
  5
E4
330
DC
100
AcDbEntity
  8
치수문자_일반주서
 62
     0
100
AcDbMText
 10
3.149999999999993
 20
31.35915911661226
 30
0.0
 40
3.5
 41
0.0
 71
     2
 72
     1
  1
\A1;80
  7
SLDTEXTSTYLE0
 73
     1
 44
1.0
  0
POINT
  5
12D
330
DC
100
AcDbEntity
  8
Defpoints
 62
     0
100
AcDbPoint
 10
43.14999999999999
 20
5.99492889137787
 30
0.0
  0
POINT
  5
12E
330
DC
100
AcDbEntity
  8
Defpoints
 62
     0
100
AcDbPoint
 10
-36.85000000000001
 20
4.999999999999996
 30
0.0
  0
POINT
  5
12F
330
DC
100
AcDbEntity
  8
Defpoints
 62
     0
100
AcDbPoint
 10
-36.85000000000001
 20
26.98415911661226
 30
0.0
  0
ENDBLK
  5
DE
330
DC
100
AcDbEntity
  8
0
100
AcDbBlockEnd
  0
BLOCK
  5
E8
330
E7
100
AcDbEntity
  8
0
100
AcDbBlockBegin
  2
_D_2
 70
     0
 10
0.0
 20
0.0
 30
0.0
  3
_D_2
  1

  0
LINE
  5
EA
330
E7
100
AcDbEntity
  8
치수문자_일반주서
 62
     0
370
    -2
100
AcDbLine
 10
43.21249999999999
 20
6.003470178536634
 30
0.0
 11
58.71619031224625
 21
6.003470178536693
 31
0.0
  0
LINE
  5
EB
330
E7
100
AcDbEntity
  8
치수문자_일반주서
 62
     0
370
    -2
100
AcDbLine
 10
43.21249999999999
 20
-5.994928891377861
 30
0.0
 11
58.71619031224629
 21
-5.994928891377802
 31
0.0
  0
LINE
  5
EC
330
E7
100
AcDbEntity
  8
치수문자_일반주서
 62
     0
370
    -2
100
AcDbLine
 10
58.71619031224626
 20
2.701470178536693
 30
0.0
 11
58.71619031224628
 21
-2.692928891377802
 31
0.0
  0
SOLID
  5
ED
330
E7
100
AcDbEntity
  8
치수문자_일반주서
 62
     0
100
AcDbTrace
 10
59.2665236455796
 20
2.701470178536695
 30
0.0
 11
58.16585697891293
 21
2.701470178536691
 31
0.0
 12
58.71619031224625
 22
6.003470178536693
 32
0.0
 13
58.71619031224625
 23
6.003470178536693
 33
0.0
  0
SOLID
  5
EE
330
E7
100
AcDbEntity
  8
치수문자_일반주서
 62
     0
100
AcDbTrace
 10
58.16585697891294
 20
-2.692928891377803
 30
0.0
 11
59.26652364557961
 21
-2.6929288913778
 31
0.0
 12
58.71619031224629
 22
-5.994928891377802
 32
0.0
 13
58.71619031224629
 23
-5.994928891377802
 33
0.0
  0
MTEXT
  5
EF
330
E7
100
AcDbEntity
  8
치수문자_일반주서
 62
     0
100
AcDbMText
 10
54.34119031224627
 20
-0.0000000000000133
 30
0.0
 40
3.5
 41
0.0
 71
     2
 72
     1
  1
\A1;%%c12
  7
SLDTEXTSTYLE0
 11
-3.553187712559541E-15
 21
1.0
 31
0.0
 73
     1
 44
1.0
  0
POINT
  5
F0
330
E7
100
AcDbEntity
  8
Defpoints
 62
     0
100
AcDbPoint
 10
43.14999999999999
 20
6.003470178536634
 30
0.0
  0
POINT
  5
F1
330
E7
100
AcDbEntity
  8
Defpoints
 62
     0
100
AcDbPoint
 10
43.14999999999999
 20
-5.994928891377861
 30
0.0
  0
POINT
  5
F2
330
E7
100
AcDbEntity
  8
Defpoints
 62
     0
100
AcDbPoint
 10
58.71619031224628
 20
-5.994928891377803
 30
0.0
  0
ENDBLK
  5
E9
330
E7
100
AcDbEntity
  8
0
100
AcDbBlockEnd
  0
BLOCK
  5
F5
330
F4
100
AcDbEntity
  8
0
100
AcDbBlockBegin
  2
_D_3
 70
     0
 10
0.0
 20
0.0
 30
0.0
  3
_D_3
  1

  0
LINE
  5
F7
330
F4
100
AcDbEntity
  8
치수문자_일반주서
 62
     0
370
    -2
100
AcDbLine
 10
-35.91250000000001
 20
5.999999999999999
 30
0.0
 11
-48.26955944538857
 21
5.999999999999953
 31
0.0
  0
LINE
  5
F8
330
F4
100
AcDbEntity
  8
치수문자_일반주서
 62
     0
370
    -2
100
AcDbLine
 10
-35.91250000000001
 20
-6.000000000000001
 30
0.0
 11
-48.26955944538853
 21
-6.000000000000047
 31
0.0
  0
LINE
  5
F9
330
F4
100
AcDbEntity
  8
치수문자_일반주서
 62
     0
370
    -2
100
AcDbLine
 10
-48.26955944538856
 20
2.697999999999953
 30
0.0
 11
-48.26955944538854
 21
-2.698000000000047
 31
0.0
  0
SOLID
  5
FA
330
F4
100
AcDbEntity
  8
치수문자_일반주서
 62
     0
100
AcDbTrace
 10
-47.71922611205522
 20
2.697999999999955
 30
0.0
 11
-48.81989277872189
 21
2.697999999999951
 31
0.0
 12
-48.26955944538857
 22
5.999999999999953
 32
0.0
 13
-48.26955944538857
 23
5.999999999999953
 33
0.0
  0
SOLID
  5
FB
330
F4
100
AcDbEntity
  8
치수문자_일반주서
 62
     0
100
AcDbTrace
 10
-48.81989277872188
 20
-2.698000000000049
 30
0.0
 11
-47.71922611205521
 21
-2.698000000000045
 31
0.0
 12
-48.26955944538853
 22
-6.000000000000047
 32
0.0
 13
-48.26955944538853
 23
-6.000000000000047
 33
0.0
  0
MTEXT
  5
FC
330
F4
100
AcDbEntity
  8
치수문자_일반주서
 62
     0
100
AcDbMText
 10
-52.64455944538855
 20
-0.0000000000000155
 30
0.0
 40
3.5
 41
0.0
 71
     2
 72
     1
  1
\A1;%%c12
  7
SLDTEXTSTYLE0
 11
-3.552713678800501E-15
 21
1.0
 31
0.0
 73
     1
 44
1.0
  0
POINT
  5
FD
330
F4
100
AcDbEntity
  8
Defpoints
 62
     0
100
AcDbPoint
 10
-35.85000000000001
 20
5.999999999999999
 30
0.0
  0
POINT
  5
FE
330
F4
100
AcDbEntity
  8
Defpoints
 62
     0
100
AcDbPoint
 10
-35.85000000000001
 20
-6.000000000000001
 30
0.0
  0
POINT
  5
FF
330
F4
100
AcDbEntity
  8
Defpoints
 62
     0
100
AcDbPoint
 10
-48.26955944538855
 20
-6.000000000000047
 30
0.0
  0
ENDBLK
  5
F6
330
F4
100
AcDbEntity
  8
0
100
AcDbBlockEnd
  0
BLOCK
  5
101
330
100
100
AcDbEntity
  8
0
100
AcDbBlockBegin
  2
SW_DOWELSYMBOL_0
 70
     0
 10
0.0
 20
0.0
 30
0.0
  3
SW_DOWELSYMBOL_0
  1

  0
CIRCLE
  5
103
330
100
100
AcDbEntity
  8
외형선
 62
     0
100
AcDbCircle
 10
0.0
 20
0.0
 30
0.0
 40
3.000000000000004
  0
HATCH
  5
104
330
100
100
AcDbEntity
  8
0
  6
Continuous
 62
     0
370
    30
100
AcDbHatch
 10
0.0
 20
0.0
 30
0.0
210
0.0
220
0.0
230
1.0
  2
SOLID
 70
     1
 71
     0
 91
        1
 92
        0
 93
        3
 72
     2
 10
0.0000000000000087
 20
-0.0000000000000035
 40
3.000000000000004
 50
0.0
 51
90.0
 73
     1
 72
     1
 10
0.0000000000000087
 20
3.000000000000001
 11
0.0000000000000087
 21
-0.0000000000000036
 72
     1
 10
0.0000000000000087
 20
-0.0000000000000035
 11
3.000000000000013
 21
-0.0000000000000035
 97
        0
 75
     0
 76
     1
 98
        1
 10
0.0
 20
0.0
  0
HATCH
  5
105
330
100
100
AcDbEntity
  8
0
  6
Continuous
 62
     0
370
    30
100
AcDbHatch
 10
0.0
 20
0.0
 30
0.0
210
0.0
220
0.0
230
1.0
  2
SOLID
 70
     1
 71
     0
 91
        1
 92
        0
 93
        3
 72
     2
 10
0.0000000000000087
 20
-0.0000000000000035
 40
3.000000000000004
 50
180.0
 51
270.0000000000007
 73
     1
 72
     1
 10
0.0000000000000087
 20
-3.000000000000008
 11
0.0000000000000087
 21
-0.0000000000000036
 72
     1
 10
0.0000000000000087
 20
-0.0000000000000035
 11
-2.999999999999996
 21
-0.0000000000000035
 97
        0
 75
     0
 76
     1
 98
        1
 10
0.0
 20
0.0
  0
ENDBLK
  5
102
330
100
100
AcDbEntity
  8
0
100
AcDbBlockEnd
  0
BLOCK
  5
15F
330
15E
100
AcDbEntity
  8
0
100
AcDbBlockBegin
  2
*D7
 70
     1
 10
0.0
 20
0.0
 30
0.0
  3
*D7
  1

  0
LINE
  5
161
330
15E
100
AcDbEntity
  8
치수문자_일반주서
 62
     0
370
    -2
100
AcDbLine
 10
0.150000000000011
 20
5.912499999999995
 30
0.0
 11
0.1500000000000128
 21
21.39492889137787
 31
0.0
  0
LINE
  5
162
330
15E
100
AcDbEntity
  8
치수문자_일반주서
 62
     0
370
    -2
100
AcDbLine
 10
43.14999999999999
 20
6.05742889137787
 30
0.0
 11
43.14999999999999
 21
21.39492889137787
 31
0.0
  0
LINE
  5
163
330
15E
100
AcDbEntity
  8
치수문자_일반주서
 62
     0
370
    -2
100
AcDbLine
 10
3.452000000000013
 20
21.39492889137787
 30
0.0
 11
39.84799999999999
 21
21.39492889137787
 31
0.0
  0
SOLID
  5
164
330
15E
100
AcDbEntity
  8
치수문자_일반주서
 62
     0
100
AcDbTrace
 10
3.452000000000013
 20
21.9452622247112
 30
0.0
 11
3.452000000000013
 21
20.84459555804454
 31
0.0
 12
0.1500000000000128
 22
21.39492889137787
 32
0.0
 13
0.1500000000000128
 23
21.39492889137787
 33
0.0
  0
SOLID
  5
165
330
15E
100
AcDbEntity
  8
치수문자_일반주서
 62
     0
100
AcDbTrace
 10
39.84799999999999
 20
20.84459555804454
 30
0.0
 11
39.84799999999999
 21
21.9452622247112
 31
0.0
 12
43.14999999999999
 22
21.39492889137787
 32
0.0
 13
43.14999999999999
 23
21.39492889137787
 33
0.0
  0
MTEXT
  5
166
330
15E
100
AcDbEntity
  8
치수문자_일반주서
 62
     0
100
AcDbMText
 10
21.56122353641679
 20
24.01992889137787
 30
0.0
 40
3.5
 41
0.0
 71
     5
 72
     1
  1
\A1;43
  7
SLDTEXTSTYLE0
 73
     1
 44
1.0
  0
POINT
  5
167
330
15E
100
AcDbEntity
  8
Defpoints
 62
     0
100
AcDbPoint
 10
0.150000000000011
 20
5.849999999999995
 30
0.0
  0
POINT
  5
168
330
15E
100
AcDbEntity
  8
Defpoints
 62
     0
100
AcDbPoint
 10
43.14999999999999
 20
5.99492889137787
 30
0.0
  0
POINT
  5
169
330
15E
100
AcDbEntity
  8
Defpoints
 62
     0
100
AcDbPoint
 10
43.14999999999999
 20
21.39492889137787
 30
0.0
  0
ENDBLK
  5
160
330
15E
100
AcDbEntity
  8
0
100
AcDbBlockEnd
  0
ENDSEC
  0
SECTION
  2
ENTITIES
  0
LINE
  5
95
330
1F
100
AcDbEntity
  8
0
  6
Continuous
 62
     4
370
    15
100
AcDbLine
 10
-0.0000000000000102
 20
6.0
 30
0.0
 11
-35.85000000000001
 21
5.999999999999999
 31
0.0
  0
LINE
  5
96
330
1F
100
AcDbEntity
  8
0
  6
Continuous
 62
     4
370
    15
100
AcDbLine
 10
-35.85000000000001
 20
-6.000000000000001
 30
0.0
 11
0.0000000000000107
 21
-6.0
 31
0.0
  0
LINE
  5
97
330
1F
100
AcDbEntity
  8
0
  6
Continuous
 62
     4
370
    15
100
AcDbLine
 10
-35.85000000000001
 20
5.999999999999996
 30
0.0
 11
-36.85000000000001
 21
4.999999999999995
 31
0.0
  0
LINE
  5
98
330
1F
100
AcDbEntity
  8
0
  6
Continuous
 62
     4
370
    15
100
AcDbLine
 10
-36.85000000000001
 20
-4.999999999999998
 30
0.0
 11
-35.85000000000001
 21
-5.999999999999999
 31
0.0
  0
LINE
  5
99
330
1F
100
AcDbEntity
  8
0
  6
Continuous
 62
     1
370
    15
100
AcDbLine
 10
24.27103859323523
 20
1.698018922139468
 30
0.0
 11
24.22176093000634
 21
1.725069658304487
 31
0.0
  0
SPLINE
  5
9A
330
1F
100
AcDbEntity
  8
0
  6
Continuous
 62
     1
370
    15
100
AcDbSpline
210
0.0
220
0.0
230
1.0
 70
     8
 71
     3
 72
     9
 73
     5
 74
     0
 42
0.000000001
 43
0.00000001
 40
0.0
 40
0.0
 40
0.0
 40
0.0
 40
0.5259447709131838
 40
1.0
 40
1.0
 40
1.0
 40
1.0
 10
27.60604220545152
 20
1.537487572059001
 30
0.0
 10
27.31403362676084
 20
1.676682874863156
 30
0.0
 10
26.75882594177202
 20
1.941340516695918
 30
0.0
 10
26.20360201053332
 20
2.232192267038312
 30
0.0
 10
25.94039520261548
 20
2.370072060177178
 30
0.0
  0
LINE
  5
9B
330
1F
100
AcDbEntity
  8
0
  6
Continuous
 62
     1
370
    15
100
AcDbLine
 10
13.83586771849076
 20
6.000000000000005
 30
0.0
 11
13.14999999999999
 21
6.000000000000005
 31
0.0
  0
SPLINE
  5
9C
330
1F
100
AcDbEntity
  8
0
  6
Continuous
 62
     1
370
    15
100
AcDbSpline
210
0.0
220
0.0
230
1.0
 70
     8
 71
     3
 72
    20
 73
    16
 74
     0
 42
0.000000001
 43
0.00000001
 40
0.0
 40
0.0
 40
0.0
 40
0.0
 40
0.125742964779673
 40
0.243273960988554
 40
0.3436090325626603
 40
0.4213545598815737
 40
0.4835606728271125
 40
0.5360952989069951
 40
0.5870256886083798
 40
0.6592148205863012
 40
0.7435074235882839
 40
0.8108943978646109
 40
0.8662355083573853
 40
0.9491949354676942
 40
1.0
 40
1.0
 40
1.0
 40
1.0
 10
25.62247457962599
 20
4.767838952278529
 30
0.0
 10
25.43035732560597
 20
4.757654352679269
 30
0.0
 10
25.05866953025627
 20
4.737950285020802
 30
0.0
 10
24.48581388146705
 20
4.717107338448466
 30
0.0
 10
23.9992223257319
 20
4.70333416142227
 30
0.0
 10
23.60536735829719
 20
4.694893309305439
 30
0.0
 10
23.29350921861869
 20
4.690130094759255
 30
0.0
 10
23.02554381888354
 20
4.687357580987526
 30
0.0
 10
22.74146132751498
 20
4.685671191246502
 30
0.0
 10
22.40344776937075
 20
4.685478755831504
 30
0.0
 10
22.03836084653148
 20
4.687749988729051
 30
0.0
 10
21.70114379110266
 20
4.692023404385011
 30
0.0
 10
21.3668710833361
 20
4.698146617765059
 30
0.0
 10
21.05960756844517
 20
4.705183397204754
 30
0.0
 10
20.84218161741198
 20
4.712321665624791
 30
0.0
 10
20.75960111089945
 20
4.715032849910512
 30
0.0
  0
SPLINE
  5
9D
330
1F
100
AcDbEntity
  8
0
  6
Continuous
 62
     1
370
    15
100
AcDbSpline
210
0.0
220
0.0
230
1.0
 70
     8
 71
     3
 72
    31
 73
    27
 74
     0
 42
0.000000001
 43
0.00000001
 40
0.0
 40
0.0
 40
0.0
 40
0.0
 40
0.0584337340550557
 40
0.1065389415236236
 40
0.1450385076314027
 40
0.1782638999085223
 40
0.2159168093688244
 40
0.2477450705509324
 40
0.2768369817450198
 40
0.3063682992580432
 40
0.3476538868922169
 40
0.3890567774550257
 40
0.4176769336462572
 40
0.4520443086779888
 40
0.4999458730704278
 40
0.5544209602527461
 40
0.5973543589459115
 40
0.6426204895102587
 40
0.6895961557990654
 40
0.727176756877389
 40
0.7567582963986522
 40
0.7866921020273976
 40
0.8229845634041754
 40
0.8694105106135442
 40
0.9275451413976411
 40
1.0
 40
1.0
 40
1.0
 40
1.0
 10
40.92061386756843
 20
4.103712520376036
 30
0.0
 10
40.72306841893416
 20
4.08735669441038
 30
0.0
 10
40.36289491058919
 20
4.057536036629316
 30
0.0
 10
39.85943719946171
 20
4.024193003530237
 30
0.0
 10
39.43093209137328
 20
4.000931324235246
 30
0.0
 10
39.04173536299737
 20
3.983094069153145
 30
0.0
 10
38.67905259650044
 20
3.969625009373575
 30
0.0
 10
38.33526675423748
 20
3.959975615486194
 30
0.0
 10
38.01866932585656
 20
3.953561784514763
 30
0.0
 10
37.66890121639733
 20
3.949117120822341
 30
0.0
 10
37.27633511923405
 20
3.94769367524906
 30
0.0
 10
36.88697910319414
 20
3.950421666997053
 30
0.0
 10
36.5224489025999
 20
3.956280998504812
 30
0.0
 10
36.1311320857593
 20
3.965750178047209
 30
0.0
 10
35.6465587249965
 20
3.982461000717191
 30
0.0
 10
35.13319006834627
 20
4.006960057101383
 30
0.0
 10
34.64647997589739
 20
4.036511312118396
 30
0.0
 10
34.17818645761879
 20
4.069794031812068
 30
0.0
 10
33.72330505158531
 20
4.10718539800127
 30
0.0
 10
33.32390980873954
 20
4.144043512394519
 30
0.0
 10
32.9839302345227
 20
4.178143861470337
 30
0.0
 10
32.64974059323188
 20
4.21400957961457
 30
0.0
 10
32.25166497888151
 20
4.25996949813721
 30
0.0
 10
31.74965239189536
 20
4.322418980031926
 30
0.0
 10
31.12211431903577
 20
4.407167307259521
 30
0.0
 10
30.68224236273591
 20
4.47511148478696
 30
0.0
 10
30.43818856831044
 20
4.512808896720593
 30
0.0
  0
SPLINE
  5
9E
330
1F
100
AcDbEntity
  8
0
  6
Continuous
 62
     1
370
    15
100
AcDbSpline
210
0.0
220
0.0
230
1.0
 70
     8
 71
     3
 72
    29
 73
    25
 74
     0
 42
0.000000001
 43
0.00000001
 40
0.0
 40
0.0
 40
0.0
 40
0.0
 40
0.0689444636072771
 40
0.1318178395949537
 40
0.1856618288031438
 40
0.2282857185248868
 40
0.2625881756275488
 40
0.291027472084149
 40
0.3182334693168275
 40
0.3570403396510105
 40
0.4026302865720942
 40
0.4391929959529468
 40
0.469076775656178
 40
0.5130874420188807
 40
0.5635758546870029
 40
0.606673404982674
 40
0.6441488992826646
 40
0.6801591937097109
 40
0.7294120478465865
 40
0.7843922720793074
 40
0.8295867580915782
 40
0.8671140468505913
 40
0.9224160941873369
 40
1.0
 40
1.0
 40
1.0
 40
1.0
 10
16.59863926898409
 20
-4.99282687053433
 30
0.0
 10
16.79549000812452
 20
-4.973152781393732
 30
0.0
 10
17.17185727241957
 20
-4.935537057217752
 30
0.0
 10
17.74333976150763
 20
-4.887079800681961
 30
0.0
 10
18.22855614319879
 20
-4.849573818484135
 30
0.0
 10
18.62536930694591
 20
-4.821418317678241
 30
0.0
 10
18.94197152399624
 20
-4.800767454816062
 30
0.0
 10
19.21256875924142
 20
-4.784337342185268
 30
0.0
 10
19.49668940339658
 20
-4.768299545731007
 30
0.0
 10
19.83304510720226
 20
-4.751070622919843
 30
0.0
 10
20.19767896043145
 20
-4.734796217093066
 30
0.0
 10
20.53530711202071
 20
-4.721889039591577
 30
0.0
 10
20.86801862176594
 20
-4.710893669285825
 30
0.0
 10
21.24262261948482
 20
-4.700675919402917
 30
0.0
 10
21.65689055307019
 20
-4.692469038505712
 30
0.0
 10
22.05166977449998
 20
-4.687637435537546
 30
0.0
 10
22.40282879072938
 20
-4.685598141475838
 30
0.0
 10
22.77240713947473
 20
-4.685619991567505
 30
0.0
 10
23.19467493642381
 20
-4.68851262734389
 30
0.0
 10
23.64457839508779
 20
-4.695380646505861
 30
0.0
 10
24.06029325204914
 20
-4.705030740482952
 30
0.0
 10
24.47870909318578
 20
-4.717506072087532
 30
0.0
 10
24.99089343367539
 20
-4.736200029720894
 30
0.0
 10
25.38965961798668
 20
-4.756176136520343
 30
0.0
 10
25.62247457962599
 20
-4.767838952278525
 30
0.0
  0
SPLINE
  5
9F
330
1F
100
AcDbEntity
  8
0
  6
Continuous
 62
     1
370
    15
100
AcDbSpline
210
0.0
220
0.0
230
1.0
 70
     8
 71
     3
 72
    17
 73
    13
 74
     0
 42
0.000000001
 43
0.00000001
 40
0.0
 40
0.0
 40
0.0
 40
0.0
 40
0.1692087575787289
 40
0.3049745134856075
 40
0.4133961845542906
 40
0.4981524371714028
 40
0.5680588886882129
 40
0.6371426692132655
 40
0.7249072020574143
 40
0.8346126694683088
 40
0.9403257418686771
 40
1.0
 40
1.0
 40
1.0
 40
1.0
 10
30.43818856831044
 20
-4.512808896720591
 30
0.0
 10
30.68224235454538
 20
-4.475111476673488
 30
0.0
 10
31.12211429608302
 20
-4.407167284522686
 30
0.0
 10
31.74965245712967
 20
-4.322419044652556
 30
0.0
 10
32.25166480459161
 20
-4.25996932548687
 30
0.0
 10
32.64974105539126
 20
-4.214010037426331
 30
0.0
 10
32.98392883857657
 20
-4.178142478656073
 30
0.0
 10
33.3239155765087
 20
-4.14404922590538
 30
0.0
 10
33.72327388375756
 20
-4.107154523374112
 30
0.0
 10
34.17833190349603
 20
-4.069938109457281
 30
0.0
 10
34.58584429034842
 20
-4.040372904918362
 30
0.0
 10
34.82909348804495
 20
-4.026074415939415
 30
0.0
 10
34.91686148917849
 20
-4.020915304177501
 30
0.0
  0
LINE
  5
A0
330
1F
100
AcDbEntity
  8
0
  6
Continuous
 62
     1
370
    15
100
AcDbLine
 10
13.14999999999999
 20
-6.000000000000001
 30
0.0
 11
13.83586771849073
 21
-6.000000000000001
 31
0.0
  0
LINE
  5
A1
330
1F
100
AcDbEntity
  8
0
  6
Continuous
 62
     1
370
    15
100
AcDbLine
 10
13.14999999999999
 20
6.000000000000001
 30
0.0
 11
13.14999999999999
 21
5.863392775280908
 31
0.0
  0
LINE
  5
A4
330
1F
100
AcDbEntity
  8
0
  6
Continuous
 62
     1
370
    15
100
AcDbLine
 10
13.14999999999999
 20
-5.986928814937551
 30
0.0
 11
13.14999999999999
 21
-5.999999999999999
 31
0.0
  0
LINE
  5
A5
330
1F
100
AcDbEntity
  8
0
  6
Continuous
 62
     4
370
    15
100
AcDbLine
 10
-35.85000000000001
 20
5.999999999999996
 30
0.0
 11
-35.85000000000001
 21
-6.000000000000001
 31
0.0
  0
LINE
  5
A7
330
1F
100
AcDbEntity
  8
0
  6
Continuous
 62
     4
370
    15
100
AcDbLine
 10
-36.85000000000001
 20
4.999999999999996
 30
0.0
 11
-36.85000000000001
 21
-4.999999999999998
 31
0.0
  0
SPLINE
  5
AA
330
1F
100
AcDbEntity
  8
0
  6
Continuous
 62
     1
370
    15
100
AcDbSpline
210
0.0
220
0.0
230
1.0
 70
    24
 71
     3
 72
    14
 73
    10
 74
     0
 42
0.000000001
 43
0.00000001
 40
0.0
 40
0.0
 40
0.0
 40
0.0
 40
0.25
 40
0.25
 40
0.5000000000000001
 40
0.5000000000000001
 40
0.75
 40
0.75
 40
1.0
 40
1.0
 40
1.0
 40
1.0
 10
13.14999999999999
 20
-1.210383212112755
 30
0.0
 10
13.14999999999999
 20
-1.641673868835745
 30
0.0
 10
13.14999999999999
 20
-2.065376688982944
 30
0.0
 10
13.14999999999999
 20
-2.864625553100557
 30
0.0
 10
13.14999999999999
 20
-3.23990418267283
 30
0.0
 10
13.14999999999999
 20
-3.912608048589621
 30
0.0
 10
13.14999999999999
 20
-4.209839028478329
 30
0.0
 10
13.14999999999999
 20
-4.707887056136371
 30
0.0
 10
13.14999999999999
 20
-4.90867386763115
 30
0.0
 10
13.14999999999999
 20
-5.05935890687101
 30
0.0
  0
SPLINE
  5
AC
330
1F
100
AcDbEntity
  8
0
  6
Continuous
 62
     1
370
    15
100
AcDbSpline
210
0.0
220
0.0
230
1.0
 70
    24
 71
     3
 72
    14
 73
    10
 74
     0
 42
0.000000001
 43
0.00000001
 40
0.0
 40
0.0
 40
0.0
 40
0.0
 40
0.25
 40
0.25
 40
0.5
 40
0.5
 40
0.75
 40
0.75
 40
1.0
 40
1.0
 40
1.0
 40
1.0
 10
13.14999999999995
 20
4.064275864760432
 30
0.0
 10
13.14999999999995
 20
3.823823148078681
 30
0.0
 10
13.14999999999995
 20
3.517547293879649
 30
0.0
 10
13.14999999999995
 20
2.78436480603246
 30
0.0
 10
13.14999999999995
 20
2.357580027607893
 30
0.0
 10
13.14999999999995
 20
1.420121035371021
 30
0.0
 10
13.14999999999995
 20
0.9099463389032699
 30
0.0
 10
13.14999999999995
 20
-0.1409786805098265
 30
0.0
 10
13.14999999999995
 20
-0.6811608617014062
 30
0.0
 10
13.14999999999995
 20
-1.210383212112737
 30
0.0
  0
SPLINE
  5
AD
330
1F
100
AcDbEntity
  8
0
  6
Continuous
 62
     1
370
    15
100
AcDbSpline
210
0.0
220
0.0
230
1.0
 70
    24
 71
     3
 72
     8
 73
     4
 74
     0
 42
0.000000001
 43
0.00000001
 40
0.0
 40
0.0
 40
0.0
 40
0.0
 40
1.0
 40
1.0
 40
1.0
 40
1.0
 10
13.15000000000001
 20
-5.059358906871015
 30
0.0
 10
13.15000000000001
 20
-5.373440453737288
 30
0.0
 10
13.15000000000001
 20
-5.684639302019916
 30
0.0
 10
13.15000000000001
 20
-5.986928814922735
 30
0.0
  0
SPLINE
  5
AE
330
1F
100
AcDbEntity
  8
0
  6
Continuous
 62
     4
370
    15
100
AcDbSpline
210
0.0
220
0.0
230
1.0
 70
    24
 71
     3
 72
    10
 73
     6
 74
     0
 42
0.000000001
 43
0.00000001
 40
0.0
 40
0.0
 40
0.0
 40
0.0
 40
0.5
 40
0.5
 40
1.0
 40
1.0
 40
1.0
 40
1.0
 10
13.14999999999999
 20
5.863392775280906
 30
0.0
 10
13.14999999999999
 20
5.592002895222569
 30
0.0
 10
13.14999999999999
 20
5.283778606257161
 30
0.0
 10
13.14999999999999
 20
4.660775881209428
 30
0.0
 10
13.14999999999999
 20
4.34770752233231
 30
0.0
 10
13.14999999999999
 20
4.06427586476043
 30
0.0
  0
SPLINE
  5
AF
330
1F
100
AcDbEntity
  8
0
  6
Continuous
 62
     1
370
    15
100
AcDbSpline
210
0.0
220
0.0
230
1.0
 70
     8
 71
     3
 72
    56
 73
    52
 74
     0
 42
0.000000001
 43
0.00000001
 40
0.0
 40
0.0
 40
0.0
 40
0.0
 40
0.03125
 40
0.03125
 40
0.0624999999999999
 40
0.0624999999999999
 40
0.1249999999999998
 40
0.1249999999999998
 40
0.1874999999999997
 40
0.1874999999999997
 40
0.2187499999999997
 40
0.2187499999999997
 40
0.2499999999999996
 40
0.2499999999999996
 40
0.2812499999999996
 40
0.2812499999999996
 40
0.3124999999999994
 40
0.3124999999999994
 40
0.3749999999999994
 40
0.3749999999999994
 40
0.4062499999999994
 40
0.4062499999999994
 40
0.4374999999999993
 40
0.4374999999999993
 40
0.4687499999999993
 40
0.4687499999999993
 40
0.4999999999999992
 40
0.4999999999999992
 40
0.5624999999999993
 40
0.5624999999999993
 40
0.6249999999999994
 40
0.6249999999999994
 40
0.6562499999999996
 40
0.6562499999999996
 40
0.6874999999999996
 40
0.6874999999999996
 40
0.7187499999999997
 40
0.7187499999999997
 40
0.7499999999999998
 40
0.7499999999999998
 40
0.8124999999999998
 40
0.8124999999999998
 40
0.8437499999999999
 40
0.8437499999999999
 40
0.875
 40
0.875
 40
0.90625
 40
0.90625
 40
0.9375000000000001
 40
0.9375000000000001
 40
1.0
 40
1.0
 40
1.0
 40
1.0
 10
13.14999999999998
 20
5.863392775280912
 30
0.0
 10
13.46252217309453
 20
5.825112169515105
 30
0.0
 10
13.77629981089503
 20
5.778811482581122
 30
0.0
 10
14.40254008555485
 20
5.67070458713832
 30
0.0
 10
14.71382837765831
 20
5.608988398247257
 30
0.0
 10
15.64838651126228
 20
5.401314037214312
 30
0.0
 10
16.27889082098866
 20
5.232083720574516
 30
0.0
 10
17.52430152167359
 20
4.840286244829081
 30
0.0
 10
18.15226181389853
 20
4.616431882491113
 30
0.0
 10
19.08948789093236
 20
4.245507913670181
 30
0.0
 10
19.39964972923864
 20
4.116253826280821
 30
0.0
 10
20.02486373597412
 20
3.8462688872722
 30
0.0
 10
20.33865996688704
 20
3.705693709354086
 30
0.0
 10
20.96480420112105
 20
3.415077231821617
 30
0.0
 10
21.27585568891121
 20
3.265253252105698
 30
0.0
 10
21.89914864739062
 20
2.956996893727281
 30
0.0
 10
22.21259510101374
 20
2.798351961773427
 30
0.0
 10
23.15261557691962
 20
2.311702741116478
 30
0.0
 10
23.77364767658652
 20
1.973937125900614
 30
0.0
 10
24.7132827383912
 20
1.45255260515448
 30
0.0
 10
25.02700121786777
 20
1.276451141671129
 30
0.0
 10
25.65162822423693
 20
0.921792826344554
 30
0.0
 10
25.96183482345645
 20
0.7433755655294388
 30
0.0
 10
26.58720931263932
 20
0.3840651215401392
 30
0.0
 10
26.9010194891915
 20
0.2034289297309349
 30
0.0
 10
27.52705845922042
 20
-0.1576030534321684
 30
0.0
 10
27.83790055344846
 20
-0.3377308525588165
 30
0.0
 10
28.77320766924421
 20
-0.8765470611399179
 30
0.0
 10
29.40368120700099
 20
-1.234245896852831
 30
0.0
 10
30.64797505285667
 20
-1.929325842509882
 30
0.0
 10
31.27711260465125
 20
-2.269540788282093
 30
0.0
 10
32.21375382275065
 20
-2.757412420499214
 30
0.0
 10
32.52403263496701
 20
-2.916192581466442
 30
0.0
 10
33.14955842062345
 20
-3.226259081361828
 30
0.0
 10
33.46337789465181
 20
-3.377290218834889
 30
0.0
 10
34.08930238186966
 20
-3.66950042153577
 30
0.0
 10
34.39996250352836
 20
-3.810472199725128
 30
0.0
 10
35.02373660343386
 20
-4.082099681956354
 30
0.0
 10
35.33729228040281
 20
-4.212799155608526
 30
0.0
 10
36.27723976232039
 20
-4.587088601511153
 30
0.0
 10
36.89818004288206
 20
-4.812316325183571
 30
0.0
 10
37.83799904500553
 20
-5.110256413076262
 30
0.0
 10
38.1516454032357
 20
-5.202787573528216
 30
0.0
 10
38.77586421479234
 20
-5.373209413532872
 30
0.0
 10
39.08624268855552
 20
-5.451113691150992
 30
0.0
 10
39.71191057728535
 20
-5.59233786387574
 30
0.0
 10
40.02573470016679
 20
-5.655514691248478
 30
0.0
 10
40.6515354915928
 20
-5.766224004668319
 30
0.0
 10
40.96204107057638
 20
-5.813701406997084
 30
0.0
 10
41.89804259316637
 20
-5.932581881069032
 30
0.0
 10
42.52844761634758
 20
-5.980123913844603
 30
0.0
 10
43.14999999999999
 20
-5.994928891377857
 30
0.0
  0
SPLINE
  5
B0
330
1F
100
AcDbEntity
  8
0
  6
Continuous
 62
     1
370
    15
100
AcDbSpline
210
0.0
220
0.0
230
1.0
 70
     8
 71
     3
 72
    15
 73
    11
 74
     0
 42
0.000000001
 43
0.00000001
 40
0.0
 40
0.0
 40
0.0
 40
0.0
 40
0.0732746586241024
 40
0.2058990942375368
 40
0.3385359010370543
 40
0.4711895164936875
 40
0.6038643549655526
 40
0.7359317984627094
 40
0.8679772104820732
 40
1.0
 40
1.0
 40
1.0
 40
1.0
 10
28.24207885784445
 20
-0.5679770901981166
 30
0.0
 10
27.87346761801236
 20
-0.4207047527522217
 30
0.0
 10
26.83768359892122
 20
-0.0068749041286715
 30
0.0
 10
25.1346525659689
 20
0.6855723924503746
 30
0.0
 10
23.13289349278638
 20
1.470500110518515
 30
0.0
 10
21.13085382008705
 20
2.201830461807109
 30
0.0
 10
19.13164722922343
 20
2.851226956304114
 30
0.0
 10
17.13545456453235
 20
3.391798175896418
 30
0.0
 10
15.14259517027032
 20
3.817952252822153
 30
0.0
 10
13.81416045479398
 20
3.982172683656548
 30
0.0
 10
13.15
 20
4.064275864760428
 30
0.0
  0
SPLINE
  5
B1
330
1F
100
AcDbEntity
  8
0
  6
Continuous
 62
     4
370
    15
100
AcDbSpline
210
0.0
220
0.0
230
1.0
 70
    24
 71
     3
 72
    10
 73
     6
 74
     0
 42
0.000000001
 43
0.00000001
 40
0.0
 40
0.0
 40
0.0
 40
0.0
 40
0.5
 40
0.5
 40
1.0
 40
1.0
 40
1.0
 40
1.0
 10
13.14999999999999
 20
5.863392775280901
 30
0.0
 10
13.14999999999999
 20
5.592002895222565
 30
0.0
 10
13.14999999999999
 20
5.283778606257157
 30
0.0
 10
13.14999999999999
 20
4.660775881209425
 30
0.0
 10
13.14999999999999
 20
4.347707522332308
 30
0.0
 10
13.14999999999999
 20
4.06427586476043
 30
0.0
  0
SPLINE
  5
B2
330
1F
100
AcDbEntity
  8
0
  6
Continuous
 62
     1
370
    15
100
AcDbSpline
210
0.0
220
0.0
230
1.0
 70
     8
 71
     3
 72
    23
 73
    19
 74
     0
 42
0.000000001
 43
0.00000001
 40
0.0
 40
0.0
 40
0.0
 40
0.0
 40
0.0642142170922875
 40
0.1284011841133274
 40
0.1925709884278326
 40
0.2567337827539355
 40
0.3208997465476854
 40
0.3839342671729798
 40
0.4469993084160442
 40
0.5100740795525155
 40
0.5731154314450747
 40
0.6374248665717248
 40
0.7017281208240079
 40
0.7660349541876692
 40
0.83035511336807
 40
0.8946982956835475
 40
0.9590599319533828
 40
1.0
 40
1.0
 40
1.0
 40
1.0
 10
43.14999999999999
 20
-5.693645215391394
 30
0.0
 10
42.52247198853175
 20
-5.561397074715173
 30
0.0
 10
41.26768226461436
 20
-5.29695691444337
 30
0.0
 10
39.38601682384322
 20
-4.677166838508525
 30
0.0
 10
37.50493781222225
 20
-3.917914930062881
 30
0.0
 10
35.62411362053028
 20
-3.027058620368246
 30
0.0
 10
33.75434642436943
 20
-2.044086904156583
 30
0.0
 10
31.89528674673619
 20
-1.001358745442948
 30
0.0
 10
30.04665146358224
 20
0.0665271044456378
 30
0.0
 10
28.19784489252159
 20
1.132191058395965
 30
0.0
 10
26.33719345188157
 20
2.169435562908566
 30
0.0
 10
24.46456092217953
 20
3.143631578383177
 30
0.0
 10
22.57961860075013
 20
4.021279044955565
 30
0.0
 10
20.69454583948677
 20
4.76635211612802
 30
0.0
 10
18.8090044600433
 20
5.357167712543231
 30
0.0
 10
16.92279822813832
 20
5.763995464945431
 30
0.0
 10
15.26487062209658
 20
5.981721646390496
 30
0.0
 10
14.23591399232276
 20
5.978437083406522
 30
0.0
 10
13.83586771849074
 20
5.977160083827642
 30
0.0
  0
SPLINE
  5
B3
330
1F
100
AcDbEntity
  8
0
  6
Continuous
 62
     1
370
    15
100
AcDbSpline
210
0.0
220
0.0
230
1.0
 70
     8
 71
     3
 72
    15
 73
    11
 74
     0
 42
0.000000001
 43
0.00000001
 40
0.0
 40
0.0
 40
0.0
 40
0.0
 40
0.128533349823735
 40
0.2570450888397692
 40
0.3855393130470781
 40
0.5140201422426942
 40
0.6424917144586191
 40
0.7709581803461557
 40
0.8994236975237947
 40
1.0
 40
1.0
 40
1.0
 40
1.0
 10
43.14999999999999
 20
-4.733833586209292
 30
0.0
 10
42.48247579220289
 20
-4.595024830495476
 30
0.0
 10
41.14753961002755
 20
-4.317430657519157
 30
0.0
 10
39.14534825206772
 20
-3.694372068661629
 30
0.0
 10
37.14346591687486
 20
-2.947223606941879
 30
0.0
 10
35.14182428842697
 20
-2.087843558618892
 30
0.0
 10
33.14034806124573
 20
-1.151712501731038
 30
0.0
 10
31.13896281862636
 20
-0.1744537178217599
 30
0.0
 10
29.28244014327343
 20
0.7438735698863767
 30
0.0
 10
28.09303021465166
 20
1.303715462441929
 30
0.0
 10
27.57073933812065
 20
1.549551911041649
 30
0.0
  0
LINE
  5
B4
330
1F
100
AcDbEntity
  8
0
  6
Continuous
 62
     1
370
    15
100
AcDbLine
 10
43.14999999999985
 20
-5.693645215391397
 30
0.0
 11
43.14999999999999
 21
-4.733833586209292
 31
0.0
  0
LINE
  5
B5
330
1F
100
AcDbEntity
  8
0
  6
Continuous
 62
     1
370
    15
100
AcDbLine
 10
43.14999999999999
 20
-5.994928891377861
 30
0.0
 11
43.15000000000011
 21
-5.69364521539139
 31
0.0
  0
SPLINE
  5
B6
330
1F
100
AcDbEntity
  8
0
  6
Continuous
 62
     1
370
    15
100
AcDbSpline
210
0.0
220
0.0
230
1.0
 70
     8
 71
     3
 72
     8
 73
     4
 74
     0
 42
0.000000001
 43
0.00000001
 40
0.0
 40
0.0
 40
0.0
 40
0.0
 40
1.0
 40
1.0
 40
1.0
 40
1.0
 10
39.43766238388616
 20
1.678126369561339
 30
0.0
 10
39.16854352449407
 20
1.996908240080756
 30
0.0
 10
38.93528950873191
 20
2.301017429348711
 30
0.0
 10
38.75063730606628
 20
2.584818657777563
 30
0.0
  0
LINE
  5
B7
330
1F
100
AcDbEntity
  8
0
  6
Continuous
 62
     1
370
    15
100
AcDbLine
 10
38.7506373060663
 20
2.584818657777558
 30
0.0
 11
43.14999999999999
 21
0.0000000000000051
 31
0.0
  0
LINE
  5
B8
330
1F
100
AcDbEntity
  8
0
  6
Continuous
 62
     1
370
    15
100
AcDbLine
 10
43.14999999999999
 20
0.0000000000000051
 30
0.0
 11
43.14999999999999
 21
-1.603457676177863
 31
0.0
  0
SPLINE
  5
B9
330
1F
100
AcDbEntity
  8
0
  6
Continuous
 62
     1
370
    15
100
AcDbSpline
210
0.0
220
0.0
230
1.0
 70
     8
 71
     3
 72
    12
 73
     8
 74
     0
 42
0.000000001
 43
0.00000001
 40
0.0
 40
0.0
 40
0.0
 40
0.0
 40
0.5000000000000009
 40
0.5000000000000009
 40
0.7500000000000004
 40
0.7500000000000004
 40
1.0
 40
1.0
 40
1.0
 40
1.0
 10
43.14999999999999
 20
-1.603457676177863
 30
0.0
 10
42.5073832497508
 20
-1.098253421644958
 30
0.0
 10
41.87550027521569
 20
-0.5723371630807181
 30
0.0
 10
40.94419516594454
 20
0.2484131373375433
 30
0.0
 10
40.63655768172761
 20
0.5273947563256667
 30
0.0
 10
40.02756600981745
 20
1.097482307907385
 30
0.0
 10
39.72786785258376
 20
1.387117232542716
 30
0.0
 10
39.43766238388616
 20
1.67812636956134
 30
0.0
  0
SPLINE
  5
BA
330
1F
100
AcDbEntity
  8
0
  6
Continuous
 62
     1
370
    15
100
AcDbSpline
210
0.0
220
0.0
230
1.0
 70
     8
 71
     3
 72
    14
 73
    10
 74
     0
 42
0.000000001
 43
0.00000001
 40
0.0
 40
0.0
 40
0.0
 40
0.0
 40
0.1554511710747815
 40
0.3109020382093093
 40
0.4557605868247069
 40
0.6006132974667804
 40
0.7454649240265782
 40
0.8903202218805767
 40
0.9999999999999999
 40
0.9999999999999999
 40
0.9999999999999999
 40
0.9999999999999999
 10
39.43766238388616
 20
1.678126369561336
 30
0.0
 10
38.72168694126819
 20
1.981029335187961
 30
0.0
 10
37.28973745591721
 20
2.586834674201193
 30
0.0
 10
35.19054594036825
 20
3.348630841007448
 30
0.0
 10
33.14037676617329
 20
3.965134088403394
 30
0.0
 10
31.13898570478441
 20
4.420631725911762
 30
0.0
 10
29.13762350142818
 20
4.707183115940476
 30
0.0
 10
27.2982431524131
 20
4.830278816068412
 30
0.0
 10
26.12596627041457
 20
4.775175261955786
 30
0.0
 10
25.62082933468806
 20
4.751431007591031
 30
0.0
  0
SPLINE
  5
BB
330
1F
100
AcDbEntity
  8
0
  6
Continuous
 62
     1
370
    15
100
AcDbSpline
210
0.0
220
0.0
230
1.0
 70
    24
 71
     3
 72
    10
 73
     6
 74
     0
 42
0.000000001
 43
0.00000001
 40
0.0
 40
0.0
 40
0.0
 40
0.0
 40
0.5
 40
0.5
 40
1.0
 40
1.0
 40
1.0
 40
1.0
 10
43.14999999999999
 20
-4.733833586209288
 30
0.0
 10
43.14999999999999
 20
-4.370948334022824
 30
0.0
 10
43.14999999999999
 20
-3.912428903438804
 30
0.0
 10
43.14999999999999
 20
-2.846415354904074
 30
0.0
 10
43.14999999999999
 20
-2.239844658307854
 30
0.0
 10
43.14999999999999
 20
-1.603457676178056
 30
0.0
  0
SPLINE
  5
BC
330
1F
100
AcDbEntity
  8
0
  6
Continuous
 62
     1
370
    15
100
AcDbSpline
210
0.0
220
0.0
230
1.0
 70
     8
 71
     3
 72
     9
 73
     5
 74
     0
 42
0.000000001
 43
0.00000001
 40
0.0
 40
0.0
 40
0.0
 40
0.0
 40
0.8973232337782805
 40
1.0
 40
1.0
 40
1.0
 40
1.0
 10
43.14999999999999
 20
4.200000000000003
 30
0.0
 10
42.48247566594034
 20
4.196913924297349
 30
0.0
 10
41.73856944694168
 20
4.193474722472984
 30
0.0
 10
40.99468335736101
 20
4.105037592884666
 30
0.0
 10
40.91830353924553
 20
4.095957154404607
 30
0.0
  0
SPLINE
  5
BD
330
1F
100
AcDbEntity
  8
0
  6
Continuous
 62
     1
370
    15
100
AcDbSpline
210
0.0
220
0.0
230
1.0
 70
     8
 71
     3
 72
    10
 73
     6
 74
     0
 42
0.000000001
 43
0.00000001
 40
0.0
 40
0.0
 40
0.0
 40
0.0
 40
0.5
 40
0.5
 40
1.0
 40
1.0
 40
1.0
 40
1.0
 10
43.14999999999999
 20
4.200000000000003
 30
0.0
 10
42.40342417078965
 20
3.997517931024634
 30
0.0
 10
41.66177972161533
 20
3.764963796806366
 30
0.0
 10
40.19225163442663
 20
3.233042289695103
 30
0.0
 10
39.46423208593021
 20
2.933958217721522
 30
0.0
 10
38.75063730606628
 20
2.584818657777562
 30
0.0
  0
SPLINE
  5
BE
330
1F
100
AcDbEntity
  8
0
  6
Continuous
 62
     1
370
    15
100
AcDbSpline
210
0.0
220
0.0
230
1.0
 70
     8
 71
     3
 72
     9
 73
     5
 74
     0
 42
0.000000001
 43
0.00000001
 40
0.0
 40
0.0
 40
0.0
 40
0.0
 40
0.4227578467365917
 40
1.0
 40
1.0
 40
1.0
 40
1.0
 10
16.60173873224362
 20
-4.974318757203114
 30
0.0
 10
16.11531281597541
 20
-5.022201874004268
 30
0.0
 10
14.96471107073732
 20
-5.135465571344906
 30
0.0
 10
13.81415148990025
 20
-5.08721257207246
 30
0.0
 10
13.15000000000003
 20
-5.059358906871015
 30
0.0
  0
SPLINE
  5
BF
330
1F
100
AcDbEntity
  8
0
  6
Continuous
 62
     1
370
    15
100
AcDbSpline
210
0.0
220
0.0
230
1.0
 70
     8
 71
     3
 72
    16
 73
    12
 74
     0
 42
0.000000001
 43
0.00000001
 40
0.0
 40
0.0
 40
0.0
 40
0.0
 40
0.0756605084647899
 40
0.1913772893792791
 40
0.3071007978708072
 40
0.4228348195142133
 40
0.5385831255070891
 40
0.6543494675451075
 40
0.7695852028472047
 40
0.8848022146464465
 40
1.0
 40
1.0
 40
1.0
 40
1.0
 10
30.4462352949753
 20
-4.492603916869785
 30
0.0
 10
30.01003676289428
 20
-4.562008860105816
 30
0.0
 10
28.90670697573416
 20
-4.737563190568925
 30
0.0
 10
27.13620158309055
 20
-4.823452548981412
 30
0.0
 10
25.1346480846409
 20
-4.767025498755906
 30
0.0
 10
23.13288877821876
 20
-4.527614843933662
 30
0.0
 10
21.13084919239862
 20
-4.122434333409808
 30
0.0
 10
19.13164321585992
 20
-3.565342625827897
 30
0.0
 10
17.13544310758403
 20
-2.877340288484921
 30
0.0
 10
15.14258736423101
 20
-2.088066033279032
 30
0.0
 10
13.81415883883125
 20
-1.502927877321399
 30
0.0
 10
13.14999999999999
 20
-1.210383212112757
 30
0.0
  0
SPLINE
  5
C0
330
1F
100
AcDbEntity
  8
0
  6
Continuous
 62
     4
370
    15
100
AcDbSpline
210
0.0
220
0.0
230
1.0
 70
    24
 71
     3
 72
    14
 73
    10
 74
     0
 42
0.000000001
 43
0.00000001
 40
0.0
 40
0.0
 40
0.0
 40
0.0
 40
0.25
 40
0.25
 40
0.5000000000000001
 40
0.5000000000000001
 40
0.75
 40
0.75
 40
1.0
 40
1.0
 40
1.0
 40
1.0
 10
13.14999999999999
 20
-1.210383212112755
 30
0.0
 10
13.14999999999999
 20
-1.641673868835745
 30
0.0
 10
13.14999999999999
 20
-2.065376688982944
 30
0.0
 10
13.14999999999999
 20
-2.864625553100557
 30
0.0
 10
13.14999999999999
 20
-3.23990418267283
 30
0.0
 10
13.14999999999999
 20
-3.912608048589621
 30
0.0
 10
13.14999999999999
 20
-4.209839028478329
 30
0.0
 10
13.14999999999999
 20
-4.707887056136371
 30
0.0
 10
13.14999999999999
 20
-4.90867386763115
 30
0.0
 10
13.14999999999999
 20
-5.05935890687101
 30
0.0
  0
SPLINE
  5
C1
330
1F
100
AcDbEntity
  8
0
  6
Continuous
 62
     4
370
    15
100
AcDbSpline
210
0.0
220
0.0
230
1.0
 70
    24
 71
     3
 72
    14
 73
    10
 74
     0
 42
0.000000001
 43
0.00000001
 40
0.0
 40
0.0
 40
0.0
 40
0.0
 40
0.25
 40
0.25
 40
0.5
 40
0.5
 40
0.75
 40
0.75
 40
1.0
 40
1.0
 40
1.0
 40
1.0
 10
13.14999999999995
 20
4.064275864760432
 30
0.0
 10
13.14999999999995
 20
3.823823148078681
 30
0.0
 10
13.14999999999995
 20
3.517547293879649
 30
0.0
 10
13.14999999999995
 20
2.78436480603246
 30
0.0
 10
13.14999999999995
 20
2.357580027607893
 30
0.0
 10
13.14999999999995
 20
1.420121035371021
 30
0.0
 10
13.14999999999995
 20
0.9099463389032699
 30
0.0
 10
13.14999999999995
 20
-0.1409786805098265
 30
0.0
 10
13.14999999999995
 20
-0.6811608617014062
 30
0.0
 10
13.14999999999995
 20
-1.210383212112737
 30
0.0
  0
LINE
  5
C2
330
1F
100
AcDbEntity
  8
0
  6
Continuous
 62
     1
370
    15
100
AcDbLine
 10
43.14999999999999
 20
0.0000000000000051
 30
0.0
 11
43.14999999999999
 21
4.200000000000001
 31
0.0
  0
SPLINE
  5
C3
330
1F
100
AcDbEntity
  8
0
  6
Continuous
 62
     1
370
    15
100
AcDbSpline
210
0.0
220
0.0
230
1.0
 70
     8
 71
     3
 72
    12
 73
     8
 74
     0
 42
0.000000001
 43
0.00000001
 40
0.0
 40
0.0
 40
0.0
 40
0.0
 40
0.0086597933437633
 40
0.2564170157024007
 40
0.5042629217345441
 40
0.7521799112424041
 40
1.0
 40
1.0
 40
1.0
 40
1.0
 10
20.76056205226552
 20
-4.714654887364065
 30
0.0
 10
20.73859570186026
 20
-4.723321664320503
 30
0.0
 10
20.08817070980787
 20
-4.979945465225438
 30
0.0
 10
18.80900090290372
 20
-5.345724955043189
 30
0.0
 10
16.92279646936579
 20
-5.7695546939864
 30
0.0
 10
15.0362297217771
 20
-6.000959363348137
 30
0.0
 10
13.77866130245051
 20
-5.991605054918288
 30
0.0
 10
13.14999999999819
 20
-5.986928814937484
 30
0.0
  0
SPLINE
  5
C4
330
1F
100
AcDbEntity
  8
0
  6
Continuous
 62
     4
370
    15
100
AcDbSpline
210
0.0
220
0.0
230
1.0
 70
    24
 71
     3
 72
     8
 73
     4
 74
     0
 42
0.000000001
 43
0.00000001
 40
0.0
 40
0.0
 40
0.0
 40
0.0
 40
1.0
 40
1.0
 40
1.0
 40
1.0
 10
13.15000000000001
 20
-5.059358906871015
 30
0.0
 10
13.15000000000001
 20
-5.373440453737288
 30
0.0
 10
13.15000000000001
 20
-5.684639302019912
 30
0.0
 10
13.15000000000001
 20
-5.986928814922732
 30
0.0
  0
SPLINE
  5
C5
330
1F
100
AcDbEntity
  8
0
  6
Continuous
 62
     1
370
    15
100
AcDbSpline
210
0.0
220
0.0
230
1.0
 70
     8
 71
     3
 72
    14
 73
    10
 74
     0
 42
0.000000001
 43
0.00000001
 40
0.0
 40
0.0
 40
0.0
 40
0.0
 40
0.0284675155934925
 40
0.2381876863963514
 40
0.3435265056015887
 40
0.5059259435892163
 40
0.6690019586747105
 40
0.8341443746572206
 40
1.0
 40
1.0
 40
1.0
 40
1.0
 10
34.89452110639439
 20
4.022265730126113
 30
0.0
 10
34.97282033159043
 20
4.056584313818957
 30
0.0
 10
35.62794990321819
 20
4.343727883595967
 30
0.0
 10
36.57370394044453
 20
4.700192934608947
 30
0.0
 10
37.88770687587937
 20
5.132958827852353
 30
0.0
 10
39.07272312970076
 20
5.460891179389946
 30
0.0
 10
40.42363198055156
 20
5.740573510952962
 30
0.0
 10
41.78247312219764
 20
5.932559247714193
 30
0.0
 10
42.69350336787871
 20
5.974109167289646
 30
0.0
 10
43.14999999999962
 20
5.994928891377854
 30
0.0
  0
SPLINE
  5
C6
102
{ACAD_REACTORS
102
}
330
1F
100
AcDbEntity
  8
0
  6
Continuous
 62
     1
370
    15
100
AcDbSpline
210
0.0
220
0.0
230
1.0
 70
    24
 71
     3
 72
    10
 73
     6
 74
     0
 42
0.000000001
 43
0.00000001
 40
0.0
 40
0.0
 40
0.0
 40
0.0
 40
0.5
 40
0.5
 40
1.0
 40
1.0
 40
1.0
 40
1.0
 10
43.14999999999999
 20
4.200000000000003
 30
0.0
 10
43.14999999999999
 20
4.454593540843888
 30
0.0
 10
43.14999999999999
 20
4.750454813202706
 30
0.0
 10
43.14999999999999
 20
5.371170965765137
 30
0.0
 10
43.14999999999999
 20
5.694440614808839
 30
0.0
 10
43.14999999999999
 20
5.99492889137787
 30
0.0
  0
LINE
  5
C7
330
1F
100
AcDbEntity
  8
중심선
100
AcDbLine
 10
-39.85000000000001
 20
-0.0000000000000026
 30
0.0
 11
46.15000000000001
 21
-0.0000000000000026
 31
0.0
  0
CIRCLE
  5
C8
330
1F
100
AcDbEntity
  8
외형선
100
AcDbCircle
 10
0.0
 20
0.0
 30
0.0
 40
3.000000000000004
  0
INSERT
  5
C9
330
1F
100
AcDbEntity
  8
0
  6
Continuous
 62
     7
100
AcDbBlockReference
 66
     1
  2
블럭10
 10
-23.93827343951161
 20
-52.04717430164393
 30
0.0
  0
ATTRIB
  5
CA
330
C9
100
AcDbEntity
  8
FORMAT
 62
     2
100
AcDbText
 10
-36.89821263436938
 20
-49.97180738881174
 30
0.0
 40
4.233333333333333
  1
SEME35120E [ 2 FLUTE ]
 41
0.75
  7
SLDTEXTSTYLE0
 11
-36.89821263436938
 21
-52.08847405547841
 31
0.0
100
AcDbAttribute
  2
AUTOATTR0
 70
     0
 74
     1
  0
SEQEND
  5
CB
330
C9
100
AcDbEntity
  8
0
  6
Continuous
 62
     7
  0
HATCH
  5
CC
330
1F
100
AcDbEntity
  8
중심선
100
AcDbHatch
 10
0.0
 20
0.0
 30
0.0
210
0.0
220
0.0
230
1.0
  2
SOLID
 70
     1
 71
     0
 91
        1
 92
        0
 93
        4
 72
     1
 10
-18.22336413513076
 20
-35.8
 11
-21.66963937896804
 21
-35.8
 72
     1
 10
-21.66963937896804
 20
-35.8
 11
-23.79786923817207
 21
-38.33632558057259
 72
     1
 10
-23.79786923817207
 20
-38.33632558057259
 11
-20.35156090922163
 21
-38.3362861512701
 72
     1
 10
-20.35156090922163
 20
-38.3362861512701
 11
-18.22336413513076
 21
-35.8
 97
        0
 75
     0
 76
     1
 98
        1
 10
0.0
 20
0.0
  0
HATCH
  5
CD
330
1F
100
AcDbEntity
  8
중심선
100
AcDbHatch
 10
0.0
 20
0.0
 30
0.0
210
0.0
220
0.0
230
1.0
  2
SOLID
 70
     1
 71
     0
 91
        1
 92
        0
 93
        4
 72
     1
 10
-13.21060014409481
 20
-35.8
 11
-16.65687538793209
 21
-35.8
 72
     1
 10
-16.65687538793209
 20
-35.8
 11
-21.18801339628948
 21
-41.20000000000002
 72
     1
 10
-21.18801339628948
 20
-41.20000000000002
 11
-17.7417381524522
 21
-41.20000000000002
 72
     1
 10
-17.7417381524522
 20
-41.20000000000002
 11
-13.21060014409481
 21
-35.8
 97
        0
 75
     0
 76
     1
 98
        1
 10
0.0
 20
0.0
  0
HATCH
  5
CE
330
1F
100
AcDbEntity
  8
중심선
100
AcDbHatch
 10
0.0
 20
0.0
 30
0.0
210
0.0
220
0.0
230
1.0
  2
SOLID
 70
     1
 71
     0
 91
        1
 92
        0
 93
        4
 72
     1
 10
-8.197836153058912
 20
-35.80000000000003
 11
-11.64411139689603
 21
-35.8
 72
     1
 10
-11.64411139689603
 20
-35.8
 11
-18.69254829878528
 21
-44.20000000000002
 72
     1
 10
-18.69254829878528
 20
-44.20000000000002
 11
-15.246273054948
 21
-44.20000000000002
 72
     1
 10
-15.246273054948
 20
-44.20000000000002
 11
-8.197836153058912
 21
-35.80000000000003
 97
        0
 75
     0
 76
     1
 98
        1
 10
0.0
 20
0.0
  0
HATCH
  5
CF
330
1F
100
AcDbEntity
  8
중심선
100
AcDbHatch
 10
0.0
 20
0.0
 30
0.0
210
0.0
220
0.0
230
1.0
  2
SOLID
 70
     1
 71
     0
 91
        1
 92
        0
 93
        6
 72
     3
 10
-3.397945722046714
 20
-40.00000000005127
 11
3.960054785062284
 21
1.540850780301639E-10
 40
0.3939339440162633
 50
17.09539180608433
 51
320.0019657685079
 73
     0
 72
     1
 10
-1.714946066346118
 20
-38.5878940046383
 11
0.5903558073549198
 21
-36.65356729459038
 72
     3
 10
-3.39794572209956
 20
-40.00000000000015
 11
6.600054785286829
 21
-1.249000902703301E-13
 40
0.6363583540795982
 50
39.99873849337408
 51
368.4976242363724
 73
     1
 72
     1
 10
3.027386769801049
 20
-39.03999999993002
 11
-4.717878415263636
 21
-39.03999999992999
 72
     1
 10
-4.717878415263637
 20
-39.03999999992999
 11
-4.717903459709571
 21
-40.95999999992991
 72
     1
 10
-4.717903459709571
 20
-40.95999999992991
 11
-0.2765236902375348
 21
-40.95999999992988
 97
        0
 75
     0
 76
     1
 98
        1
 10
0.0
 20
0.0
  0
DIMENSION
  5
D0
330
1F
100
AcDbEntity
  8
치수문자_일반주서
100
AcDbDimension
  2
_D
 10
13.14999999999999
 20
12.14746444568894
 30
0.0
 11
28.06062997902637
 21
12.14746444568894
 31
0.0
 70
   160
  1
<>
 71
     2
 42
30.0
  3
SLDDIMSTYLE0
100
AcDbAlignedDimension
 13
43.14999999999999
 23
5.994928891377868
 33
0.0
 14
13.14999999999999
 24
6.000000000000001
 34
0.0
100
AcDbRotatedDimension
  0
DIMENSION
  5
DB
330
1F
100
AcDbEntity
  8
치수문자_일반주서
100
AcDbDimension
  2
_D_1
 10
-36.85000000000001
 20
26.98415911661226
 30
0.0
 11
3.149999999999993
 21
26.98415911661226
 31
0.0
 70
   160
  1
<>
 71
     2
 42
80.0
  3
SLDDIMSTYLE0
100
AcDbAlignedDimension
 13
43.14999999999999
 23
5.99492889137787
 33
0.0
 14
-36.85000000000001
 24
4.999999999999996
 34
0.0
 50
0.0000000000000051
100
AcDbRotatedDimension
  0
DIMENSION
  5
E5
330
1F
100
AcDbEntity
  8
치수문자_일반주서
100
AcDbDimension
  2
_D_2
 10
58.71619031224629
 20
-5.994928891377802
 30
0.0
 11
58.71619031224627
 21
0.0000000000000021
 31
0.0
 70
   160
  1
%%c<>
 71
     2
 42
11.99839906991449
 52
-270.0
  3
SLDDIMSTYLE1
100
AcDbAlignedDimension
 13
43.14999999999999
 23
6.003470178536634
 33
0.0
 14
43.14999999999999
 24
-5.994928891377861
 34
0.0
 50
90.0000000000002
100
AcDbRotatedDimension
  0
DIMENSION
  5
F3
330
1F
100
AcDbEntity
  8
치수문자_일반주서
100
AcDbDimension
  2
_D_3
 10
-48.26955944538853
 20
-6.000000000000047
 30
0.0
 11
-48.26955944538855
 21
-0.0000000000000001
 31
0.0
 70
   160
  1
%%c<>
 71
     2
 42
12.0
 52
-270.0
  3
SLDDIMSTYLE1
100
AcDbAlignedDimension
 13
-35.85000000000001
 23
5.999999999999999
 33
0.0
 14
-35.85000000000001
 24
-6.000000000000001
 34
0.0
 50
90.0000000000002
100
AcDbRotatedDimension
  0
INSERT
  5
106
330
1F
100
AcDbEntity
  8
외형선
100
AcDbBlockReference
  2
SW_DOWELSYMBOL_0
 10
0.0
 20
0.0
 30
0.0
  0
LINE
  5
155
330
1F
100
AcDbEntity
  8
0
  6
Continuous
 62
     4
370
    15
100
AcDbLine
 10
0.149999999999991
 20
5.849999999999999
 30
0.0
 11
0.1499999999999848
 21
-5.850000000000001
 31
0.0
1001
PE_URL
1000

  0
LINE
  5
156
330
1F
100
AcDbEntity
  8
0
  6
Continuous
 62
     4
370
    15
100
AcDbLine
 10
0.149999999999991
 20
5.849999999999999
 30
0.0
 11
-0.0000000000000102
 21
6.0
 31
0.0
1001
PE_URL
1000

  0
LINE
  5
157
330
1F
100
AcDbEntity
  8
0
  6
Continuous
 62
     4
370
    15
100
AcDbLine
 10
0.150000000000011
 20
-5.850000000000001
 30
0.0
 11
0.0000000000000102
 21
-6.000000000000002
 31
0.0
1001
PE_URL
1000

  0
LINE
  5
158
330
1F
100
AcDbEntity
  8
0
  6
Continuous
 62
     4
370
    15
100
AcDbLine
 10
0.0000000000000107
 20
-6.0
 30
0.0
 11
-0.0000000000000102
 21
6.0
 31
0.0
1001
PE_URL
1000

  0
LINE
  5
159
330
1F
100
AcDbEntity
  8
0
  6
Continuous
 62
     4
370
    15
100
AcDbLine
 10
0.150000000000011
 20
-5.850000000000001
 30
0.0
 11
13.15000000000001
 21
-5.85189110930167
 31
0.0
1001
PE_URL
1000

  0
LINE
  5
15A
102
{ACAD_REACTORS
102
}
330
1F
100
AcDbEntity
  8
0
  6
Continuous
 62
     4
370
    15
100
AcDbLine
 10
0.150000000000011
 20
5.849999999999995
 30
0.0
 11
13.15000000000001
 21
5.851891109301665
 31
0.0
1001
PE_URL
1000

  0
DIMENSION
  5
15B
102
{ACAD_REACTORS
102
}
102
{ACAD_XDICTIONARY
360
15C
102
}
330
1F
100
AcDbEntity
  8
치수문자_일반주서
100
AcDbDimension
  2
*D7
 10
43.14999999999999
 20
21.39492889137787
 30
0.0
 11
21.56122353641679
 21
21.39492889137787
 31
0.0
 70
   160
 71
     5
 42
42.99999999999998
  3
SLDDIMSTYLE0
100
AcDbAlignedDimension
 13
0.150000000000011
 23
5.849999999999995
 33
0.0
 14
43.14999999999999
 24
5.99492889137787
 34
0.0
100
AcDbRotatedDimension
1001
ENABLE_CUSTOM_SPLIT
1070
     1
1001
PE_URL
1000

  0
ENDSEC
  0
SECTION
  2
OBJECTS
  0
DICTIONARY
  5
C
330
0
100
AcDbDictionary
281
     1
  3
ACAD_GROUP
350
D
  3
ACAD_LAYOUT
350
1A
  3
ACAD_MLINESTYLE
350
17
  3
ACAD_PLOTSETTINGS
350
19
  3
ACAD_PLOTSTYLENAME
350
E
  3
ACAD_SCALELIST
350
47
  3
APPDATA
350
128
  3
DWGPROPS
350
174
  0
DICTIONARY
  5
171
330
1F
100
AcDbDictionary
280
     1
281
     1
  3
DIM_BOUNDING_BOXES_V1
360
172
  0
DICTIONARY
  5
15C
330
15B
100
AcDbDictionary
280
     1
281
     1
  3
ACAD_CUSTOM_BREAKDATA
360
170
  0
DICTIONARY
  5
D
102
{ACAD_REACTORS
330
C
102
}
330
C
100
AcDbDictionary
281
     1
  0
DICTIONARY
  5
1A
102
{ACAD_REACTORS
330
C
102
}
330
C
100
AcDbDictionary
281
     1
  3
Layout1
350
1E
  3
Layout2
350
26
  3
Model
350
22
  0
DICTIONARY
  5
17
102
{ACAD_REACTORS
330
C
102
}
330
C
100
AcDbDictionary
281
     1
  3
Standard
350
18
  0
DICTIONARY
  5
19
102
{ACAD_REACTORS
330
C
102
}
330
C
100
AcDbDictionary
281
     1
  0
ACDBDICTIONARYWDFLT
  5
E
102
{ACAD_REACTORS
330
C
102
}
330
C
100
AcDbDictionary
281
     1
  3
Normal
350
F
100
AcDbDictionaryWithDefault
340
F
  0
DICTIONARY
  5
47
102
{ACAD_REACTORS
330
C
102
}
330
C
100
AcDbDictionary
281
     1
  3
A0
350
48
  3
A1
350
49
  3
A2
350
4A
  3
A3
350
4B
  3
A4
350
4C
  3
A5
350
4D
  3
A6
350
4E
  3
A7
350
4F
  3
A8
350
50
  3
A9
350
51
  3
B0
350
52
  3
B1
350
53
  3
B2
350
54
  3
B3
350
55
  3
B4
350
56
  3
B5
350
57
  3
B6
350
58
  3
B7
350
59
  3
B8
350
5A
  3
B9
350
5B
  3
C0
350
5C
  3
C1
350
5D
  3
C2
350
5E
  3
C3
350
5F
  3
C4
350
60
  3
C5
350
61
  3
C6
350
62
  3
C7
350
63
  3
C8
350
64
  3
C9
350
65
  3
D0
350
66
  3
D1
350
67
  3
D2
350
68
  0
DICTIONARY
  5
128
102
{ACAD_REACTORS
330
C
102
}
330
C
100
AcDbDictionary
281
     1
  0
XRECORD
  5
174
102
{ACAD_REACTORS
330
C
102
}
330
C
100
AcDbXrecord
280
     1
  1
DWGPROPS COOKIE
  2

  3

  4

  6

  7

  8
12016016
  9

300
=
301
=
302
=
303
=
304
=
305
=
306
=
307
=
308
=
309
=
 40
0.0
 41
2458250.118676562
 42
2459702.311682176
  1

 90
        0
  0
DICTIONARY
  5
172
102
{ACAD_REACTORS
330
171
102
}
330
171
100
AcDbDictionary
281
     1
  0
BREAKDATA
  5
170
102
{ACAD_REACTORS
330
15C
102
}
330
15C
100
AcDbBreakData
 70
     0
330
15B
 90
        0
  0
LAYOUT
  5
1E
102
{ACAD_REACTORS
330
1A
102
}
330
1A
100
AcDbPlotSettings
  1

  2
none_device
  4

  6

 40
0.0
 41
0.0
 42
0.0
 43
0.0
 44
0.0
 45
0.0
 46
0.0
 47
0.0
 48
0.0
 49
0.0
140
0.0
141
0.0
142
1.0
143
1.0
 70
   688
 72
     1
 73
     0
 74
     5
  7

 75
    16
147
1.0
148
0.0
149
0.0
100
AcDbLayout
  1
Layout1
 70
     1
 71
     1
 10
0.0
 20
0.0
 11
420.0
 21
297.0
 12
0.0
 22
0.0
 32
0.0
 14
1.000000000000000E+20
 24
1.000000000000000E+20
 34
1.000000000000000E+20
 15
-1.000000000000000E+20
 25
-1.000000000000000E+20
 35
-1.000000000000000E+20
146
0.0
 13
0.0
 23
0.0
 33
0.0
 16
1.0
 26
0.0
 36
0.0
 17
0.0
 27
1.0
 37
0.0
 76
     0
330
1B
  0
LAYOUT
  5
26
102
{ACAD_REACTORS
330
1A
102
}
330
1A
100
AcDbPlotSettings
  1

  2
none_device
  4

  6

 40
0.0
 41
0.0
 42
0.0
 43
0.0
 44
0.0
 45
0.0
 46
0.0
 47
0.0
 48
0.0
 49
0.0
140
0.0
141
0.0
142
1.0
143
1.0
 70
   688
 72
     1
 73
     0
 74
     5
  7

 75
    16
147
1.0
148
0.0
149
0.0
100
AcDbLayout
  1
Layout2
 70
     1
 71
     2
 10
0.0
 20
0.0
 11
0.0
 21
0.0
 12
0.0
 22
0.0
 32
0.0
 14
0.0
 24
0.0
 34
0.0
 15
0.0
 25
0.0
 35
0.0
146
0.0
 13
0.0
 23
0.0
 33
0.0
 16
1.0
 26
0.0
 36
0.0
 17
0.0
 27
1.0
 37
0.0
 76
     0
330
23
  0
LAYOUT
  5
22
102
{ACAD_REACTORS
330
1A
102
}
330
1A
100
AcDbPlotSettings
  1

  2
none_device
  4
ANSI_A_(11.00_x_8.50_Inches)
  6

 40
6.35
 41
19.05
 42
6.35000508
 43
19.05000254
 44
279.4
 45
215.9
 46
132.6355446256553
 47
112.5174488610404
 48
0.0
 49
0.0
140
0.0
141
0.0
142
0.0967561724438666
143
1.0
 70
  1696
 72
     0
 73
     0
 74
     0
  7

 75
     0
147
0.0235690232323232
148
0.0
149
0.0
100
AcDbLayout
  1
Model
 70
     1
 71
     0
 10
0.0
 20
0.0
 11
420.0
 21
297.0
 12
0.0
 22
0.0
 32
0.0
 14
-52.64455944538858
 24
-49.97180738881174
 34
0.0
 15
59.26652364557961
 25
31.35915911661226
 35
0.0
146
0.0
 13
0.0
 23
0.0
 33
0.0
 16
1.0
 26
0.0
 36
0.0
 17
0.0
 27
1.0
 37
0.0
 76
     0
330
1F
331
29
  0
MLINESTYLE
  5
18
102
{ACAD_REACTORS
330
17
102
}
330
17
100
AcDbMlineStyle
  2
Standard
 70
     0
  3

 62
   256
 51
90.0
 52
90.0
 71
     2
 49
0.5
 62
   256
  6
BYLAYER
 49
-0.5
 62
   256
  6
BYLAYER
  0
ACDBPLACEHOLDER
  5
F
102
{ACAD_REACTORS
330
E
102
}
330
E
  0
SCALE
  5
48
102
{ACAD_REACTORS
330
47
102
}
330
47
100
AcDbScale
 70
     0
300
1:1
140
1.0
141
1.0
290
     1
  0
SCALE
  5
49
102
{ACAD_REACTORS
330
47
102
}
330
47
100
AcDbScale
 70
     0
300
1:2
140
1.0
141
2.0
290
     0
  0
SCALE
  5
4A
102
{ACAD_REACTORS
330
47
102
}
330
47
100
AcDbScale
 70
     0
300
1:4
140
1.0
141
4.0
290
     0
  0
SCALE
  5
4B
102
{ACAD_REACTORS
330
47
102
}
330
47
100
AcDbScale
 70
     0
300
1:5
140
1.0
141
5.0
290
     0
  0
SCALE
  5
4C
102
{ACAD_REACTORS
330
47
102
}
330
47
100
AcDbScale
 70
     0
300
1:8
140
1.0
141
8.0
290
     0
  0
SCALE
  5
4D
102
{ACAD_REACTORS
330
47
102
}
330
47
100
AcDbScale
 70
     0
300
1:10
140
1.0
141
10.0
290
     0
  0
SCALE
  5
4E
102
{ACAD_REACTORS
330
47
102
}
330
47
100
AcDbScale
 70
     0
300
1:16
140
1.0
141
16.0
290
     0
  0
SCALE
  5
4F
102
{ACAD_REACTORS
330
47
102
}
330
47
100
AcDbScale
 70
     0
300
1:20
140
1.0
141
20.0
290
     0
  0
SCALE
  5
50
102
{ACAD_REACTORS
330
47
102
}
330
47
100
AcDbScale
 70
     0
300
1:30
140
1.0
141
30.0
290
     0
  0
SCALE
  5
51
102
{ACAD_REACTORS
330
47
102
}
330
47
100
AcDbScale
 70
     0
300
1:40
140
1.0
141
40.0
290
     0
  0
SCALE
  5
52
102
{ACAD_REACTORS
330
47
102
}
330
47
100
AcDbScale
 70
     0
300
1:50
140
1.0
141
50.0
290
     0
  0
SCALE
  5
53
102
{ACAD_REACTORS
330
47
102
}
330
47
100
AcDbScale
 70
     0
300
1:100
140
1.0
141
100.0
290
     0
  0
SCALE
  5
54
102
{ACAD_REACTORS
330
47
102
}
330
47
100
AcDbScale
 70
     0
300
2:1
140
2.0
141
1.0
290
     0
  0
SCALE
  5
55
102
{ACAD_REACTORS
330
47
102
}
330
47
100
AcDbScale
 70
     0
300
4:1
140
4.0
141
1.0
290
     0
  0
SCALE
  5
56
102
{ACAD_REACTORS
330
47
102
}
330
47
100
AcDbScale
 70
     0
300
8:1
140
8.0
141
1.0
290
     0
  0
SCALE
  5
57
102
{ACAD_REACTORS
330
47
102
}
330
47
100
AcDbScale
 70
     0
300
10:1
140
10.0
141
1.0
290
     0
  0
SCALE
  5
58
102
{ACAD_REACTORS
330
47
102
}
330
47
100
AcDbScale
 70
     0
300
100:1
140
100.0
141
1.0
290
     0
  0
SCALE
  5
59
102
{ACAD_REACTORS
330
47
102
}
330
47
100
AcDbScale
 70
     0
300
1/128" = 1'-0"
140
0.0078125
141
12.0
290
     0
  0
SCALE
  5
5A
102
{ACAD_REACTORS
330
47
102
}
330
47
100
AcDbScale
 70
     0
300
1/64" = 1'-0"
140
0.015625
141
12.0
290
     0
  0
SCALE
  5
5B
102
{ACAD_REACTORS
330
47
102
}
330
47
100
AcDbScale
 70
     0
300
1/32" = 1'-0"
140
0.03125
141
12.0
290
     0
  0
SCALE
  5
5C
102
{ACAD_REACTORS
330
47
102
}
330
47
100
AcDbScale
 70
     0
300
1/16" = 1'-0"
140
0.0625
141
12.0
290
     0
  0
SCALE
  5
5D
102
{ACAD_REACTORS
330
47
102
}
330
47
100
AcDbScale
 70
     0
300
3/32" = 1'-0"
140
0.09375
141
12.0
290
     0
  0
SCALE
  5
5E
102
{ACAD_REACTORS
330
47
102
}
330
47
100
AcDbScale
 70
     0
300
1/8" = 1'-0"
140
0.125
141
12.0
290
     0
  0
SCALE
  5
5F
102
{ACAD_REACTORS
330
47
102
}
330
47
100
AcDbScale
 70
     0
300
3/16" = 1'-0"
140
0.1875
141
12.0
290
     0
  0
SCALE
  5
60
102
{ACAD_REACTORS
330
47
102
}
330
47
100
AcDbScale
 70
     0
300
1/4" = 1'-0"
140
0.25
141
12.0
290
     0
  0
SCALE
  5
61
102
{ACAD_REACTORS
330
47
102
}
330
47
100
AcDbScale
 70
     0
300
3/8" = 1'-0"
140
0.375
141
12.0
290
     0
  0
SCALE
  5
62
102
{ACAD_REACTORS
330
47
102
}
330
47
100
AcDbScale
 70
     0
300
1/2" = 1'-0"
140
0.5
141
12.0
290
     0
  0
SCALE
  5
63
102
{ACAD_REACTORS
330
47
102
}
330
47
100
AcDbScale
 70
     0
300
3/4" = 1'-0"
140
0.75
141
12.0
290
     0
  0
SCALE
  5
64
102
{ACAD_REACTORS
330
47
102
}
330
47
100
AcDbScale
 70
     0
300
1" = 1'-0"
140
1.0
141
12.0
290
     0
  0
SCALE
  5
65
102
{ACAD_REACTORS
330
47
102
}
330
47
100
AcDbScale
 70
     0
300
1-1/2" = 1'-0"
140
1.5
141
12.0
290
     0
  0
SCALE
  5
66
102
{ACAD_REACTORS
330
47
102
}
330
47
100
AcDbScale
 70
     0
300
3" = 1'-0"
140
3.0
141
12.0
290
     0
  0
SCALE
  5
67
102
{ACAD_REACTORS
330
47
102
}
330
47
100
AcDbScale
 70
     0
300
6" = 1'-0"
140
6.0
141
12.0
290
     0
  0
SCALE
  5
68
102
{ACAD_REACTORS
330
47
102
}
330
47
100
AcDbScale
 70
     0
300
1'-0" = 1'-0"
140
12.0
141
12.0
290
     0
  0
ENDSEC
  0
EOF
