  0
SECTION
  2
HEADER
  9
$ACADVER
  1
AC1015
  9
$ACADMAINTVER
 70
     6
  9
$DWGCODEPAGE
  3
ANSI_949
  9
$INSBASE
 10
0.0
 20
0.0
 30
0.0
  9
$EXTMIN
 10
-69.37402381642792
 20
-49.97180738881175
 30
0.0
  9
$EXTMAX
 10
61.11652364557963
 20
31.70915911661224
 30
0.0
  9
$LIMMIN
 10
0.0
 20
0.0
  9
$LIMMAX
 10
420.0
 20
297.0
  9
$ORTHOMODE
 70
     0
  9
$REGENMODE
 70
     1
  9
$FILLMODE
 70
     1
  9
$QTEXTMODE
 70
     0
  9
$MIRRTEXT
 70
     1
  9
$LTSCALE
 40
1.0
  9
$ATTMODE
 70
     1
  9
$TEXTSIZE
 40
3.5
  9
$TRACEWID
 40
1.0
  9
$TEXTSTYLE
  7
Standard
  9
$CLAYER
  8
0
  9
$CELTYPE
  6
ByLayer
  9
$CECOLOR
 62
   256
  9
$CELTSCALE
 40
1.0
  9
$DISPSILH
 70
     0
  9
$DIMSCALE
 40
1.0
  9
$DIMASZ
 40
3.302
  9
$DIMEXO
 40
1.0
  9
$DIMDLI
 40
3.75
  9
$DIMRND
 40
0.0
  9
$DIMDLE
 40
0.0
  9
$DIMEXE
 40
1.0
  9
$DIMTP
 40
0.0
  9
$DIMTM
 40
0.0
  9
$DIMTXT
 40
3.5
  9
$DIMCEN
 40
2.5
  9
$DIMTSZ
 40
0.0
  9
$DIMTOL
 70
     0
  9
$DIMLIM
 70
     0
  9
$DIMTIH
 70
     1
  9
$DIMTOH
 70
     1
  9
$DIMSE1
 70
     0
  9
$DIMSE2
 70
     0
  9
$DIMTAD
 70
     1
  9
$DIMZIN
 70
     0
  9
$DIMBLK
  1

  9
$DIMASO
 70
     1
  9
$DIMSHO
 70
     1
  9
$DIMPOST
  1

  9
$DIMAPOST
  1

  9
$DIMALT
 70
     0
  9
$DIMALTD
 70
     3
  9
$DIMALTF
 40
0.0393700787401575
  9
$DIMLFAC
 40
1.0
  9
$DIMTOFL
 70
     1
  9
$DIMTVP
 40
0.0
  9
$DIMTIX
 70
     0
  9
$DIMSOXD
 70
     0
  9
$DIMSAH
 70
     0
  9
$DIMBLK1
  1

  9
$DIMBLK2
  1

  9
$DIMSTYLE
  2
ISO-25
  9
$DIMCLRD
 70
     0
  9
$DIMCLRE
 70
     0
  9
$DIMCLRT
 70
     0
  9
$DIMTFAC
 40
1.0
  9
$DIMGAP
 40
1.524
  9
$DIMJUST
 70
     0
  9
$DIMSD1
 70
     0
  9
$DIMSD2
 70
     0
  9
$DIMTOLJ
 70
     0
  9
$DIMTZIN
 70
     0
  9
$DIMALTZ
 70
     0
  9
$DIMALTTZ
 70
     0
  9
$DIMUPT
 70
     0
  9
$DIMDEC
 70
     2
  9
$DIMTDEC
 70
     2
  9
$DIMALTU
 70
     2
  9
$DIMALTTD
 70
     3
  9
$DIMTXSTY
  7
Standard
  9
$DIMAUNIT
 70
     0
  9
$DIMADEC
 70
     2
  9
$DIMALTRND
 40
0.0
  9
$DIMAZIN
 70
     0
  9
$DIMDSEP
 70
    44
  9
$DIMATFIT
 70
     3
  9
$DIMFRAC
 70
     0
  9
$DIMLDRBLK
  1

  9
$DIMLUNIT
 70
     2
  9
$DIMLWD
 70
    -2
  9
$DIMLWE
 70
    -2
  9
$DIMTMOVE
 70
     0
  9
$LUNITS
 70
     2
  9
$LUPREC
 70
     2
  9
$SKETCHINC
 40
1.0
  9
$FILLETRAD
 40
10.0
  9
$AUNITS
 70
     0
  9
$AUPREC
 70
     2
  9
$MENU
  1
.
  9
$ELEVATION
 40
0.0
  9
$PELEVATION
 40
0.0
  9
$THICKNESS
 40
0.0
  9
$LIMCHECK
 70
     0
  9
$CHAMFERA
 40
0.0
  9
$CHAMFERB
 40
0.0
  9
$CHAMFERC
 40
0.0
  9
$CHAMFERD
 40
0.0
  9
$SKPOLY
 70
     0
  9
$TDCREATE
 40
2458250.493809028
  9
$TDUCREATE
 40
2458250.118809028
  9
$TDUPDATE
 40
2458269.76618853
  9
$TDUUPDATE
 40
2458269.39118853
  9
$TDINDWG
 40
0.0044208449
  9
$TDUSRTIMER
 40
2458269.38676787
  9
$USRTIMER
 70
     1
  9
$ANGBASE
 50
0.0
  9
$ANGDIR
 70
     0
  9
$PDMODE
 70
     0
  9
$PDSIZE
 40
-1.0
  9
$PLINEWID
 40
0.0
  9
$SPLFRAME
 70
     0
  9
$SPLINETYPE
 70
     6
  9
$SPLINESEGS
 70
     8
  9
$HANDSEED
  5
144
  9
$SURFTAB1
 70
     6
  9
$SURFTAB2
 70
     6
  9
$SURFTYPE
 70
     6
  9
$SURFU
 70
     6
  9
$SURFV
 70
     6
  9
$UCSBASE
  2

  9
$UCSNAME
  2

  9
$UCSORG
 10
0.0
 20
0.0
 30
0.0
  9
$UCSXDIR
 10
1.0
 20
0.0
 30
0.0
  9
$UCSYDIR
 10
0.0
 20
1.0
 30
0.0
  9
$UCSORTHOREF
  2

  9
$UCSORTHOVIEW
 70
     0
  9
$UCSORGTOP
 10
0.0
 20
0.0
 30
0.0
  9
$UCSORGBOTTOM
 10
0.0
 20
0.0
 30
0.0
  9
$UCSORGLEFT
 10
0.0
 20
0.0
 30
0.0
  9
$UCSORGRIGHT
 10
0.0
 20
0.0
 30
0.0
  9
$UCSORGFRONT
 10
0.0
 20
0.0
 30
0.0
  9
$UCSORGBACK
 10
0.0
 20
0.0
 30
0.0
  9
$PUCSBASE
  2

  9
$PUCSNAME
  2

  9
$PUCSORG
 10
0.0
 20
0.0
 30
0.0
  9
$PUCSXDIR
 10
1.0
 20
0.0
 30
0.0
  9
$PUCSYDIR
 10
0.0
 20
1.0
 30
0.0
  9
$PUCSORTHOREF
  2

  9
$PUCSORTHOVIEW
 70
     0
  9
$PUCSORGTOP
 10
0.0
 20
0.0
 30
0.0
  9
$PUCSORGBOTTOM
 10
0.0
 20
0.0
 30
0.0
  9
$PUCSORGLEFT
 10
0.0
 20
0.0
 30
0.0
  9
$PUCSORGRIGHT
 10
0.0
 20
0.0
 30
0.0
  9
$PUCSORGFRONT
 10
0.0
 20
0.0
 30
0.0
  9
$PUCSORGBACK
 10
0.0
 20
0.0
 30
0.0
  9
$USERI1
 70
     0
  9
$USERI2
 70
     0
  9
$USERI3
 70
     0
  9
$USERI4
 70
     0
  9
$USERI5
 70
     0
  9
$USERR1
 40
0.0
  9
$USERR2
 40
0.0
  9
$USERR3
 40
0.0
  9
$USERR4
 40
0.0
  9
$USERR5
 40
0.0
  9
$WORLDVIEW
 70
     1
  9
$SHADEDGE
 70
     3
  9
$SHADEDIF
 70
    70
  9
$TILEMODE
 70
     1
  9
$MAXACTVP
 70
    64
  9
$PINSBASE
 10
0.0
 20
0.0
 30
0.0
  9
$PLIMCHECK
 70
     0
  9
$PEXTMIN
 10
1.000000000000000E+20
 20
1.000000000000000E+20
 30
1.000000000000000E+20
  9
$PEXTMAX
 10
-1.000000000000000E+20
 20
-1.000000000000000E+20
 30
-1.000000000000000E+20
  9
$PLIMMIN
 10
0.0
 20
0.0
  9
$PLIMMAX
 10
0.0
 20
0.0
  9
$UNITMODE
 70
     0
  9
$VISRETAIN
 70
     1
  9
$PLINEGEN
 70
     0
  9
$PSLTSCALE
 70
     1
  9
$TREEDEPTH
 70
  3020
  9
$CMLSTYLE
  2
Standard
  9
$CMLJUST
 70
     0
  9
$CMLSCALE
 40
20.0
  9
$PROXYGRAPHICS
 70
     1
  9
$MEASUREMENT
 70
     1
  9
$CELWEIGHT
370
    -1
  9
$ENDCAPS
280
     0
  9
$JOINSTYLE
280
     0
  9
$LWDISPLAY
290
     1
  9
$INSUNITS
 70
     4
  9
$HYPERLINKBASE
  1

  9
$STYLESHEET
  1

  9
$XEDIT
290
     1
  9
$CEPSNTYPE
380
     0
  9
$PSTYLEMODE
290
     1
  9
$FINGERPRINTGUID
  2
{07668D58-1429-4140-8990-04264158DFEC}
  9
$VERSIONGUID
  2
{FAEB1C32-E019-11D5-929B-00C0DF256EC4}
  9
$EXTNAMES
290
     1
  9
$PSVPSCALE
 40
0.0
  9
$OLESTARTUP
290
     0
  0
ENDSEC
  0
SECTION
  2
CLASSES
  0
CLASS
  1
ACDBDICTIONARYWDFLT
  2
AcDbDictionaryWithDefault
  3
ObjectDBX Classes
 90
        0
280
     0
281
     0
  0
CLASS
  1
VISUALSTYLE
  2
AcDbVisualStyle
  3
ObjectDBX Classes
 90
     4095
280
     0
281
     0
  0
CLASS
  1
MATERIAL
  2
AcDbMaterial
  3
ObjectDBX Classes
 90
     1153
280
     0
281
     0
  0
CLASS
  1
SCALE
  2
AcDbScale
  3
ObjectDBX Classes
 90
     1153
280
     0
281
     0
  0
CLASS
  1
SUN
  2
AcDbSun
  3
SCENEOE
 90
     1153
280
     0
281
     0
  0
CLASS
  1
ACDBPLACEHOLDER
  2
AcDbPlaceHolder
  3
ObjectDBX Classes
 90
        0
280
     0
281
     0
  0
CLASS
  1
LAYOUT
  2
AcDbLayout
  3
ObjectDBX Classes
 90
        0
280
     0
281
     0
  0
CLASS
  1
TABLESTYLE
  2
AcDbTableStyle
  3
ObjectDBX Classes
 90
     4095
280
     0
281
     0
  0
CLASS
  1
MLEADERSTYLE
  2
AcDbMLeaderStyle
  3
ACDB_MLEADERSTYLE_CLASS
 90
     4095
280
     0
281
     0
  0
CLASS
  1
RASTERVARIABLES
  2
AcDbRasterVariables
  3
ISM
 90
        0
280
     0
281
     0
  0
ENDSEC
  0
SECTION
  2
TABLES
  0
TABLE
  2
VPORT
  5
8
330
0
100
AcDbSymbolTable
 70
     1
  0
VPORT
  5
29
330
8
100
AcDbSymbolTableRecord
100
AcDbViewportTableRecord
  2
*Active
 70
     0
 10
0.0
 20
0.0
 11
1.0
 21
1.0
 12
3.890864723699686
 22
-32.41724142290219
 13
0.0
 23
0.0
 14
10.0
 24
10.0
 15
10.0
 25
10.0
 16
0.0
 26
0.0
 36
1.0
 17
0.0
 27
0.0
 37
0.0
 40
340.5661850002581
 41
0.7338129496402878
 42
50.0
 43
0.0
 44
0.0
 50
0.0
 51
0.0
 71
    16
 72
  2000
 73
     1
 74
     3
 75
     0
 76
     0
 77
     0
 78
     0
281
     0
 65
     1
110
0.0
120
0.0
130
0.0
111
1.0
121
0.0
131
0.0
112
0.0
122
1.0
132
0.0
 79
     0
146
0.0
  0
ENDTAB
  0
TABLE
  2
LTYPE
  5
5
330
0
100
AcDbSymbolTable
 70
     6
  0
LTYPE
  5
14
330
5
100
AcDbSymbolTableRecord
100
AcDbLinetypeTableRecord
  2
ByBlock
 70
     0
  3

 72
    65
 73
     0
 40
0.0
  0
LTYPE
  5
15
330
5
100
AcDbSymbolTableRecord
100
AcDbLinetypeTableRecord
  2
ByLayer
 70
     0
  3

 72
    65
 73
     0
 40
0.0
  0
LTYPE
  5
16
330
5
100
AcDbSymbolTableRecord
100
AcDbLinetypeTableRecord
  2
Continuous
 70
     0
  3
Solid line
 72
    65
 73
     0
 40
0.0
  0
LTYPE
  5
6A
330
5
100
AcDbSymbolTableRecord
100
AcDbLinetypeTableRecord
  2
HIDDEN
 70
     0
  3
Hidden __ __ __ __ __ __ __ __ __ __ __ __ __ __
 72
    65
 73
     2
 40
1.905
 49
1.27
 74
     0
 49
-0.635
 74
     0
  0
LTYPE
  5
6B
330
5
100
AcDbSymbolTableRecord
100
AcDbLinetypeTableRecord
  2
PHANTOM
 70
     0
  3
Phantom ______  __  __  ______  __  __  ______
 72
    65
 73
     6
 40
12.7
 49
6.35
 74
     0
 49
-1.27
 74
     0
 49
1.27
 74
     0
 49
-1.27
 74
     0
 49
1.27
 74
     0
 49
-1.27
 74
     0
  0
LTYPE
  5
6C
330
5
100
AcDbSymbolTableRecord
100
AcDbLinetypeTableRecord
  2
CENTER
 70
     0
  3
Center ____ _ ____ _ ____ _ ____ _ ____ _ ____
 72
    65
 73
     4
 40
10.16
 49
6.35
 74
     0
 49
-1.27
 74
     0
 49
1.27
 74
     0
 49
-1.27
 74
     0
  0
LTYPE
  5
6D
330
5
100
AcDbSymbolTableRecord
100
AcDbLinetypeTableRecord
  2
CENTERX2
 70
     0
  3
Center (2x) ________  __  ________  __  _____
 72
    65
 73
     4
 40
20.32
 49
12.7
 74
     0
 49
-2.54
 74
     0
 49
2.54
 74
     0
 49
-2.54
 74
     0
  0
LTYPE
  5
6E
330
5
100
AcDbSymbolTableRecord
100
AcDbLinetypeTableRecord
  2
DOT2
 70
     0
  3
Dot (.5x) ........................................
 72
    65
 73
     2
 40
0.635
 49
0.0
 74
     0
 49
-0.635
 74
     0
  0
ENDTAB
  0
TABLE
  2
LAYER
  5
2
330
0
100
AcDbSymbolTable
 70
    17
  0
LAYER
  5
10
330
2
100
AcDbSymbolTableRecord
100
AcDbLayerTableRecord
  2
0
 70
     0
 62
     7
  6
Continuous
370
    -3
390
F
  0
LAYER
  5
6F
330
2
100
AcDbSymbolTableRecord
100
AcDbLayerTableRecord
  2
FORMAT
 70
     0
 62
     2
  6
Continuous
370
    -3
390
F
  0
LAYER
  5
70
330
2
100
AcDbSymbolTableRecord
100
AcDbLayerTableRecord
  2
외형선
 70
     0
 62
   100
  6
Continuous
370
    30
390
F
  0
LAYER
  5
71
330
2
100
AcDbSymbolTableRecord
100
AcDbLayerTableRecord
  2
숨은선
 70
     0
 62
     2
  6
HIDDEN
370
    15
390
F
  0
LAYER
  5
72
330
2
100
AcDbSymbolTableRecord
100
AcDbLayerTableRecord
  2
중심선
 70
     0
 62
     1
  6
CENTERX2
370
    -3
390
F
  0
LAYER
  5
73
330
2
100
AcDbSymbolTableRecord
100
AcDbLayerTableRecord
  2
파단선
 70
     0
 62
     4
  6
Continuous
370
    -3
390
F
  0
LAYER
  5
74
330
2
100
AcDbSymbolTableRecord
100
AcDbLayerTableRecord
  2
해칭선
 70
     0
 62
     4
  6
Continuous
370
    -3
390
F
  0
LAYER
  5
75
330
2
100
AcDbSymbolTableRecord
100
AcDbLayerTableRecord
  2
가는실선
 70
     0
 62
     4
  6
Continuous
370
    -3
390
F
  0
LAYER
  5
76
330
2
100
AcDbSymbolTableRecord
100
AcDbLayerTableRecord
  2
치수_보조선
 70
     0
 62
     4
  6
Continuous
370
    -3
390
F
  0
LAYER
  5
77
330
2
100
AcDbSymbolTableRecord
100
AcDbLayerTableRecord
  2
치수문자_일반주서
 70
     0
 62
     7
  6
Continuous
370
    15
390
F
  0
LAYER
  5
78
330
2
100
AcDbSymbolTableRecord
100
AcDbLayerTableRecord
  2
개별주서
 70
     0
 62
   100
  6
Continuous
370
    30
390
F
  0
LAYER
  5
79
330
2
100
AcDbSymbolTableRecord
100
AcDbLayerTableRecord
  2
중간선
 70
     0
 62
     2
  6
Continuous
370
    15
390
F
  0
LAYER
  5
7A
330
2
100
AcDbSymbolTableRecord
100
AcDbLayerTableRecord
  2
윤곽선
 70
     0
 62
     3
  6
Continuous
370
    40
390
F
  0
LAYER
  5
7B
330
2
100
AcDbSymbolTableRecord
100
AcDbLayerTableRecord
  2
중심마크
 70
     0
 62
   100
  6
Continuous
370
    30
390
F
  0
LAYER
  5
7C
330
2
100
AcDbSymbolTableRecord
100
AcDbLayerTableRecord
  2
가상선
 70
     0
 62
     4
  6
PHANTOM
370
    -3
390
F
  0
LAYER
  5
7D
330
2
100
AcDbSymbolTableRecord
100
AcDbLayerTableRecord
  2
특수지정선
 70
     0
 62
     5
  6
CENTERX2
370
    60
390
F
  0
LAYER
  5
127
330
2
100
AcDbSymbolTableRecord
100
AcDbLayerTableRecord
  2
Defpoints
 70
     0
 62
     7
  6
Continuous
290
     0
370
    -3
390
F
  0
ENDTAB
  0
TABLE
  2
STYLE
  5
3
330
0
100
AcDbSymbolTable
 70
     2
  0
STYLE
  5
11
330
3
100
AcDbSymbolTableRecord
100
AcDbTextStyleTableRecord
  2
Standard
 70
     0
 40
0.0
 41
1.0
 50
0.0
 71
     0
 42
3.5
  3
txt
  4

  0
STYLE
  5
93
330
3
100
AcDbSymbolTableRecord
100
AcDbTextStyleTableRecord
  2
SLDTEXTSTYLE0
 70
     0
 40
0.0
 41
0.75
 50
0.0
 71
     0
 42
3.5
  3
TXT
  4

  0
ENDTAB
  0
TABLE
  2
VIEW
  5
6
330
0
100
AcDbSymbolTable
 70
     0
  0
ENDTAB
  0
TABLE
  2
UCS
  5
7
330
0
100
AcDbSymbolTable
 70
     0
  0
ENDTAB
  0
TABLE
  2
APPID
  5
9
330
0
100
AcDbSymbolTable
 70
     3
  0
APPID
  5
12
330
9
100
AcDbSymbolTableRecord
100
AcDbRegAppTableRecord
  2
ACAD
 70
     0
  0
APPID
  5
142
330
9
100
AcDbSymbolTableRecord
100
AcDbRegAppTableRecord
  2
ACAD_DSTYLE_DIMFLIPARROW_SYMBOL
 70
     0
  0
APPID
  5
143
330
9
100
AcDbSymbolTableRecord
100
AcDbRegAppTableRecord
  2
ACAD_DSTYLE_DIMFLIPARROW_WHICH_SYMBOL
 70
     0
  0
ENDTAB
  0
TABLE
  2
DIMSTYLE
  5
A
330
0
100
AcDbSymbolTable
 70
     3
100
AcDbDimStyleTable
  0
DIMSTYLE
105
27
330
A
100
AcDbSymbolTableRecord
100
AcDbDimStyleTableRecord
  2
ISO-25
 70
     0
 41
2.5
 42
0.625
 43
3.75
 44
1.25
 73
     0
 74
     0
 77
     1
 78
     8
140
2.5
141
2.5
143
0.03937007874016
147
0.625
171
     3
172
     1
178
     0
271
     2
272
     2
274
     3
278
    44
283
     0
284
     8
340
11
  0
DIMSTYLE
105
CD
102
{ACAD_REACTORS
330
CC
330
D7
102
}
330
A
100
AcDbSymbolTableRecord
100
AcDbDimStyleTableRecord
  2
SLDDIMSTYLE0
 70
     0
 41
3.302
 44
0.0
 45
0.000000001
 73
     0
 74
     0
 77
     1
 78
    12
 79
     3
140
3.5
147
0.875
173
     1
178
     0
271
     2
272
     2
276
     2
284
    12
340
93
  0
DIMSTYLE
105
E2
102
{ACAD_REACTORS
330
E1
330
EF
102
}
330
A
100
AcDbSymbolTableRecord
100
AcDbDimStyleTableRecord
  2
SLDDIMSTYLE1
 70
     0
 41
3.302
 44
0.0
 45
0.000000001
 73
     0
 74
     0
 77
     1
 78
    12
 79
     3
140
3.5
147
0.875
172
     1
173
     1
178
     0
271
     2
272
     2
276
     2
284
    12
289
     0
340
93
  0
ENDTAB
  0
TABLE
  2
BLOCK_RECORD
  5
1
330
0
100
AcDbSymbolTable
 70
     7
  0
BLOCK_RECORD
  5
1F
330
1
100
AcDbSymbolTableRecord
100
AcDbBlockTableRecord
  2
*Model_Space
340
22
  0
BLOCK_RECORD
  5
1B
330
1
100
AcDbSymbolTableRecord
100
AcDbBlockTableRecord
  2
*Paper_Space
340
1E
  0
BLOCK_RECORD
  5
23
330
1
100
AcDbSymbolTableRecord
100
AcDbBlockTableRecord
  2
*Paper_Space0
340
26
  0
BLOCK_RECORD
  5
7E
330
1
100
AcDbSymbolTableRecord
100
AcDbBlockTableRecord
  2
블럭10
340
0
102
{BLKREFS
331
C5
102
}
  0
BLOCK_RECORD
  5
CE
330
1
100
AcDbSymbolTableRecord
100
AcDbBlockTableRecord
  2
_D
340
0
  0
BLOCK_RECORD
  5
D8
330
1
100
AcDbSymbolTableRecord
100
AcDbBlockTableRecord
  2
_D_1
340
0
  0
BLOCK_RECORD
  5
E3
330
1
100
AcDbSymbolTableRecord
100
AcDbBlockTableRecord
  2
_D_2
340
0
  0
BLOCK_RECORD
  5
F0
330
1
100
AcDbSymbolTableRecord
100
AcDbBlockTableRecord
  2
_D_3
340
0
  0
BLOCK_RECORD
  5
FC
330
1
100
AcDbSymbolTableRecord
100
AcDbBlockTableRecord
  2
SW_DOWELSYMBOL_0
340
0
102
{BLKREFS
331
102
102
}
  0
ENDTAB
  0
ENDSEC
  0
SECTION
  2
BLOCKS
  0
BLOCK
  5
20
330
1F
100
AcDbEntity
  8
0
100
AcDbBlockBegin
  2
*Model_Space
 70
     0
 10
0.0
 20
0.0
 30
0.0
  3
*Model_Space
  1
*Model_Space
  0
ENDBLK
  5
21
330
1F
100
AcDbEntity
  8
0
100
AcDbBlockEnd
  0
BLOCK
  5
1C
330
1B
100
AcDbEntity
 67
     1
  8
0
100
AcDbBlockBegin
  2
*Paper_Space
 70
     0
 10
0.0
 20
0.0
 30
0.0
  3
*Paper_Space
  1
*Paper_Space
  0
ENDBLK
  5
1D
330
1B
100
AcDbEntity
 67
     1
  8
0
100
AcDbBlockEnd
  0
BLOCK
  5
24
330
23
100
AcDbEntity
  8
0
100
AcDbBlockBegin
  2
*Paper_Space0
 70
     0
 10
0.0
 20
0.0
 30
0.0
  3
*Paper_Space0
  1
*Paper_Space0
  0
ENDBLK
  5
25
330
23
100
AcDbEntity
  8
0
100
AcDbBlockEnd
  0
BLOCK
  5
7F
330
7E
100
AcDbEntity
  8
0
100
AcDbBlockBegin
  2
블럭10
 70
     2
 10
0.0
 20
0.0
 30
0.0
  3
블럭10
  1
블럭10
  0
ELLIPSE
  5
81
330
7E
100
AcDbEntity
  8
중심선
100
AcDbEllipse
 10
20.54032771741204
 20
12.0471743016438
 30
0.0
 11
6.600054785286829
 21
-1.261213355974178E-13
 31
0.0
210
0.0
220
0.0
230
1.0
 40
0.636358354079598
 41
0.9219305317359503
 42
6.513795318482858
  0
ELLIPSE
  5
82
330
7E
100
AcDbEntity
  8
중심선
100
AcDbEllipse
 10
20.54032771746488
 20
12.04717430159265
 30
0.0
 11
3.960054785062283
 21
1.540847449632565E-10
 31
0.0
210
0.0
220
0.0
230
1.0
 40
0.3939339440162632
 41
1.131841032648279
 42
5.62031148352944
  0
LINE
  5
83
330
7E
100
AcDbEntity
  8
중심선
100
AcDbLine
 10
2.268634060543552
 20
16.24717430164393
 30
0.0
 11
5.714909304380834
 21
16.24717430164393
 31
0.0
  0
LINE
  5
84
330
7E
100
AcDbEntity
  8
중심선
100
AcDbLine
 10
5.245725140726316
 20
7.84717430164391
 30
0.0
 11
8.692000384563599
 21
7.84717430164391
 31
0.0
  0
LINE
  5
85
330
7E
100
AcDbEntity
  8
중심선
100
AcDbLine
 10
15.74043728645272
 20
16.24717430164393
 30
0.0
 11
8.692000384563599
 21
7.84717430164391
 31
0.0
  0
LINE
  5
86
330
7E
100
AcDbEntity
  8
중심선
100
AcDbLine
 10
0.1404042013395286
 20
13.71084872107135
 30
0.0
 11
3.58671253028996
 21
13.71088815037384
 31
0.0
  0
LINE
  5
87
330
7E
100
AcDbEntity
  8
중심선
100
AcDbLine
 10
2.750260043222114
 20
10.84717430164391
 30
0.0
 11
6.196535287059397
 21
10.84717430164391
 31
0.0
  0
LINE
  5
88
330
7E
100
AcDbEntity
  8
중심선
100
AcDbLine
 10
12.29416204261559
 20
16.24717430164393
 30
0.0
 11
5.245725140726316
 21
7.84717430164391
 31
0.0
  0
LINE
  5
89
330
7E
100
AcDbEntity
  8
중심선
100
AcDbLine
 10
10.72767329541681
 20
16.24717430164393
 30
0.0
 11
6.196535287059397
 21
10.84717430164391
 31
0.0
  0
LINE
  5
8A
330
7E
100
AcDbEntity
  8
중심선
100
AcDbLine
 10
7.28139805157953
 20
16.24717430164393
 30
0.0
 11
2.750260043222114
 21
10.84717430164391
 31
0.0
  0
LINE
  5
8B
330
7E
100
AcDbEntity
  8
중심선
100
AcDbLine
 10
5.714909304380834
 20
16.24717430164393
 30
0.0
 11
3.58671253028996
 21
13.71088815037384
 31
0.0
  0
LINE
  5
8C
330
7E
100
AcDbEntity
  8
중심선
100
AcDbLine
 10
2.268634060543552
 20
16.24717430164393
 30
0.0
 11
0.1404042013395286
 21
13.71084872107135
 31
0.0
  0
LINE
  5
8D
330
7E
100
AcDbEntity
  8
중심선
100
AcDbLine
 10
7.28139805157953
 20
16.24717430164393
 30
0.0
 11
10.72767329541681
 21
16.24717430164393
 31
0.0
  0
LINE
  5
8E
330
7E
100
AcDbEntity
  8
중심선
100
AcDbLine
 10
12.29416204261559
 20
16.24717430164393
 30
0.0
 11
15.74043728645272
 21
16.24717430164393
 31
0.0
  0
LINE
  5
8F
330
7E
100
AcDbEntity
  8
중심선
100
AcDbLine
 10
19.22036997980202
 20
11.08717430171403
 30
0.0
 11
23.66174974927406
 21
11.08717430171406
 31
0.0
  0
LINE
  5
90
330
7E
100
AcDbEntity
  8
중심선
100
AcDbLine
 10
19.22039502424796
 20
13.00717430171391
 30
0.0
 11
19.22036997980202
 21
11.08717430171403
 31
0.0
  0
LINE
  5
91
330
7E
100
AcDbEntity
  8
중심선
100
AcDbLine
 10
19.22039502424796
 20
13.00717430171391
 30
0.0
 11
26.96566020931264
 21
13.00717430171391
 31
0.0
  0
LINE
  5
92
330
7E
100
AcDbEntity
  8
중심선
100
AcDbLine
 10
22.22332737316547
 20
13.45928029700563
 30
0.0
 11
24.52862924686651
 21
15.39360700705356
 31
0.0
  0
ATTDEF
  5
94
330
7E
100
AcDbEntity
  8
FORMAT
 62
     2
100
AcDbText
 10
-12.95993919485777
 20
2.075366912832191
 30
0.0
 40
4.233333333333333
  1
SEME35130E [ 2 FLUTE ]
 41
0.75
  7
SLDTEXTSTYLE0
 11
-12.95993919485777
 21
-0.0412997538344756
 31
0.0
100
AcDbAttributeDefinition
  3

  2
AUTOATTR0
 70
     0
 74
     1
  0
ENDBLK
  5
80
330
7E
100
AcDbEntity
  8
0
100
AcDbBlockEnd
  0
BLOCK
  5
CF
330
CE
100
AcDbEntity
  8
0
100
AcDbBlockBegin
  2
_D
 70
     0
 10
0.0
 20
0.0
 30
0.0
  3
_D
  1
_D
  0
SOLID
  5
D1
330
CE
100
AcDbEntity
  8
치수문자_일반주서
100
AcDbTrace
 10
45.00000000000001
 20
18.74514018757048
 30
0.0
 11
41.69800000000001
 21
19.25314018757048
 31
0.0
 12
41.69800000000001
 22
18.23714018757048
 32
0.0
 13
41.69800000000001
 23
18.23714018757048
 33
0.0
  0
SOLID
  5
D2
330
CE
100
AcDbEntity
  8
치수문자_일반주서
100
AcDbTrace
 10
9.999999999999993
 20
18.74514018757048
 30
0.0
 11
13.30199999999999
 21
18.23714018757048
 31
0.0
 12
13.30199999999999
 22
19.25314018757048
 32
0.0
 13
13.30199999999999
 23
19.25314018757048
 33
0.0
  0
LINE
  5
D3
330
CE
100
AcDbEntity
  8
치수문자_일반주서
100
AcDbLine
 10
45.00000000000001
 20
7.494506298992692
 30
0.0
 11
45.00000000000001
 21
19.74514018757048
 31
0.0
  0
LINE
  5
D4
330
CE
100
AcDbEntity
  8
치수문자_일반주서
100
AcDbLine
 10
9.999999999999995
 20
5.547544758149765
 30
0.0
 11
9.999999999999993
 21
19.74514018757048
 31
0.0
  0
LINE
  5
D5
330
CE
100
AcDbEntity
  8
치수문자_일반주서
100
AcDbLine
 10
45.00000000000001
 20
18.74514018757048
 30
0.0
 11
9.999999999999993
 21
18.74514018757048
 31
0.0
  0
MTEXT
  5
D6
330
CE
100
AcDbEntity
  8
치수문자_일반주서
100
AcDbMText
 10
24.91388880647716
 20
23.25687710214937
 30
0.0
 40
3.5
 41
0.0
 71
     1
 72
     1
  1
35
  7
SLDTEXTSTYLE0
 73
     1
 44
1.0
  0
ENDBLK
  5
D0
330
CE
100
AcDbEntity
  8
0
100
AcDbBlockEnd
  0
BLOCK
  5
D9
330
D8
100
AcDbEntity
  8
0
100
AcDbBlockBegin
  2
_D_1
 70
     0
 10
0.0
 20
0.0
 30
0.0
  3
_D_1
  1
_D_1
  0
LINE
  5
DB
330
D8
100
AcDbEntity
  8
치수문자_일반주서
 62
     0
370
    -2
100
AcDbLine
 10
45.0
 20
4.612500000000005
 30
0.0
 11
44.99999999999999
 21
27.33415911661224
 31
0.0
  0
LINE
  5
DC
330
D8
100
AcDbEntity
  8
치수문자_일반주서
 62
     0
370
    -2
100
AcDbLine
 10
-55.00000000000001
 20
4.372810251867883
 30
0.0
 11
-55.00000000000001
 21
27.33415911661224
 31
0.0
  0
LINE
  5
DD
330
D8
100
AcDbEntity
  8
치수문자_일반주서
 62
     0
370
    -2
100
AcDbLine
 10
41.69799999999999
 20
27.33415911661224
 30
0.0
 11
-51.69800000000001
 21
27.33415911661224
 31
0.0
  0
SOLID
  5
DE
330
D8
100
AcDbEntity
  8
치수문자_일반주서
 62
     0
100
AcDbTrace
 10
41.69799999999999
 20
26.7838257832789
 30
0.0
 11
41.69799999999999
 21
27.88449244994557
 31
0.0
 12
44.99999999999999
 22
27.33415911661224
 32
0.0
 13
44.99999999999999
 23
27.33415911661224
 33
0.0
  0
SOLID
  5
DF
330
D8
100
AcDbEntity
  8
치수문자_일반주서
 62
     0
100
AcDbTrace
 10
-51.69800000000001
 20
27.88449244994557
 30
0.0
 11
-51.69800000000001
 21
26.7838257832789
 31
0.0
 12
-55.00000000000001
 22
27.33415911661224
 32
0.0
 13
-55.00000000000001
 23
27.33415911661224
 33
0.0
  0
MTEXT
  5
E0
330
D8
100
AcDbEntity
  8
치수문자_일반주서
 62
     0
100
AcDbMText
 10
-5.000000000000014
 20
31.70915911661224
 30
0.0
 40
3.5
 41
0.0
 71
     2
 72
     1
  1
\A1;100
  7
SLDTEXTSTYLE0
 73
     1
 44
1.0
  0
POINT
  5
136
330
D8
100
AcDbEntity
  8
Defpoints
 62
     0
100
AcDbPoint
 10
45.0
 20
4.550000000000005
 30
0.0
  0
POINT
  5
137
330
D8
100
AcDbEntity
  8
Defpoints
 62
     0
100
AcDbPoint
 10
-55.00000000000001
 20
4.310310251867883
 30
0.0
  0
POINT
  5
138
330
D8
100
AcDbEntity
  8
Defpoints
 62
     0
100
AcDbPoint
 10
-55.00000000000001
 20
27.33415911661224
 30
0.0
  0
ENDBLK
  5
DA
330
D8
100
AcDbEntity
  8
0
100
AcDbBlockEnd
  0
BLOCK
  5
E4
330
E3
100
AcDbEntity
  8
0
100
AcDbBlockBegin
  2
_D_2
 70
     0
 10
0.0
 20
0.0
 30
0.0
  3
_D_2
  1
_D_2
  0
LINE
  5
E6
330
E3
100
AcDbEntity
  8
치수문자_일반주서
 62
     0
370
    -2
100
AcDbLine
 10
45.0625
 20
6.502111192416134
 30
0.0
 11
60.56619031224626
 21
6.502111192416189
 31
0.0
  0
LINE
  5
E7
330
E3
100
AcDbEntity
  8
치수문자_일반주서
 62
     0
370
    -2
100
AcDbLine
 10
45.06250000000001
 20
-6.494506298992687
 30
0.0
 11
60.56619031224631
 21
-6.494506298992632
 31
0.0
  0
LINE
  5
E8
330
E3
100
AcDbEntity
  8
치수문자_일반주서
 62
     0
370
    -2
100
AcDbLine
 10
60.56619031224628
 20
3.200111192416189
 30
0.0
 11
60.56619031224629
 21
-3.192506298992632
 31
0.0
  0
SOLID
  5
E9
330
E3
100
AcDbEntity
  8
치수문자_일반주서
 62
     0
100
AcDbTrace
 10
61.11652364557961
 20
3.200111192416191
 30
0.0
 11
60.01585697891294
 21
3.200111192416188
 31
0.0
 12
60.56619031224626
 22
6.502111192416189
 32
0.0
 13
60.56619031224626
 23
6.502111192416189
 33
0.0
  0
SOLID
  5
EA
330
E3
100
AcDbEntity
  8
치수문자_일반주서
 62
     0
100
AcDbTrace
 10
60.01585697891296
 20
-3.192506298992634
 30
0.0
 11
61.11652364557963
 21
-3.19250629899263
 31
0.0
 12
60.56619031224631
 22
-6.494506298992632
 32
0.0
 13
60.56619031224631
 23
-6.494506298992632
 33
0.0
  0
MTEXT
  5
EB
330
E3
100
AcDbEntity
  8
치수문자_일반주서
 62
     0
100
AcDbMText
 10
56.19119031224628
 20
-0.0000000000000105
 30
0.0
 40
3.5
 41
0.0
 71
     2
 72
     1
  1
\A1;%%c13
  7
SLDTEXTSTYLE0
 11
-3.280281517386158E-15
 21
1.0
 31
0.0
 73
     1
 44
1.0
  0
POINT
  5
EC
330
E3
100
AcDbEntity
  8
Defpoints
 62
     0
100
AcDbPoint
 10
45.0
 20
6.502111192416134
 30
0.0
  0
POINT
  5
ED
330
E3
100
AcDbEntity
  8
Defpoints
 62
     0
100
AcDbPoint
 10
45.00000000000001
 20
-6.494506298992687
 30
0.0
  0
POINT
  5
EE
330
E3
100
AcDbEntity
  8
Defpoints
 62
     0
100
AcDbPoint
 10
60.56619031224631
 20
-6.494506298992633
 30
0.0
  0
ENDBLK
  5
E5
330
E3
100
AcDbEntity
  8
0
100
AcDbBlockEnd
  0
BLOCK
  5
F1
330
F0
100
AcDbEntity
  8
0
100
AcDbBlockBegin
  2
_D_3
 70
     0
 10
0.0
 20
0.0
 30
0.0
  3
_D_3
  1
_D_3
  0
LINE
  5
F3
330
F0
100
AcDbEntity
  8
치수문자_일반주서
 62
     0
370
    -2
100
AcDbLine
 10
-52.64196437103937
 20
5.999999999999999
 30
0.0
 11
-64.9990238164279
 21
5.999999999999954
 31
0.0
  0
LINE
  5
F4
330
F0
100
AcDbEntity
  8
치수문자_일반주서
 62
     0
370
    -2
100
AcDbLine
 10
-53.64196437103938
 20
-6.000000000000007
 30
0.0
 11
-64.99902381642785
 21
-6.000000000000049
 31
0.0
  0
LINE
  5
F5
330
F0
100
AcDbEntity
  8
치수문자_일반주서
 62
     0
370
    -2
100
AcDbLine
 10
-64.9990238164279
 20
5.999999999999954
 30
0.0
 11
-64.99902381642785
 21
-6.000000000000049
 31
0.0
  0
LINE
  5
F6
330
F0
100
AcDbEntity
  8
치수문자_일반주서
 62
     0
370
    -2
100
AcDbLine
 10
-64.99902381642791
 20
9.301999999999953
 30
0.0
 11
-64.99902381642792
 21
12.60399999999995
 31
0.0
  0
LINE
  5
F7
330
F0
100
AcDbEntity
  8
치수문자_일반주서
 62
     0
370
    -2
100
AcDbLine
 10
-64.99902381642784
 20
-9.30200000000005
 30
0.0
 11
-64.99902381642782
 21
-12.60400000000005
 31
0.0
  0
SOLID
  5
F8
330
F0
100
AcDbEntity
  8
치수문자_일반주서
 62
     0
100
AcDbTrace
 10
-65.54935714976124
 20
9.301999999999952
 30
0.0
 11
-64.44869048309458
 21
9.301999999999955
 31
0.0
 12
-64.9990238164279
 22
5.999999999999954
 32
0.0
 13
-64.9990238164279
 23
5.999999999999954
 33
0.0
  0
SOLID
  5
F9
330
F0
100
AcDbEntity
  8
치수문자_일반주서
 62
     0
100
AcDbTrace
 10
-64.44869048309451
 20
-9.302000000000048
 30
0.0
 11
-65.54935714976116
 21
-9.302000000000051
 31
0.0
 12
-64.99902381642785
 22
-6.000000000000049
 32
0.0
 13
-64.99902381642785
 23
-6.000000000000049
 33
0.0
  0
MTEXT
  5
FA
330
F0
100
AcDbEntity
  8
치수문자_일반주서
 62
     0
100
AcDbMText
 10
-69.37402381642787
 20
-0.0000000000000634
 30
0.0
 40
3.5
 41
0.0
 71
     2
 72
     1
  1
\A1;%%c12
  7
SLDTEXTSTYLE0
 11
-3.552713678800500E-15
 21
1.0
 31
0.0
 73
     1
 44
1.0
  0
POINT
  5
FB
330
F0
100
AcDbEntity
  8
Defpoints
 62
     0
100
AcDbPoint
 10
-52.57946437103937
 20
5.999999999999999
 30
0.0
  0
POINT
  5
134
330
F0
100
AcDbEntity
  8
Defpoints
 62
     0
100
AcDbPoint
 10
-53.57946437103938
 20
-6.000000000000007
 30
0.0
  0
POINT
  5
135
330
F0
100
AcDbEntity
  8
Defpoints
 62
     0
100
AcDbPoint
 10
-64.99902381642785
 20
-6.00000000000005
 30
0.0
  0
ENDBLK
  5
F2
330
F0
100
AcDbEntity
  8
0
100
AcDbBlockEnd
  0
BLOCK
  5
FD
330
FC
100
AcDbEntity
  8
0
100
AcDbBlockBegin
  2
SW_DOWELSYMBOL_0
 70
     0
 10
0.0
 20
0.0
 30
0.0
  3
SW_DOWELSYMBOL_0
  1
SW_DOWELSYMBOL_0
  0
CIRCLE
  5
FF
330
FC
100
AcDbEntity
  8
외형선
 62
     0
100
AcDbCircle
 10
0.0
 20
0.0
 30
0.0
 40
3.000000000000004
  0
HATCH
  5
100
330
FC
100
AcDbEntity
  8
0
  6
Continuous
 62
     0
370
    30
100
AcDbHatch
 10
0.0
 20
0.0
 30
0.0
210
0.0
220
0.0
230
1.0
  2
SOLID
 70
     1
 71
     0
 91
        1
 92
        0
 93
        3
 72
     2
 10
0.0000000000000087
 20
-0.0000000000000035
 40
3.000000000000004
 50
0.0
 51
90.0
 73
     1
 72
     1
 10
0.0000000000000087
 20
3.000000000000001
 11
0.0000000000000087
 21
-0.0000000000000036
 72
     1
 10
0.0000000000000087
 20
-0.0000000000000035
 11
3.000000000000013
 21
-0.0000000000000035
 97
        0
 75
     0
 76
     1
 98
        1
 10
0.0
 20
0.0
  0
HATCH
  5
101
330
FC
100
AcDbEntity
  8
0
  6
Continuous
 62
     0
370
    30
100
AcDbHatch
 10
0.0
 20
0.0
 30
0.0
210
0.0
220
0.0
230
1.0
  2
SOLID
 70
     1
 71
     0
 91
        1
 92
        0
 93
        3
 72
     2
 10
0.0000000000000087
 20
-0.0000000000000035
 40
3.000000000000004
 50
180.0
 51
270.0000000000008
 73
     1
 72
     1
 10
0.0000000000000087
 20
-3.000000000000008
 11
0.0000000000000087
 21
-0.0000000000000036
 72
     1
 10
0.0000000000000087
 20
-0.0000000000000035
 11
-2.999999999999996
 21
-0.0000000000000035
 97
        0
 75
     0
 76
     1
 98
        1
 10
0.0
 20
0.0
  0
ENDBLK
  5
FE
330
FC
100
AcDbEntity
  8
0
100
AcDbBlockEnd
  0
ENDSEC
  0
SECTION
  2
ENTITIES
  0
LINE
  5
9D
330
1F
100
AcDbEntity
  8
0
  6
Continuous
 62
     1
370
    15
100
AcDbLine
 10
24.56839328738997
 20
1.828158560671545
 30
0.0
 11
24.49441119705138
 21
1.868823517024478
 31
0.0
  0
SPLINE
  5
9E
330
1F
100
AcDbEntity
  8
0
  6
Continuous
 62
     1
370
    15
100
AcDbSpline
210
0.0
220
0.0
230
1.0
 70
     8
 71
     3
 72
     9
 73
     5
 74
     0
 42
0.000000001
 43
0.00000001
 40
0.0
 40
0.0
 40
0.0
 40
0.0
 40
0.4991619227857942
 40
1.0
 40
1.0
 40
1.0
 40
1.0
 10
28.16074410864104
 20
1.665596679698133
 30
0.0
 10
27.86054567831671
 20
1.808568900539398
 30
0.0
 10
27.25914077016797
 20
2.094993433972047
 30
0.0
 10
26.65766240990103
 20
2.409818102262376
 30
0.0
 10
26.35641914445898
 20
2.567494283788505
 30
0.0
  0
LINE
  5
9F
330
1F
100
AcDbEntity
  8
0
  6
Continuous
 62
     1
370
    15
100
AcDbLine
 10
13.24473053480484
 20
6.500000000000003
 30
0.0
 11
10.09284141185326
 21
6.500000000000003
 31
0.0
  0
SPLINE
  5
A0
330
1F
100
AcDbEntity
  8
0
  6
Continuous
 62
     1
370
    15
100
AcDbSpline
210
0.0
220
0.0
230
1.0
 70
     8
 71
     3
 72
    19
 73
    15
 74
     0
 42
0.000000001
 43
0.00000001
 40
0.0
 40
0.0
 40
0.0
 40
0.0
 40
0.1208460072097803
 40
0.2140567016460615
 40
0.2802148444390356
 40
0.3388745559148694
 40
0.439532037100511
 40
0.5223448893062342
 40
0.5938372458522579
 40
0.6914918820869329
 40
0.7929180278140249
 40
0.8666292084041479
 40
0.9372116922570575
 40
1.0
 40
1.0
 40
1.0
 40
1.0
 10
26.01174012869006
 20
5.165153120880662
 30
0.0
 10
25.80019543363813
 20
5.154431856322818
 30
0.0
 10
25.4254825182587
 20
5.135441087974609
 30
0.0
 10
24.93268866785751
 20
5.116208301491877
 30
0.0
 10
24.54454355496886
 20
5.103588979558307
 30
0.0
 10
24.14303771288447
 20
5.09267837428232
 30
0.0
 10
23.7151591708461
 20
5.083908810793058
 30
0.0
 10
23.26517688568931
 20
5.07829679396765
 30
0.0
 10
22.81992621510217
 20
5.075721713022086
 30
0.0
 10
22.34190367765378
 20
5.076464058729066
 30
0.0
 10
21.86006451950617
 20
5.081314359177235
 30
0.0
 10
21.4263254586869
 20
5.089104463409714
 30
0.0
 10
21.06077693359568
 20
5.097613816708694
 30
0.0
 10
20.82523551380691
 20
5.105211454567221
 30
0.0
 10
20.71434731276268
 20
5.10878827088714
 30
0.0
  0
SPLINE
  5
A1
330
1F
100
AcDbEntity
  8
0
  6
Continuous
 62
     1
370
    15
100
AcDbSpline
210
0.0
220
0.0
230
1.0
 70
     8
 71
     3
 72
    34
 73
    30
 74
     0
 42
0.000000001
 43
0.00000001
 40
0.0
 40
0.0
 40
0.0
 40
0.0
 40
0.0503960552466582
 40
0.0956013106181769
 40
0.1361609048505455
 40
0.1681273346512495
 40
0.1904484699835611
 40
0.2222434085535652
 40
0.2637924931080493
 40
0.3028897732252651
 40
0.3486599944211963
 40
0.384596336923716
 40
0.4131998511319934
 40
0.4431347195731564
 40
0.4872074720870277
 40
0.5238345104032643
 40
0.5526449462053096
 40
0.5780040230636074
 40
0.6151407045070552
 40
0.6610895792163379
 40
0.7021535207948376
 40
0.7371683002636695
 40
0.7667483182312818
 40
0.7923386727015969
 40
0.8151853163596079
 40
0.845620156238209
 40
0.885262275467132
 40
0.936414975509408
 40
1.0
 40
1.0
 40
1.0
 40
1.0
 10
42.59345588663759
 20
4.446431655583122
 30
0.0
 10
42.41953722913143
 20
4.431408461464836
 30
0.0
 10
42.08961355718599
 20
4.402909464066136
 30
0.0
 10
41.55876112233091
 20
4.366840364813308
 30
0.0
 10
41.09775230128083
 20
4.341257931328231
 30
0.0
 10
40.72731528746722
 20
4.32289912648029
 30
0.0
 10
40.40833748145145
 20
4.309667194911911
 30
0.0
 10
40.04594667969573
 20
4.296866519539392
 30
0.0
 10
39.61910074970315
 20
4.285943692064532
 30
0.0
 10
39.13899447140376
 20
4.278618180804918
 30
0.0
 10
38.68038089069025
 20
4.276629891153123
 30
0.0
 10
38.26161566714995
 20
4.279215653473607
 30
0.0
 10
37.90309434847971
 20
4.284434976966149
 30
0.0
 10
37.5134805691245
 20
4.293058721522247
 30
0.0
 10
37.09328615425886
 20
4.306323097706607
 30
0.0
 10
36.67730494885328
 20
4.323712153095377
 30
0.0
 10
36.33237681876402
 20
4.340991517373653
 30
0.0
 10
35.985542670939
 20
4.360748080869085
 30
0.0
 10
35.57402660235689
 20
4.38748938186429
 30
0.0
 10
35.10281089165795
 20
4.423020705322227
 30
0.0
 10
34.63935887821283
 20
4.462752267867022
 30
0.0
 10
34.2376787936191
 20
4.500848360322324
 30
0.0
 10
33.89571987707543
 20
4.535914668577222
 30
0.0
 10
33.60285079963391
 20
4.567863571901431
 30
0.0
 10
33.30882392555721
 20
4.601501291300837
 30
0.0
 10
32.94892154714883
 20
4.645315522461933
 30
0.0
 10
32.47788720174878
 20
4.705740363441015
 30
0.0
 10
31.88949509248318
 20
4.787000341839271
 30
0.0
 10
31.46441791776897
 20
4.852552253927517
 30
0.0
 10
31.2288498631066
 20
4.888879625352265
 30
0.0
  0
SPLINE
  5
A2
330
1F
100
AcDbEntity
  8
0
  6
Continuous
 62
     1
370
    15
100
AcDbSpline
210
0.0
220
0.0
230
1.0
 70
     8
 71
     3
 72
    29
 73
    25
 74
     0
 42
0.000000001
 43
0.00000001
 40
0.0
 40
0.0
 40
0.0
 40
0.0
 40
0.0559681062890961
 40
0.1081755331679422
 40
0.1561023100942658
 40
0.1938401796633263
 40
0.2256166183553638
 40
0.2637819244212369
 40
0.3182164610213586
 40
0.3832290671969423
 40
0.4447418191745874
 40
0.4928732000481041
 40
0.5287483037035386
 40
0.5647717609405328
 40
0.6137037656327292
 40
0.6660565795335794
 40
0.7055121631587229
 40
0.7355106490606047
 40
0.7740520606992596
 40
0.8166350480041634
 40
0.8483758057303294
 40
0.8841739630886377
 40
0.9346102505362587
 40
1.0
 40
1.0
 40
1.0
 40
1.0
 10
16.23604904028923
 20
-5.4088934576769
 30
0.0
 10
16.40979655011311
 20
-5.391563712251763
 30
0.0
 10
16.74561690849216
 20
-5.358068663458339
 30
0.0
 10
17.26377651868605
 20
-5.312327580952433
 30
0.0
 10
17.71907263616018
 20
-5.275554708584864
 30
0.0
 10
18.1087693508323
 20
-5.245906058629598
 30
0.0
 10
18.45118591381526
 20
-5.221988128988125
 30
0.0
 10
18.85688942380144
 20
-5.195392255988318
 30
0.0
 10
19.37136784754745
 20
-5.165249714218518
 30
0.0
 10
19.96201563300431
 20
-5.13620092161377
 30
0.0
 10
20.53206721635641
 20
-5.11378128920045
 30
0.0
 10
21.00702255941433
 20
-5.099165248387967
 30
0.0
 10
21.39861890324984
 20
-5.089689769115005
 30
0.0
 10
21.79277029746731
 20
-5.08241636401896
 30
0.0
 10
22.24094257443335
 20
-5.077218958663098
 30
0.0
 10
22.70046021424495
 20
-5.075606355102553
 30
0.0
 10
23.09821780415986
 20
-5.077126705773889
 30
0.0
 10
23.45078224657198
 20
-5.080434911487131
 30
0.0
 10
23.81303682951522
 20
-5.085834081238954
 30
0.0
 10
24.18216612291829
 20
-5.093741503987244
 30
0.0
 10
24.54453735481722
 20
-5.103588851921144
 30
0.0
 10
24.93269119119041
 20
-5.116208353437547
 30
0.0
 10
25.4254815512821
 20
-5.135441068068295
 30
0.0
 10
25.80019508471512
 20
-5.154431849139839
 30
0.0
 10
26.01174012869008
 20
-5.16515312088066
 30
0.0
  0
SPLINE
  5
A3
330
1F
100
AcDbEntity
  8
0
  6
Continuous
 62
     1
370
    15
100
AcDbSpline
210
0.0
220
0.0
230
1.0
 70
     8
 71
     3
 72
    18
 73
    14
 74
     0
 42
0.000000001
 43
0.00000001
 40
0.0
 40
0.0
 40
0.0
 40
0.0
 40
0.1612821371122522
 40
0.2878861020029645
 40
0.3836792498238634
 40
0.4544794987304834
 40
0.5128301665250322
 40
0.5853830606778314
 40
0.6737959611133495
 40
0.7708419412525325
 40
0.882808326934176
 40
0.979401422446328
 40
1.0
 40
1.0
 40
1.0
 40
1.0
 10
31.2288498631066
 20
-4.888879625352264
 30
0.0
 10
31.48355003698884
 20
-4.849654609413088
 30
0.0
 10
31.93818587919252
 20
-4.779638567079314
 30
0.0
 10
32.56429666417731
 20
-4.694276421503135
 30
0.0
 10
33.05041710062806
 20
-4.63262315997259
 30
0.0
 10
33.41925688825063
 20
-4.588575638833258
 30
0.0
 10
33.7372628105016
 20
-4.552957830010081
 30
0.0
 10
34.09138368526325
 20
-4.515420094441768
 30
0.0
 10
34.50920170002062
 20
-4.474630409502746
 30
0.0
 10
34.99084167226683
 20
-4.432066904604979
 30
0.0
 10
35.4853823197672
 20
-4.393910997333481
 30
0.0
 10
35.85594434815452
 20
-4.368602953509909
 30
0.0
 10
36.04566969463187
 20
-4.357751530005399
 30
0.0
 10
36.07901739042862
 20
-4.355844194076337
 30
0.0
  0
LINE
  5
A4
330
1F
100
AcDbEntity
  8
0
  6
Continuous
 62
     1
370
    15
100
AcDbLine
 10
10.09309605854604
 20
-6.500000000000003
 30
0.0
 11
13.24473053480485
 21
-6.500000000000003
 31
0.0
  0
SPLINE
  5
A9
330
1F
100
AcDbEntity
  8
0
  6
Continuous
 62
     1
370
    15
100
AcDbSpline
210
0.0
220
0.0
230
1.0
 70
     8
 71
     3
 72
    60
 73
    56
 74
     0
 42
0.000000001
 43
0.00000001
 40
0.0
 40
0.0
 40
0.0
 40
0.0
 40
0.03125
 40
0.03125
 40
0.0625
 40
0.0625
 40
0.1249999999999999
 40
0.1249999999999999
 40
0.1874999999999997
 40
0.1874999999999997
 40
0.2187499999999996
 40
0.2187499999999996
 40
0.2499999999999994
 40
0.2499999999999994
 40
0.2812499999999993
 40
0.2812499999999993
 40
0.3124999999999992
 40
0.3124999999999992
 40
0.3437499999999991
 40
0.3437499999999991
 40
0.374999999999999
 40
0.374999999999999
 40
0.4062499999999988
 40
0.4062499999999988
 40
0.4374999999999987
 40
0.4374999999999987
 40
0.4687499999999986
 40
0.4687499999999986
 40
0.4999999999999984
 40
0.4999999999999984
 40
0.5624999999999984
 40
0.5624999999999984
 40
0.6249999999999984
 40
0.6249999999999984
 40
0.6562499999999984
 40
0.6562499999999984
 40
0.6874999999999987
 40
0.6874999999999987
 40
0.7187499999999987
 40
0.7187499999999987
 40
0.7499999999999988
 40
0.7499999999999988
 40
0.7812499999999989
 40
0.7812499999999989
 40
0.8124999999999989
 40
0.8124999999999989
 40
0.8437499999999991
 40
0.8437499999999991
 40
0.8749999999999991
 40
0.8749999999999991
 40
0.9062499999999992
 40
0.9062499999999992
 40
0.9374999999999993
 40
0.9374999999999993
 40
1.0
 40
1.0
 40
1.0
 40
1.0
 10
9.999999999999988
 20
6.49977805054325
 30
0.0
 10
10.36415816081597
 20
6.501516810043092
 30
0.0
 10
10.73022833624025
 20
6.493018497983717
 30
0.0
 10
11.46102120968642
 20
6.45559866630147
 30
0.0
 10
11.82426758927059
 20
6.426733555682668
 30
0.0
 10
12.91477054170945
 20
6.310048114195056
 30
0.0
 10
13.65043310598783
 20
6.191485897608349
 30
0.0
 10
15.10131380794342
 20
5.879444839346455
 30
0.0
 10
15.83760087301305
 20
5.68445477132311
 30
0.0
 10
16.92734219689898
 20
5.341636489419902
 30
0.0
 10
17.29110723253029
 20
5.218747456184577
 30
0.0
 10
18.02202969306539
 20
4.956529923777039
 30
0.0
 10
18.38802570287025
 20
4.817323614125239
 30
0.0
 10
19.1159192497377
 20
4.524746802752458
 30
0.0
 10
19.47839671341519
 20
4.371328755619796
 30
0.0
 10
20.20885864363404
 20
4.050445963767368
 30
0.0
 10
20.5750293294398
 20
3.88322070851848
 30
0.0
 10
21.30407392536467
 20
3.537590980412785
 30
0.0
 10
21.66594889016044
 20
3.359373717768024
 30
0.0
 10
22.39569906733573
 20
2.991963106610572
 30
0.0
 10
22.76191773994021
 20
2.803023395014793
 30
0.0
 10
23.49186378663248
 20
2.417344405632695
 30
0.0
 10
23.85382201415315
 20
2.220937798996681
 30
0.0
 10
24.58261003179511
 20
1.820895529150442
 30
0.0
 10
24.94874994652016
 20
1.61737042109379
 30
0.0
 10
25.67934681296413
 20
1.206176204477168
 30
0.0
 10
26.0420739696488
 20
0.9988420596106662
 30
0.0
 10
26.76965052312497
 20
0.5812917655151649
 30
0.0
 10
27.13558502633716
 20
0.3708628883403078
 30
0.0
 10
28.23207948925812
 20
-0.2609355395245547
 30
0.0
 10
28.95691009621955
 20
-0.6819562588917158
 30
0.0
 10
30.4191979254054
 20
-1.512572982488501
 30
0.0
 10
31.14398027369725
 20
-1.919761507857589
 30
0.0
 10
32.24053954594707
 20
-2.510377748504833
 30
0.0
 10
32.6064261230913
 20
-2.703660574295295
 30
0.0
 10
33.33377001059819
 20
-3.080358502325031
 30
0.0
 10
33.69669782325602
 20
-3.264043736172439
 30
0.0
 10
34.42738105251401
 20
-3.621369905530279
 30
0.0
 10
34.79349473808606
 20
-3.794722364824741
 30
0.0
 10
35.52209270556782
 20
-4.128388699372713
 30
0.0
 10
35.88413408760722
 20
-4.288664908891181
 30
0.0
 10
36.61420955457898
 20
-4.596105747216304
 30
0.0
 10
36.98042372526116
 20
-4.7429806097636
 30
0.0
 10
37.71002668551901
 20
-5.020971861823303
 30
0.0
 10
38.07186720834006
 20
-5.151930121087444
 30
0.0
 10
38.80108413361452
 20
-5.397918067236584
 30
0.0
 10
39.1672720499336
 20
-5.51277193579135
 30
0.0
 10
39.89762976518458
 20
-5.724548759835651
 30
0.0
 10
40.25995522976173
 20
-5.821331245248888
 30
0.0
 10
40.98806381774448
 20
-5.99663879304824
 30
0.0
 10
41.35409877057968
 20
-6.075143656199932
 30
0.0
 10
42.08496013767083
 20
-6.21267457917696
 30
0.0
 10
42.44845579075666
 20
-6.271642267511344
 30
0.0
 10
43.53858337535438
 20
-6.418777267905718
 30
0.0
 10
44.27485212039848
 20
-6.477233743455686
 30
0.0
 10
45.00000000000001
 20
-6.494506298992682
 30
0.0
  0
SPLINE
  5
AA
330
1F
100
AcDbEntity
  8
0
  6
Continuous
 62
     1
370
    15
100
AcDbSpline
210
0.0
220
0.0
230
1.0
 70
     8
 71
     3
 72
    16
 73
    12
 74
     0
 42
0.000000001
 43
0.00000001
 40
0.0
 40
0.0
 40
0.0
 40
0.0
 40
0.0029941049944309
 40
0.1257400009898893
 40
0.2484849982369339
 40
0.37122914358897
 40
0.4939724839618177
 40
0.6167150663303022
 40
0.744477786176646
 40
0.872239455858762
 40
1.0
 40
1.0
 40
1.0
 40
1.0
 10
28.8551738520907
 20
-0.6201608202563357
 30
0.0
 10
28.83635581946502
 20
-0.6127800685775763
 30
0.0
 10
28.04607643868777
 20
-0.3028190868753567
 30
0.0
 10
26.48434314177975
 20
0.3404919983946316
 30
0.0
 10
24.1699788494517
 20
1.262536453700213
 30
0.0
 10
21.85563411280662
 20
2.136025954631878
 30
0.0
 10
19.54130006091238
 20
2.918081942922857
 30
0.0
 10
17.19544835397781
 20
3.587602385769243
 30
0.0
 10
14.81797055497167
 20
4.104123008332524
 30
0.0
 10
12.40898006430194
 20
4.455231336444561
 30
0.0
 10
10.80299099671225
 20
4.516773707943312
 30
0.0
 10
9.999999999999995
 20
4.547544758149765
 30
0.0
  0
SPLINE
  5
AB
330
1F
100
AcDbEntity
  8
0
  6
Continuous
 62
     4
370
    15
100
AcDbSpline
210
0.0
220
0.0
230
1.0
 70
    24
 71
     3
 72
    10
 73
     6
 74
     0
 42
0.000000001
 43
0.00000001
 40
0.0
 40
0.0
 40
0.0
 40
0.0
 40
0.5
 40
0.5
 40
1.0
 40
1.0
 40
1.0
 40
1.0
 10
9.999999999999991
 20
6.499778050538004
 30
0.0
 10
9.999999999999991
 20
6.177160719123377
 30
0.0
 10
9.999999999999991
 20
5.827789879361684
 30
0.0
 10
9.999999999999991
 20
5.152556962268202
 30
0.0
 10
9.999999999999991
 20
4.82843613886121
 30
0.0
 10
9.999999999999991
 20
4.547544758149765
 30
0.0
  0
SPLINE
  5
AC
330
1F
100
AcDbEntity
  8
0
  6
Continuous
 62
     1
370
    15
100
AcDbSpline
210
0.0
220
0.0
230
1.0
 70
     8
 71
     3
 72
    26
 73
    22
 74
     0
 42
0.000000001
 43
0.00000001
 40
0.0
 40
0.0
 40
0.0
 40
0.0
 40
0.0576364945818216
 40
0.1152164915210862
 40
0.1727858943858917
 40
0.2303907157352618
 40
0.2880469128870386
 40
0.3456472303180261
 40
0.3999190343118732
 40
0.4542243356760741
 40
0.508595563817859
 40
0.5628924523479839
 40
0.6171656063386977
 40
0.6714940464152394
 40
0.7258534260415034
 40
0.7801358618078233
 40
0.8344163980485445
 40
0.8887720458145546
 40
0.9421344792581876
 40
0.9954361774233887
 40
1.0
 40
1.0
 40
1.0
 40
1.0
 10
45.0
 20
-6.168115650007345
 30
0.0
 10
44.38979911958933
 20
-6.041355276017898
 30
0.0
 10
43.16999550255655
 20
-5.787958783727207
 30
0.0
 10
41.34123494610503
 20
-5.211580771486948
 30
0.0
 10
39.51282629793199
 20
-4.509623101840989
 30
0.0
 10
37.68341522271768
 20
-3.685616854369969
 30
0.0
 10
35.85309274921507
 20
-2.766084403408058
 30
0.0
 10
34.05862846292777
 20
-1.791694153767238
 30
0.0
 10
32.30000526977693
 20
-0.7925541643479423
 30
0.0
 10
30.57534513735259
 20
0.2054490328052726
 30
0.0
 10
28.84962606567881
 20
1.197419206641773
 30
0.0
 10
27.12512212660534
 20
2.162649701442598
 30
0.0
 10
25.40119422561501
 20
3.07712882759404
 30
0.0
 10
23.6761435557676
 20
3.91915728169745
 30
0.0
 10
21.95060891707285
 20
4.668901501273902
 30
0.0
 10
20.22640865455291
 20
5.310420601916483
 30
0.0
 10
18.50225437774404
 20
5.826240310162332
 30
0.0
 10
16.78706025181622
 20
6.207169878125258
 30
0.0
 10
15.08248013790274
 20
6.427930219703261
 30
0.0
 10
13.90551502053774
 20
6.520034862719572
 30
0.0
 10
13.29303639538199
 20
6.49613685085648
 30
0.0
 10
13.24473053480484
 20
6.494252027481893
 30
0.0
  0
SPLINE
  5
AD
330
1F
100
AcDbEntity
  8
0
  6
Continuous
 62
     1
370
    15
100
AcDbSpline
210
0.0
220
0.0
230
1.0
 70
     8
 71
     3
 72
    17
 73
    13
 74
     0
 42
0.000000001
 43
0.00000001
 40
0.0
 40
0.0
 40
0.0
 40
0.0
 40
0.1097549142688404
 40
0.2194044379960516
 40
0.3290278770229273
 40
0.438704787902505
 40
0.5484924000024186
 40
0.6582021010404777
 40
0.7678336558083475
 40
0.8774665428248315
 40
0.9871802278015446
 40
1.0
 40
1.0
 40
1.0
 40
1.0
 10
45.0
 20
-5.128319718393398
 30
0.0
 10
44.38241144582511
 20
-5.002251277513793
 30
0.0
 10
43.14782736779807
 20
-4.750235451120119
 30
0.0
 10
41.29678518678256
 20
-4.206689418978131
 30
0.0
 10
39.44620391306011
 20
-3.55962611036005
 30
0.0
 10
37.59476007201374
 20
-2.813688748249048
 30
0.0
 10
35.74234575558768
 20
-1.993102037223065
 30
0.0
 10
33.89054930423159
 20
-1.118376969611261
 30
0.0
 10
32.03982812526115
 20
-0.2121412102158155
 30
0.0
 10
30.18907936759411
 20
0.6946882203421225
 30
0.0
 10
28.88282544020848
 20
1.33468578151786
 30
0.0
 10
28.19332480310467
 20
1.648416408870598
 30
0.0
 10
28.12118743505732
 20
1.681239731308901
 30
0.0
  0
LINE
  5
AE
330
1F
100
AcDbEntity
  8
0
  6
Continuous
 62
     1
370
    15
100
AcDbLine
 10
45.0
 20
-6.168115650007347
 30
0.0
 11
45.0
 21
-5.128319718393398
 31
0.0
  0
LINE
  5
AF
330
1F
100
AcDbEntity
  8
0
  6
Continuous
 62
     1
370
    15
100
AcDbLine
 10
45.00000000000001
 20
-6.494506298992687
 30
0.0
 11
45.0
 21
-6.16811565000735
 31
0.0
  0
SPLINE
  5
B0
330
1F
100
AcDbEntity
  8
0
  6
Continuous
 62
     1
370
    15
100
AcDbSpline
210
0.0
220
0.0
230
1.0
 70
     8
 71
     3
 72
     8
 73
     4
 74
     0
 42
0.000000001
 43
0.00000001
 40
0.0
 40
0.0
 40
0.0
 40
0.0
 40
1.0
 40
1.0
 40
1.0
 40
1.0
 10
40.97830091587669
 20
1.817970233691439
 30
0.0
 10
40.68636145314564
 20
2.163784006156385
 30
0.0
 10
40.43388797745757
 20
2.493038857847172
 30
0.0
 10
40.23402374823441
 20
2.80022021259863
 30
0.0
  0
LINE
  5
B1
330
1F
100
AcDbEntity
  8
0
  6
Continuous
 62
     1
370
    15
100
AcDbLine
 10
40.23402374823863
 20
2.800220212592277
 30
0.0
 11
45.0
 21
0.0000000000000048
 31
0.0
  0
LINE
  5
B2
330
1F
100
AcDbEntity
  8
0
  6
Continuous
 62
     1
370
    15
100
AcDbLine
 10
45.0
 20
0.0000000000000048
 30
0.0
 11
45.0
 21
-1.737079149192686
 31
0.0
  0
SPLINE
  5
B3
330
1F
100
AcDbEntity
  8
0
  6
Continuous
 62
     1
370
    15
100
AcDbSpline
210
0.0
220
0.0
230
1.0
 70
     8
 71
     3
 72
    12
 73
     8
 74
     0
 42
0.000000001
 43
0.00000001
 40
0.0
 40
0.0
 40
0.0
 40
0.0
 40
0.4999999999999986
 40
0.4999999999999986
 40
0.7499999999999992
 40
0.7499999999999992
 40
1.0
 40
1.0
 40
1.0
 40
1.0
 10
45.0
 20
-1.737079149192686
 30
0.0
 10
44.30383185389671
 20
-1.189774540115375
 30
0.0
 10
43.61929196481699
 20
-0.6200319266707867
 30
0.0
 10
42.61037809643994
 20
0.2691142321156578
 30
0.0
 10
42.27710415520495
 20
0.5713443193527938
 30
0.0
 10
41.61736317730227
 20
1.188939166899652
 30
0.0
 10
41.29269017363246
 20
1.502710335254593
 30
0.0
 10
40.97830091587671
 20
1.817970233691434
 30
0.0
  0
SPLINE
  5
B4
330
1F
100
AcDbEntity
  8
0
  6
Continuous
 62
     1
370
    15
100
AcDbSpline
210
0.0
220
0.0
230
1.0
 70
     8
 71
     3
 72
    16
 73
    12
 74
     0
 42
0.000000001
 43
0.00000001
 40
0.0
 40
0.0
 40
0.0
 40
0.0
 40
0.1165256539046072
 40
0.2330850991609775
 40
0.3498135337202006
 40
0.4735183370024771
 40
0.5971337951101093
 40
0.7207507807625706
 40
0.8444601519196508
 40
0.9682521244764469
 40
1.0
 40
1.0
 40
1.0
 40
1.0
 10
40.97830091587672
 20
1.817970233691432
 30
0.0
 10
40.39693103230522
 20
2.065470799485269
 30
0.0
 10
39.2340226733236
 20
2.56054370392639
 30
0.0
 10
37.48878099039647
 20
3.230487579025478
 30
0.0
 10
35.70711270530281
 20
3.837205806802351
 30
0.0
 10
33.89058089140936
 20
4.357574500144481
 30
0.0
 10
32.03985185980439
 20
4.769803096912431
 30
0.0
 10
30.18909571447942
 20
5.056214574780136
 30
0.0
 10
28.33728253756899
 20
5.195134046390906
 30
0.0
 10
26.94358424291179
 20
5.225141925246059
 30
0.0
 10
26.16750514323814
 20
5.164231600740445
 30
0.0
 10
26.0090964591809
 20
5.151798944900993
 30
0.0
  0
SPLINE
  5
B5
330
1F
100
AcDbEntity
  8
0
  6
Continuous
 62
     1
370
    15
100
AcDbSpline
210
0.0
220
0.0
230
1.0
 70
    24
 71
     3
 72
    10
 73
     6
 74
     0
 42
0.000000001
 43
0.00000001
 40
0.0
 40
0.0
 40
0.0
 40
0.0
 40
0.5000000000000001
 40
0.5000000000000001
 40
1.0
 40
1.0
 40
1.0
 40
1.0
 10
45.0
 20
-5.128319718393398
 30
0.0
 10
45.0
 20
-4.735194028524727
 30
0.0
 10
45.00000000000001
 20
-4.238464645392041
 30
0.0
 10
44.99999999999999
 20
-3.083616634479415
 30
0.0
 10
45.0
 20
-2.426498379833509
 30
0.0
 10
45.0
 20
-1.737079149192895
 30
0.0
  0
SPLINE
  5
B6
330
1F
100
AcDbEntity
  8
0
  6
Continuous
 62
     1
370
    15
100
AcDbSpline
210
0.0
220
0.0
230
1.0
 70
     8
 71
     3
 72
     9
 73
     5
 74
     0
 42
0.000000001
 43
0.00000001
 40
0.0
 40
0.0
 40
0.0
 40
0.0
 40
0.9614007123024201
 40
0.9999999999999999
 40
0.9999999999999999
 40
0.9999999999999999
 40
0.9999999999999999
 10
45.0
 20
4.550000000000005
 30
0.0
 10
44.22848622076641
 20
4.548121163465896
 30
0.0
 10
43.42599692638475
 20
4.54616689350326
 30
0.0
 10
42.62350886919677
 20
4.446661243889162
 30
0.0
 10
42.5925334018035
 20
4.442820396692173
 30
0.0
  0
SPLINE
  5
B7
330
1F
100
AcDbEntity
  8
0
  6
Continuous
 62
     1
370
    15
100
AcDbSpline
210
0.0
220
0.0
230
1.0
 70
     8
 71
     3
 72
    10
 73
     6
 74
     0
 42
0.000000001
 43
0.00000001
 40
0.0
 40
0.0
 40
0.0
 40
0.0
 40
0.5
 40
0.5
 40
1.0
 40
1.0
 40
1.0
 40
1.0
 10
45.0
 20
4.550000000000005
 30
0.0
 10
44.19114334142258
 20
4.330626477143669
 30
0.0
 10
43.38831621266094
 20
4.078894777343824
 30
0.0
 10
41.79622511334629
 20
3.502643102930344
 30
0.0
 10
41.00751825055793
 20
3.178666829326833
 30
0.0
 10
40.23402374823849
 20
2.80022021259236
 30
0.0
  0
SPLINE
  5
B8
330
1F
100
AcDbEntity
  8
0
  6
Continuous
 62
     1
370
    15
100
AcDbSpline
210
0.0
220
0.0
230
1.0
 70
     8
 71
     3
 72
    11
 73
     7
 74
     0
 42
0.000000001
 43
0.00000001
 40
0.0
 40
0.0
 40
0.0
 40
0.0
 40
0.1310962556597424
 40
0.4205031346178852
 40
0.7101347148641012
 40
1.0
 40
1.0
 40
1.0
 40
1.0
 10
16.23897764254723
 20
-5.391246078165739
 30
0.0
 10
15.96636106481197
 20
-5.422452199211922
 30
0.0
 10
15.09191865675409
 20
-5.52254866385272
 30
0.0
 10
13.61530457083204
 20
-5.54014416824552
 30
0.0
 10
11.80825347106117
 20
-5.458311545856105
 30
0.0
 10
10.60291319063617
 20
-5.281512143170113
 30
0.0
 10
10.00000000000002
 20
-5.193076791172759
 30
0.0
  0
SPLINE
  5
B9
330
1F
100
AcDbEntity
  8
0
  6
Continuous
 62
     1
370
    15
100
AcDbSpline
210
0.0
220
0.0
230
1.0
 70
     8
 71
     3
 72
    19
 73
    15
 74
     0
 42
0.000000001
 43
0.00000001
 40
0.0
 40
0.0
 40
0.0
 40
0.0
 40
0.0493046358604575
 40
0.1365062247785696
 40
0.2237660386576099
 40
0.3109355024612729
 40
0.3980640187343754
 40
0.485215709249727
 40
0.5724543049814148
 40
0.6596852347061067
 40
0.7447247848818137
 40
0.829748692762371
 40
0.9148395393587455
 40
1.0
 40
1.0
 40
1.0
 40
1.0
 10
31.23650478007499
 20
-4.87158827867178
 30
0.0
 10
30.88751689358426
 20
-4.928875143353613
 30
0.0
 10
29.92129905124727
 20
-5.087481195110088
 30
0.0
 10
28.33726546081457
 20
-5.198155745624192
 30
0.0
 10
26.48489773909762
 20
-5.210355513096283
 30
0.0
 10
24.6334837835563
 20
-5.075771253527945
 30
0.0
 10
22.78290539970664
 20
-4.805869438000144
 30
0.0
 10
20.93181390599952
 20
-4.405744913547337
 30
0.0
 10
19.07962954469404
 20
-3.887101291450711
 30
0.0
 10
17.24242465163397
 20
-3.268580768051544
 30
0.0
 10
15.42127899367847
 20
-2.569207624116494
 30
0.0
 10
13.61531213364683
 20
-1.809437179268298
 30
0.0
 10
11.80825730265434
 20
-1.003575225821042
 30
0.0
 10
10.60291671809335
 20
-0.4484708932310764
 30
0.0
 10
10.0
 20
-0.1708052386506029
 30
0.0
  0
SPLINE
  5
BA
330
1F
100
AcDbEntity
  8
0
  6
Continuous
 62
     4
370
    15
100
AcDbSpline
210
0.0
220
0.0
230
1.0
 70
    24
 71
     3
 72
    14
 73
    10
 74
     0
 42
0.000000001
 43
0.00000001
 40
0.0
 40
0.0
 40
0.0
 40
0.0
 40
0.25
 40
0.25
 40
0.5
 40
0.5
 40
0.75
 40
0.75
 40
1.0
 40
1.0
 40
1.0
 40
1.0
 10
9.999999999999984
 20
-0.1708052386505956
 30
0.0
 10
9.999999999999984
 20
-0.6665654813918707
 30
0.0
 10
9.999999999999984
 20
-1.166199811936486
 30
0.0
 10
9.999999999999984
 20
-2.137166502884047
 30
0.0
 10
9.999999999999984
 20
-2.60820656475408
 30
0.0
 10
9.999999999999984
 20
-3.485972951709086
 30
0.0
 10
9.999999999999984
 20
-3.89244580450707
 30
0.0
 10
9.999999999999984
 20
-4.614235262582037
 30
0.0
 10
9.999999999999984
 20
-4.92945578189054
 30
0.0
 10
9.999999999999984
 20
-5.19307679117275
 30
0.0
  0
SPLINE
  5
BB
330
1F
100
AcDbEntity
  8
0
  6
Continuous
 62
     4
370
    15
100
AcDbSpline
210
0.0
220
0.0
230
1.0
 70
    24
 71
     3
 72
    14
 73
    10
 74
     0
 42
0.000000001
 43
0.00000001
 40
0.0
 40
0.0
 40
0.0
 40
0.0
 40
0.2499999999999998
 40
0.2499999999999998
 40
0.4999999999999999
 40
0.4999999999999999
 40
0.75
 40
0.75
 40
1.0
 40
1.0
 40
1.0
 40
1.0
 10
9.999999999999968
 20
4.547544758149767
 30
0.0
 10
9.999999999999968
 20
4.406546147854684
 30
0.0
 10
9.999999999999968
 20
4.192589545675854
 30
0.0
 10
9.999999999999968
 20
3.618262525759141
 30
0.0
 10
9.999999999999968
 20
3.257886600924119
 30
0.0
 10
9.999999999999968
 20
2.419299771224513
 30
0.0
 10
9.999999999999968
 20
1.94153570048262
 30
0.0
 10
9.999999999999968
 20
0.9199219157922416
 30
0.0
 10
9.999999999999968
 20
0.3766949331422116
 30
0.0
 10
9.999999999999968
 20
-0.1708052386505876
 30
0.0
  0
LINE
  5
BC
330
1F
100
AcDbEntity
  8
0
  6
Continuous
 62
     1
370
    15
100
AcDbLine
 10
45.0
 20
0.0000000000000048
 30
0.0
 11
45.0
 21
4.550000000000005
 31
0.0
  0
SPLINE
  5
BD
330
1F
100
AcDbEntity
  8
0
  6
Continuous
 62
     1
370
    15
100
AcDbSpline
210
0.0
220
0.0
230
1.0
 70
     8
 71
     3
 72
    14
 73
    10
 74
     0
 42
0.000000001
 43
0.00000001
 40
0.0
 40
0.0
 40
0.0
 40
0.0
 40
0.0455548400230629
 40
0.2064308803268772
 40
0.3675295353210853
 40
0.5256845129233009
 40
0.683659483993202
 40
0.8417244825181273
 40
1.0
 40
1.0
 40
1.0
 40
1.0
 10
20.7144235498408
 20
-5.108760038666782
 30
0.0
 10
20.55174390856626
 20
-5.170112817887767
 30
0.0
 10
19.81456424680998
 20
-5.448131755473247
 30
0.0
 10
18.5022726589461
 20
-5.821412887847585
 30
0.0
 10
16.78704875767899
 20
-6.205843534799009
 30
0.0
 10
15.08250759688059
 20
-6.437744148198832
 30
0.0
 10
13.38937241968774
 20
-6.522460063724354
 30
0.0
 10
11.69552564483012
 20
-6.469139343852905
 30
0.0
 10
10.5654259020009
 20
-6.311173986222199
 30
0.0
 10
10.00000000000047
 20
-6.232138745846378
 30
0.0
  0
SPLINE
  5
BE
330
1F
100
AcDbEntity
  8
0
  6
Continuous
 62
     4
370
    15
100
AcDbSpline
210
0.0
220
0.0
230
1.0
 70
    24
 71
     3
 72
     8
 73
     4
 74
     0
 42
0.000000001
 43
0.00000001
 40
0.0
 40
0.0
 40
0.0
 40
0.0
 40
1.0
 40
1.0
 40
1.0
 40
1.0
 10
10.0
 20
-5.193076791172754
 30
0.0
 10
10.0
 20
-5.53860618065224
 30
0.0
 10
9.999999999999998
 20
-5.887182534254508
 30
0.0
 10
10.0
 20
-6.232138745844535
 30
0.0
  0
LINE
  5
BF
330
1F
100
AcDbEntity
  8
0
  6
Continuous
 62
     1
370
    15
100
AcDbLine
 10
9.999999999999991
 20
-6.49977805054325
 30
0.0
 11
10.09309605854604
 21
-6.497784924600086
 31
0.0
  0
SPLINE
  5
C0
330
1F
100
AcDbEntity
  8
0
  6
Continuous
 62
     1
370
    15
100
AcDbSpline
210
0.0
220
0.0
230
1.0
 70
     8
 71
     3
 72
    15
 73
    11
 74
     0
 42
0.000000001
 43
0.00000001
 40
0.0
 40
0.0
 40
0.0
 40
0.0
 40
0.0789624411081436
 40
0.191639795411565
 40
0.4180724206714008
 40
0.5318905554776535
 40
0.6482900764114294
 40
0.7649390060194644
 40
0.8823415188581657
 40
1.0
 40
1.0
 40
1.0
 40
1.0
 10
36.05547950522911
 20
4.357077153908063
 30
0.0
 10
36.29093708034262
 20
4.457302618332734
 30
0.0
 10
36.86238650477286
 20
4.700547219535828
 30
0.0
 10
38.10872025791657
 20
5.176044315448817
 30
0.0
 10
39.46028121490366
 20
5.615386194411827
 30
0.0
 10
40.8204262142191
 20
5.963828790006108
 30
0.0
 10
41.8555518762634
 20
6.177839095193269
 30
0.0
 10
42.89946490493855
 20
6.340916609129497
 30
0.0
 10
43.94862265012209
 20
6.453109716292989
 30
0.0
 10
44.64928655541152
 20
6.480697424268034
 30
0.0
 10
44.99999999999981
 20
6.494506298992683
 30
0.0
  0
LINE
  5
C1
330
1F
100
AcDbEntity
  8
0
  6
Continuous
 62
     4
370
    15
100
AcDbLine
 10
9.999999999999991
 20
-6.499778050546389
 30
0.0
 11
9.999999999999991
 21
-6.232138745846423
 31
0.0
  0
SPLINE
  5
C2
330
1F
100
AcDbEntity
  8
0
  6
Continuous
 62
     1
370
    15
100
AcDbSpline
210
0.0
220
0.0
230
1.0
 70
    24
 71
     3
 72
    10
 73
     6
 74
     0
 42
0.000000001
 43
0.00000001
 40
0.0
 40
0.0
 40
0.0
 40
0.0
 40
0.5
 40
0.5
 40
1.0
 40
1.0
 40
1.0
 40
1.0
 10
45.0
 20
4.550000000000005
 30
0.0
 10
45.0
 20
4.825809669247547
 30
0.0
 10
45.00000000000001
 20
5.146326047636266
 30
0.0
 10
44.99999999999999
 20
5.818768546245565
 30
0.0
 10
45.0
 20
6.168977332709578
 30
0.0
 10
45.0
 20
6.494506298992694
 30
0.0
  0
LINE
  5
C3
330
1F
100
AcDbEntity
  8
중심선
100
AcDbLine
 10
-55.00000000000001
 20
-0.0000000000000036
 30
0.0
 11
48.00000000000001
 21
-0.0000000000000035
 31
0.0
  0
CIRCLE
  5
C4
330
1F
100
AcDbEntity
  8
외형선
100
AcDbCircle
 10
7.999999999999968
 20
-0.0000000000000036
 30
0.0
 40
3.000000000000004
  0
INSERT
  5
C5
330
1F
100
AcDbEntity
  8
0
  6
Continuous
 62
     7
100
AcDbBlockReference
 66
     1
  2
블럭10
 10
-23.93827343951161
 20
-52.04717430164393
 30
0.0
  0
ATTRIB
  5
C6
330
C5
100
AcDbEntity
  8
FORMAT
 62
     2
100
AcDbText
 10
-36.89821263436938
 20
-49.97180738881174
 30
0.0
 40
4.233333333333333
  1
SEME35130E [ 2 FLUTE ]
 41
0.75
  7
SLDTEXTSTYLE0
 11
-36.89821263436938
 21
-52.08847405547841
 31
0.0
100
AcDbAttribute
  2
AUTOATTR0
 70
     0
 74
     1
  0
SEQEND
  5
C7
330
C5
100
AcDbEntity
  8
0
  6
Continuous
 62
     7
  0
HATCH
  5
C8
330
1F
100
AcDbEntity
  8
중심선
100
AcDbHatch
 10
0.0
 20
0.0
 30
0.0
210
0.0
220
0.0
230
1.0
  2
SOLID
 70
     1
 71
     0
 91
        1
 92
        0
 93
        4
 72
     1
 10
-18.22336413513076
 20
-35.8
 11
-21.66963937896804
 21
-35.8
 72
     1
 10
-21.66963937896804
 20
-35.8
 11
-23.79786923817207
 21
-38.33632558057259
 72
     1
 10
-23.79786923817207
 20
-38.33632558057259
 11
-20.35156090922163
 21
-38.3362861512701
 72
     1
 10
-20.35156090922163
 20
-38.3362861512701
 11
-18.22336413513076
 21
-35.8
 97
        0
 75
     0
 76
     1
 98
        1
 10
0.0
 20
0.0
  0
HATCH
  5
C9
330
1F
100
AcDbEntity
  8
중심선
100
AcDbHatch
 10
0.0
 20
0.0
 30
0.0
210
0.0
220
0.0
230
1.0
  2
SOLID
 70
     1
 71
     0
 91
        1
 92
        0
 93
        4
 72
     1
 10
-13.21060014409481
 20
-35.8
 11
-16.65687538793209
 21
-35.8
 72
     1
 10
-16.65687538793209
 20
-35.8
 11
-21.18801339628948
 21
-41.20000000000002
 72
     1
 10
-21.18801339628948
 20
-41.20000000000002
 11
-17.7417381524522
 21
-41.20000000000002
 72
     1
 10
-17.7417381524522
 20
-41.20000000000002
 11
-13.21060014409481
 21
-35.8
 97
        0
 75
     0
 76
     1
 98
        1
 10
0.0
 20
0.0
  0
HATCH
  5
CA
330
1F
100
AcDbEntity
  8
중심선
100
AcDbHatch
 10
0.0
 20
0.0
 30
0.0
210
0.0
220
0.0
230
1.0
  2
SOLID
 70
     1
 71
     0
 91
        1
 92
        0
 93
        4
 72
     1
 10
-8.197836153058912
 20
-35.80000000000003
 11
-11.64411139689603
 21
-35.8
 72
     1
 10
-11.64411139689603
 20
-35.8
 11
-18.69254829878528
 21
-44.20000000000002
 72
     1
 10
-18.69254829878528
 20
-44.20000000000002
 11
-15.246273054948
 21
-44.20000000000002
 72
     1
 10
-15.246273054948
 20
-44.20000000000002
 11
-8.197836153058912
 21
-35.80000000000003
 97
        0
 75
     0
 76
     1
 98
        1
 10
0.0
 20
0.0
  0
HATCH
  5
CB
330
1F
100
AcDbEntity
  8
중심선
100
AcDbHatch
 10
0.0
 20
0.0
 30
0.0
210
0.0
220
0.0
230
1.0
  2
SOLID
 70
     1
 71
     0
 91
        1
 92
        0
 93
        6
 72
     3
 10
-3.397945722046714
 20
-40.00000000005127
 11
3.960054785062284
 21
1.540850780301639E-10
 40
0.3939339440162633
 50
17.09539180608433
 51
320.0019657685079
 73
     0
 72
     1
 10
-1.714946066346118
 20
-38.5878940046383
 11
0.5903558073549198
 21
-36.65356729459038
 72
     3
 10
-3.39794572209956
 20
-40.00000000000015
 11
6.600054785286829
 21
-1.249000902703301E-13
 40
0.6363583540795982
 50
39.99873849337408
 51
368.4976242363725
 73
     1
 72
     1
 10
3.027386769801049
 20
-39.03999999993002
 11
-4.717878415263637
 21
-39.03999999992999
 72
     1
 10
-4.717878415263637
 20
-39.03999999992999
 11
-4.717903459709571
 21
-40.95999999992991
 72
     1
 10
-4.717903459709571
 20
-40.95999999992991
 11
-0.2765236902375348
 21
-40.95999999992988
 97
        0
 75
     0
 76
     1
 98
        1
 10
0.0
 20
0.0
  0
DIMENSION
  5
CC
330
1F
100
AcDbEntity
  8
치수문자_일반주서
100
AcDbDimension
  2
_D
 10
9.999999999999995
 20
18.74514018757047
 30
0.0
 11
27.49999999999999
 21
18.74514018757047
 31
0.0
 70
   160
  1
<>
 71
     2
 42
-1.0
  3
SLDDIMSTYLE0
100
AcDbAlignedDimension
 13
45.00000000000001
 23
6.494506298992692
 33
0.0
 14
9.999999999999995
 24
4.547544758149765
 34
0.0
 50
0.0000000000000058
100
AcDbRotatedDimension
  0
DIMENSION
  5
D7
330
1F
100
AcDbEntity
  8
치수문자_일반주서
100
AcDbDimension
  2
_D_1
 10
-55.00000000000001
 20
27.33415911661224
 30
0.0
 11
-5.000000000000014
 21
27.33415911661224
 31
0.0
 70
   160
  1
<>
 71
     2
 42
100.0
  3
SLDDIMSTYLE0
100
AcDbAlignedDimension
 13
45.0
 23
4.550000000000005
 33
0.0
 14
-55.00000000000001
 24
4.310310251867883
 34
0.0
 50
0.0000000000000407
100
AcDbRotatedDimension
  0
DIMENSION
  5
E1
330
1F
100
AcDbEntity
  8
치수문자_일반주서
100
AcDbDimension
  2
_D_2
 10
60.56619031224631
 20
-6.494506298992632
 30
0.0
 11
60.56619031224628
 21
0.0000000000000038
 31
0.0
 70
   160
  1
%%c<>
 71
     2
 42
12.99661749140882
  3
SLDDIMSTYLE1
100
AcDbAlignedDimension
 13
45.0
 23
6.502111192416134
 33
0.0
 14
45.00000000000001
 24
-6.494506298992687
 34
0.0
 50
90.0000000000002
100
AcDbRotatedDimension
  0
DIMENSION
  5
EF
330
1F
100
AcDbEntity
  8
치수문자_일반주서
100
AcDbDimension
  2
_D_3
 10
-64.99902381642785
 20
-6.000000000000049
 30
0.0
 11
-64.99902381642787
 21
-0.000000000000048
 31
0.0
 70
   160
  1
%%c<>
 71
     2
 42
12.0
 52
-270.0
  3
SLDDIMSTYLE1
100
AcDbAlignedDimension
 13
-52.57946437103937
 23
5.999999999999999
 33
0.0
 14
-53.57946437103938
 24
-6.000000000000007
 34
0.0
 50
90.0000000000002
100
AcDbRotatedDimension
1001
ACAD_DSTYLE_DIMFLIPARROW_SYMBOL
1070
   385
1070
     0
1001
ACAD_DSTYLE_DIMFLIPARROW_WHICH_SYMBOL
1070
   386
1070
     3
  0
INSERT
  5
102
330
1F
100
AcDbEntity
  8
외형선
100
AcDbBlockReference
  2
SW_DOWELSYMBOL_0
 10
7.999999999999968
 20
-0.0000000000000036
 30
0.0
  0
LINE
  5
128
330
1F
100
AcDbEntity
  8
0
  6
Continuous
 62
     4
370
    15
100
AcDbLine
 10
-55.00000000000001
 20
4.310310251867883
 30
0.0
 11
-55.00000000000001
 21
-0.0000000000000044
 31
0.0
  0
LINE
  5
12D
330
1F
100
AcDbEntity
  8
0
  6
Continuous
 62
     4
370
    15
100
AcDbLine
 10
-53.57946437103938
 20
5.999999999999996
 30
0.0
 11
9.999999999999993
 21
6.000000000000004
 31
0.0
  0
LINE
  5
12E
330
1F
100
AcDbEntity
  8
0
  6
Continuous
 62
     4
370
    15
100
AcDbLine
 10
-53.57946437103938
 20
5.999999999999999
 30
0.0
 11
-55.00000000000001
 21
4.310310251867883
 31
0.0
  0
LINE
  5
12F
330
1F
100
AcDbEntity
  8
0
  6
Continuous
 62
     4
370
    15
100
AcDbLine
 10
-53.57946437103938
 20
5.999999999999996
 30
0.0
 11
-53.57946437103938
 21
-0.0000000000000036
 31
0.0
  0
LINE
  5
130
330
1F
100
AcDbEntity
  8
0
  6
Continuous
 62
     4
370
    15
100
AcDbLine
 10
-53.57946437103938
 20
-6.000000000000004
 30
0.0
 11
-53.57946437103938
 21
-0.0000000000000034
 31
0.0
  0
LINE
  5
131
330
1F
100
AcDbEntity
  8
0
  6
Continuous
 62
     4
370
    15
100
AcDbLine
 10
-53.57946437103938
 20
-6.000000000000004
 30
0.0
 11
9.999999999999993
 21
-6.000000000000012
 31
0.0
  0
LINE
  5
132
330
1F
100
AcDbEntity
  8
0
  6
Continuous
 62
     4
370
    15
100
AcDbLine
 10
-53.57946437103938
 20
-6.000000000000006
 30
0.0
 11
-55.00000000000001
 21
-4.31031025186789
 31
0.0
  0
LINE
  5
133
330
1F
100
AcDbEntity
  8
0
  6
Continuous
 62
     4
370
    15
100
AcDbLine
 10
-55.00000000000001
 20
-4.31031025186789
 30
0.0
 11
-55.00000000000001
 21
-0.0000000000000026
 31
0.0
  0
ENDSEC
  0
SECTION
  2
OBJECTS
  0
DICTIONARY
  5
C
330
0
100
AcDbDictionary
281
     1
  3
ACAD_GROUP
350
D
  3
ACAD_IMAGE_VARS
350
126
  3
ACAD_LAYOUT
350
1A
  3
ACAD_MLINESTYLE
350
17
  3
ACAD_PLOTSETTINGS
350
19
  3
ACAD_PLOTSTYLENAME
350
E
  3
ACAD_SCALELIST
350
47
  3
APPDATA
350
124
  3
DWGPROPS
350
141
  0
DICTIONARY
  5
D
102
{ACAD_REACTORS
330
C
102
}
330
C
100
AcDbDictionary
281
     1
  0
RASTERVARIABLES
  5
126
102
{ACAD_REACTORS
330
C
102
}
330
C
100
AcDbRasterVariables
 90
        0
 70
     1
 71
     1
 72
     1
  0
DICTIONARY
  5
1A
102
{ACAD_REACTORS
330
C
102
}
330
C
100
AcDbDictionary
281
     1
  3
Layout1
350
1E
  3
Layout2
350
26
  3
Model
350
22
  0
DICTIONARY
  5
17
102
{ACAD_REACTORS
330
C
102
}
330
C
100
AcDbDictionary
281
     1
  3
Standard
350
18
  0
DICTIONARY
  5
19
102
{ACAD_REACTORS
330
C
102
}
330
C
100
AcDbDictionary
281
     1
  0
ACDBDICTIONARYWDFLT
  5
E
102
{ACAD_REACTORS
330
C
102
}
330
C
100
AcDbDictionary
281
     1
  3
Normal
350
F
100
AcDbDictionaryWithDefault
340
F
  0
DICTIONARY
  5
47
102
{ACAD_REACTORS
330
C
102
}
330
C
100
AcDbDictionary
281
     1
  3
A0
350
48
  3
A1
350
49
  3
A2
350
4A
  3
A3
350
4B
  3
A4
350
4C
  3
A5
350
4D
  3
A6
350
4E
  3
A7
350
4F
  3
A8
350
50
  3
A9
350
51
  3
B0
350
52
  3
B1
350
53
  3
B2
350
54
  3
B3
350
55
  3
B4
350
56
  3
B5
350
57
  3
B6
350
58
  3
B7
350
59
  3
B8
350
5A
  3
B9
350
5B
  3
C0
350
5C
  3
C1
350
5D
  3
C2
350
5E
  3
C3
350
5F
  3
C4
350
60
  3
C5
350
61
  3
C6
350
62
  3
C7
350
63
  3
C8
350
64
  3
C9
350
65
  3
D0
350
66
  3
D1
350
67
  3
D2
350
68
  0
DICTIONARY
  5
124
102
{ACAD_REACTORS
330
C
102
}
330
C
100
AcDbDictionary
281
     1
  0
XRECORD
  5
141
102
{ACAD_REACTORS
330
C
102
}
330
C
100
AcDbXrecord
280
     1
  1
DWGPROPS COOKIE
  2

  3

  4

  6

  7

  8
12016016
  9

300
=
301
=
302
=
303
=
304
=
305
=
306
=
307
=
308
=
309
=
 40
0.0
 41
2458250.118809028
 42
2458269.39118853
  1

 90
        0
  0
LAYOUT
  5
1E
102
{ACAD_REACTORS
330
1A
102
}
330
1A
100
AcDbPlotSettings
  1

  2
none_device
  4

  6

 40
0.0
 41
0.0
 42
0.0
 43
0.0
 44
0.0
 45
0.0
 46
0.0
 47
0.0
 48
0.0
 49
0.0
140
0.0
141
0.0
142
1.0
143
1.0
 70
   688
 72
     1
 73
     0
 74
     5
  7

 75
    16
147
1.0
148
0.0
149
0.0
100
AcDbLayout
  1
Layout1
 70
     1
 71
     1
 10
0.0
 20
0.0
 11
420.0
 21
297.0
 12
0.0
 22
0.0
 32
0.0
 14
1.000000000000000E+20
 24
1.000000000000000E+20
 34
1.000000000000000E+20
 15
-1.000000000000000E+20
 25
-1.000000000000000E+20
 35
-1.000000000000000E+20
146
0.0
 13
0.0
 23
0.0
 33
0.0
 16
1.0
 26
0.0
 36
0.0
 17
0.0
 27
1.0
 37
0.0
 76
     0
330
1B
  0
LAYOUT
  5
26
102
{ACAD_REACTORS
330
1A
102
}
330
1A
100
AcDbPlotSettings
  1

  2
none_device
  4

  6

 40
0.0
 41
0.0
 42
0.0
 43
0.0
 44
0.0
 45
0.0
 46
0.0
 47
0.0
 48
0.0
 49
0.0
140
0.0
141
0.0
142
1.0
143
1.0
 70
   688
 72
     1
 73
     0
 74
     5
  7

 75
    16
147
1.0
148
0.0
149
0.0
100
AcDbLayout
  1
Layout2
 70
     1
 71
     2
 10
0.0
 20
0.0
 11
0.0
 21
0.0
 12
0.0
 22
0.0
 32
0.0
 14
0.0
 24
0.0
 34
0.0
 15
0.0
 25
0.0
 35
0.0
146
0.0
 13
0.0
 23
0.0
 33
0.0
 16
1.0
 26
0.0
 36
0.0
 17
0.0
 27
1.0
 37
0.0
 76
     0
330
23
  0
LAYOUT
  5
22
102
{ACAD_REACTORS
330
1A
102
}
330
1A
100
AcDbPlotSettings
  1

  2
none_device
  4
ANSI_A_(11.00_x_8.50_Inches)
  6

 40
6.35
 41
19.05
 42
6.35000508
 43
19.05000254
 44
279.4
 45
215.9
 46
121.1052589895678
 47
111.9712437391024
 48
0.0
 49
0.0
140
0.0
141
0.0
142
0.0962716108902159
143
1.0
 70
  1696
 72
     0
 73
     0
 74
     0
  7

 75
     0
147
0.0235690232323232
148
0.0
149
0.0
100
AcDbLayout
  1
Model
 70
     1
 71
     0
 10
0.0
 20
0.0
 11
420.0
 21
297.0
 12
0.0
 22
0.0
 32
0.0
 14
-69.37402381642792
 24
-49.97180738881175
 34
0.0
 15
61.11652364557963
 25
31.70915911661224
 35
0.0
146
0.0
 13
0.0
 23
0.0
 33
0.0
 16
1.0
 26
0.0
 36
0.0
 17
0.0
 27
1.0
 37
0.0
 76
     0
330
1F
331
29
  0
MLINESTYLE
  5
18
102
{ACAD_REACTORS
330
17
102
}
330
17
100
AcDbMlineStyle
  2
Standard
 70
     0
  3

 62
   256
 51
90.0
 52
90.0
 71
     2
 49
0.5
 62
   256
  6
BYLAYER
 49
-0.5
 62
   256
  6
BYLAYER
  0
ACDBPLACEHOLDER
  5
F
102
{ACAD_REACTORS
330
E
102
}
330
E
  0
SCALE
  5
48
102
{ACAD_REACTORS
330
47
102
}
330
47
100
AcDbScale
 70
     0
300
1:1
140
1.0
141
1.0
290
     1
  0
SCALE
  5
49
102
{ACAD_REACTORS
330
47
102
}
330
47
100
AcDbScale
 70
     0
300
1:2
140
1.0
141
2.0
290
     0
  0
SCALE
  5
4A
102
{ACAD_REACTORS
330
47
102
}
330
47
100
AcDbScale
 70
     0
300
1:4
140
1.0
141
4.0
290
     0
  0
SCALE
  5
4B
102
{ACAD_REACTORS
330
47
102
}
330
47
100
AcDbScale
 70
     0
300
1:5
140
1.0
141
5.0
290
     0
  0
SCALE
  5
4C
102
{ACAD_REACTORS
330
47
102
}
330
47
100
AcDbScale
 70
     0
300
1:8
140
1.0
141
8.0
290
     0
  0
SCALE
  5
4D
102
{ACAD_REACTORS
330
47
102
}
330
47
100
AcDbScale
 70
     0
300
1:10
140
1.0
141
10.0
290
     0
  0
SCALE
  5
4E
102
{ACAD_REACTORS
330
47
102
}
330
47
100
AcDbScale
 70
     0
300
1:16
140
1.0
141
16.0
290
     0
  0
SCALE
  5
4F
102
{ACAD_REACTORS
330
47
102
}
330
47
100
AcDbScale
 70
     0
300
1:20
140
1.0
141
20.0
290
     0
  0
SCALE
  5
50
102
{ACAD_REACTORS
330
47
102
}
330
47
100
AcDbScale
 70
     0
300
1:30
140
1.0
141
30.0
290
     0
  0
SCALE
  5
51
102
{ACAD_REACTORS
330
47
102
}
330
47
100
AcDbScale
 70
     0
300
1:40
140
1.0
141
40.0
290
     0
  0
SCALE
  5
52
102
{ACAD_REACTORS
330
47
102
}
330
47
100
AcDbScale
 70
     0
300
1:50
140
1.0
141
50.0
290
     0
  0
SCALE
  5
53
102
{ACAD_REACTORS
330
47
102
}
330
47
100
AcDbScale
 70
     0
300
1:100
140
1.0
141
100.0
290
     0
  0
SCALE
  5
54
102
{ACAD_REACTORS
330
47
102
}
330
47
100
AcDbScale
 70
     0
300
2:1
140
2.0
141
1.0
290
     0
  0
SCALE
  5
55
102
{ACAD_REACTORS
330
47
102
}
330
47
100
AcDbScale
 70
     0
300
4:1
140
4.0
141
1.0
290
     0
  0
SCALE
  5
56
102
{ACAD_REACTORS
330
47
102
}
330
47
100
AcDbScale
 70
     0
300
8:1
140
8.0
141
1.0
290
     0
  0
SCALE
  5
57
102
{ACAD_REACTORS
330
47
102
}
330
47
100
AcDbScale
 70
     0
300
10:1
140
10.0
141
1.0
290
     0
  0
SCALE
  5
58
102
{ACAD_REACTORS
330
47
102
}
330
47
100
AcDbScale
 70
     0
300
100:1
140
100.0
141
1.0
290
     0
  0
SCALE
  5
59
102
{ACAD_REACTORS
330
47
102
}
330
47
100
AcDbScale
 70
     0
300
1/128" = 1'-0"
140
0.0078125
141
12.0
290
     0
  0
SCALE
  5
5A
102
{ACAD_REACTORS
330
47
102
}
330
47
100
AcDbScale
 70
     0
300
1/64" = 1'-0"
140
0.015625
141
12.0
290
     0
  0
SCALE
  5
5B
102
{ACAD_REACTORS
330
47
102
}
330
47
100
AcDbScale
 70
     0
300
1/32" = 1'-0"
140
0.03125
141
12.0
290
     0
  0
SCALE
  5
5C
102
{ACAD_REACTORS
330
47
102
}
330
47
100
AcDbScale
 70
     0
300
1/16" = 1'-0"
140
0.0625
141
12.0
290
     0
  0
SCALE
  5
5D
102
{ACAD_REACTORS
330
47
102
}
330
47
100
AcDbScale
 70
     0
300
3/32" = 1'-0"
140
0.09375
141
12.0
290
     0
  0
SCALE
  5
5E
102
{ACAD_REACTORS
330
47
102
}
330
47
100
AcDbScale
 70
     0
300
1/8" = 1'-0"
140
0.125
141
12.0
290
     0
  0
SCALE
  5
5F
102
{ACAD_REACTORS
330
47
102
}
330
47
100
AcDbScale
 70
     0
300
3/16" = 1'-0"
140
0.1875
141
12.0
290
     0
  0
SCALE
  5
60
102
{ACAD_REACTORS
330
47
102
}
330
47
100
AcDbScale
 70
     0
300
1/4" = 1'-0"
140
0.25
141
12.0
290
     0
  0
SCALE
  5
61
102
{ACAD_REACTORS
330
47
102
}
330
47
100
AcDbScale
 70
     0
300
3/8" = 1'-0"
140
0.375
141
12.0
290
     0
  0
SCALE
  5
62
102
{ACAD_REACTORS
330
47
102
}
330
47
100
AcDbScale
 70
     0
300
1/2" = 1'-0"
140
0.5
141
12.0
290
     0
  0
SCALE
  5
63
102
{ACAD_REACTORS
330
47
102
}
330
47
100
AcDbScale
 70
     0
300
3/4" = 1'-0"
140
0.75
141
12.0
290
     0
  0
SCALE
  5
64
102
{ACAD_REACTORS
330
47
102
}
330
47
100
AcDbScale
 70
     0
300
1" = 1'-0"
140
1.0
141
12.0
290
     0
  0
SCALE
  5
65
102
{ACAD_REACTORS
330
47
102
}
330
47
100
AcDbScale
 70
     0
300
1-1/2" = 1'-0"
140
1.5
141
12.0
290
     0
  0
SCALE
  5
66
102
{ACAD_REACTORS
330
47
102
}
330
47
100
AcDbScale
 70
     0
300
3" = 1'-0"
140
3.0
141
12.0
290
     0
  0
SCALE
  5
67
102
{ACAD_REACTORS
330
47
102
}
330
47
100
AcDbScale
 70
     0
300
6" = 1'-0"
140
6.0
141
12.0
290
     0
  0
SCALE
  5
68
102
{ACAD_REACTORS
330
47
102
}
330
47
100
AcDbScale
 70
     0
300
1'-0" = 1'-0"
140
12.0
141
12.0
290
     0
  0
ENDSEC
  0
EOF
