  0
SECTION
  2
HEADER
  9
$ACADVER
  1
AC1015
  9
$ACADMAINTVER
 70
     6
  9
$DWGCODEPAGE
  3
ANSI_949
  9
$INSBASE
 10
0.0
 20
0.0
 30
0.0
  9
$EXTMIN
 10
-68.79455944538856
 20
-49.97180738881174
 30
0.0
  9
$EXTMAX
 10
63.11652364557963
 20
32.05915911661226
 30
0.0
  9
$LIMMIN
 10
0.0
 20
0.0
  9
$LIMMAX
 10
420.0
 20
297.0
  9
$ORTHOMODE
 70
     1
  9
$REGENMODE
 70
     1
  9
$FILLMODE
 70
     1
  9
$QTEXTMODE
 70
     0
  9
$MIRRTEXT
 70
     1
  9
$LTSCALE
 40
1.0
  9
$ATTMODE
 70
     1
  9
$TEXTSIZE
 40
3.5
  9
$TRACEWID
 40
1.0
  9
$TEXTSTYLE
  7
Standard
  9
$CLAYER
  8
0
  9
$CELTYPE
  6
ByLayer
  9
$CECOLOR
 62
   256
  9
$CELTSCALE
 40
1.0
  9
$DISPSILH
 70
     0
  9
$DIMSCALE
 40
1.0
  9
$DIMASZ
 40
3.302
  9
$DIMEXO
 40
1.0
  9
$DIMDLI
 40
3.75
  9
$DIMRND
 40
0.0
  9
$DIMDLE
 40
0.0
  9
$DIMEXE
 40
1.0
  9
$DIMTP
 40
0.0
  9
$DIMTM
 40
0.0
  9
$DIMTXT
 40
3.5
  9
$DIMCEN
 40
2.5
  9
$DIMTSZ
 40
0.0
  9
$DIMTOL
 70
     0
  9
$DIMLIM
 70
     0
  9
$DIMTIH
 70
     1
  9
$DIMTOH
 70
     1
  9
$DIMSE1
 70
     0
  9
$DIMSE2
 70
     0
  9
$DIMTAD
 70
     1
  9
$DIMZIN
 70
     0
  9
$DIMBLK
  1

  9
$DIMASO
 70
     1
  9
$DIMSHO
 70
     1
  9
$DIMPOST
  1

  9
$DIMAPOST
  1

  9
$DIMALT
 70
     0
  9
$DIMALTD
 70
     3
  9
$DIMALTF
 40
0.0393700787401575
  9
$DIMLFAC
 40
1.0
  9
$DIMTOFL
 70
     1
  9
$DIMTVP
 40
0.0
  9
$DIMTIX
 70
     0
  9
$DIMSOXD
 70
     0
  9
$DIMSAH
 70
     0
  9
$DIMBLK1
  1

  9
$DIMBLK2
  1

  9
$DIMSTYLE
  2
ISO-25
  9
$DIMCLRD
 70
     0
  9
$DIMCLRE
 70
     0
  9
$DIMCLRT
 70
     0
  9
$DIMTFAC
 40
1.0
  9
$DIMGAP
 40
1.524
  9
$DIMJUST
 70
     0
  9
$DIMSD1
 70
     0
  9
$DIMSD2
 70
     0
  9
$DIMTOLJ
 70
     0
  9
$DIMTZIN
 70
     0
  9
$DIMALTZ
 70
     0
  9
$DIMALTTZ
 70
     0
  9
$DIMUPT
 70
     0
  9
$DIMDEC
 70
     2
  9
$DIMTDEC
 70
     2
  9
$DIMALTU
 70
     2
  9
$DIMALTTD
 70
     3
  9
$DIMTXSTY
  7
Standard
  9
$DIMAUNIT
 70
     0
  9
$DIMADEC
 70
     2
  9
$DIMALTRND
 40
0.0
  9
$DIMAZIN
 70
     0
  9
$DIMDSEP
 70
    44
  9
$DIMATFIT
 70
     3
  9
$DIMFRAC
 70
     0
  9
$DIMLDRBLK
  1

  9
$DIMLUNIT
 70
     2
  9
$DIMLWD
 70
    -2
  9
$DIMLWE
 70
    -2
  9
$DIMTMOVE
 70
     0
  9
$LUNITS
 70
     2
  9
$LUPREC
 70
     2
  9
$SKETCHINC
 40
1.0
  9
$FILLETRAD
 40
10.0
  9
$AUNITS
 70
     0
  9
$AUPREC
 70
     2
  9
$MENU
  1
.
  9
$ELEVATION
 40
0.0
  9
$PELEVATION
 40
0.0
  9
$THICKNESS
 40
0.0
  9
$LIMCHECK
 70
     0
  9
$CHAMFERA
 40
0.0
  9
$CHAMFERB
 40
0.0
  9
$CHAMFERC
 40
0.0
  9
$CHAMFERD
 40
0.0
  9
$SKPOLY
 70
     0
  9
$TDCREATE
 40
2458250.50999581
  9
$TDUCREATE
 40
2458250.13499581
  9
$TDUPDATE
 40
2458264.609352732
  9
$TDUUPDATE
 40
2458264.234352732
  9
$TDINDWG
 40
0.0016646065
  9
$TDUSRTIMER
 40
0.0016645949
  9
$USRTIMER
 70
     1
  9
$ANGBASE
 50
0.0
  9
$ANGDIR
 70
     0
  9
$PDMODE
 70
     0
  9
$PDSIZE
 40
-1.0
  9
$PLINEWID
 40
0.0
  9
$SPLFRAME
 70
     0
  9
$SPLINETYPE
 70
     6
  9
$SPLINESEGS
 70
     8
  9
$HANDSEED
  5
135
  9
$SURFTAB1
 70
     6
  9
$SURFTAB2
 70
     6
  9
$SURFTYPE
 70
     6
  9
$SURFU
 70
     6
  9
$SURFV
 70
     6
  9
$UCSBASE
  2

  9
$UCSNAME
  2

  9
$UCSORG
 10
0.0
 20
0.0
 30
0.0
  9
$UCSXDIR
 10
1.0
 20
0.0
 30
0.0
  9
$UCSYDIR
 10
0.0
 20
1.0
 30
0.0
  9
$UCSORTHOREF
  2

  9
$UCSORTHOVIEW
 70
     0
  9
$UCSORGTOP
 10
0.0
 20
0.0
 30
0.0
  9
$UCSORGBOTTOM
 10
0.0
 20
0.0
 30
0.0
  9
$UCSORGLEFT
 10
0.0
 20
0.0
 30
0.0
  9
$UCSORGRIGHT
 10
0.0
 20
0.0
 30
0.0
  9
$UCSORGFRONT
 10
0.0
 20
0.0
 30
0.0
  9
$UCSORGBACK
 10
0.0
 20
0.0
 30
0.0
  9
$PUCSBASE
  2

  9
$PUCSNAME
  2

  9
$PUCSORG
 10
0.0
 20
0.0
 30
0.0
  9
$PUCSXDIR
 10
1.0
 20
0.0
 30
0.0
  9
$PUCSYDIR
 10
0.0
 20
1.0
 30
0.0
  9
$PUCSORTHOREF
  2

  9
$PUCSORTHOVIEW
 70
     0
  9
$PUCSORGTOP
 10
0.0
 20
0.0
 30
0.0
  9
$PUCSORGBOTTOM
 10
0.0
 20
0.0
 30
0.0
  9
$PUCSORGLEFT
 10
0.0
 20
0.0
 30
0.0
  9
$PUCSORGRIGHT
 10
0.0
 20
0.0
 30
0.0
  9
$PUCSORGFRONT
 10
0.0
 20
0.0
 30
0.0
  9
$PUCSORGBACK
 10
0.0
 20
0.0
 30
0.0
  9
$USERI1
 70
     0
  9
$USERI2
 70
     0
  9
$USERI3
 70
     0
  9
$USERI4
 70
     0
  9
$USERI5
 70
     0
  9
$USERR1
 40
0.0
  9
$USERR2
 40
0.0
  9
$USERR3
 40
0.0
  9
$USERR4
 40
0.0
  9
$USERR5
 40
0.0
  9
$WORLDVIEW
 70
     1
  9
$SHADEDGE
 70
     3
  9
$SHADEDIF
 70
    70
  9
$TILEMODE
 70
     1
  9
$MAXACTVP
 70
    64
  9
$PINSBASE
 10
0.0
 20
0.0
 30
0.0
  9
$PLIMCHECK
 70
     0
  9
$PEXTMIN
 10
1.000000000000000E+20
 20
1.000000000000000E+20
 30
1.000000000000000E+20
  9
$PEXTMAX
 10
-1.000000000000000E+20
 20
-1.000000000000000E+20
 30
-1.000000000000000E+20
  9
$PLIMMIN
 10
0.0
 20
0.0
  9
$PLIMMAX
 10
0.0
 20
0.0
  9
$UNITMODE
 70
     0
  9
$VISRETAIN
 70
     1
  9
$PLINEGEN
 70
     0
  9
$PSLTSCALE
 70
     1
  9
$TREEDEPTH
 70
  3020
  9
$CMLSTYLE
  2
Standard
  9
$CMLJUST
 70
     0
  9
$CMLSCALE
 40
20.0
  9
$PROXYGRAPHICS
 70
     1
  9
$MEASUREMENT
 70
     1
  9
$CELWEIGHT
370
    -1
  9
$ENDCAPS
280
     0
  9
$JOINSTYLE
280
     0
  9
$LWDISPLAY
290
     1
  9
$INSUNITS
 70
     4
  9
$HYPERLINKBASE
  1

  9
$STYLESHEET
  1

  9
$XEDIT
290
     1
  9
$CEPSNTYPE
380
     0
  9
$PSTYLEMODE
290
     1
  9
$FINGERPRINTGUID
  2
{5DE2CE88-7D3B-4640-B5A0-54E88E289392}
  9
$VERSIONGUID
  2
{FAEB1C32-E019-11D5-929B-00C0DF256EC4}
  9
$EXTNAMES
290
     1
  9
$PSVPSCALE
 40
0.0
  9
$OLESTARTUP
290
     0
  0
ENDSEC
  0
SECTION
  2
CLASSES
  0
CLASS
  1
ACDBDICTIONARYWDFLT
  2
AcDbDictionaryWithDefault
  3
ObjectDBX Classes
 90
        0
280
     0
281
     0
  0
CLASS
  1
VISUALSTYLE
  2
AcDbVisualStyle
  3
ObjectDBX Classes
 90
     4095
280
     0
281
     0
  0
CLASS
  1
MATERIAL
  2
AcDbMaterial
  3
ObjectDBX Classes
 90
     1153
280
     0
281
     0
  0
CLASS
  1
SCALE
  2
AcDbScale
  3
ObjectDBX Classes
 90
     1153
280
     0
281
     0
  0
CLASS
  1
SUN
  2
AcDbSun
  3
SCENEOE
 90
     1153
280
     0
281
     0
  0
CLASS
  1
ACDBPLACEHOLDER
  2
AcDbPlaceHolder
  3
ObjectDBX Classes
 90
        0
280
     0
281
     0
  0
CLASS
  1
LAYOUT
  2
AcDbLayout
  3
ObjectDBX Classes
 90
        0
280
     0
281
     0
  0
CLASS
  1
TABLESTYLE
  2
AcDbTableStyle
  3
ObjectDBX Classes
 90
     4095
280
     0
281
     0
  0
CLASS
  1
MLEADERSTYLE
  2
AcDbMLeaderStyle
  3
ACDB_MLEADERSTYLE_CLASS
 90
     4095
280
     0
281
     0
  0
ENDSEC
  0
SECTION
  2
TABLES
  0
TABLE
  2
VPORT
  5
8
330
0
100
AcDbSymbolTable
 70
     1
  0
VPORT
  5
29
330
8
100
AcDbSymbolTableRecord
100
AcDbViewportTableRecord
  2
*Active
 70
     0
 10
0.0
 20
0.0
 11
1.0
 21
1.0
 12
-20.80956605433638
 22
-7.854367203232435
 13
0.0
 23
0.0
 14
10.0
 24
10.0
 15
10.0
 25
10.0
 16
0.0
 26
0.0
 36
1.0
 17
0.0
 27
0.0
 37
0.0
 40
134.3267641677347
 41
2.223011363636364
 42
50.0
 43
0.0
 44
0.0
 50
0.0
 51
0.0
 71
    16
 72
  2000
 73
     1
 74
     3
 75
     0
 76
     0
 77
     0
 78
     0
281
     0
 65
     1
110
0.0
120
0.0
130
0.0
111
1.0
121
0.0
131
0.0
112
0.0
122
1.0
132
0.0
 79
     0
146
0.0
  0
ENDTAB
  0
TABLE
  2
LTYPE
  5
5
330
0
100
AcDbSymbolTable
 70
     6
  0
LTYPE
  5
14
330
5
100
AcDbSymbolTableRecord
100
AcDbLinetypeTableRecord
  2
ByBlock
 70
     0
  3

 72
    65
 73
     0
 40
0.0
  0
LTYPE
  5
15
330
5
100
AcDbSymbolTableRecord
100
AcDbLinetypeTableRecord
  2
ByLayer
 70
     0
  3

 72
    65
 73
     0
 40
0.0
  0
LTYPE
  5
16
330
5
100
AcDbSymbolTableRecord
100
AcDbLinetypeTableRecord
  2
Continuous
 70
     0
  3
Solid line
 72
    65
 73
     0
 40
0.0
  0
LTYPE
  5
6A
330
5
100
AcDbSymbolTableRecord
100
AcDbLinetypeTableRecord
  2
HIDDEN
 70
     0
  3
Hidden __ __ __ __ __ __ __ __ __ __ __ __ __ __
 72
    65
 73
     2
 40
1.905
 49
1.27
 74
     0
 49
-0.635
 74
     0
  0
LTYPE
  5
6B
330
5
100
AcDbSymbolTableRecord
100
AcDbLinetypeTableRecord
  2
PHANTOM
 70
     0
  3
Phantom ______  __  __  ______  __  __  ______
 72
    65
 73
     6
 40
12.7
 49
6.35
 74
     0
 49
-1.27
 74
     0
 49
1.27
 74
     0
 49
-1.27
 74
     0
 49
1.27
 74
     0
 49
-1.27
 74
     0
  0
LTYPE
  5
6C
330
5
100
AcDbSymbolTableRecord
100
AcDbLinetypeTableRecord
  2
CENTER
 70
     0
  3
Center ____ _ ____ _ ____ _ ____ _ ____ _ ____
 72
    65
 73
     4
 40
10.16
 49
6.35
 74
     0
 49
-1.27
 74
     0
 49
1.27
 74
     0
 49
-1.27
 74
     0
  0
LTYPE
  5
6D
330
5
100
AcDbSymbolTableRecord
100
AcDbLinetypeTableRecord
  2
CENTERX2
 70
     0
  3
Center (2x) ________  __  ________  __  _____
 72
    65
 73
     4
 40
20.32
 49
12.7
 74
     0
 49
-2.54
 74
     0
 49
2.54
 74
     0
 49
-2.54
 74
     0
  0
LTYPE
  5
6E
330
5
100
AcDbSymbolTableRecord
100
AcDbLinetypeTableRecord
  2
DOT2
 70
     0
  3
Dot (.5x) ........................................
 72
    65
 73
     2
 40
0.635
 49
0.0
 74
     0
 49
-0.635
 74
     0
  0
ENDTAB
  0
TABLE
  2
LAYER
  5
2
330
0
100
AcDbSymbolTable
 70
    17
  0
LAYER
  5
10
330
2
100
AcDbSymbolTableRecord
100
AcDbLayerTableRecord
  2
0
 70
     0
 62
     7
  6
Continuous
370
    -3
390
F
  0
LAYER
  5
6F
330
2
100
AcDbSymbolTableRecord
100
AcDbLayerTableRecord
  2
FORMAT
 70
     0
 62
     2
  6
Continuous
370
    -3
390
F
  0
LAYER
  5
70
330
2
100
AcDbSymbolTableRecord
100
AcDbLayerTableRecord
  2
외형선
 70
     0
 62
   100
  6
Continuous
370
    30
390
F
  0
LAYER
  5
71
330
2
100
AcDbSymbolTableRecord
100
AcDbLayerTableRecord
  2
숨은선
 70
     0
 62
     2
  6
HIDDEN
370
    15
390
F
  0
LAYER
  5
72
330
2
100
AcDbSymbolTableRecord
100
AcDbLayerTableRecord
  2
중심선
 70
     0
 62
     1
  6
CENTERX2
370
    -3
390
F
  0
LAYER
  5
73
330
2
100
AcDbSymbolTableRecord
100
AcDbLayerTableRecord
  2
파단선
 70
     0
 62
     4
  6
Continuous
370
    -3
390
F
  0
LAYER
  5
74
330
2
100
AcDbSymbolTableRecord
100
AcDbLayerTableRecord
  2
해칭선
 70
     0
 62
     4
  6
Continuous
370
    -3
390
F
  0
LAYER
  5
75
330
2
100
AcDbSymbolTableRecord
100
AcDbLayerTableRecord
  2
가는실선
 70
     0
 62
     4
  6
Continuous
370
    -3
390
F
  0
LAYER
  5
76
330
2
100
AcDbSymbolTableRecord
100
AcDbLayerTableRecord
  2
치수_보조선
 70
     0
 62
     4
  6
Continuous
370
    -3
390
F
  0
LAYER
  5
77
330
2
100
AcDbSymbolTableRecord
100
AcDbLayerTableRecord
  2
치수문자_일반주서
 70
     0
 62
     7
  6
Continuous
370
    15
390
F
  0
LAYER
  5
78
330
2
100
AcDbSymbolTableRecord
100
AcDbLayerTableRecord
  2
개별주서
 70
     0
 62
   100
  6
Continuous
370
    30
390
F
  0
LAYER
  5
79
330
2
100
AcDbSymbolTableRecord
100
AcDbLayerTableRecord
  2
중간선
 70
     0
 62
     2
  6
Continuous
370
    15
390
F
  0
LAYER
  5
7A
330
2
100
AcDbSymbolTableRecord
100
AcDbLayerTableRecord
  2
윤곽선
 70
     0
 62
     3
  6
Continuous
370
    40
390
F
  0
LAYER
  5
7B
330
2
100
AcDbSymbolTableRecord
100
AcDbLayerTableRecord
  2
중심마크
 70
     0
 62
   100
  6
Continuous
370
    30
390
F
  0
LAYER
  5
7C
330
2
100
AcDbSymbolTableRecord
100
AcDbLayerTableRecord
  2
가상선
 70
     0
 62
     4
  6
PHANTOM
370
    -3
390
F
  0
LAYER
  5
7D
330
2
100
AcDbSymbolTableRecord
100
AcDbLayerTableRecord
  2
특수지정선
 70
     0
 62
     5
  6
CENTERX2
370
    60
390
F
  0
LAYER
  5
12B
330
2
100
AcDbSymbolTableRecord
100
AcDbLayerTableRecord
  2
Defpoints
 70
     0
 62
     7
  6
Continuous
290
     0
370
    -3
390
F
  0
ENDTAB
  0
TABLE
  2
STYLE
  5
3
330
0
100
AcDbSymbolTable
 70
     2
  0
STYLE
  5
11
330
3
100
AcDbSymbolTableRecord
100
AcDbTextStyleTableRecord
  2
Standard
 70
     0
 40
0.0
 41
1.0
 50
0.0
 71
     0
 42
3.5
  3
txt
  4

  0
STYLE
  5
93
330
3
100
AcDbSymbolTableRecord
100
AcDbTextStyleTableRecord
  2
SLDTEXTSTYLE0
 70
     0
 40
0.0
 41
0.75
 50
0.0
 71
     0
 42
3.5
  3
TXT
  4

  0
ENDTAB
  0
TABLE
  2
VIEW
  5
6
330
0
100
AcDbSymbolTable
 70
     0
  0
ENDTAB
  0
TABLE
  2
UCS
  5
7
330
0
100
AcDbSymbolTable
 70
     0
  0
ENDTAB
  0
TABLE
  2
APPID
  5
9
330
0
100
AcDbSymbolTable
 70
     2
  0
APPID
  5
12
330
9
100
AcDbSymbolTableRecord
100
AcDbRegAppTableRecord
  2
ACAD
 70
     0
  0
APPID
  5
129
330
9
100
AcDbSymbolTableRecord
100
AcDbRegAppTableRecord
  2
PE_URL
 70
     0
  0
ENDTAB
  0
TABLE
  2
DIMSTYLE
  5
A
330
0
100
AcDbSymbolTable
 70
     3
100
AcDbDimStyleTable
  0
DIMSTYLE
105
27
330
A
100
AcDbSymbolTableRecord
100
AcDbDimStyleTableRecord
  2
ISO-25
 70
     0
 41
2.5
 42
0.625
 43
3.75
 44
1.25
 73
     0
 74
     0
 77
     1
 78
     8
140
2.5
141
2.5
143
0.03937007874016
147
0.625
171
     3
172
     1
178
     0
271
     2
272
     2
274
     3
278
    44
283
     0
284
     8
340
11
  0
DIMSTYLE
105
D1
102
{ACAD_REACTORS
330
D0
330
DB
102
}
330
A
100
AcDbSymbolTableRecord
100
AcDbDimStyleTableRecord
  2
SLDDIMSTYLE0
 70
     0
 41
3.302
 44
0.0
 45
0.000000001
 73
     0
 74
     0
 77
     1
 78
    12
 79
     3
140
3.5
147
0.875
173
     1
178
     0
271
     2
272
     2
276
     2
284
    12
340
93
  0
DIMSTYLE
105
E6
102
{ACAD_REACTORS
330
E5
330
F3
102
}
330
A
100
AcDbSymbolTableRecord
100
AcDbDimStyleTableRecord
  2
SLDDIMSTYLE1
 70
     0
 41
3.302
 44
0.0
 45
0.000000001
 73
     0
 74
     0
 77
     1
 78
    12
 79
     3
140
3.5
147
0.875
172
     1
173
     1
178
     0
271
     2
272
     2
276
     2
284
    12
289
     0
340
93
  0
ENDTAB
  0
TABLE
  2
BLOCK_RECORD
  5
1
330
0
100
AcDbSymbolTable
 70
     7
  0
BLOCK_RECORD
  5
1F
330
1
100
AcDbSymbolTableRecord
100
AcDbBlockTableRecord
  2
*Model_Space
340
22
  0
BLOCK_RECORD
  5
1B
330
1
100
AcDbSymbolTableRecord
100
AcDbBlockTableRecord
  2
*Paper_Space
340
1E
  0
BLOCK_RECORD
  5
23
330
1
100
AcDbSymbolTableRecord
100
AcDbBlockTableRecord
  2
*Paper_Space0
340
26
  0
BLOCK_RECORD
  5
7E
330
1
100
AcDbSymbolTableRecord
100
AcDbBlockTableRecord
  2
블럭10
340
0
102
{BLKREFS
331
C9
102
}
  0
BLOCK_RECORD
  5
D2
330
1
100
AcDbSymbolTableRecord
100
AcDbBlockTableRecord
  2
_D
340
0
  0
BLOCK_RECORD
  5
DC
330
1
100
AcDbSymbolTableRecord
100
AcDbBlockTableRecord
  2
_D_1
340
0
  0
BLOCK_RECORD
  5
E7
330
1
100
AcDbSymbolTableRecord
100
AcDbBlockTableRecord
  2
_D_2
340
0
  0
BLOCK_RECORD
  5
F4
330
1
100
AcDbSymbolTableRecord
100
AcDbBlockTableRecord
  2
_D_3
340
0
  0
BLOCK_RECORD
  5
100
330
1
100
AcDbSymbolTableRecord
100
AcDbBlockTableRecord
  2
SW_DOWELSYMBOL_0
340
0
102
{BLKREFS
331
106
102
}
  0
ENDTAB
  0
ENDSEC
  0
SECTION
  2
BLOCKS
  0
BLOCK
  5
20
330
1F
100
AcDbEntity
  8
0
100
AcDbBlockBegin
  2
*Model_Space
 70
     0
 10
0.0
 20
0.0
 30
0.0
  3
*Model_Space
  1

  0
ENDBLK
  5
21
330
1F
100
AcDbEntity
  8
0
100
AcDbBlockEnd
  0
BLOCK
  5
1C
330
1B
100
AcDbEntity
 67
     1
  8
0
100
AcDbBlockBegin
  2
*Paper_Space
 70
     0
 10
0.0
 20
0.0
 30
0.0
  3
*Paper_Space
  1

  0
ENDBLK
  5
1D
330
1B
100
AcDbEntity
 67
     1
  8
0
100
AcDbBlockEnd
  0
BLOCK
  5
24
330
23
100
AcDbEntity
  8
0
100
AcDbBlockBegin
  2
*Paper_Space0
 70
     0
 10
0.0
 20
0.0
 30
0.0
  3
*Paper_Space0
  1

  0
ENDBLK
  5
25
330
23
100
AcDbEntity
  8
0
100
AcDbBlockEnd
  0
BLOCK
  5
7F
330
7E
100
AcDbEntity
  8
0
100
AcDbBlockBegin
  2
블럭10
 70
     2
 10
0.0
 20
0.0
 30
0.0
  3
블럭10
  1

  0
ELLIPSE
  5
81
330
7E
100
AcDbEntity
  8
중심선
100
AcDbEllipse
 10
20.54032771741204
 20
12.0471743016438
 30
0.0
 11
6.600054785286829
 21
-1.261213355974178E-13
 31
0.0
210
0.0
220
0.0
230
1.0
 40
0.636358354079598
 41
0.9219305317359503
 42
6.513795318482858
  0
ELLIPSE
  5
82
330
7E
100
AcDbEntity
  8
중심선
100
AcDbEllipse
 10
20.54032771746488
 20
12.04717430159265
 30
0.0
 11
3.960054785062283
 21
1.540847449632565E-10
 31
0.0
210
0.0
220
0.0
230
1.0
 40
0.3939339440162632
 41
1.131841032648279
 42
5.62031148352944
  0
LINE
  5
83
330
7E
100
AcDbEntity
  8
중심선
100
AcDbLine
 10
2.268634060543552
 20
16.24717430164393
 30
0.0
 11
5.714909304380834
 21
16.24717430164393
 31
0.0
  0
LINE
  5
84
330
7E
100
AcDbEntity
  8
중심선
100
AcDbLine
 10
5.245725140726316
 20
7.84717430164391
 30
0.0
 11
8.692000384563599
 21
7.84717430164391
 31
0.0
  0
LINE
  5
85
330
7E
100
AcDbEntity
  8
중심선
100
AcDbLine
 10
15.74043728645272
 20
16.24717430164393
 30
0.0
 11
8.692000384563599
 21
7.84717430164391
 31
0.0
  0
LINE
  5
86
330
7E
100
AcDbEntity
  8
중심선
100
AcDbLine
 10
0.1404042013395286
 20
13.71084872107135
 30
0.0
 11
3.58671253028996
 21
13.71088815037384
 31
0.0
  0
LINE
  5
87
330
7E
100
AcDbEntity
  8
중심선
100
AcDbLine
 10
2.750260043222114
 20
10.84717430164391
 30
0.0
 11
6.196535287059397
 21
10.84717430164391
 31
0.0
  0
LINE
  5
88
330
7E
100
AcDbEntity
  8
중심선
100
AcDbLine
 10
12.29416204261559
 20
16.24717430164393
 30
0.0
 11
5.245725140726316
 21
7.84717430164391
 31
0.0
  0
LINE
  5
89
330
7E
100
AcDbEntity
  8
중심선
100
AcDbLine
 10
10.72767329541681
 20
16.24717430164393
 30
0.0
 11
6.196535287059397
 21
10.84717430164391
 31
0.0
  0
LINE
  5
8A
330
7E
100
AcDbEntity
  8
중심선
100
AcDbLine
 10
7.28139805157953
 20
16.24717430164393
 30
0.0
 11
2.750260043222114
 21
10.84717430164391
 31
0.0
  0
LINE
  5
8B
330
7E
100
AcDbEntity
  8
중심선
100
AcDbLine
 10
5.714909304380834
 20
16.24717430164393
 30
0.0
 11
3.58671253028996
 21
13.71088815037384
 31
0.0
  0
LINE
  5
8C
330
7E
100
AcDbEntity
  8
중심선
100
AcDbLine
 10
2.268634060543552
 20
16.24717430164393
 30
0.0
 11
0.1404042013395286
 21
13.71084872107135
 31
0.0
  0
LINE
  5
8D
330
7E
100
AcDbEntity
  8
중심선
100
AcDbLine
 10
7.28139805157953
 20
16.24717430164393
 30
0.0
 11
10.72767329541681
 21
16.24717430164393
 31
0.0
  0
LINE
  5
8E
330
7E
100
AcDbEntity
  8
중심선
100
AcDbLine
 10
12.29416204261559
 20
16.24717430164393
 30
0.0
 11
15.74043728645272
 21
16.24717430164393
 31
0.0
  0
LINE
  5
8F
330
7E
100
AcDbEntity
  8
중심선
100
AcDbLine
 10
19.22036997980202
 20
11.08717430171403
 30
0.0
 11
23.66174974927406
 21
11.08717430171406
 31
0.0
  0
LINE
  5
90
330
7E
100
AcDbEntity
  8
중심선
100
AcDbLine
 10
19.22039502424796
 20
13.00717430171391
 30
0.0
 11
19.22036997980202
 21
11.08717430171403
 31
0.0
  0
LINE
  5
91
330
7E
100
AcDbEntity
  8
중심선
100
AcDbLine
 10
19.22039502424796
 20
13.00717430171391
 30
0.0
 11
26.96566020931264
 21
13.00717430171391
 31
0.0
  0
LINE
  5
92
330
7E
100
AcDbEntity
  8
중심선
100
AcDbLine
 10
22.22332737316547
 20
13.45928029700563
 30
0.0
 11
24.52862924686651
 21
15.39360700705356
 31
0.0
  0
ATTDEF
  5
94
330
7E
100
AcDbEntity
  8
FORMAT
 62
     2
100
AcDbText
 10
-17.58524845355718
 20
2.075366912832191
 30
0.0
 40
4.233333333333333
  1
SEME3514014SE [ 2 FLUTE ]
 41
0.75
  7
SLDTEXTSTYLE0
 11
-17.58524845355718
 21
-0.0412997538344756
 31
0.0
100
AcDbAttributeDefinition
  3

  2
AUTOATTR0
 70
     0
 74
     1
  0
ENDBLK
  5
80
330
7E
100
AcDbEntity
  8
0
100
AcDbBlockEnd
  0
BLOCK
  5
D3
330
D2
100
AcDbEntity
  8
0
100
AcDbBlockBegin
  2
_D
 70
     0
 10
0.0
 20
0.0
 30
0.0
  3
_D
  1

  0
LINE
  5
D5
330
D2
100
AcDbEntity
  8
치수문자_일반주서
 62
     0
370
    -2
100
AcDbLine
 10
47.0
 20
7.056583706607515
 30
0.0
 11
47.0
 21
19.2447175951853
 31
0.0
  0
LINE
  5
D6
330
D2
100
AcDbEntity
  8
치수문자_일반주서
 62
     0
370
    -2
100
AcDbLine
 10
11.99999999999999
 20
7.062500000000004
 30
0.0
 11
11.99999999999999
 21
19.2447175951853
 31
0.0
  0
LINE
  5
D7
330
D2
100
AcDbEntity
  8
치수문자_일반주서
 62
     0
370
    -2
100
AcDbLine
 10
43.698
 20
19.2447175951853
 30
0.0
 11
15.30199999999999
 21
19.2447175951853
 31
0.0
  0
SOLID
  5
D8
330
D2
100
AcDbEntity
  8
치수문자_일반주서
 62
     0
100
AcDbTrace
 10
43.698
 20
18.69438426185196
 30
0.0
 11
43.698
 21
19.79505092851863
 31
0.0
 12
47.0
 22
19.2447175951853
 32
0.0
 13
47.0
 23
19.2447175951853
 33
0.0
  0
SOLID
  5
D9
330
D2
100
AcDbEntity
  8
치수문자_일반주서
 62
     0
100
AcDbTrace
 10
15.30199999999999
 20
19.79505092851863
 30
0.0
 11
15.30199999999999
 21
18.69438426185196
 31
0.0
 12
11.99999999999999
 22
19.2447175951853
 32
0.0
 13
11.99999999999999
 23
19.2447175951853
 33
0.0
  0
MTEXT
  5
DA
330
D2
100
AcDbEntity
  8
치수문자_일반주서
 62
     0
100
AcDbMText
 10
29.49999999999999
 20
23.6197175951853
 30
0.0
 40
3.5
 41
0.0
 71
     2
 72
     1
  1
\A1;35
  7
SLDTEXTSTYLE0
 73
     1
 44
1.0
  0
POINT
  5
131
330
D2
100
AcDbEntity
  8
Defpoints
 62
     0
100
AcDbPoint
 10
47.0
 20
6.994083706607515
 30
0.0
  0
POINT
  5
132
330
D2
100
AcDbEntity
  8
Defpoints
 62
     0
100
AcDbPoint
 10
11.99999999999999
 20
7.000000000000004
 30
0.0
  0
POINT
  5
133
330
D2
100
AcDbEntity
  8
Defpoints
 62
     0
100
AcDbPoint
 10
11.99999999999999
 20
19.2447175951853
 30
0.0
  0
ENDBLK
  5
D4
330
D2
100
AcDbEntity
  8
0
100
AcDbBlockEnd
  0
BLOCK
  5
DD
330
DC
100
AcDbEntity
  8
0
100
AcDbBlockBegin
  2
_D_1
 70
     0
 10
0.0
 20
0.0
 30
0.0
  3
_D_1
  1

  0
LINE
  5
DF
330
DC
100
AcDbEntity
  8
치수문자_일반주서
 62
     0
370
    -2
100
AcDbLine
 10
46.99999999999957
 20
7.056583706607499
 30
0.0
 11
46.99999999999957
 21
27.68415911661226
 31
0.0
  0
LINE
  5
E0
330
DC
100
AcDbEntity
  8
치수문자_일반주서
 62
     0
370
    -2
100
AcDbLine
 10
-53.00000000000001
 20
6.062499999999996
 30
0.0
 11
-53.00000000000001
 21
27.68415911661226
 31
0.0
  0
LINE
  5
E1
330
DC
100
AcDbEntity
  8
치수문자_일반주서
 62
     0
370
    -2
100
AcDbLine
 10
43.69799999999957
 20
27.68415911661226
 30
0.0
 11
-49.69800000000001
 21
27.68415911661226
 31
0.0
  0
SOLID
  5
E2
330
DC
100
AcDbEntity
  8
치수문자_일반주서
 62
     0
100
AcDbTrace
 10
43.69799999999957
 20
27.13382578327893
 30
0.0
 11
43.69799999999957
 21
28.2344924499456
 31
0.0
 12
46.99999999999957
 22
27.68415911661226
 32
0.0
 13
46.99999999999957
 23
27.68415911661226
 33
0.0
  0
SOLID
  5
E3
330
DC
100
AcDbEntity
  8
치수문자_일반주서
 62
     0
100
AcDbTrace
 10
-49.69800000000001
 20
28.2344924499456
 30
0.0
 11
-49.69800000000001
 21
27.13382578327893
 31
0.0
 12
-53.00000000000001
 22
27.68415911661226
 32
0.0
 13
-53.00000000000001
 23
27.68415911661226
 33
0.0
  0
MTEXT
  5
E4
330
DC
100
AcDbEntity
  8
치수문자_일반주서
 62
     0
100
AcDbMText
 10
-2.999999999999991
 20
32.05915911661226
 30
0.0
 40
3.5
 41
0.0
 71
     2
 72
     1
  1
\A1;100
  7
SLDTEXTSTYLE0
 73
     1
 44
1.0
  0
POINT
  5
12C
330
DC
100
AcDbEntity
  8
Defpoints
 62
     0
100
AcDbPoint
 10
46.99999999999957
 20
6.994083706607499
 30
0.0
  0
POINT
  5
12D
330
DC
100
AcDbEntity
  8
Defpoints
 62
     0
100
AcDbPoint
 10
-53.00000000000001
 20
5.999999999999996
 30
0.0
  0
POINT
  5
12E
330
DC
100
AcDbEntity
  8
Defpoints
 62
     0
100
AcDbPoint
 10
-53.00000000000001
 20
27.68415911661226
 30
0.0
  0
ENDBLK
  5
DE
330
DC
100
AcDbEntity
  8
0
100
AcDbBlockEnd
  0
BLOCK
  5
E8
330
E7
100
AcDbEntity
  8
0
100
AcDbBlockBegin
  2
_D_2
 70
     0
 10
0.0
 20
0.0
 30
0.0
  3
_D_2
  1

  0
LINE
  5
EA
330
E7
100
AcDbEntity
  8
치수문자_일반주서
 62
     0
370
    -2
100
AcDbLine
 10
47.06264665602126
 20
7.005705834266497
 30
0.0
 11
62.56619031224625
 21
7.005705834266555
 31
0.0
  0
LINE
  5
EB
330
E7
100
AcDbEntity
  8
치수문자_일반주서
 62
     0
370
    -2
100
AcDbLine
 10
47.0625
 20
-6.994083706607504
 30
0.0
 11
62.5661903122463
 21
-6.994083706607445
 31
0.0
  0
LINE
  5
EC
330
E7
100
AcDbEntity
  8
치수문자_일반주서
 62
     0
370
    -2
100
AcDbLine
 10
62.56619031224626
 20
3.703705834266556
 30
0.0
 11
62.56619031224628
 21
-3.692083706607446
 31
0.0
  0
SOLID
  5
ED
330
E7
100
AcDbEntity
  8
치수문자_일반주서
 62
     0
100
AcDbTrace
 10
63.1165236455796
 20
3.703705834266557
 30
0.0
 11
62.01585697891293
 21
3.703705834266554
 31
0.0
 12
62.56619031224625
 22
7.005705834266555
 32
0.0
 13
62.56619031224625
 23
7.005705834266555
 33
0.0
  0
SOLID
  5
EE
330
E7
100
AcDbEntity
  8
치수문자_일반주서
 62
     0
100
AcDbTrace
 10
62.01585697891295
 20
-3.692083706607447
 30
0.0
 11
63.11652364557962
 21
-3.692083706607444
 31
0.0
 12
62.5661903122463
 22
-6.994083706607445
 32
0.0
 13
62.5661903122463
 23
-6.994083706607445
 33
0.0
  0
MTEXT
  5
EF
330
E7
100
AcDbEntity
  8
치수문자_일반주서
 62
     0
100
AcDbMText
 10
58.19119031224628
 20
-0.0000000000000116
 30
0.0
 40
3.5
 41
0.0
 71
     2
 72
     1
  1
\A1;%%c14
  7
SLDTEXTSTYLE0
 11
-3.552767086818784E-15
 21
1.0
 31
0.0
 73
     1
 44
1.0
  0
POINT
  5
F0
330
E7
100
AcDbEntity
  8
Defpoints
 62
     0
100
AcDbPoint
 10
47.00014665602126
 20
7.005705834266497
 30
0.0
  0
POINT
  5
F1
330
E7
100
AcDbEntity
  8
Defpoints
 62
     0
100
AcDbPoint
 10
47.0
 20
-6.994083706607504
 30
0.0
  0
POINT
  5
F2
330
E7
100
AcDbEntity
  8
Defpoints
 62
     0
100
AcDbPoint
 10
62.5661903122463
 20
-6.994083706607446
 30
0.0
  0
ENDBLK
  5
E9
330
E7
100
AcDbEntity
  8
0
100
AcDbBlockEnd
  0
BLOCK
  5
F5
330
F4
100
AcDbEntity
  8
0
100
AcDbBlockBegin
  2
_D_3
 70
     0
 10
0.0
 20
0.0
 30
0.0
  3
_D_3
  1

  0
LINE
  5
F7
330
F4
100
AcDbEntity
  8
치수문자_일반주서
 62
     0
370
    -2
100
AcDbLine
 10
-52.06250000000001
 20
7.0
 30
0.0
 11
-64.41955944538856
 21
6.999999999999954
 31
0.0
  0
LINE
  5
F8
330
F4
100
AcDbEntity
  8
치수문자_일반주서
 62
     0
370
    -2
100
AcDbLine
 10
-52.06250000000001
 20
-7.0
 30
0.0
 11
-64.41955944538851
 21
-7.000000000000046
 31
0.0
  0
LINE
  5
F9
330
F4
100
AcDbEntity
  8
치수문자_일반주서
 62
     0
370
    -2
100
AcDbLine
 10
-64.41955944538854
 20
3.697999999999954
 30
0.0
 11
-64.41955944538853
 21
-3.698000000000047
 31
0.0
  0
SOLID
  5
FA
330
F4
100
AcDbEntity
  8
치수문자_일반주서
 62
     0
100
AcDbTrace
 10
-63.86922611205521
 20
3.697999999999956
 30
0.0
 11
-64.96989277872187
 21
3.697999999999952
 31
0.0
 12
-64.41955944538856
 22
6.999999999999954
 32
0.0
 13
-64.41955944538856
 23
6.999999999999954
 33
0.0
  0
SOLID
  5
FB
330
F4
100
AcDbEntity
  8
치수문자_일반주서
 62
     0
100
AcDbTrace
 10
-64.96989277872186
 20
-3.698000000000048
 30
0.0
 11
-63.86922611205519
 21
-3.698000000000045
 31
0.0
 12
-64.41955944538851
 22
-7.000000000000046
 32
0.0
 13
-64.41955944538851
 23
-7.000000000000046
 33
0.0
  0
MTEXT
  5
FC
330
F4
100
AcDbEntity
  8
치수문자_일반주서
 62
     0
100
AcDbMText
 10
-68.79455944538854
 20
-0.0000000000000117
 30
0.0
 40
3.5
 41
0.0
 71
     2
 72
     1
  1
\A1;%%c14
  7
SLDTEXTSTYLE0
 11
-3.045183153257572E-15
 21
1.0
 31
0.0
 73
     1
 44
1.0
  0
POINT
  5
FD
330
F4
100
AcDbEntity
  8
Defpoints
 62
     0
100
AcDbPoint
 10
-52.00000000000001
 20
7.0
 30
0.0
  0
POINT
  5
FE
330
F4
100
AcDbEntity
  8
Defpoints
 62
     0
100
AcDbPoint
 10
-52.00000000000001
 20
-7.0
 30
0.0
  0
POINT
  5
FF
330
F4
100
AcDbEntity
  8
Defpoints
 62
     0
100
AcDbPoint
 10
-64.41955944538854
 20
-7.000000000000046
 30
0.0
  0
ENDBLK
  5
F6
330
F4
100
AcDbEntity
  8
0
100
AcDbBlockEnd
  0
BLOCK
  5
101
330
100
100
AcDbEntity
  8
0
100
AcDbBlockBegin
  2
SW_DOWELSYMBOL_0
 70
     0
 10
0.0
 20
0.0
 30
0.0
  3
SW_DOWELSYMBOL_0
  1

  0
CIRCLE
  5
103
330
100
100
AcDbEntity
  8
외형선
 62
     0
100
AcDbCircle
 10
0.0
 20
0.0
 30
0.0
 40
3.000000000000004
  0
HATCH
  5
104
330
100
100
AcDbEntity
  8
0
  6
Continuous
 62
     0
370
    30
100
AcDbHatch
 10
0.0
 20
0.0
 30
0.0
210
0.0
220
0.0
230
1.0
  2
SOLID
 70
     1
 71
     0
 91
        1
 92
        0
 93
        3
 72
     2
 10
0.0000000000000087
 20
-0.0000000000000035
 40
3.000000000000004
 50
0.0
 51
90.0
 73
     1
 72
     1
 10
0.0000000000000087
 20
3.000000000000001
 11
0.0000000000000087
 21
-0.0000000000000036
 72
     1
 10
0.0000000000000087
 20
-0.0000000000000035
 11
3.000000000000013
 21
-0.0000000000000035
 97
        0
 75
     0
 76
     1
 98
        1
 10
0.0
 20
0.0
  0
HATCH
  5
105
330
100
100
AcDbEntity
  8
0
  6
Continuous
 62
     0
370
    30
100
AcDbHatch
 10
0.0
 20
0.0
 30
0.0
210
0.0
220
0.0
230
1.0
  2
SOLID
 70
     1
 71
     0
 91
        1
 92
        0
 93
        3
 72
     2
 10
0.0000000000000087
 20
-0.0000000000000035
 40
3.000000000000004
 50
180.0
 51
270.0000000000008
 73
     1
 72
     1
 10
0.0000000000000087
 20
-3.000000000000008
 11
0.0000000000000087
 21
-0.0000000000000036
 72
     1
 10
0.0000000000000087
 20
-0.0000000000000035
 11
-2.999999999999996
 21
-0.0000000000000035
 97
        0
 75
     0
 76
     1
 98
        1
 10
0.0
 20
0.0
  0
ENDBLK
  5
102
330
100
100
AcDbEntity
  8
0
100
AcDbBlockEnd
  0
ENDSEC
  0
SECTION
  2
ENTITIES
  0
LINE
  5
95
330
1F
100
AcDbEntity
  8
0
  6
Continuous
 62
     4
370
    15
100
AcDbLine
 10
11.99999999999999
 20
7.000000000000004
 30
0.0
 11
-52.00000000000001
 21
7.0
 31
0.0
  0
LINE
  5
96
330
1F
100
AcDbEntity
  8
0
  6
Continuous
 62
     4
370
    15
100
AcDbLine
 10
-52.00000000000001
 20
-7.0
 30
0.0
 11
11.99999999999999
 21
-6.999999999999996
 31
0.0
  0
LINE
  5
97
330
1F
100
AcDbEntity
  8
0
  6
Continuous
 62
     4
370
    15
100
AcDbLine
 10
-52.00000000000001
 20
6.999999999999995
 30
0.0
 11
-53.00000000000001
 21
5.999999999999996
 31
0.0
  0
LINE
  5
98
330
1F
100
AcDbEntity
  8
0
  6
Continuous
 62
     4
370
    15
100
AcDbLine
 10
-53.00000000000001
 20
-5.999999999999999
 30
0.0
 11
-52.00000000000001
 21
-6.999999999999996
 31
0.0
  0
SPLINE
  5
99
330
1F
100
AcDbEntity
  8
0
  6
Continuous
 62
     1
370
    15
100
AcDbSpline
210
0.0
220
0.0
230
1.0
 70
     8
 71
     3
 72
     9
 73
     5
 74
     0
 42
0.000000001
 43
0.00000001
 40
0.0
 40
0.0
 40
0.0
 40
0.0
 40
0.5259447709131857
 40
1.0
 40
1.0
 40
1.0
 40
1.0
 10
28.86538257302679
 20
1.793735500735502
 30
0.0
 10
28.52470589788766
 20
1.956130020673682
 30
0.0
 10
27.87696359873404
 20
2.264897269478566
 30
0.0
 10
27.22920234562223
 20
2.604224311544693
 30
0.0
 10
26.92212773638476
 20
2.7650840702067
 30
0.0
  0
LINE
  5
9A
330
1F
100
AcDbEntity
  8
0
  6
Continuous
 62
     1
370
    15
100
AcDbLine
 10
12.80017900490586
 20
7.000000000000005
 30
0.0
 11
11.99999999999999
 21
7.000000000000005
 31
0.0
1001
PE_URL
1000

  0
SPLINE
  5
9B
330
1F
100
AcDbEntity
  8
0
  6
Continuous
 62
     1
370
    15
100
AcDbSpline
210
0.0
220
0.0
230
1.0
 70
     8
 71
     3
 72
    20
 73
    16
 74
     0
 42
0.000000001
 43
0.00000001
 40
0.0
 40
0.0
 40
0.0
 40
0.0
 40
0.1257429647796715
 40
0.2432739609885501
 40
0.3436090325626558
 40
0.4213545598815709
 40
0.4835606728271103
 40
0.5360952989069924
 40
0.5870256886083767
 40
0.6592148205862982
 40
0.7435074235882789
 40
0.8108943978646063
 40
0.8662355083573808
 40
0.9491949354676898
 40
1.0
 40
1.0
 40
1.0
 40
1.0
 10
26.55122034289699
 20
5.562478777658283
 30
0.0
 10
26.32708354654031
 20
5.55059674479248
 30
0.0
 10
25.89344778529899
 20
5.527608665857606
 30
0.0
 10
25.22511619504489
 20
5.503291894856541
 30
0.0
 10
24.65742604668723
 20
5.487223188325983
 30
0.0
 10
24.19792858468006
 20
5.477375527523014
 30
0.0
 10
23.83409408838848
 20
5.471818443885796
 30
0.0
 10
23.52146778869746
 20
5.468583844485448
 30
0.0
 10
23.19003821543415
 20
5.466616389787584
 30
0.0
 10
22.79568906426588
 20
5.466391881803424
 30
0.0
 10
22.36975432095339
 20
5.469041653517225
 30
0.0
 10
21.97633442295311
 20
5.474027305115851
 30
0.0
 10
21.58634959722545
 20
5.481171054059235
 30
0.0
 10
21.22787549651936
 20
5.489380630072215
 30
0.0
 10
20.97421188698063
 20
5.497708609895594
 30
0.0
 10
20.87786796271599
 20
5.500871658228934
 30
0.0
  0
SPLINE
  5
9C
330
1F
100
AcDbEntity
  8
0
  6
Continuous
 62
     1
370
    15
100
AcDbSpline
210
0.0
220
0.0
230
1.0
 70
     8
 71
     3
 72
    30
 73
    26
 74
     0
 42
0.000000001
 43
0.00000001
 40
0.0
 40
0.0
 40
0.0
 40
0.0
 40
0.0756167862558455
 40
0.1329288029585263
 40
0.178226842262249
 40
0.2158814497472577
 40
0.2477111462812315
 40
0.2768043694266306
 40
0.3063370187067733
 40
0.347624468187714
 40
0.3890292258872761
 40
0.4176506727551916
 40
0.4520195976446283
 40
0.4999233222430375
 40
0.55440086607599
 40
0.5973362009268854
 40
0.6426043728476409
 40
0.6895821575874023
 40
0.7271644534295559
 40
0.7567473269827891
 40
0.7866824825295688
 40
0.8229765805792346
 40
0.8694046214489995
 40
0.9275418739173382
 40
1.0
 40
1.0
 40
1.0
 40
1.0
 10
44.39904951216318
 20
4.787664607105378
 30
0.0
 10
44.10097808116522
 20
4.763218508428503
 30
0.0
 10
43.57699021444162
 20
4.720244047399067
 30
0.0
 10
42.84109499515409
 20
4.676400744775646
 30
0.0
 10
42.25649068568021
 20
4.648782875205587
 30
0.0
 10
41.78394848421019
 20
4.631230609782014
 30
0.0
 10
41.38279913359147
 20
4.619971229764063
 30
0.0
 10
41.01345067815679
 20
4.612488831975914
 30
0.0
 10
40.60538352667818
 20
4.607303274988024
 30
0.0
 10
40.1473913514765
 20
4.605642631216226
 30
0.0
 10
39.6931422202276
 20
4.608825276383746
 30
0.0
 10
39.26785707137675
 20
4.615661165410697
 30
0.0
 10
38.81132075911098
 20
4.626708540852507
 30
0.0
 10
38.24598518184874
 20
4.646204500908246
 30
0.0
 10
37.64705507915601
 20
4.674786733269472
 30
0.0
 10
37.07922663869532
 20
4.709263197475412
 30
0.0
 10
36.5328842005126
 20
4.748093037112949
 30
0.0
 10
36.0021892268587
 20
4.791716297668389
 30
0.0
 10
35.53622811019445
 20
4.8347174311269
 30
0.0
 10
35.13958527361024
 20
4.874501171715405
 30
0.0
 10
34.7496973587704
 20
4.916344509550333
 30
0.0
 10
34.28527580869516
 20
4.969964414493415
 30
0.0
 10
33.69959445721124
 20
5.042822143370584
 30
0.0
 10
32.96746670554174
 20
5.14169519180277
 30
0.0
 10
32.45428275652522
 20
5.220963398918122
 30
0.0
 10
32.16955332969551
 20
5.264943712840698
 30
0.0
  0
SPLINE
  5
9D
330
1F
100
AcDbEntity
  8
0
  6
Continuous
 62
     1
370
    15
100
AcDbSpline
210
0.0
220
0.0
230
1.0
 70
     8
 71
     3
 72
    29
 73
    25
 74
     0
 42
0.000000001
 43
0.00000001
 40
0.0
 40
0.0
 40
0.0
 40
0.0
 40
0.0689444636072777
 40
0.1318178395949531
 40
0.1856618288031438
 40
0.2282857185248873
 40
0.2625881756275488
 40
0.291027472084149
 40
0.3182334693168279
 40
0.3570403396510115
 40
0.402630286572095
 40
0.4391929959529471
 40
0.4690767756561788
 40
0.5130874420188819
 40
0.5635758546870041
 40
0.6066734049826743
 40
0.6441488992826655
 40
0.6801591937097107
 40
0.7294120478465864
 40
0.784392272079308
 40
0.8295867580915789
 40
0.867114046850592
 40
0.9224160941873376
 40
1.0
 40
1.0
 40
1.0
 40
1.0
 10
16.02341248048145
 20
-5.824964682290052
 30
0.0
 10
16.25307167614528
 20
-5.802011578292686
 30
0.0
 10
16.69216681782283
 20
-5.758126566754046
 30
0.0
 10
17.35889638842556
 20
-5.701593100795621
 30
0.0
 10
17.92498216706525
 20
-5.657836121564819
 30
0.0
 10
18.38793085810355
 20
-5.624988037291281
 30
0.0
 10
18.75730011132895
 20
-5.600895363952069
 30
0.0
 10
19.07299688578166
 20
-5.581726899216137
 30
0.0
 10
19.40447097062935
 20
-5.563016136686174
 30
0.0
 10
19.79688595840265
 20
-5.542915726739814
 30
0.0
 10
20.22229212050338
 20
-5.523928919941907
 30
0.0
 10
20.61619163069084
 20
-5.508870546190171
 30
0.0
 10
21.00435505872694
 20
-5.496042614166792
 30
0.0
 10
21.44139305606564
 20
-5.484121905970065
 30
0.0
 10
21.92470564524857
 20
-5.474547211589996
 30
0.0
 10
22.38528140358333
 20
-5.468910341460467
 30
0.0
 10
22.79496692251762
 20
-5.466531165055144
 30
0.0
 10
23.22614166272052
 20
-5.466556656828753
 30
0.0
 10
23.71878742582778
 20
-5.469931398567871
 30
0.0
 10
24.24367479426909
 20
-5.477944087590167
 30
0.0
 10
24.72867546072401
 20
-5.489202530563445
 30
0.0
 10
25.21682727538343
 20
-5.50375708410212
 30
0.0
 10
25.81437567262128
 20
-5.525566701341043
 30
0.0
 10
26.27960288765112
 20
-5.548872159273729
 30
0.0
 10
26.55122034289699
 20
-5.562478777658276
 30
0.0
  0
SPLINE
  5
9E
330
1F
100
AcDbEntity
  8
0
  6
Continuous
 62
     1
370
    15
100
AcDbSpline
210
0.0
220
0.0
230
1.0
 70
     8
 71
     3
 72
    17
 73
    13
 74
     0
 42
0.000000001
 43
0.00000001
 40
0.0
 40
0.0
 40
0.0
 40
0.0
 40
0.1692091310650218
 40
0.3049751866410754
 40
0.4133970970236568
 40
0.4981535367191399
 40
0.5680601425370742
 40
0.6371440755474077
 40
0.7249088021099581
 40
0.8346145116684147
 40
0.9403278174041242
 40
1.0
 40
1.0
 40
1.0
 40
1.0
 10
32.16955332969551
 20
-5.264943712840689
 30
0.0
 10
32.45428274696982
 20
-5.220963389452018
 30
0.0
 10
32.96746667876406
 20
-5.141695165275391
 30
0.0
 10
33.69959453331641
 20
-5.042822218764366
 30
0.0
 10
34.28527560536098
 20
-4.969964213059864
 30
0.0
 10
34.74969789794559
 20
-4.916345043685658
 30
0.0
 10
35.13958364503885
 20
-4.874499558366825
 30
0.0
 10
35.53623483912445
 20
-4.834724097159261
 30
0.0
 10
36.00215286511719
 20
-4.791680275812646
 30
0.0
 10
36.53305388398984
 20
-4.748261134500027
 30
0.0
 10
37.00848120064354
 20
-4.713768646103987
 30
0.0
 10
37.2922681493403
 20
-4.697087287330746
 30
0.0
 10
37.39466036519787
 20
-4.691068542296305
 30
0.0
  0
LINE
  5
9F
330
1F
100
AcDbEntity
  8
0
  6
Continuous
 62
     1
370
    15
100
AcDbLine
 10
11.99999999999999
 20
-7.0
 30
0.0
 11
12.80017900490586
 21
-7.0
 31
0.0
1001
PE_URL
1000

  0
LINE
  5
A0
330
1F
100
AcDbEntity
  8
0
  6
Continuous
 62
     4
370
    15
100
AcDbLine
 10
11.99999999999999
 20
7.000000000000004
 30
0.0
 11
11.99999999999999
 21
6.840624904494395
 31
0.0
1001
PE_URL
1000

  0
SPLINE
  5
A1
330
1F
100
AcDbEntity
  8
0
  6
Continuous
 62
     4
370
    15
100
AcDbSpline
210
0.0
220
0.0
230
1.0
 70
     8
 71
     3
 72
    10
 73
     6
 74
     0
 42
0.000000001
 43
0.00000001
 40
0.0
 40
0.0
 40
0.0
 40
0.0
 40
0.5
 40
0.5
 40
1.0
 40
1.0
 40
1.0
 40
1.0
 10
9.969947700567575
 20
6.992492208812678
 30
0.0
 10
10.30927349447929
 20
6.983436287224298
 30
0.0
 10
10.64896699347606
 20
6.966174714092448
 30
0.0
 10
11.32552052655536
 20
6.915472129306597
 30
0.0
 10
11.6614908332012
 20
6.882088637560196
 30
0.0
 10
12.0
 20
6.840624904494397
 30
0.0
1001
PE_URL
1000

  0
LINE
  5
A2
330
1F
100
AcDbEntity
  8
0
  6
Continuous
 62
     4
370
    15
100
AcDbLine
 10
9.969947700567575
 20
-6.809962692466224
 30
0.0
 11
9.969947700567575
 21
6.992492130761973
 31
0.0
1001
PE_URL
1000

  0
SPLINE
  5
A3
330
1F
100
AcDbEntity
  8
0
  6
Continuous
 62
     4
370
    15
100
AcDbSpline
210
0.0
220
0.0
230
1.0
 70
     8
 71
     3
 72
    10
 73
     6
 74
     0
 42
0.000000001
 43
0.00000001
 40
0.0
 40
0.0
 40
0.0
 40
0.0
 40
0.5
 40
0.5
 40
1.0
 40
1.0
 40
1.0
 40
1.0
 10
12.0
 20
-6.984750284093812
 30
0.0
 10
11.66148171955562
 20
-6.971857394957895
 30
0.0
 10
11.32550238795005
 20
-6.950851612893898
 30
0.0
 10
10.64893048774308
 20
-6.892571920305067
 30
0.0
 10
10.30922777661073
 20
-6.855288320427851
 30
0.0
 10
9.969892886781548
 20
-6.810032114962326
 30
0.0
1001
PE_URL
1000

  0
LINE
  5
A4
330
1F
100
AcDbEntity
  8
0
  6
Continuous
 62
     4
370
    15
100
AcDbLine
 10
11.99999999999999
 20
-6.984750284093808
 30
0.0
 11
11.99999999999999
 21
-6.999999999999996
 31
0.0
1001
PE_URL
1000

  0
LINE
  5
A5
330
1F
100
AcDbEntity
  8
0
  6
Continuous
 62
     4
370
    15
100
AcDbLine
 10
-52.00000000000001
 20
6.999999999999995
 30
0.0
 11
-52.00000000000001
 21
-7.000000000000004
 31
0.0
  0
LINE
  5
A6
330
1F
100
AcDbEntity
  8
0
  6
Continuous
 62
     4
370
    15
100
AcDbLine
 10
-53.00000000000001
 20
5.999999999999996
 30
0.0
 11
-53.00000000000001
 21
-6.000000000000003
 31
0.0
  0
SPLINE
  5
A7
330
1F
100
AcDbEntity
  8
0
  6
Continuous
 62
     4
370
    15
100
AcDbSpline
210
0.0
220
0.0
230
1.0
 70
     8
 71
     3
 72
    10
 73
     6
 74
     0
 42
0.000000001
 43
0.00000001
 40
0.0
 40
0.0
 40
0.0
 40
0.0
 40
0.5
 40
0.5
 40
1.0
 40
1.0
 40
1.0
 40
1.0
 10
12.00000000000001
 20
-5.902585391349518
 30
0.0
 10
11.66148171955563
 20
-5.881656094136987
 30
0.0
 10
11.32550238795006
 20
-5.853895931482329
 30
0.0
 10
10.64893048774308
 20
-5.784652578227137
 30
0.0
 10
10.30922777661073
 20
-5.743170110157195
 30
0.0
 10
9.969892886781548
 20
-5.695024080605318
 30
0.0
1001
PE_URL
1000

  0
SPLINE
  5
A8
330
1F
100
AcDbEntity
  8
0
  6
Continuous
 62
     4
370
    15
100
AcDbSpline
210
0.0
220
0.0
230
1.0
 70
     8
 71
     3
 72
    10
 73
     6
 74
     0
 42
0.000000001
 43
0.00000001
 40
0.0
 40
0.0
 40
0.0
 40
0.0
 40
0.5
 40
0.5
 40
1.0
 40
1.0
 40
1.0
 40
1.0
 10
11.99999999999999
 20
-1.41211374746488
 30
0.0
 10
11.66148750585756
 20
-1.260825042568314
 30
0.0
 10
11.32551390424734
 20
-1.108267784156755
 30
0.0
 10
10.64895366542754
 20
-0.8002295109589537
 30
0.0
 10
10.30925680312877
 20
-0.6448785651210532
 30
0.0
 10
9.96992768834441
 20
-0.4890097810777814
 30
0.0
1001
PE_URL
1000

  0
SPLINE
  5
A9
330
1F
100
AcDbEntity
  8
0
  6
Continuous
 62
     4
370
    15
100
AcDbSpline
210
0.0
220
0.0
230
1.0
 70
    24
 71
     3
 72
    14
 73
    10
 74
     0
 42
0.000000001
 43
0.00000001
 40
0.0
 40
0.0
 40
0.0
 40
0.0
 40
0.2500000000000002
 40
0.2500000000000002
 40
0.5000000000000002
 40
0.5000000000000002
 40
0.75
 40
0.75
 40
1.0
 40
1.0
 40
1.0
 40
1.0
 10
11.99999999999999
 20
-1.41211374746488
 30
0.0
 10
11.99999999999999
 20
-1.915286180308368
 30
0.0
 10
11.99999999999999
 20
-2.409606137146767
 30
0.0
 10
11.99999999999999
 20
-3.342063145283981
 30
0.0
 10
11.99999999999999
 20
-3.779888213118301
 30
0.0
 10
11.99999999999999
 20
-4.564709390021227
 30
0.0
 10
11.99999999999999
 20
-4.911478866558051
 30
0.0
 10
11.99999999999999
 20
-5.49253489882577
 30
0.0
 10
11.99999999999999
 20
-5.726786178903012
 30
0.0
 10
11.99999999999999
 20
-5.902585391349515
 30
0.0
1001
PE_URL
1000

  0
SPLINE
  5
AA
330
1F
100
AcDbEntity
  8
0
  6
Continuous
 62
     4
370
    15
100
AcDbSpline
210
0.0
220
0.0
230
1.0
 70
     8
 71
     3
 72
    10
 73
     6
 74
     0
 42
0.000000001
 43
0.00000001
 40
0.0
 40
0.0
 40
0.0
 40
0.0
 40
0.5
 40
0.5
 40
1.0
 40
1.0
 40
1.0
 40
1.0
 10
11.99999999999999
 20
4.741655175553837
 30
0.0
 10
11.66148863807763
 20
4.776150550653987
 30
0.0
 10
11.32551615766963
 20
4.805030563878317
 30
0.0
 10
10.64895820066229
 20
4.851641099695265
 30
0.0
 10
10.30926248281938
 20
4.869326641202925
 30
0.0
 10
9.969934498052973
 20
4.881281933895353
 30
0.0
1001
PE_URL
1000

  0
SPLINE
  5
AB
330
1F
100
AcDbEntity
  8
0
  6
Continuous
 62
     4
370
    15
100
AcDbSpline
210
0.0
220
0.0
230
1.0
 70
    24
 71
     3
 72
    14
 73
    10
 74
     0
 42
0.000000001
 43
0.00000001
 40
0.0
 40
0.0
 40
0.0
 40
0.0
 40
0.2499999999999998
 40
0.2499999999999998
 40
0.4999999999999999
 40
0.4999999999999999
 40
0.75
 40
0.75
 40
1.0
 40
1.0
 40
1.0
 40
1.0
 10
11.99999999999997
 20
4.741655175553839
 30
0.0
 10
11.99999999999998
 20
4.461127006091793
 30
0.0
 10
11.99999999999998
 20
4.103805176192925
 30
0.0
 10
11.99999999999998
 20
3.248425607037867
 30
0.0
 10
11.99999999999998
 20
2.750510032209205
 30
0.0
 10
11.99999999999997
 20
1.656807874599517
 30
0.0
 10
11.99999999999997
 20
1.061604062053807
 30
0.0
 10
11.99999999999998
 20
-0.1644751272614751
 30
0.0
 10
11.99999999999998
 20
-0.7946876719849862
 30
0.0
 10
11.99999999999997
 20
-1.412113747464872
 30
0.0
1001
PE_URL
1000

  0
SPLINE
  5
AC
330
1F
100
AcDbEntity
  8
0
  6
Continuous
 62
     4
370
    15
100
AcDbSpline
210
0.0
220
0.0
230
1.0
 70
    24
 71
     3
 72
     8
 73
     4
 74
     0
 42
0.000000001
 43
0.00000001
 40
0.0
 40
0.0
 40
0.0
 40
0.0
 40
1.0
 40
1.0
 40
1.0
 40
1.0
 10
12.0
 20
-5.902585391349518
 30
0.0
 10
12.0
 20
-6.26901386269676
 30
0.0
 10
12.0
 20
-6.632079185696353
 30
0.0
 10
12.0
 20
-6.984750284085927
 30
0.0
1001
PE_URL
1000

  0
SPLINE
  5
AD
330
1F
100
AcDbEntity
  8
0
  6
Continuous
 62
     4
370
    15
100
AcDbSpline
210
0.0
220
0.0
230
1.0
 70
    24
 71
     3
 72
    10
 73
     6
 74
     0
 42
0.000000001
 43
0.00000001
 40
0.0
 40
0.0
 40
0.0
 40
0.0
 40
0.5
 40
0.5
 40
1.0
 40
1.0
 40
1.0
 40
1.0
 10
12.0
 20
6.840624904494388
 30
0.0
 10
12.0
 20
6.524003377759663
 30
0.0
 10
12.0
 20
6.164408373966686
 30
0.0
 10
12.0
 20
5.437571861411
 30
0.0
 10
12.0
 20
5.07232544272103
 30
0.0
 10
12.0
 20
4.741655175553837
 30
0.0
1001
PE_URL
1000

  0
SPLINE
  5
AE
330
1F
100
AcDbEntity
  8
0
  6
Continuous
 62
     1
370
    15
100
AcDbSpline
210
0.0
220
0.0
230
1.0
 70
     8
 71
     3
 72
    58
 73
    54
 74
     0
 42
0.000000001
 43
0.00000001
 40
0.0
 40
0.0
 40
0.0
 40
0.0
 40
0.0312500000000001
 40
0.0312500000000001
 40
0.0625000000000003
 40
0.0625000000000003
 40
0.1250000000000007
 40
0.1250000000000007
 40
0.1562500000000007
 40
0.1562500000000007
 40
0.1875000000000008
 40
0.1875000000000008
 40
0.2187500000000009
 40
0.2187500000000009
 40
0.250000000000001
 40
0.250000000000001
 40
0.2812500000000011
 40
0.2812500000000011
 40
0.3125000000000012
 40
0.3125000000000012
 40
0.3750000000000013
 40
0.3750000000000013
 40
0.4062500000000012
 40
0.4062500000000012
 40
0.4375000000000012
 40
0.4375000000000012
 40
0.468750000000001
 40
0.468750000000001
 40
0.5000000000000008
 40
0.5000000000000008
 40
0.5625000000000004
 40
0.5625000000000004
 40
0.625
 40
0.625
 40
0.6562499999999998
 40
0.6562499999999998
 40
0.6874999999999998
 40
0.6874999999999998
 40
0.7187499999999996
 40
0.7187499999999996
 40
0.7499999999999994
 40
0.7499999999999994
 40
0.8124999999999994
 40
0.8124999999999994
 40
0.8437499999999996
 40
0.8437499999999996
 40
0.8749999999999996
 40
0.8749999999999996
 40
0.9062499999999997
 40
0.9062499999999997
 40
0.9374999999999998
 40
0.9374999999999998
 40
1.0
 40
1.0
 40
1.0
 40
1.0
 10
12.0
 20
6.840624904494397
 30
0.0
 10
12.36460920194364
 20
6.795964197767626
 30
0.0
 10
12.73068311271087
 20
6.741946729677979
 30
0.0
 10
13.46129676648066
 20
6.61582201832804
 30
0.0
 10
13.82446644060138
 20
6.543819797955137
 30
0.0
 10
14.91478426313932
 20
6.301533043416701
 30
0.0
 10
15.65037262448679
 20
6.104097674003607
 30
0.0
 10
16.74010698758609
 20
5.761274882726345
 30
0.0
 10
17.10367051545084
 20
5.639019279344922
 30
0.0
 10
17.83441008587511
 20
5.379116776910963
 30
0.0
 10
18.20044892395035
 20
5.241588986142606
 30
0.0
 10
18.92940253942111
 20
4.953092565948543
 30
0.0
 10
19.29125801744507
 20
4.802296130660958
 30
0.0
 10
20.02067435863648
 20
4.487313701817564
 30
0.0
 10
20.38676996136821
 20
4.323309327579767
 30
0.0
 10
21.11727156797458
 20
3.984256770458554
 30
0.0
 10
21.48016497039641
 20
3.809462127456649
 30
0.0
 10
22.2073400886224
 20
3.449829709348495
 30
0.0
 10
22.57302761784936
 20
3.264743955402337
 30
0.0
 10
23.66971817307289
 20
2.696986531302562
 30
0.0
 10
24.39425562268428
 20
2.302926646884057
 30
0.0
 10
25.49049652812307
 20
1.694644706013564
 30
0.0
 10
25.85650142084573
 20
1.489192998616319
 30
0.0
 10
26.58523292827642
 20
1.075424964068648
 30
0.0
 10
26.94714062736586
 20
0.8672714931176793
 30
0.0
 10
27.6767441980792
 20
0.4480759751301638
 30
0.0
 10
28.04285607072342
 20
0.2373337513527596
 30
0.0
 10
28.7732348690905
 20
-0.1838702290041933
 30
0.0
 10
29.13588397902322
 20
-0.3940193279852844
 30
0.0
 10
30.22707561411827
 20
-1.02263823799657
 30
0.0
 10
30.9626280748345
 20
-1.4399535463283
 30
0.0
 10
32.41430422833279
 20
-2.250880149594862
 30
0.0
 10
33.1482980387598
 20
-2.647797586329108
 30
0.0
 10
34.24104612654244
 20
-3.21698115724908
 30
0.0
 10
34.60303807412821
 20
-3.402224678377515
 30
0.0
 10
35.33281815739403
 20
-3.763968928255466
 30
0.0
 10
35.69894087709377
 20
-3.940171921974035
 30
0.0
 10
36.42918611218128
 20
-4.281083825125064
 30
0.0
 10
36.7916229207831
 20
-4.445550899679314
 30
0.0
 10
37.51935937067285
 20
-4.76244962894908
 30
0.0
 10
37.88517432713665
 20
-4.914932348209943
 30
0.0
 10
38.98177972270712
 20
-5.351603368429676
 30
0.0
 10
39.70621005002906
 20
-5.614369046047496
 30
0.0
 10
40.80266555250645
 20
-5.961965815255639
 30
0.0
 10
41.168586303775
 20
-6.069918835782918
 30
0.0
 10
41.89684158392438
 20
-6.268744315788353
 30
0.0
 10
42.25894980331479
 20
-6.35963263967616
 30
0.0
 10
42.98889567349959
 20
-6.524394174521699
 30
0.0
 10
43.35502381686128
 20
-6.598100473123226
 30
0.0
 10
44.08512474019163
 20
-6.727261338779705
 30
0.0
 10
44.4473812490058
 20
-6.782651641496595
 30
0.0
 10
45.5393830253608
 20
-6.92134552791387
 30
0.0
 10
46.27485555240553
 20
-6.976811232818704
 30
0.0
 10
47.00000000000001
 20
-6.9940837066075
 30
0.0
  0
SPLINE
  5
AF
330
1F
100
AcDbEntity
  8
0
  6
Continuous
 62
     1
370
    15
100
AcDbSpline
210
0.0
220
0.0
230
1.0
 70
     8
 71
     3
 72
    15
 73
    11
 74
     0
 42
0.000000001
 43
0.00000001
 40
0.0
 40
0.0
 40
0.0
 40
0.0
 40
0.0635872444658343
 40
0.1950353702115725
 40
0.3265035999110496
 40
0.4579978669965287
 40
0.5895069801208874
 40
0.7263463483984907
 40
0.8631769697032092
 40
1.0
 40
1.0
 40
1.0
 40
1.0
 10
29.60591979457108
 20
-0.6617733281613848
 30
0.0
 10
29.23276326409563
 20
-0.5129708877111698
 30
0.0
 10
28.08821418543171
 20
-0.0565626991602941
 30
0.0
 10
26.17212907653678
 20
0.723546759899113
 30
0.0
 10
23.85750091549028
 20
1.634700936343653
 30
0.0
 10
21.54246106640332
 20
2.487554361957082
 30
0.0
 10
19.19586157738043
 20
3.260870065585639
 30
0.0
 10
16.81798820663636
 20
3.917498396519133
 30
0.0
 10
14.40893679009234
 20
4.441947370278044
 30
0.0
 10
12.80296408041887
 20
4.641754421309304
 30
0.0
 10
11.99999999999999
 20
4.741655175553839
 30
0.0
  0
SPLINE
  5
B0
330
1F
100
AcDbEntity
  8
0
  6
Continuous
 62
     4
370
    15
100
AcDbSpline
210
0.0
220
0.0
230
1.0
 70
    24
 71
     3
 72
    10
 73
     6
 74
     0
 42
0.000000001
 43
0.00000001
 40
0.0
 40
0.0
 40
0.0
 40
0.0
 40
0.5
 40
0.5
 40
1.0
 40
1.0
 40
1.0
 40
1.0
 10
12.0
 20
6.840624904494387
 30
0.0
 10
12.0
 20
6.52400337775966
 30
0.0
 10
12.0
 20
6.164408373966686
 30
0.0
 10
12.0
 20
5.437571861411
 30
0.0
 10
12.0
 20
5.07232544272103
 30
0.0
 10
12.0
 20
4.741655175553837
 30
0.0
1001
PE_URL
1000

  0
SPLINE
  5
B1
330
1F
100
AcDbEntity
  8
0
  6
Continuous
 62
     1
370
    15
100
AcDbSpline
210
0.0
220
0.0
230
1.0
 70
     8
 71
     3
 72
    23
 73
    19
 74
     0
 42
0.000000001
 43
0.00000001
 40
0.0
 40
0.0
 40
0.0
 40
0.0
 40
0.0642142170922879
 40
0.1284011841133288
 40
0.1925709884278351
 40
0.2567337827539388
 40
0.3208997465476895
 40
0.3839342671729848
 40
0.44699930841605
 40
0.510074079552522
 40
0.5731154314450823
 40
0.6374248665717333
 40
0.7017281208240171
 40
0.7660349541876792
 40
0.8303551133680808
 40
0.8946982956835591
 40
0.9590599319533952
 40
1.0
 40
1.0
 40
1.0
 40
1.0
 10
46.99999999999999
 20
-6.642586084623291
 30
0.0
 10
46.26788398662037
 20
-6.488296587167695
 30
0.0
 10
44.80396264205007
 20
-6.179783066850584
 30
0.0
 10
42.6086862944837
 20
-5.456694644926587
 30
0.0
 10
40.41409411425922
 20
-4.57090075173999
 30
0.0
 10
38.21979922395189
 20
-3.531568390429557
 30
0.0
 10
36.03840416176419
 20
-2.384768054849263
 30
0.0
 10
33.86950120452538
 20
-1.168251869683336
 30
0.0
 10
31.71276004084575
 20
0.0776149551867021
 30
0.0
 10
29.55581904127497
 20
1.320889568128767
 30
0.0
 10
27.38505902719491
 20
2.531008156726806
 30
0.0
 10
25.20032107587583
 20
3.66757017478052
 30
0.0
 10
23.00122170087484
 20
4.691492219114973
 30
0.0
 10
20.80197014606756
 20
5.560744135482819
 30
0.0
 10
18.60217187005014
 20
6.250028997967206
 30
0.0
 10
16.40159793282763
 20
6.724661375769744
 30
0.0
 10
14.4673490591124
 20
6.978675254122274
 30
0.0
 10
13.26689965770975
 20
6.974843263974277
 30
0.0
 10
12.80017900490587
 20
6.973353431132243
 30
0.0
  0
SPLINE
  5
B2
330
1F
100
AcDbEntity
  8
0
  6
Continuous
 62
     1
370
    15
100
AcDbSpline
210
0.0
220
0.0
230
1.0
 70
     8
 71
     3
 72
    15
 73
    11
 74
     0
 42
0.000000001
 43
0.00000001
 40
0.0
 40
0.0
 40
0.0
 40
0.0
 40
0.1273111700457024
 40
0.254596549942693
 40
0.3818616471449447
 40
0.5091120026563035
 40
0.636353181912572
 40
0.7635907655779086
 40
0.8908303402877225
 40
1.0
 40
1.0
 40
1.0
 40
1.0
 10
47.0
 20
-5.522805850577507
 30
0.0
 10
46.22823762793374
 20
-5.362503938372211
 30
0.0
 10
44.68486922409989
 20
-5.041932587232847
 30
0.0
 10
42.37010990047523
 20
-4.324101836540564
 30
0.0
 10
40.05576797277553
 20
-3.463601980063554
 30
0.0
 10
37.74173537347853
 20
-2.473588090448387
 30
0.0
 10
35.42789415730045
 20
-1.394339458974577
 30
0.0
 10
33.11412726870536
 20
-0.2658598207092798
 30
0.0
 10
30.90989790617196
 20
0.8242799825326232
 30
0.0
 10
29.47689494107669
 20
1.501168147802904
 30
0.0
 10
28.8151591740769
 20
1.813743292536417
 30
0.0
  0
LINE
  5
B3
330
1F
100
AcDbEntity
  8
0
  6
Continuous
 62
     1
370
    15
100
AcDbLine
 10
47.0
 20
-6.642586084623296
 30
0.0
 11
47.0
 21
-5.522805850577507
 31
0.0
  0
LINE
  5
B4
330
1F
100
AcDbEntity
  8
0
  6
Continuous
 62
     1
370
    15
100
AcDbLine
 10
47.0
 20
-6.994083706607504
 30
0.0
 11
47.0
 21
-6.642586084623297
 31
0.0
  0
SPLINE
  5
B5
330
1F
100
AcDbEntity
  8
0
  6
Continuous
 62
     1
370
    15
100
AcDbSpline
210
0.0
220
0.0
230
1.0
 70
     8
 71
     3
 72
     8
 73
     4
 74
     0
 42
0.000000001
 43
0.00000001
 40
0.0
 40
0.0
 40
0.0
 40
0.0
 40
1.0
 40
1.0
 40
1.0
 40
1.0
 10
42.66893944786722
 20
1.957814097821551
 30
0.0
 10
42.41658153009892
 20
2.256741973958848
 30
0.0
 10
42.19127188411778
 20
2.544766358140602
 30
0.0
 10
42.00000000000617
 20
2.819069700710197
 30
0.0
  0
LINE
  5
B6
330
1F
100
AcDbEntity
  8
0
  6
Continuous
 62
     1
370
    15
100
AcDbLine
 10
41.99999999999999
 20
2.937719435296596
 30
0.0
 11
47.0
 21
0.0000000000000074
 31
0.0
  0
LINE
  5
B7
330
1F
100
AcDbEntity
  8
0
  6
Continuous
 62
     1
370
    15
100
AcDbLine
 10
47.0
 20
0.0000000000000074
 30
0.0
 11
47.0
 21
-1.870700622207506
 31
0.0
  0
SPLINE
  5
B8
330
1F
100
AcDbEntity
  8
0
  6
Continuous
 62
     1
370
    15
100
AcDbSpline
210
0.0
220
0.0
230
1.0
 70
     8
 71
     3
 72
    12
 73
     8
 74
     0
 42
0.000000001
 43
0.00000001
 40
0.0
 40
0.0
 40
0.0
 40
0.0
 40
0.4999999999999987
 40
0.4999999999999987
 40
0.7499999999999993
 40
0.7499999999999993
 40
1.0
 40
1.0
 40
1.0
 40
1.0
 10
47.0
 20
-1.870700622207506
 30
0.0
 10
46.25028045804262
 20
-1.281295658585782
 30
0.0
 10
45.51308365441829
 20
-0.6677266902608399
 30
0.0
 10
44.42656102693529
 20
0.2898153268937973
 30
0.0
 10
44.06765062868224
 20
0.6152938823799483
 30
0.0
 10
43.35716034478705
 20
1.280396025891952
 30
0.0
 10
43.00751249468108
 20
1.618303437966498
 30
0.0
 10
42.6689394478672
 20
1.957814097821558
 30
0.0
  0
SPLINE
  5
B9
330
1F
100
AcDbEntity
  8
0
  6
Continuous
 62
     1
370
    15
100
AcDbSpline
210
0.0
220
0.0
230
1.0
 70
     8
 71
     3
 72
    14
 73
    10
 74
     0
 42
0.000000001
 43
0.00000001
 40
0.0
 40
0.0
 40
0.0
 40
0.0
 40
0.1528348345098096
 40
0.3056682430447388
 40
0.4492164645101719
 40
0.5927605730228338
 40
0.736306959608185
 40
0.8798620114933113
 40
1.0
 40
1.0
 40
1.0
 40
1.0
 10
42.66893944786721
 20
1.957814097821553
 30
0.0
 10
41.84773034989537
 20
2.305379547700102
 30
0.0
 10
40.20531981597161
 20
3.000507204612712
 30
0.0
 10
37.79154490116121
 20
3.880008771790679
 30
0.0
 10
35.42791370853466
 20
4.597320356899958
 30
0.0
 10
33.11413854456152
 20
5.132613970810521
 30
0.0
 10
30.8003341146476
 20
5.476228777381937
 30
0.0
 10
28.61227104099025
 20
5.632871250681651
 30
0.0
 10
27.19544375539559
 20
5.574909467360923
 30
0.0
 10
26.54994025670706
 20
5.548502202125306
 30
0.0
  0
SPLINE
  5
BA
330
1F
100
AcDbEntity
  8
0
  6
Continuous
 62
     1
370
    15
100
AcDbSpline
210
0.0
220
0.0
230
1.0
 70
    24
 71
     3
 72
    10
 73
     6
 74
     0
 42
0.000000001
 43
0.00000001
 40
0.0
 40
0.0
 40
0.0
 40
0.0
 40
0.5
 40
0.5
 40
1.0
 40
1.0
 40
1.0
 40
1.0
 10
47.0
 20
-5.522805850577504
 30
0.0
 10
47.0
 20
-5.099439723026628
 30
0.0
 10
47.00000000000001
 20
-4.564500387345272
 30
0.0
 10
46.99999999999999
 20
-3.320817914054752
 30
0.0
 10
47.0
 20
-2.61315210135916
 30
0.0
 10
47.0
 20
-1.870700622207729
 30
0.0
  0
SPLINE
  5
BB
330
1F
100
AcDbEntity
  8
0
  6
Continuous
 62
     1
370
    15
100
AcDbSpline
210
0.0
220
0.0
230
1.0
 70
    24
 71
     3
 72
     8
 73
     4
 74
     0
 42
0.000000001
 43
0.00000001
 40
0.0
 40
0.0
 40
0.0
 40
0.0
 40
1.0
 40
1.0
 40
1.0
 40
1.0
 10
41.99999999999999
 20
2.819069700709838
 30
0.0
 10
41.99999999999999
 20
2.908476784845486
 30
0.0
 10
42.0
 20
2.995514202061786
 30
0.0
 10
42.0
 20
3.079907577329862
 30
0.0
  0
SPLINE
  5
BC
330
1F
100
AcDbEntity
  8
0
  6
Continuous
 62
     1
370
    15
100
AcDbSpline
210
0.0
220
0.0
230
1.0
 70
     8
 71
     3
 72
     9
 73
     5
 74
     0
 42
0.000000001
 43
0.00000001
 40
0.0
 40
0.0
 40
0.0
 40
0.0
 40
0.8891827938012989
 40
1.0
 40
1.0
 40
1.0
 40
1.0
 10
47.00000000000001
 20
4.900000000000007
 30
0.0
 10
46.22823615367491
 20
4.896236445628438
 30
0.0
 10
45.36028880729658
 20
4.892003846439827
 30
0.0
 10
44.49236975892045
 20
4.7894566266046
 30
0.0
 10
44.39618939477275
 20
4.778092630199015
 30
0.0
  0
SPLINE
  5
BD
330
1F
100
AcDbEntity
  8
0
  6
Continuous
 62
     1
370
    15
100
AcDbSpline
210
0.0
220
0.0
230
1.0
 70
     8
 71
     3
 72
    10
 73
     6
 74
     0
 42
0.000000001
 43
0.00000001
 40
0.0
 40
0.0
 40
0.0
 40
0.0
 40
0.4999999999999999
 40
0.4999999999999999
 40
1.0
 40
1.0
 40
1.0
 40
1.0
 10
47.0
 20
4.900000000000007
 30
0.0
 10
46.15214237859206
 20
4.670048856844464
 30
0.0
 10
45.30973498966276
 20
4.406806050126998
 30
0.0
 10
43.6400232161145
 20
3.806841720755537
 30
0.0
 10
42.81269934978759
 20
3.470463921901175
 30
0.0
 10
42.00000000000001
 20
3.0799075773298
 30
0.0
  0
SPLINE
  5
BE
330
1F
100
AcDbEntity
  8
0
  6
Continuous
 62
     1
370
    15
100
AcDbSpline
210
0.0
220
0.0
230
1.0
 70
     8
 71
     3
 72
     9
 73
     5
 74
     0
 42
0.000000001
 43
0.00000001
 40
0.0
 40
0.0
 40
0.0
 40
0.0
 40
0.4019315796485664
 40
1.0
 40
1.0
 40
1.0
 40
1.0
 10
16.0277877532809
 20
-5.798929652963611
 30
0.0
 10
15.48815264349111
 20
-5.854608848030824
 30
0.0
 10
14.14554823738389
 20
-5.993137886022557
 30
0.0
 10
12.80295976616434
 20
-5.936474170301847
 30
0.0
 10
12.00000000000001
 20
-5.902585391349518
 30
0.0
  0
SPLINE
  5
BF
330
1F
100
AcDbEntity
  8
0
  6
Continuous
 62
     1
370
    15
100
AcDbSpline
210
0.0
220
0.0
230
1.0
 70
     8
 71
     3
 72
    16
 73
    12
 74
     0
 42
0.000000001
 43
0.00000001
 40
0.0
 40
0.0
 40
0.0
 40
0.0
 40
0.068346345897299
 40
0.1830182790814364
 40
0.2977022247054583
 40
0.41240325336285
 40
0.5271264072617393
 40
0.6418621775494937
 40
0.7612485572130325
 40
0.8806275039037527
 40
1.0
 40
1.0
 40
1.0
 40
1.0
 10
32.17950825624686
 20
-5.240388845772124
 30
0.0
 10
31.71979857272732
 20
-5.315384889225943
 30
0.0
 10
30.48878506278424
 20
-5.516209770653543
 30
0.0
 10
28.48636952734013
 20
-5.623415490936154
 30
0.0
 10
26.17213057612844
 20
-5.574654524934562
 30
0.0
 10
23.8575026661675
 20
-5.314914977426839
 30
0.0
 10
21.54246032434032
 20
-4.864254800985863
 30
0.0
 10
19.19585329825655
 20
-4.228100246492766
 30
0.0
 10
16.81798316324189
 20
-3.420981726450864
 30
0.0
 10
14.40893314483556
 20
-2.472636338863191
 30
0.0
 10
12.8029632515624
 20
-1.76561491048811
 30
0.0
 10
11.99999999999999
 20
-1.412113747464878
 30
0.0
  0
SPLINE
  5
C0
330
1F
100
AcDbEntity
  8
0
  6
Continuous
 62
     4
370
    15
100
AcDbSpline
210
0.0
220
0.0
230
1.0
 70
    24
 71
     3
 72
    14
 73
    10
 74
     0
 42
0.000000001
 43
0.00000001
 40
0.0
 40
0.0
 40
0.0
 40
0.0
 40
0.2499999999999999
 40
0.2499999999999999
 40
0.4999999999999998
 40
0.4999999999999998
 40
0.7499999999999999
 40
0.7499999999999999
 40
1.0
 40
1.0
 40
1.0
 40
1.0
 10
12.0
 20
-1.412113747464883
 30
0.0
 10
12.0
 20
-1.915286180308371
 30
0.0
 10
12.0
 20
-2.40960613714677
 30
0.0
 10
12.0
 20
-3.342063145283983
 30
0.0
 10
12.0
 20
-3.779888213118303
 30
0.0
 10
12.0
 20
-4.564709390021228
 30
0.0
 10
12.0
 20
-4.911478866558054
 30
0.0
 10
12.0
 20
-5.49253489882577
 30
0.0
 10
12.0
 20
-5.726786178903012
 30
0.0
 10
12.0
 20
-5.902585391349515
 30
0.0
  0
SPLINE
  5
C1
330
1F
100
AcDbEntity
  8
0
  6
Continuous
 62
     4
370
    15
100
AcDbSpline
210
0.0
220
0.0
230
1.0
 70
    24
 71
     3
 72
    14
 73
    10
 74
     0
 42
0.000000001
 43
0.00000001
 40
0.0
 40
0.0
 40
0.0
 40
0.0
 40
0.2499999999999998
 40
0.2499999999999998
 40
0.4999999999999999
 40
0.4999999999999999
 40
0.75
 40
0.75
 40
1.0
 40
1.0
 40
1.0
 40
1.0
 10
11.99999999999997
 20
4.741655175553839
 30
0.0
 10
11.99999999999998
 20
4.461127006091793
 30
0.0
 10
11.99999999999998
 20
4.103805176192925
 30
0.0
 10
11.99999999999998
 20
3.248425607037867
 30
0.0
 10
11.99999999999998
 20
2.750510032209205
 30
0.0
 10
11.99999999999997
 20
1.656807874599517
 30
0.0
 10
11.99999999999997
 20
1.061604062053807
 30
0.0
 10
11.99999999999998
 20
-0.1644751272614751
 30
0.0
 10
11.99999999999998
 20
-0.7946876719849862
 30
0.0
 10
11.99999999999997
 20
-1.412113747464872
 30
0.0
1001
PE_URL
1000

  0
LINE
  5
C2
330
1F
100
AcDbEntity
  8
0
  6
Continuous
 62
     1
370
    15
100
AcDbLine
 10
47.0
 20
0.0000000000000074
 30
0.0
 11
47.0
 21
4.900000000000006
 31
0.0
  0
SPLINE
  5
C3
330
1F
100
AcDbEntity
  8
0
  6
Continuous
 62
     1
370
    15
100
AcDbSpline
210
0.0
220
0.0
230
1.0
 70
     8
 71
     3
 72
    12
 73
     8
 74
     0
 42
0.000000001
 43
0.00000001
 40
0.0
 40
0.0
 40
0.0
 40
0.0
 40
0.008659793343799
 40
0.2564170157024273
 40
0.5042629217345613
 40
0.7521799112424128
 40
0.9999999999999999
 40
0.9999999999999999
 40
0.9999999999999999
 40
0.9999999999999999
 10
20.87898906097641
 20
-5.50043070192474
 30
0.0
 10
20.85336165217016
 20
-5.510541941707292
 30
0.0
 10
20.0945324947756
 20
-5.809936376096436
 30
0.0
 10
18.60216772005396
 20
-6.236679114217149
 30
0.0
 10
16.40159588092636
 20
-6.73114714298421
 30
0.0
 10
14.20060134207285
 20
-7.001119257239524
 30
0.0
 10
12.7334381861918
 20
-6.990205897404663
 30
0.0
 10
11.99999999999742
 20
-6.984750284093711
 30
0.0
  0
SPLINE
  5
C4
330
1F
100
AcDbEntity
  8
0
  6
Continuous
 62
     4
370
    15
100
AcDbSpline
210
0.0
220
0.0
230
1.0
 70
    24
 71
     3
 72
     8
 73
     4
 74
     0
 42
0.000000001
 43
0.00000001
 40
0.0
 40
0.0
 40
0.0
 40
0.0
 40
1.0
 40
1.0
 40
1.0
 40
1.0
 10
12.0
 20
-5.902585391349518
 30
0.0
 10
12.0
 20
-6.269013862696759
 30
0.0
 10
12.0
 20
-6.632079185696349
 30
0.0
 10
12.0
 20
-6.984750284085922
 30
0.0
1001
PE_URL
1000

  0
SPLINE
  5
C5
330
1F
100
AcDbEntity
  8
0
  6
Continuous
 62
     1
370
    15
100
AcDbSpline
210
0.0
220
0.0
230
1.0
 70
     8
 71
     3
 72
    14
 73
    10
 74
     0
 42
0.000000001
 43
0.00000001
 40
0.0
 40
0.0
 40
0.0
 40
0.0
 40
0.0285397163838783
 40
0.2382599622754216
 40
0.3435988193740713
 40
0.5059807453561361
 40
0.6690390275551663
 40
0.8341630290105955
 40
1.0
 40
1.0
 40
1.0
 40
1.0
 10
37.36861940939897
 20
4.692642659569827
 30
0.0
 10
37.46020013631655
 20
4.732780907696867
 30
0.0
 10
38.22474944882703
 20
5.06786964354542
 30
0.0
 10
39.32835852320223
 20
5.483815406318901
 30
0.0
 10
40.86130615292511
 20
5.988644066755546
 30
0.0
 10
42.24370908815224
 20
6.37116582559367
 30
0.0
 10
43.81959605558352
 20
6.697393731360418
 30
0.0
 10
45.40473278467117
 20
6.921331378947601
 30
0.0
 10
46.46748112304939
 20
6.96979812770968
 30
0.0
 10
46.99999999999957
 20
6.994083706607499
 30
0.0
  0
SPLINE
  5
C6
330
1F
100
AcDbEntity
  8
0
  6
Continuous
 62
     1
370
    15
100
AcDbSpline
210
0.0
220
0.0
230
1.0
 70
    24
 71
     3
 72
    10
 73
     6
 74
     0
 42
0.000000001
 43
0.00000001
 40
0.0
 40
0.0
 40
0.0
 40
0.0
 40
0.5
 40
0.5
 40
1.0
 40
1.0
 40
1.0
 40
1.0
 10
47.0
 20
4.900000000000007
 30
0.0
 10
47.0
 20
5.197025797651204
 30
0.0
 10
47.00000000000002
 20
5.542197282069829
 30
0.0
 10
47.00000000000001
 20
6.266366126725996
 30
0.0
 10
47.0
 20
6.643514050610315
 30
0.0
 10
47.0
 20
6.994083706607515
 30
0.0
  0
LINE
  5
C7
330
1F
100
AcDbEntity
  8
중심선
100
AcDbLine
 10
-55.99999999999999
 20
-0.0000000000000009
 30
0.0
 11
54.0
 21
0.0000000000000075
 31
0.0
  0
CIRCLE
  5
C8
330
1F
100
AcDbEntity
  8
외형선
100
AcDbCircle
 10
0.0
 20
0.0
 30
0.0
 40
3.000000000000004
  0
INSERT
  5
C9
330
1F
100
AcDbEntity
  8
0
  6
Continuous
 62
     7
100
AcDbBlockReference
 66
     1
  2
블럭10
 10
-21.93827343951161
 20
-52.04717430164393
 30
0.0
  0
ATTRIB
  5
CA
330
C9
100
AcDbEntity
  8
FORMAT
 62
     2
100
AcDbText
 10
-39.5235218930688
 20
-49.97180738881174
 30
0.0
 40
4.233333333333333
  1
SEME3514014SE [ 2 FLUTE ]
 41
0.75
  7
SLDTEXTSTYLE0
 11
-39.5235218930688
 21
-52.08847405547841
 31
0.0
100
AcDbAttribute
  2
AUTOATTR0
 70
     0
 74
     1
  0
SEQEND
  5
CB
330
C9
100
AcDbEntity
  8
0
  6
Continuous
 62
     7
  0
HATCH
  5
CC
330
1F
100
AcDbEntity
  8
중심선
100
AcDbHatch
 10
0.0
 20
0.0
 30
0.0
210
0.0
220
0.0
230
1.0
  2
SOLID
 70
     1
 71
     0
 91
        1
 92
        0
 93
        4
 72
     1
 10
-16.22336413513076
 20
-35.8
 11
-19.66963937896804
 21
-35.8
 72
     1
 10
-19.66963937896804
 20
-35.8
 11
-21.79786923817207
 21
-38.33632558057259
 72
     1
 10
-21.79786923817207
 20
-38.33632558057259
 11
-18.35156090922163
 21
-38.3362861512701
 72
     1
 10
-18.35156090922163
 20
-38.3362861512701
 11
-16.22336413513076
 21
-35.8
 97
        0
 75
     0
 76
     1
 98
        1
 10
2.000000000000001
 20
0.0000000000000026
  0
HATCH
  5
CD
330
1F
100
AcDbEntity
  8
중심선
100
AcDbHatch
 10
0.0
 20
0.0
 30
0.0
210
0.0
220
0.0
230
1.0
  2
SOLID
 70
     1
 71
     0
 91
        1
 92
        0
 93
        4
 72
     1
 10
-11.21060014409481
 20
-35.8
 11
-14.65687538793209
 21
-35.8
 72
     1
 10
-14.65687538793209
 20
-35.8
 11
-19.18801339628948
 21
-41.20000000000002
 72
     1
 10
-19.18801339628948
 20
-41.20000000000002
 11
-15.7417381524522
 21
-41.20000000000002
 72
     1
 10
-15.74173815245219
 20
-41.20000000000002
 11
-11.21060014409481
 21
-35.8
 97
        0
 75
     0
 76
     1
 98
        1
 10
2.000000000000001
 20
0.0000000000000026
  0
HATCH
  5
CE
330
1F
100
AcDbEntity
  8
중심선
100
AcDbHatch
 10
0.0
 20
0.0
 30
0.0
210
0.0
220
0.0
230
1.0
  2
SOLID
 70
     1
 71
     0
 91
        1
 92
        0
 93
        4
 72
     1
 10
-6.19783615305891
 20
-35.80000000000003
 11
-9.644111396896028
 21
-35.8
 72
     1
 10
-9.644111396896028
 20
-35.8
 11
-16.69254829878528
 21
-44.20000000000002
 72
     1
 10
-16.69254829878528
 20
-44.20000000000002
 11
-13.246273054948
 21
-44.20000000000002
 72
     1
 10
-13.24627305494799
 20
-44.20000000000002
 11
-6.19783615305891
 21
-35.80000000000003
 97
        0
 75
     0
 76
     1
 98
        1
 10
2.000000000000001
 20
0.0000000000000026
  0
HATCH
  5
CF
330
1F
100
AcDbEntity
  8
중심선
100
AcDbHatch
 10
0.0
 20
0.0
 30
0.0
210
0.0
220
0.0
230
1.0
  2
SOLID
 70
     1
 71
     0
 91
        1
 92
        0
 93
        6
 72
     3
 10
-1.397945722046712
 20
-40.00000000005127
 11
3.960054785062284
 21
1.540882976769353E-10
 40
0.3939339440162627
 50
17.09539180608437
 51
320.0019657685079
 73
     0
 72
     1
 10
0.2850539336538833
 20
-38.5878940046383
 11
2.590355807354921
 21
-36.65356729459038
 72
     3
 10
-1.397945722099559
 20
-40.00000000000015
 11
6.600054785286829
 21
-1.278976924368180E-13
 40
0.636358354079598
 50
39.9987384933741
 51
368.4976242363725
 73
     1
 72
     1
 10
5.027386769801051
 20
-39.03999999993002
 11
-2.717878415263636
 21
-39.03999999992999
 72
     1
 10
-2.717878415263636
 20
-39.03999999992999
 11
-2.71790345970957
 21
-40.95999999992991
 72
     1
 10
-2.71790345970957
 20
-40.95999999992991
 11
1.723476309762467
 21
-40.95999999992988
 97
        0
 75
     0
 76
     1
 98
        1
 10
2.000000000000001
 20
0.0000000000000026
  0
DIMENSION
  5
D0
330
1F
100
AcDbEntity
  8
치수문자_일반주서
100
AcDbDimension
  2
_D
 10
11.99999999999999
 20
19.2447175951853
 30
0.0
 11
29.49999999999999
 21
19.2447175951853
 31
0.0
 70
   160
  1
<>
 71
     2
 42
35.00000000000001
  3
SLDDIMSTYLE0
100
AcDbAlignedDimension
 13
47.0
 23
6.994083706607515
 33
0.0
 14
11.99999999999999
 24
7.000000000000004
 34
0.0
100
AcDbRotatedDimension
  0
DIMENSION
  5
DB
330
1F
100
AcDbEntity
  8
치수문자_일반주서
100
AcDbDimension
  2
_D_1
 10
-53.00000000000001
 20
27.68415911661226
 30
0.0
 11
-2.999999999999991
 21
27.68415911661226
 31
0.0
 70
   160
  1
<>
 71
     2
 42
99.99999999999957
  3
SLDDIMSTYLE0
100
AcDbAlignedDimension
 13
46.99999999999957
 23
6.994083706607499
 33
0.0
 14
-53.00000000000001
 24
5.999999999999996
 34
0.0
 50
0.0000000000000041
100
AcDbRotatedDimension
  0
DIMENSION
  5
E5
330
1F
100
AcDbEntity
  8
치수문자_일반주서
100
AcDbDimension
  2
_D_2
 10
62.5661903122463
 20
-6.994083706607445
 30
0.0
 11
62.56619031224628
 21
0.0000000000000038
 31
0.0
 70
   160
  1
%%c<>
 71
     2
 42
13.999789540874
 52
-270.0
  3
SLDDIMSTYLE1
100
AcDbAlignedDimension
 13
47.00014665602126
 23
7.005705834266497
 33
0.0
 14
47.0
 24
-6.994083706607504
 34
0.0
 50
90.0000000000002
100
AcDbRotatedDimension
  0
DIMENSION
  5
F3
330
1F
100
AcDbEntity
  8
치수문자_일반주서
100
AcDbDimension
  2
_D_3
 10
-64.41955944538851
 20
-7.000000000000046
 30
0.0
 11
-64.41955944538854
 21
0.0000000000000016
 31
0.0
 70
   160
  1
%%c<>
 71
     2
 42
14.0
 52
-270.0
  3
SLDDIMSTYLE1
100
AcDbAlignedDimension
 13
-52.00000000000001
 23
7.0
 33
0.0
 14
-52.00000000000001
 24
-7.0
 34
0.0
 50
90.0000000000002
100
AcDbRotatedDimension
  0
INSERT
  5
106
330
1F
100
AcDbEntity
  8
외형선
100
AcDbBlockReference
  2
SW_DOWELSYMBOL_0
 10
0.0
 20
0.0
 30
0.0
  0
LINE
  5
12F
330
1F
100
AcDbEntity
  8
0
100
AcDbLine
 10
12.0
 20
-6.984750284085922
 30
0.0
 11
12.0
 21
-9.560580278098168
 31
0.0
  0
ENDSEC
  0
SECTION
  2
OBJECTS
  0
DICTIONARY
  5
C
330
0
100
AcDbDictionary
281
     1
  3
ACAD_GROUP
350
D
  3
ACAD_LAYOUT
350
1A
  3
ACAD_MLINESTYLE
350
17
  3
ACAD_PLOTSETTINGS
350
19
  3
ACAD_PLOTSTYLENAME
350
E
  3
ACAD_SCALELIST
350
47
  3
APPDATA
350
128
  3
DWGPROPS
350
134
  0
DICTIONARY
  5
D
102
{ACAD_REACTORS
330
C
102
}
330
C
100
AcDbDictionary
281
     1
  0
DICTIONARY
  5
1A
102
{ACAD_REACTORS
330
C
102
}
330
C
100
AcDbDictionary
281
     1
  3
Layout1
350
1E
  3
Layout2
350
26
  3
Model
350
22
  0
DICTIONARY
  5
17
102
{ACAD_REACTORS
330
C
102
}
330
C
100
AcDbDictionary
281
     1
  3
Standard
350
18
  0
DICTIONARY
  5
19
102
{ACAD_REACTORS
330
C
102
}
330
C
100
AcDbDictionary
281
     1
  0
ACDBDICTIONARYWDFLT
  5
E
102
{ACAD_REACTORS
330
C
102
}
330
C
100
AcDbDictionary
281
     1
  3
Normal
350
F
100
AcDbDictionaryWithDefault
340
F
  0
DICTIONARY
  5
47
102
{ACAD_REACTORS
330
C
102
}
330
C
100
AcDbDictionary
281
     1
  3
A0
350
48
  3
A1
350
49
  3
A2
350
4A
  3
A3
350
4B
  3
A4
350
4C
  3
A5
350
4D
  3
A6
350
4E
  3
A7
350
4F
  3
A8
350
50
  3
A9
350
51
  3
B0
350
52
  3
B1
350
53
  3
B2
350
54
  3
B3
350
55
  3
B4
350
56
  3
B5
350
57
  3
B6
350
58
  3
B7
350
59
  3
B8
350
5A
  3
B9
350
5B
  3
C0
350
5C
  3
C1
350
5D
  3
C2
350
5E
  3
C3
350
5F
  3
C4
350
60
  3
C5
350
61
  3
C6
350
62
  3
C7
350
63
  3
C8
350
64
  3
C9
350
65
  3
D0
350
66
  3
D1
350
67
  3
D2
350
68
  0
DICTIONARY
  5
128
102
{ACAD_REACTORS
330
C
102
}
330
C
100
AcDbDictionary
281
     1
  0
XRECORD
  5
134
102
{ACAD_REACTORS
330
C
102
}
330
C
100
AcDbXrecord
280
     1
  1
DWGPROPS COOKIE
  2

  3

  4

  6

  7

  8
12011908
  9

300
=
301
=
302
=
303
=
304
=
305
=
306
=
307
=
308
=
309
=
 40
0.0
 41
2458250.13499581
 42
2458264.234352732
  1

 90
        0
  0
LAYOUT
  5
1E
102
{ACAD_REACTORS
330
1A
102
}
330
1A
100
AcDbPlotSettings
  1

  2
none_device
  4

  6

 40
0.0
 41
0.0
 42
0.0
 43
0.0
 44
0.0
 45
0.0
 46
0.0
 47
0.0
 48
0.0
 49
0.0
140
0.0
141
0.0
142
1.0
143
1.0
 70
   688
 72
     1
 73
     0
 74
     5
  7

 75
    16
147
1.0
148
0.0
149
0.0
100
AcDbLayout
  1
Layout1
 70
     1
 71
     1
 10
0.0
 20
0.0
 11
420.0
 21
297.0
 12
0.0
 22
0.0
 32
0.0
 14
1.000000000000000E+20
 24
1.000000000000000E+20
 34
1.000000000000000E+20
 15
-1.000000000000000E+20
 25
-1.000000000000000E+20
 35
-1.000000000000000E+20
146
0.0
 13
0.0
 23
0.0
 33
0.0
 16
1.0
 26
0.0
 36
0.0
 17
0.0
 27
1.0
 37
0.0
 76
     0
330
1B
  0
LAYOUT
  5
26
102
{ACAD_REACTORS
330
1A
102
}
330
1A
100
AcDbPlotSettings
  1

  2
none_device
  4

  6

 40
0.0
 41
0.0
 42
0.0
 43
0.0
 44
0.0
 45
0.0
 46
0.0
 47
0.0
 48
0.0
 49
0.0
140
0.0
141
0.0
142
1.0
143
1.0
 70
   688
 72
     1
 73
     0
 74
     5
  7

 75
    16
147
1.0
148
0.0
149
0.0
100
AcDbLayout
  1
Layout2
 70
     1
 71
     2
 10
0.0
 20
0.0
 11
0.0
 21
0.0
 12
0.0
 22
0.0
 32
0.0
 14
0.0
 24
0.0
 34
0.0
 15
0.0
 25
0.0
 35
0.0
146
0.0
 13
0.0
 23
0.0
 33
0.0
 16
1.0
 26
0.0
 36
0.0
 17
0.0
 27
1.0
 37
0.0
 76
     0
330
23
  0
LAYOUT
  5
22
102
{ACAD_REACTORS
330
1A
102
}
330
1A
100
AcDbPlotSettings
  1

  2
none_device
  4
ANSI_A_(11.00_x_8.50_Inches)
  6

 40
6.35
 41
19.05
 42
6.35000508
 43
19.05000254
 44
279.4
 45
215.9
 46
143.1772945079719
 47
108.2235447896265
 48
0.0
 49
0.0
140
0.0
141
0.0
142
0.0821570819270314
143
1.0
 70
  1696
 72
     0
 73
     0
 74
     0
  7

 75
     0
147
0.0235690232323232
148
0.0
149
0.0
100
AcDbLayout
  1
Model
 70
     1
 71
     0
 10
0.0
 20
0.0
 11
420.0
 21
297.0
 12
0.0
 22
0.0
 32
0.0
 14
-68.79455944538856
 24
-49.97180738881174
 34
0.0
 15
63.11652364557963
 25
32.05915911661226
 35
0.0
146
0.0
 13
0.0
 23
0.0
 33
0.0
 16
1.0
 26
0.0
 36
0.0
 17
0.0
 27
1.0
 37
0.0
 76
     0
330
1F
331
29
  0
MLINESTYLE
  5
18
102
{ACAD_REACTORS
330
17
102
}
330
17
100
AcDbMlineStyle
  2
Standard
 70
     0
  3

 62
   256
 51
90.0
 52
90.0
 71
     2
 49
0.5
 62
   256
  6
BYLAYER
 49
-0.5
 62
   256
  6
BYLAYER
  0
ACDBPLACEHOLDER
  5
F
102
{ACAD_REACTORS
330
E
102
}
330
E
  0
SCALE
  5
48
102
{ACAD_REACTORS
330
47
102
}
330
47
100
AcDbScale
 70
     0
300
1:1
140
1.0
141
1.0
290
     1
  0
SCALE
  5
49
102
{ACAD_REACTORS
330
47
102
}
330
47
100
AcDbScale
 70
     0
300
1:2
140
1.0
141
2.0
290
     0
  0
SCALE
  5
4A
102
{ACAD_REACTORS
330
47
102
}
330
47
100
AcDbScale
 70
     0
300
1:4
140
1.0
141
4.0
290
     0
  0
SCALE
  5
4B
102
{ACAD_REACTORS
330
47
102
}
330
47
100
AcDbScale
 70
     0
300
1:5
140
1.0
141
5.0
290
     0
  0
SCALE
  5
4C
102
{ACAD_REACTORS
330
47
102
}
330
47
100
AcDbScale
 70
     0
300
1:8
140
1.0
141
8.0
290
     0
  0
SCALE
  5
4D
102
{ACAD_REACTORS
330
47
102
}
330
47
100
AcDbScale
 70
     0
300
1:10
140
1.0
141
10.0
290
     0
  0
SCALE
  5
4E
102
{ACAD_REACTORS
330
47
102
}
330
47
100
AcDbScale
 70
     0
300
1:16
140
1.0
141
16.0
290
     0
  0
SCALE
  5
4F
102
{ACAD_REACTORS
330
47
102
}
330
47
100
AcDbScale
 70
     0
300
1:20
140
1.0
141
20.0
290
     0
  0
SCALE
  5
50
102
{ACAD_REACTORS
330
47
102
}
330
47
100
AcDbScale
 70
     0
300
1:30
140
1.0
141
30.0
290
     0
  0
SCALE
  5
51
102
{ACAD_REACTORS
330
47
102
}
330
47
100
AcDbScale
 70
     0
300
1:40
140
1.0
141
40.0
290
     0
  0
SCALE
  5
52
102
{ACAD_REACTORS
330
47
102
}
330
47
100
AcDbScale
 70
     0
300
1:50
140
1.0
141
50.0
290
     0
  0
SCALE
  5
53
102
{ACAD_REACTORS
330
47
102
}
330
47
100
AcDbScale
 70
     0
300
1:100
140
1.0
141
100.0
290
     0
  0
SCALE
  5
54
102
{ACAD_REACTORS
330
47
102
}
330
47
100
AcDbScale
 70
     0
300
2:1
140
2.0
141
1.0
290
     0
  0
SCALE
  5
55
102
{ACAD_REACTORS
330
47
102
}
330
47
100
AcDbScale
 70
     0
300
4:1
140
4.0
141
1.0
290
     0
  0
SCALE
  5
56
102
{ACAD_REACTORS
330
47
102
}
330
47
100
AcDbScale
 70
     0
300
8:1
140
8.0
141
1.0
290
     0
  0
SCALE
  5
57
102
{ACAD_REACTORS
330
47
102
}
330
47
100
AcDbScale
 70
     0
300
10:1
140
10.0
141
1.0
290
     0
  0
SCALE
  5
58
102
{ACAD_REACTORS
330
47
102
}
330
47
100
AcDbScale
 70
     0
300
100:1
140
100.0
141
1.0
290
     0
  0
SCALE
  5
59
102
{ACAD_REACTORS
330
47
102
}
330
47
100
AcDbScale
 70
     0
300
1/128" = 1'-0"
140
0.0078125
141
12.0
290
     0
  0
SCALE
  5
5A
102
{ACAD_REACTORS
330
47
102
}
330
47
100
AcDbScale
 70
     0
300
1/64" = 1'-0"
140
0.015625
141
12.0
290
     0
  0
SCALE
  5
5B
102
{ACAD_REACTORS
330
47
102
}
330
47
100
AcDbScale
 70
     0
300
1/32" = 1'-0"
140
0.03125
141
12.0
290
     0
  0
SCALE
  5
5C
102
{ACAD_REACTORS
330
47
102
}
330
47
100
AcDbScale
 70
     0
300
1/16" = 1'-0"
140
0.0625
141
12.0
290
     0
  0
SCALE
  5
5D
102
{ACAD_REACTORS
330
47
102
}
330
47
100
AcDbScale
 70
     0
300
3/32" = 1'-0"
140
0.09375
141
12.0
290
     0
  0
SCALE
  5
5E
102
{ACAD_REACTORS
330
47
102
}
330
47
100
AcDbScale
 70
     0
300
1/8" = 1'-0"
140
0.125
141
12.0
290
     0
  0
SCALE
  5
5F
102
{ACAD_REACTORS
330
47
102
}
330
47
100
AcDbScale
 70
     0
300
3/16" = 1'-0"
140
0.1875
141
12.0
290
     0
  0
SCALE
  5
60
102
{ACAD_REACTORS
330
47
102
}
330
47
100
AcDbScale
 70
     0
300
1/4" = 1'-0"
140
0.25
141
12.0
290
     0
  0
SCALE
  5
61
102
{ACAD_REACTORS
330
47
102
}
330
47
100
AcDbScale
 70
     0
300
3/8" = 1'-0"
140
0.375
141
12.0
290
     0
  0
SCALE
  5
62
102
{ACAD_REACTORS
330
47
102
}
330
47
100
AcDbScale
 70
     0
300
1/2" = 1'-0"
140
0.5
141
12.0
290
     0
  0
SCALE
  5
63
102
{ACAD_REACTORS
330
47
102
}
330
47
100
AcDbScale
 70
     0
300
3/4" = 1'-0"
140
0.75
141
12.0
290
     0
  0
SCALE
  5
64
102
{ACAD_REACTORS
330
47
102
}
330
47
100
AcDbScale
 70
     0
300
1" = 1'-0"
140
1.0
141
12.0
290
     0
  0
SCALE
  5
65
102
{ACAD_REACTORS
330
47
102
}
330
47
100
AcDbScale
 70
     0
300
1-1/2" = 1'-0"
140
1.5
141
12.0
290
     0
  0
SCALE
  5
66
102
{ACAD_REACTORS
330
47
102
}
330
47
100
AcDbScale
 70
     0
300
3" = 1'-0"
140
3.0
141
12.0
290
     0
  0
SCALE
  5
67
102
{ACAD_REACTORS
330
47
102
}
330
47
100
AcDbScale
 70
     0
300
6" = 1'-0"
140
6.0
141
12.0
290
     0
  0
SCALE
  5
68
102
{ACAD_REACTORS
330
47
102
}
330
47
100
AcDbScale
 70
     0
300
1'-0" = 1'-0"
140
12.0
141
12.0
290
     0
  0
ENDSEC
  0
EOF
