  0
SECTION
  2
HEADER
  9
$ACADVER
  1
AC1015
  9
$ACADMAINTVER
 70
     6
  9
$DWGCODEPAGE
  3
ANSI_949
  9
$INSBASE
 10
0.0
 20
0.0
 30
0.0
  9
$EXTMIN
 10
-76.02746987560269
 20
-49.97180738881174
 30
0.0
  9
$EXTMAX
 10
55.8836132153655
 20
32.05915911661227
 30
0.0
  9
$LIMMIN
 10
0.0
 20
0.0
  9
$LIMMAX
 10
420.0
 20
297.0
  9
$ORTHOMODE
 70
     1
  9
$REGENMODE
 70
     1
  9
$FILLMODE
 70
     1
  9
$QTEXTMODE
 70
     0
  9
$MIRRTEXT
 70
     1
  9
$LTSCALE
 40
1.0
  9
$ATTMODE
 70
     1
  9
$TEXTSIZE
 40
3.5
  9
$TRACEWID
 40
1.0
  9
$TEXTSTYLE
  7
Standard
  9
$CLAYER
  8
0
  9
$CELTYPE
  6
ByLayer
  9
$CECOLOR
 62
   256
  9
$CELTSCALE
 40
1.0
  9
$DISPSILH
 70
     0
  9
$DIMSCALE
 40
1.0
  9
$DIMASZ
 40
3.302
  9
$DIMEXO
 40
1.0
  9
$DIMDLI
 40
3.75
  9
$DIMRND
 40
0.0
  9
$DIMDLE
 40
0.0
  9
$DIMEXE
 40
1.0
  9
$DIMTP
 40
0.0
  9
$DIMTM
 40
0.0
  9
$DIMTXT
 40
3.5
  9
$DIMCEN
 40
2.5
  9
$DIMTSZ
 40
0.0
  9
$DIMTOL
 70
     0
  9
$DIMLIM
 70
     0
  9
$DIMTIH
 70
     1
  9
$DIMTOH
 70
     1
  9
$DIMSE1
 70
     0
  9
$DIMSE2
 70
     0
  9
$DIMTAD
 70
     1
  9
$DIMZIN
 70
     0
  9
$DIMBLK
  1

  9
$DIMASO
 70
     1
  9
$DIMSHO
 70
     1
  9
$DIMPOST
  1

  9
$DIMAPOST
  1

  9
$DIMALT
 70
     0
  9
$DIMALTD
 70
     3
  9
$DIMALTF
 40
0.0393700787401575
  9
$DIMLFAC
 40
1.0
  9
$DIMTOFL
 70
     1
  9
$DIMTVP
 40
0.0
  9
$DIMTIX
 70
     0
  9
$DIMSOXD
 70
     0
  9
$DIMSAH
 70
     0
  9
$DIMBLK1
  1

  9
$DIMBLK2
  1

  9
$DIMSTYLE
  2
ISO-25
  9
$DIMCLRD
 70
     0
  9
$DIMCLRE
 70
     0
  9
$DIMCLRT
 70
     0
  9
$DIMTFAC
 40
1.0
  9
$DIMGAP
 40
1.524
  9
$DIMJUST
 70
     0
  9
$DIMSD1
 70
     0
  9
$DIMSD2
 70
     0
  9
$DIMTOLJ
 70
     0
  9
$DIMTZIN
 70
     0
  9
$DIMALTZ
 70
     0
  9
$DIMALTTZ
 70
     0
  9
$DIMUPT
 70
     0
  9
$DIMDEC
 70
     2
  9
$DIMTDEC
 70
     2
  9
$DIMALTU
 70
     2
  9
$DIMALTTD
 70
     3
  9
$DIMTXSTY
  7
Standard
  9
$DIMAUNIT
 70
     0
  9
$DIMADEC
 70
     2
  9
$DIMALTRND
 40
0.0
  9
$DIMAZIN
 70
     0
  9
$DIMDSEP
 70
    44
  9
$DIMATFIT
 70
     3
  9
$DIMFRAC
 70
     0
  9
$DIMLDRBLK
  1

  9
$DIMLUNIT
 70
     2
  9
$DIMLWD
 70
    -2
  9
$DIMLWE
 70
    -2
  9
$DIMTMOVE
 70
     0
  9
$LUNITS
 70
     2
  9
$LUPREC
 70
     2
  9
$SKETCHINC
 40
1.0
  9
$FILLETRAD
 40
10.0
  9
$AUNITS
 70
     0
  9
$AUPREC
 70
     2
  9
$MENU
  1
.
  9
$ELEVATION
 40
0.0
  9
$PELEVATION
 40
0.0
  9
$THICKNESS
 40
0.0
  9
$LIMCHECK
 70
     0
  9
$CHAMFERA
 40
0.0
  9
$CHAMFERB
 40
0.0
  9
$CHAMFERC
 40
0.0
  9
$CHAMFERD
 40
0.0
  9
$SKPOLY
 70
     0
  9
$TDCREATE
 40
2458250.510130949
  9
$TDUCREATE
 40
2458250.135130949
  9
$TDUPDATE
 40
2459699.701086273
  9
$TDUUPDATE
 40
2459699.326086273
  9
$TDINDWG
 40
0.0017060648
  9
$TDUSRTIMER
 40
0.0012318403
  9
$USRTIMER
 70
     1
  9
$ANGBASE
 50
0.0
  9
$ANGDIR
 70
     0
  9
$PDMODE
 70
     0
  9
$PDSIZE
 40
-1.0
  9
$PLINEWID
 40
0.0
  9
$SPLFRAME
 70
     0
  9
$SPLINETYPE
 70
     6
  9
$SPLINESEGS
 70
     8
  9
$HANDSEED
  5
18E
  9
$SURFTAB1
 70
     6
  9
$SURFTAB2
 70
     6
  9
$SURFTYPE
 70
     6
  9
$SURFU
 70
     6
  9
$SURFV
 70
     6
  9
$UCSBASE
  2

  9
$UCSNAME
  2

  9
$UCSORG
 10
0.0
 20
0.0
 30
0.0
  9
$UCSXDIR
 10
1.0
 20
0.0
 30
0.0
  9
$UCSYDIR
 10
0.0
 20
1.0
 30
0.0
  9
$UCSORTHOREF
  2

  9
$UCSORTHOVIEW
 70
     0
  9
$UCSORGTOP
 10
0.0
 20
0.0
 30
0.0
  9
$UCSORGBOTTOM
 10
0.0
 20
0.0
 30
0.0
  9
$UCSORGLEFT
 10
0.0
 20
0.0
 30
0.0
  9
$UCSORGRIGHT
 10
0.0
 20
0.0
 30
0.0
  9
$UCSORGFRONT
 10
0.0
 20
0.0
 30
0.0
  9
$UCSORGBACK
 10
0.0
 20
0.0
 30
0.0
  9
$PUCSBASE
  2

  9
$PUCSNAME
  2

  9
$PUCSORG
 10
0.0
 20
0.0
 30
0.0
  9
$PUCSXDIR
 10
1.0
 20
0.0
 30
0.0
  9
$PUCSYDIR
 10
0.0
 20
1.0
 30
0.0
  9
$PUCSORTHOREF
  2

  9
$PUCSORTHOVIEW
 70
     0
  9
$PUCSORGTOP
 10
0.0
 20
0.0
 30
0.0
  9
$PUCSORGBOTTOM
 10
0.0
 20
0.0
 30
0.0
  9
$PUCSORGLEFT
 10
0.0
 20
0.0
 30
0.0
  9
$PUCSORGRIGHT
 10
0.0
 20
0.0
 30
0.0
  9
$PUCSORGFRONT
 10
0.0
 20
0.0
 30
0.0
  9
$PUCSORGBACK
 10
0.0
 20
0.0
 30
0.0
  9
$USERI1
 70
     0
  9
$USERI2
 70
     0
  9
$USERI3
 70
     0
  9
$USERI4
 70
     0
  9
$USERI5
 70
     0
  9
$USERR1
 40
0.0
  9
$USERR2
 40
0.0
  9
$USERR3
 40
0.0
  9
$USERR4
 40
0.0
  9
$USERR5
 40
0.0
  9
$WORLDVIEW
 70
     1
  9
$SHADEDGE
 70
     3
  9
$SHADEDIF
 70
    70
  9
$TILEMODE
 70
     1
  9
$MAXACTVP
 70
    64
  9
$PINSBASE
 10
0.0
 20
0.0
 30
0.0
  9
$PLIMCHECK
 70
     0
  9
$PEXTMIN
 10
1.000000000000000E+20
 20
1.000000000000000E+20
 30
1.000000000000000E+20
  9
$PEXTMAX
 10
-1.000000000000000E+20
 20
-1.000000000000000E+20
 30
-1.000000000000000E+20
  9
$PLIMMIN
 10
0.0
 20
0.0
  9
$PLIMMAX
 10
0.0
 20
0.0
  9
$UNITMODE
 70
     0
  9
$VISRETAIN
 70
     1
  9
$PLINEGEN
 70
     0
  9
$PSLTSCALE
 70
     1
  9
$TREEDEPTH
 70
  3020
  9
$CMLSTYLE
  2
Standard
  9
$CMLJUST
 70
     0
  9
$CMLSCALE
 40
20.0
  9
$PROXYGRAPHICS
 70
     1
  9
$MEASUREMENT
 70
     1
  9
$CELWEIGHT
370
    -1
  9
$ENDCAPS
280
     0
  9
$JOINSTYLE
280
     0
  9
$LWDISPLAY
290
     1
  9
$INSUNITS
 70
     4
  9
$HYPERLINKBASE
  1

  9
$STYLESHEET
  1

  9
$XEDIT
290
     1
  9
$CEPSNTYPE
380
     0
  9
$PSTYLEMODE
290
     1
  9
$FINGERPRINTGUID
  2
{BD18D3FE-7121-4D1A-9383-F1FCE0942F8E}
  9
$VERSIONGUID
  2
{FAEB1C32-E019-11D5-929B-00C0DF256EC4}
  9
$EXTNAMES
290
     1
  9
$PSVPSCALE
 40
0.0
  9
$OLESTARTUP
290
     0
  0
ENDSEC
  0
SECTION
  2
CLASSES
  0
CLASS
  1
ACDBDICTIONARYWDFLT
  2
AcDbDictionaryWithDefault
  3
ObjectDBX Classes
 90
        0
280
     0
281
     0
  0
CLASS
  1
VISUALSTYLE
  2
AcDbVisualStyle
  3
ObjectDBX Classes
 90
     4095
280
     0
281
     0
  0
CLASS
  1
MATERIAL
  2
AcDbMaterial
  3
ObjectDBX Classes
 90
     1153
280
     0
281
     0
  0
CLASS
  1
SCALE
  2
AcDbScale
  3
ObjectDBX Classes
 90
     1153
280
     0
281
     0
  0
CLASS
  1
SUN
  2
AcDbSun
  3
SCENEOE
 90
     1153
280
     0
281
     0
  0
CLASS
  1
ACDBPLACEHOLDER
  2
AcDbPlaceHolder
  3
ObjectDBX Classes
 90
        0
280
     0
281
     0
  0
CLASS
  1
LAYOUT
  2
AcDbLayout
  3
ObjectDBX Classes
 90
        0
280
     0
281
     0
  0
CLASS
  1
TABLESTYLE
  2
AcDbTableStyle
  3
ObjectDBX Classes
 90
     4095
280
     0
281
     0
  0
CLASS
  1
MLEADERSTYLE
  2
AcDbMLeaderStyle
  3
ACDB_MLEADERSTYLE_CLASS
 90
     4095
280
     0
281
     0
  0
CLASS
  1
DICTIONARYVAR
  2
AcDbDictionaryVar
  3
ObjectDBX Classes
 90
        0
280
     0
281
     0
  0
ENDSEC
  0
SECTION
  2
TABLES
  0
TABLE
  2
VPORT
  5
8
330
0
100
AcDbSymbolTable
 70
     1
  0
VPORT
  5
29
330
8
100
AcDbSymbolTableRecord
100
AcDbViewportTableRecord
  2
*Active
 70
     0
 10
0.0
 20
0.0
 11
1.0
 21
1.0
 12
12.31555524503953
 22
9.420981858988107
 13
0.0
 23
0.0
 14
10.0
 24
10.0
 15
10.0
 25
10.0
 16
0.0
 26
0.0
 36
1.0
 17
0.0
 27
0.0
 37
0.0
 40
168.1469615380912
 41
2.315548780487805
 42
50.0
 43
0.0
 44
0.0
 50
0.0
 51
0.0
 71
    16
 72
  2000
 73
     1
 74
     3
 75
     0
 76
     0
 77
     0
 78
     0
281
     0
 65
     1
110
0.0
120
0.0
130
0.0
111
1.0
121
0.0
131
0.0
112
0.0
122
1.0
132
0.0
 79
     0
146
0.0
  0
ENDTAB
  0
TABLE
  2
LTYPE
  5
5
330
0
100
AcDbSymbolTable
 70
     6
  0
LTYPE
  5
14
330
5
100
AcDbSymbolTableRecord
100
AcDbLinetypeTableRecord
  2
ByBlock
 70
     0
  3

 72
    65
 73
     0
 40
0.0
  0
LTYPE
  5
15
330
5
100
AcDbSymbolTableRecord
100
AcDbLinetypeTableRecord
  2
ByLayer
 70
     0
  3

 72
    65
 73
     0
 40
0.0
  0
LTYPE
  5
16
330
5
100
AcDbSymbolTableRecord
100
AcDbLinetypeTableRecord
  2
Continuous
 70
     0
  3
Solid line
 72
    65
 73
     0
 40
0.0
  0
LTYPE
  5
6A
330
5
100
AcDbSymbolTableRecord
100
AcDbLinetypeTableRecord
  2
HIDDEN
 70
     0
  3
Hidden __ __ __ __ __ __ __ __ __ __ __ __ __ __
 72
    65
 73
     2
 40
1.905
 49
1.27
 74
     0
 49
-0.635
 74
     0
  0
LTYPE
  5
6B
330
5
100
AcDbSymbolTableRecord
100
AcDbLinetypeTableRecord
  2
PHANTOM
 70
     0
  3
Phantom ______  __  __  ______  __  __  ______
 72
    65
 73
     6
 40
12.7
 49
6.35
 74
     0
 49
-1.27
 74
     0
 49
1.27
 74
     0
 49
-1.27
 74
     0
 49
1.27
 74
     0
 49
-1.27
 74
     0
  0
LTYPE
  5
6C
330
5
100
AcDbSymbolTableRecord
100
AcDbLinetypeTableRecord
  2
CENTER
 70
     0
  3
Center ____ _ ____ _ ____ _ ____ _ ____ _ ____
 72
    65
 73
     4
 40
10.16
 49
6.35
 74
     0
 49
-1.27
 74
     0
 49
1.27
 74
     0
 49
-1.27
 74
     0
  0
LTYPE
  5
6D
330
5
100
AcDbSymbolTableRecord
100
AcDbLinetypeTableRecord
  2
CENTERX2
 70
     0
  3
Center (2x) ________  __  ________  __  _____
 72
    65
 73
     4
 40
20.32
 49
12.7
 74
     0
 49
-2.54
 74
     0
 49
2.54
 74
     0
 49
-2.54
 74
     0
  0
LTYPE
  5
6E
330
5
100
AcDbSymbolTableRecord
100
AcDbLinetypeTableRecord
  2
DOT2
 70
     0
  3
Dot (.5x) ........................................
 72
    65
 73
     2
 40
0.635
 49
0.0
 74
     0
 49
-0.635
 74
     0
  0
ENDTAB
  0
TABLE
  2
LAYER
  5
2
330
0
100
AcDbSymbolTable
 70
    17
  0
LAYER
  5
10
330
2
100
AcDbSymbolTableRecord
100
AcDbLayerTableRecord
  2
0
 70
     0
 62
     7
  6
Continuous
370
    -3
390
F
  0
LAYER
  5
6F
330
2
100
AcDbSymbolTableRecord
100
AcDbLayerTableRecord
  2
FORMAT
 70
     0
 62
     2
  6
Continuous
370
    -3
390
F
  0
LAYER
  5
70
330
2
100
AcDbSymbolTableRecord
100
AcDbLayerTableRecord
  2
외형선
 70
     0
 62
   100
  6
Continuous
370
    30
390
F
  0
LAYER
  5
71
330
2
100
AcDbSymbolTableRecord
100
AcDbLayerTableRecord
  2
숨은선
 70
     0
 62
     2
  6
HIDDEN
370
    15
390
F
  0
LAYER
  5
72
330
2
100
AcDbSymbolTableRecord
100
AcDbLayerTableRecord
  2
중심선
 70
     0
 62
     1
  6
CENTERX2
370
    -3
390
F
  0
LAYER
  5
73
330
2
100
AcDbSymbolTableRecord
100
AcDbLayerTableRecord
  2
파단선
 70
     0
 62
     4
  6
Continuous
370
    -3
390
F
  0
LAYER
  5
74
330
2
100
AcDbSymbolTableRecord
100
AcDbLayerTableRecord
  2
해칭선
 70
     0
 62
     4
  6
Continuous
370
    -3
390
F
  0
LAYER
  5
75
330
2
100
AcDbSymbolTableRecord
100
AcDbLayerTableRecord
  2
가는실선
 70
     0
 62
     4
  6
Continuous
370
    -3
390
F
  0
LAYER
  5
76
330
2
100
AcDbSymbolTableRecord
100
AcDbLayerTableRecord
  2
치수_보조선
 70
     0
 62
     4
  6
Continuous
370
    -3
390
F
  0
LAYER
  5
77
330
2
100
AcDbSymbolTableRecord
100
AcDbLayerTableRecord
  2
치수문자_일반주서
 70
     0
 62
     7
  6
Continuous
370
    15
390
F
  0
LAYER
  5
78
330
2
100
AcDbSymbolTableRecord
100
AcDbLayerTableRecord
  2
개별주서
 70
     0
 62
   100
  6
Continuous
370
    30
390
F
  0
LAYER
  5
79
330
2
100
AcDbSymbolTableRecord
100
AcDbLayerTableRecord
  2
중간선
 70
     0
 62
     2
  6
Continuous
370
    15
390
F
  0
LAYER
  5
7A
330
2
100
AcDbSymbolTableRecord
100
AcDbLayerTableRecord
  2
윤곽선
 70
     0
 62
     3
  6
Continuous
370
    40
390
F
  0
LAYER
  5
7B
330
2
100
AcDbSymbolTableRecord
100
AcDbLayerTableRecord
  2
중심마크
 70
     0
 62
   100
  6
Continuous
370
    30
390
F
  0
LAYER
  5
7C
330
2
100
AcDbSymbolTableRecord
100
AcDbLayerTableRecord
  2
가상선
 70
     0
 62
     4
  6
PHANTOM
370
    -3
390
F
  0
LAYER
  5
7D
330
2
100
AcDbSymbolTableRecord
100
AcDbLayerTableRecord
  2
특수지정선
 70
     0
 62
     5
  6
CENTERX2
370
    60
390
F
  0
LAYER
  5
134
330
2
100
AcDbSymbolTableRecord
100
AcDbLayerTableRecord
  2
Defpoints
 70
     0
 62
     7
  6
Continuous
290
     0
370
    -3
390
F
  0
ENDTAB
  0
TABLE
  2
STYLE
  5
3
330
0
100
AcDbSymbolTable
 70
     2
  0
STYLE
  5
11
330
3
100
AcDbSymbolTableRecord
100
AcDbTextStyleTableRecord
  2
Standard
 70
     0
 40
0.0
 41
1.0
 50
0.0
 71
     0
 42
3.5
  3
txt
  4

  0
STYLE
  5
93
330
3
100
AcDbSymbolTableRecord
100
AcDbTextStyleTableRecord
  2
SLDTEXTSTYLE0
 70
     0
 40
0.0
 41
0.75
 50
0.0
 71
     0
 42
3.5
  3
TXT
  4

  0
ENDTAB
  0
TABLE
  2
VIEW
  5
6
330
0
100
AcDbSymbolTable
 70
     0
  0
ENDTAB
  0
TABLE
  2
UCS
  5
7
330
0
100
AcDbSymbolTable
 70
     0
  0
ENDTAB
  0
TABLE
  2
APPID
  5
9
330
0
100
AcDbSymbolTable
 70
     2
  0
APPID
  5
12
330
9
100
AcDbSymbolTableRecord
100
AcDbRegAppTableRecord
  2
ACAD
 70
     0
  0
APPID
  5
132
330
9
100
AcDbSymbolTableRecord
100
AcDbRegAppTableRecord
  2
PE_URL
 70
     0
  0
ENDTAB
  0
TABLE
  2
DIMSTYLE
  5
A
330
0
100
AcDbSymbolTable
 70
     3
100
AcDbDimStyleTable
  0
DIMSTYLE
105
27
330
A
100
AcDbSymbolTableRecord
100
AcDbDimStyleTableRecord
  2
ISO-25
 70
     0
 41
2.5
 42
0.625
 43
3.75
 44
1.25
 73
     0
 74
     0
 77
     1
 78
     8
140
2.5
141
2.5
143
0.03937007874016
147
0.625
171
     3
172
     1
178
     0
271
     2
272
     2
274
     3
278
    44
283
     0
284
     8
340
11
  0
DIMSTYLE
105
DA
102
{ACAD_REACTORS
330
D9
330
E4
102
}
330
A
100
AcDbSymbolTableRecord
100
AcDbDimStyleTableRecord
  2
SLDDIMSTYLE0
 70
     0
 41
3.302
 44
0.0
 45
0.000000001
 73
     0
 74
     0
 77
     1
 78
    12
 79
     3
140
3.5
147
0.875
173
     1
178
     0
271
     2
272
     2
276
     2
284
    12
340
93
  0
DIMSTYLE
105
EF
102
{ACAD_REACTORS
330
EE
330
FC
102
}
330
A
100
AcDbSymbolTableRecord
100
AcDbDimStyleTableRecord
  2
SLDDIMSTYLE1
 70
     0
 41
3.302
 44
0.0
 45
0.000000001
 73
     0
 74
     0
 77
     1
 78
    12
 79
     3
140
3.5
147
0.875
172
     1
173
     1
178
     0
271
     2
272
     2
276
     2
284
    12
289
     0
340
93
  0
ENDTAB
  0
TABLE
  2
BLOCK_RECORD
  5
1
330
0
100
AcDbSymbolTable
 70
     7
  0
BLOCK_RECORD
  5
1F
102
{ACAD_XDICTIONARY
360
18B
102
}
330
1
100
AcDbSymbolTableRecord
100
AcDbBlockTableRecord
  2
*Model_Space
340
22
  0
BLOCK_RECORD
  5
1B
330
1
100
AcDbSymbolTableRecord
100
AcDbBlockTableRecord
  2
*Paper_Space
340
1E
  0
BLOCK_RECORD
  5
23
330
1
100
AcDbSymbolTableRecord
100
AcDbBlockTableRecord
  2
*Paper_Space0
340
26
  0
BLOCK_RECORD
  5
7E
330
1
100
AcDbSymbolTableRecord
100
AcDbBlockTableRecord
  2
블럭10
340
0
102
{BLKREFS
331
D2
102
}
  0
BLOCK_RECORD
  5
DB
330
1
100
AcDbSymbolTableRecord
100
AcDbBlockTableRecord
  2
_D
340
0
  0
BLOCK_RECORD
  5
E5
330
1
100
AcDbSymbolTableRecord
100
AcDbBlockTableRecord
  2
_D_1
340
0
  0
BLOCK_RECORD
  5
F0
330
1
100
AcDbSymbolTableRecord
100
AcDbBlockTableRecord
  2
_D_2
340
0
  0
BLOCK_RECORD
  5
FD
330
1
100
AcDbSymbolTableRecord
100
AcDbBlockTableRecord
  2
_D_3
340
0
  0
BLOCK_RECORD
  5
109
330
1
100
AcDbSymbolTableRecord
100
AcDbBlockTableRecord
  2
SW_DOWELSYMBOL_0
340
0
102
{BLKREFS
331
10F
102
}
  0
ENDTAB
  0
ENDSEC
  0
SECTION
  2
BLOCKS
  0
BLOCK
  5
20
330
1F
100
AcDbEntity
  8
0
100
AcDbBlockBegin
  2
*Model_Space
 70
     0
 10
0.0
 20
0.0
 30
0.0
  3
*Model_Space
  1

  0
ENDBLK
  5
21
330
1F
100
AcDbEntity
  8
0
100
AcDbBlockEnd
  0
BLOCK
  5
1C
330
1B
100
AcDbEntity
 67
     1
  8
0
100
AcDbBlockBegin
  2
*Paper_Space
 70
     0
 10
0.0
 20
0.0
 30
0.0
  3
*Paper_Space
  1

  0
ENDBLK
  5
1D
330
1B
100
AcDbEntity
 67
     1
  8
0
100
AcDbBlockEnd
  0
BLOCK
  5
24
330
23
100
AcDbEntity
  8
0
100
AcDbBlockBegin
  2
*Paper_Space0
 70
     0
 10
0.0
 20
0.0
 30
0.0
  3
*Paper_Space0
  1

  0
ENDBLK
  5
25
330
23
100
AcDbEntity
  8
0
100
AcDbBlockEnd
  0
BLOCK
  5
7F
330
7E
100
AcDbEntity
  8
0
100
AcDbBlockBegin
  2
블럭10
 70
     2
 10
0.0
 20
0.0
 30
0.0
  3
블럭10
  1

  0
ELLIPSE
  5
81
330
7E
100
AcDbEntity
  8
중심선
100
AcDbEllipse
 10
20.54032771741204
 20
12.0471743016438
 30
0.0
 11
6.600054785286829
 21
-1.261213355974178E-13
 31
0.0
210
0.0
220
0.0
230
1.0
 40
0.636358354079598
 41
0.9219305317359503
 42
6.513795318482858
  0
ELLIPSE
  5
82
330
7E
100
AcDbEntity
  8
중심선
100
AcDbEllipse
 10
20.54032771746488
 20
12.04717430159265
 30
0.0
 11
3.960054785062283
 21
1.540847449632565E-10
 31
0.0
210
0.0
220
0.0
230
1.0
 40
0.3939339440162632
 41
1.131841032648279
 42
5.62031148352944
  0
LINE
  5
83
330
7E
100
AcDbEntity
  8
중심선
100
AcDbLine
 10
2.268634060543552
 20
16.24717430164393
 30
0.0
 11
5.714909304380834
 21
16.24717430164393
 31
0.0
  0
LINE
  5
84
330
7E
100
AcDbEntity
  8
중심선
100
AcDbLine
 10
5.245725140726316
 20
7.84717430164391
 30
0.0
 11
8.692000384563599
 21
7.84717430164391
 31
0.0
  0
LINE
  5
85
330
7E
100
AcDbEntity
  8
중심선
100
AcDbLine
 10
15.74043728645272
 20
16.24717430164393
 30
0.0
 11
8.692000384563599
 21
7.84717430164391
 31
0.0
  0
LINE
  5
86
330
7E
100
AcDbEntity
  8
중심선
100
AcDbLine
 10
0.1404042013395286
 20
13.71084872107135
 30
0.0
 11
3.58671253028996
 21
13.71088815037384
 31
0.0
  0
LINE
  5
87
330
7E
100
AcDbEntity
  8
중심선
100
AcDbLine
 10
2.750260043222114
 20
10.84717430164391
 30
0.0
 11
6.196535287059397
 21
10.84717430164391
 31
0.0
  0
LINE
  5
88
330
7E
100
AcDbEntity
  8
중심선
100
AcDbLine
 10
12.29416204261559
 20
16.24717430164393
 30
0.0
 11
5.245725140726316
 21
7.84717430164391
 31
0.0
  0
LINE
  5
89
330
7E
100
AcDbEntity
  8
중심선
100
AcDbLine
 10
10.72767329541681
 20
16.24717430164393
 30
0.0
 11
6.196535287059397
 21
10.84717430164391
 31
0.0
  0
LINE
  5
8A
330
7E
100
AcDbEntity
  8
중심선
100
AcDbLine
 10
7.28139805157953
 20
16.24717430164393
 30
0.0
 11
2.750260043222114
 21
10.84717430164391
 31
0.0
  0
LINE
  5
8B
330
7E
100
AcDbEntity
  8
중심선
100
AcDbLine
 10
5.714909304380834
 20
16.24717430164393
 30
0.0
 11
3.58671253028996
 21
13.71088815037384
 31
0.0
  0
LINE
  5
8C
330
7E
100
AcDbEntity
  8
중심선
100
AcDbLine
 10
2.268634060543552
 20
16.24717430164393
 30
0.0
 11
0.1404042013395286
 21
13.71084872107135
 31
0.0
  0
LINE
  5
8D
330
7E
100
AcDbEntity
  8
중심선
100
AcDbLine
 10
7.28139805157953
 20
16.24717430164393
 30
0.0
 11
10.72767329541681
 21
16.24717430164393
 31
0.0
  0
LINE
  5
8E
330
7E
100
AcDbEntity
  8
중심선
100
AcDbLine
 10
12.29416204261559
 20
16.24717430164393
 30
0.0
 11
15.74043728645272
 21
16.24717430164393
 31
0.0
  0
LINE
  5
8F
330
7E
100
AcDbEntity
  8
중심선
100
AcDbLine
 10
19.22036997980202
 20
11.08717430171403
 30
0.0
 11
23.66174974927406
 21
11.08717430171406
 31
0.0
  0
LINE
  5
90
330
7E
100
AcDbEntity
  8
중심선
100
AcDbLine
 10
19.22039502424796
 20
13.00717430171391
 30
0.0
 11
19.22036997980202
 21
11.08717430171403
 31
0.0
  0
LINE
  5
91
330
7E
100
AcDbEntity
  8
중심선
100
AcDbLine
 10
19.22039502424796
 20
13.00717430171391
 30
0.0
 11
26.96566020931264
 21
13.00717430171391
 31
0.0
  0
LINE
  5
92
330
7E
100
AcDbEntity
  8
중심선
100
AcDbLine
 10
22.22332737316547
 20
13.45928029700563
 30
0.0
 11
24.52862924686651
 21
15.39360700705356
 31
0.0
  0
ATTDEF
  5
94
330
7E
100
AcDbEntity
  8
FORMAT
 62
     2
100
AcDbText
 10
-12.95993919485777
 20
2.075366912832191
 30
0.0
 40
4.233333333333333
  1
SEME35140E [ 2 FLUTE ]
 41
0.75
  7
SLDTEXTSTYLE0
 11
-12.95993919485777
 21
-0.0412997538344756
 31
0.0
100
AcDbAttributeDefinition
  3

  2
AUTOATTR0
 70
     0
 74
     1
  0
ENDBLK
  5
80
330
7E
100
AcDbEntity
  8
0
100
AcDbBlockEnd
  0
BLOCK
  5
DC
330
DB
100
AcDbEntity
  8
0
100
AcDbBlockBegin
  2
_D
 70
     0
 10
0.0
 20
0.0
 30
0.0
  3
_D
  1

  0
LINE
  5
DE
330
DB
100
AcDbEntity
  8
치수문자_일반주서
 62
     0
370
    -2
100
AcDbLine
 10
39.76708956978588
 20
7.056583706607516
 30
0.0
 11
39.76708956978588
 21
19.2447175951853
 31
0.0
  0
LINE
  5
DF
330
DB
100
AcDbEntity
  8
치수문자_일반주서
 62
     0
370
    -2
100
AcDbLine
 10
4.767089569785865
 20
7.062500000000005
 30
0.0
 11
4.767089569785867
 21
19.2447175951853
 31
0.0
  0
LINE
  5
E0
330
DB
100
AcDbEntity
  8
치수문자_일반주서
 62
     0
370
    -2
100
AcDbLine
 10
36.46508956978588
 20
19.2447175951853
 30
0.0
 11
8.069089569785866
 21
19.2447175951853
 31
0.0
  0
SOLID
  5
E1
330
DB
100
AcDbEntity
  8
치수문자_일반주서
 62
     0
100
AcDbTrace
 10
36.46508956978588
 20
18.69438426185197
 30
0.0
 11
36.46508956978588
 21
19.79505092851863
 31
0.0
 12
39.76708956978588
 22
19.2447175951853
 32
0.0
 13
39.76708956978588
 23
19.2447175951853
 33
0.0
  0
SOLID
  5
E2
330
DB
100
AcDbEntity
  8
치수문자_일반주서
 62
     0
100
AcDbTrace
 10
8.069089569785866
 20
19.79505092851863
 30
0.0
 11
8.069089569785866
 21
18.69438426185197
 31
0.0
 12
4.767089569785867
 22
19.2447175951853
 32
0.0
 13
4.767089569785867
 23
19.2447175951853
 33
0.0
  0
MTEXT
  5
E3
330
DB
100
AcDbEntity
  8
치수문자_일반주서
 62
     0
100
AcDbMText
 10
22.26708956978587
 20
23.6197175951853
 30
0.0
 40
3.5
 41
0.0
 71
     2
 72
     1
  1
\A1;35
  7
SLDTEXTSTYLE0
 73
     1
 44
1.0
  0
POINT
  5
138
330
DB
100
AcDbEntity
  8
Defpoints
 62
     0
100
AcDbPoint
 10
39.76708956978588
 20
6.994083706607516
 30
0.0
  0
POINT
  5
139
330
DB
100
AcDbEntity
  8
Defpoints
 62
     0
100
AcDbPoint
 10
4.767089569785865
 20
7.000000000000005
 30
0.0
  0
POINT
  5
13A
330
DB
100
AcDbEntity
  8
Defpoints
 62
     0
100
AcDbPoint
 10
4.767089569785865
 20
19.2447175951853
 30
0.0
  0
ENDBLK
  5
DD
330
DB
100
AcDbEntity
  8
0
100
AcDbBlockEnd
  0
BLOCK
  5
E6
330
E5
100
AcDbEntity
  8
0
100
AcDbBlockBegin
  2
_D_1
 70
     0
 10
0.0
 20
0.0
 30
0.0
  3
_D_1
  1

  0
LINE
  5
E8
330
E5
100
AcDbEntity
  8
치수문자_일반주서
 62
     0
370
    -2
100
AcDbLine
 10
39.76708956978587
 20
7.056583706607516
 30
0.0
 11
39.76708956978587
 21
27.68415911661227
 31
0.0
  0
LINE
  5
E9
330
E5
100
AcDbEntity
  8
치수문자_일반주서
 62
     0
370
    -2
100
AcDbLine
 10
-60.23291043021414
 20
7.062499999999994
 30
0.0
 11
-60.23291043021414
 21
27.68415911661227
 31
0.0
  0
LINE
  5
EA
330
E5
100
AcDbEntity
  8
치수문자_일반주서
 62
     0
370
    -2
100
AcDbLine
 10
36.46508956978587
 20
27.68415911661227
 30
0.0
 11
-56.93091043021414
 21
27.68415911661227
 31
0.0
  0
SOLID
  5
EB
330
E5
100
AcDbEntity
  8
치수문자_일반주서
 62
     0
100
AcDbTrace
 10
36.46508956978587
 20
27.13382578327894
 30
0.0
 11
36.46508956978587
 21
28.23449244994561
 31
0.0
 12
39.76708956978587
 22
27.68415911661227
 32
0.0
 13
39.76708956978587
 23
27.68415911661227
 33
0.0
  0
SOLID
  5
EC
330
E5
100
AcDbEntity
  8
치수문자_일반주서
 62
     0
100
AcDbTrace
 10
-56.93091043021414
 20
28.23449244994561
 30
0.0
 11
-56.93091043021414
 21
27.13382578327894
 31
0.0
 12
-60.23291043021414
 22
27.68415911661227
 32
0.0
 13
-60.23291043021414
 23
27.68415911661227
 33
0.0
  0
MTEXT
  5
ED
330
E5
100
AcDbEntity
  8
치수문자_일반주서
 62
     0
100
AcDbMText
 10
-10.23291043021412
 20
32.05915911661227
 30
0.0
 40
3.5
 41
0.0
 71
     2
 72
     1
  1
\A1;100
  7
SLDTEXTSTYLE0
 73
     1
 44
1.0
  0
POINT
  5
135
330
E5
100
AcDbEntity
  8
Defpoints
 62
     0
100
AcDbPoint
 10
39.76708956978587
 20
6.994083706607516
 30
0.0
  0
POINT
  5
136
330
E5
100
AcDbEntity
  8
Defpoints
 62
     0
100
AcDbPoint
 10
-60.23291043021414
 20
6.999999999999994
 30
0.0
  0
POINT
  5
137
330
E5
100
AcDbEntity
  8
Defpoints
 62
     0
100
AcDbPoint
 10
-60.23291043021414
 20
27.68415911661227
 30
0.0
  0
ENDBLK
  5
E7
330
E5
100
AcDbEntity
  8
0
100
AcDbBlockEnd
  0
BLOCK
  5
F1
330
F0
100
AcDbEntity
  8
0
100
AcDbBlockBegin
  2
_D_2
 70
     0
 10
0.0
 20
0.0
 30
0.0
  3
_D_2
  1

  0
LINE
  5
F3
330
F0
100
AcDbEntity
  8
치수문자_일반주서
 62
     0
370
    -2
100
AcDbLine
 10
39.83069663241609
 20
7.006536455157394
 30
0.0
 11
55.33327988203214
 21
7.006536455157453
 31
0.0
  0
LINE
  5
F4
330
F0
100
AcDbEntity
  8
치수문자_일반주서
 62
     0
370
    -2
100
AcDbLine
 10
39.82958956978588
 20
-6.994083706607503
 30
0.0
 11
55.33327988203219
 21
-6.994083706607444
 31
0.0
  0
LINE
  5
F5
330
F0
100
AcDbEntity
  8
치수문자_일반주서
 62
     0
370
    -2
100
AcDbLine
 10
55.33327988203215
 20
3.704536455157453
 30
0.0
 11
55.33327988203217
 21
-3.692083706607444
 31
0.0
  0
SOLID
  5
F6
330
F0
100
AcDbEntity
  8
치수문자_일반주서
 62
     0
100
AcDbTrace
 10
55.88361321536549
 20
3.704536455157454
 30
0.0
 11
54.78294654869882
 21
3.704536455157451
 31
0.0
 12
55.33327988203214
 22
7.006536455157453
 32
0.0
 13
55.33327988203214
 23
7.006536455157453
 33
0.0
  0
SOLID
  5
F7
330
F0
100
AcDbEntity
  8
치수문자_일반주서
 62
     0
100
AcDbTrace
 10
54.78294654869884
 20
-3.692083706607446
 30
0.0
 11
55.88361321536551
 21
-3.692083706607443
 31
0.0
 12
55.33327988203219
 22
-6.994083706607444
 32
0.0
 13
55.33327988203219
 23
-6.994083706607444
 33
0.0
  0
MTEXT
  5
F8
330
F0
100
AcDbEntity
  8
치수문자_일반주서
 62
     0
100
AcDbMText
 10
50.95827988203217
 20
-0.0000000000000098
 30
0.0
 40
3.5
 41
0.0
 71
     2
 72
     1
  1
\A1;%%c14
  7
SLDTEXTSTYLE0
 11
-3.552556310258267E-15
 21
1.0
 31
0.0
 73
     1
 44
1.0
  0
POINT
  5
F9
330
F0
100
AcDbEntity
  8
Defpoints
 62
     0
100
AcDbPoint
 10
39.76819663241609
 20
7.006536455157394
 30
0.0
  0
POINT
  5
FA
330
F0
100
AcDbEntity
  8
Defpoints
 62
     0
100
AcDbPoint
 10
39.76708956978588
 20
-6.994083706607503
 30
0.0
  0
POINT
  5
FB
330
F0
100
AcDbEntity
  8
Defpoints
 62
     0
100
AcDbPoint
 10
55.33327988203218
 20
-6.994083706607445
 30
0.0
  0
ENDBLK
  5
F2
330
F0
100
AcDbEntity
  8
0
100
AcDbBlockEnd
  0
BLOCK
  5
FE
330
FD
100
AcDbEntity
  8
0
100
AcDbBlockBegin
  2
_D_3
 70
     0
 10
0.0
 20
0.0
 30
0.0
  3
_D_3
  1

  0
LINE
  5
100
330
FD
100
AcDbEntity
  8
치수문자_일반주서
 62
     0
370
    -2
100
AcDbLine
 10
-59.29541043021414
 20
7.999999999999996
 30
0.0
 11
-71.6524698756027
 21
7.99999999999995
 31
0.0
  0
LINE
  5
101
330
FD
100
AcDbEntity
  8
치수문자_일반주서
 62
     0
370
    -2
100
AcDbLine
 10
-59.29541043021414
 20
-7.999999999999996
 30
0.0
 11
-71.65246987560265
 21
-8.000000000000043
 31
0.0
  0
LINE
  5
102
330
FD
100
AcDbEntity
  8
치수문자_일반주서
 62
     0
370
    -2
100
AcDbLine
 10
-71.65246987560269
 20
4.697999999999951
 30
0.0
 11
-71.65246987560266
 21
-4.698000000000043
 31
0.0
  0
SOLID
  5
103
330
FD
100
AcDbEntity
  8
치수문자_일반주서
 62
     0
100
AcDbTrace
 10
-71.10213654226936
 20
4.697999999999952
 30
0.0
 11
-72.20280320893602
 21
4.697999999999949
 31
0.0
 12
-71.6524698756027
 22
7.99999999999995
 32
0.0
 13
-71.6524698756027
 23
7.99999999999995
 33
0.0
  0
SOLID
  5
104
330
FD
100
AcDbEntity
  8
치수문자_일반주서
 62
     0
100
AcDbTrace
 10
-72.20280320893599
 20
-4.698000000000045
 30
0.0
 11
-71.10213654226933
 21
-4.698000000000041
 31
0.0
 12
-71.65246987560265
 22
-8.000000000000043
 32
0.0
 13
-71.65246987560265
 23
-8.000000000000043
 33
0.0
  0
MTEXT
  5
105
330
FD
100
AcDbEntity
  8
치수문자_일반주서
 62
     0
100
AcDbMText
 10
-76.02746987560268
 20
-0.000000000000013
 30
0.0
 40
3.5
 41
0.0
 71
     2
 72
     1
  1
\A1;%%c16
  7
SLDTEXTSTYLE0
 11
-3.552713678800503E-15
 21
1.0
 31
0.0
 73
     1
 44
1.0
  0
POINT
  5
106
330
FD
100
AcDbEntity
  8
Defpoints
 62
     0
100
AcDbPoint
 10
-59.23291043021414
 20
7.999999999999996
 30
0.0
  0
POINT
  5
107
330
FD
100
AcDbEntity
  8
Defpoints
 62
     0
100
AcDbPoint
 10
-59.23291043021414
 20
-7.999999999999996
 30
0.0
  0
POINT
  5
108
330
FD
100
AcDbEntity
  8
Defpoints
 62
     0
100
AcDbPoint
 10
-71.65246987560265
 20
-8.000000000000043
 30
0.0
  0
ENDBLK
  5
FF
330
FD
100
AcDbEntity
  8
0
100
AcDbBlockEnd
  0
BLOCK
  5
10A
330
109
100
AcDbEntity
  8
0
100
AcDbBlockBegin
  2
SW_DOWELSYMBOL_0
 70
     0
 10
0.0
 20
0.0
 30
0.0
  3
SW_DOWELSYMBOL_0
  1

  0
CIRCLE
  5
10C
330
109
100
AcDbEntity
  8
외형선
 62
     0
100
AcDbCircle
 10
0.0
 20
0.0
 30
0.0
 40
3.000000000000004
  0
HATCH
  5
10D
330
109
100
AcDbEntity
  8
0
  6
Continuous
 62
     0
370
    30
100
AcDbHatch
 10
0.0
 20
0.0
 30
0.0
210
0.0
220
0.0
230
1.0
  2
SOLID
 70
     1
 71
     0
 91
        1
 92
        0
 93
        3
 72
     2
 10
0.0000000000000087
 20
-0.0000000000000035
 40
3.000000000000004
 50
0.0
 51
90.0
 73
     1
 72
     1
 10
0.0000000000000087
 20
3.000000000000001
 11
0.0000000000000087
 21
-0.0000000000000036
 72
     1
 10
0.0000000000000087
 20
-0.0000000000000035
 11
3.000000000000013
 21
-0.0000000000000035
 97
        0
 75
     0
 76
     1
 98
        1
 10
0.0
 20
0.0
  0
HATCH
  5
10E
330
109
100
AcDbEntity
  8
0
  6
Continuous
 62
     0
370
    30
100
AcDbHatch
 10
0.0
 20
0.0
 30
0.0
210
0.0
220
0.0
230
1.0
  2
SOLID
 70
     1
 71
     0
 91
        1
 92
        0
 93
        3
 72
     2
 10
0.0000000000000087
 20
-0.0000000000000035
 40
3.000000000000004
 50
180.0
 51
270.0000000000007
 73
     1
 72
     1
 10
0.0000000000000087
 20
-3.000000000000008
 11
0.0000000000000087
 21
-0.0000000000000036
 72
     1
 10
0.0000000000000087
 20
-0.0000000000000035
 11
-2.999999999999996
 21
-0.0000000000000035
 97
        0
 75
     0
 76
     1
 98
        1
 10
0.0
 20
0.0
  0
ENDBLK
  5
10B
330
109
100
AcDbEntity
  8
0
100
AcDbBlockEnd
  0
ENDSEC
  0
SECTION
  2
ENTITIES
  0
LINE
  5
95
330
1F
100
AcDbEntity
  8
0
  6
Continuous
 62
     4
370
    15
100
AcDbLine
 10
1.99999999999999
 20
8.0
 30
0.0
 11
-59.23291043021414
 21
7.999999999999996
 31
0.0
  0
LINE
  5
96
330
1F
100
AcDbEntity
  8
0
  6
Continuous
 62
     4
370
    15
100
AcDbLine
 10
-59.23291043021414
 20
-7.999999999999996
 30
0.0
 11
1.999999999999981
 21
-7.999999999999993
 31
0.0
  0
LINE
  5
99
330
1F
100
AcDbEntity
  8
0
  6
Continuous
 62
     4
370
    15
100
AcDbLine
 10
-59.23291043021414
 20
7.999999999999993
 30
0.0
 11
-60.23291043021414
 21
6.999999999999994
 31
0.0
  0
LINE
  5
9A
330
1F
100
AcDbEntity
  8
0
  6
Continuous
 62
     4
370
    15
100
AcDbLine
 10
-60.23291043021414
 20
-6.999999999999995
 30
0.0
 11
-59.23291043021414
 21
-7.999999999999993
 31
0.0
  0
LINE
  5
9B
330
1F
100
AcDbEntity
  8
0
  6
Continuous
 62
     4
370
    15
100
AcDbLine
 10
4.767089569785865
 20
7.000000000000005
 30
0.0
 11
3.767089569785869
 21
7.000000000000005
 31
0.0
1001
PE_URL
1000

  0
LINE
  5
9C
330
1F
100
AcDbEntity
  8
0
  6
Continuous
 62
     4
370
    15
100
AcDbLine
 10
3.767089569785869
 20
-6.999999999999995
 30
0.0
 11
4.767089569785865
 21
-6.999999999999995
 31
0.0
1001
PE_URL
1000

  0
SPLINE
  5
9D
330
1F
100
AcDbEntity
  8
0
  6
Continuous
 62
     1
370
    15
100
AcDbSpline
210
0.0
220
0.0
230
1.0
 70
     8
 71
     3
 72
     9
 73
     5
 74
     0
 42
0.000000001
 43
0.00000001
 40
0.0
 40
0.0
 40
0.0
 40
0.0
 40
0.5259447709131769
 40
1.0
 40
1.0
 40
1.0
 40
1.0
 10
21.63247214281267
 20
1.793735500735505
 30
0.0
 10
21.29179546767354
 20
1.956130020673685
 30
0.0
 10
20.64405316851992
 20
2.264897269478576
 30
0.0
 10
19.99629191540809
 20
2.604224311544705
 30
0.0
 10
19.6892173061706
 20
2.765084070206718
 30
0.0
  0
LINE
  5
9E
330
1F
100
AcDbEntity
  8
0
  6
Continuous
 62
     1
370
    15
100
AcDbLine
 10
5.567268574691763
 20
7.000000000000006
 30
0.0
 11
4.767089569785865
 21
7.000000000000006
 31
0.0
  0
SPLINE
  5
9F
330
1F
100
AcDbEntity
  8
0
  6
Continuous
 62
     1
370
    15
100
AcDbSpline
210
0.0
220
0.0
230
1.0
 70
     8
 71
     3
 72
    20
 73
    16
 74
     0
 42
0.000000001
 43
0.00000001
 40
0.0
 40
0.0
 40
0.0
 40
0.0
 40
0.125742964779672
 40
0.2432739609885518
 40
0.3436090325626565
 40
0.4213545598815703
 40
0.4835606728271111
 40
0.536095298906993
 40
0.5870256886083768
 40
0.6592148205862974
 40
0.7435074235882799
 40
0.8108943978646068
 40
0.8662355083573806
 40
0.9491949354676887
 40
1.0
 40
1.0
 40
1.0
 40
1.0
 10
19.31830991268287
 20
5.562478777658288
 30
0.0
 10
19.09417311632619
 20
5.550596744792484
 30
0.0
 10
18.66053735508488
 20
5.527608665857611
 30
0.0
 10
17.99220576483077
 20
5.503291894856545
 30
0.0
 10
17.4245156164731
 20
5.487223188325983
 30
0.0
 10
16.96501815446594
 20
5.477375527523013
 30
0.0
 10
16.60118365817436
 20
5.471818443885798
 30
0.0
 10
16.28855735848335
 20
5.468583844485451
 30
0.0
 10
15.95712778522003
 20
5.466616389787585
 30
0.0
 10
15.56277863405175
 20
5.466391881803425
 30
0.0
 10
15.13684389073927
 20
5.469041653517228
 30
0.0
 10
14.74342399273898
 20
5.474027305115849
 30
0.0
 10
14.35343916701134
 20
5.48117105405924
 30
0.0
 10
13.99496506630524
 20
5.489380630072217
 30
0.0
 10
13.74130145676651
 20
5.497708609895595
 30
0.0
 10
13.64495753250186
 20
5.500871658228938
 30
0.0
  0
SPLINE
  5
A0
330
1F
100
AcDbEntity
  8
0
  6
Continuous
 62
     1
370
    15
100
AcDbSpline
210
0.0
220
0.0
230
1.0
 70
     8
 71
     3
 72
    30
 73
    26
 74
     0
 42
0.000000001
 43
0.00000001
 40
0.0
 40
0.0
 40
0.0
 40
0.0
 40
0.0756167862558457
 40
0.1329288029585265
 40
0.1782268422622492
 40
0.2158814497472586
 40
0.2477111462812321
 40
0.2768043694266306
 40
0.3063370187067729
 40
0.3476244681877144
 40
0.3890292258872765
 40
0.4176506727551922
 40
0.4520195976446291
 40
0.4999233222430386
 40
0.5544008660759904
 40
0.5973362009268856
 40
0.6426043728476414
 40
0.689582157587402
 40
0.7271644534295566
 40
0.7567473269827898
 40
0.7866824825295682
 40
0.8229765805792351
 40
0.869404621449
 40
0.9275418739173383
 40
1.0
 40
1.0
 40
1.0
 40
1.0
 10
37.16613908194905
 20
4.787664607105379
 30
0.0
 10
36.86806765095109
 20
4.763218508428504
 30
0.0
 10
36.3440797842275
 20
4.720244047399068
 30
0.0
 10
35.60818456493996
 20
4.676400744775645
 30
0.0
 10
35.02358025546607
 20
4.648782875205586
 30
0.0
 10
34.55103805399607
 20
4.631230609782011
 30
0.0
 10
34.14988870337734
 20
4.619971229764064
 30
0.0
 10
33.78054024794266
 20
4.612488831975915
 30
0.0
 10
33.37247309646406
 20
4.607303274988023
 30
0.0
 10
32.91448092126237
 20
4.605642631216227
 30
0.0
 10
32.46023179001347
 20
4.608825276383743
 30
0.0
 10
32.03494664116263
 20
4.615661165410698
 30
0.0
 10
31.57841032889685
 20
4.626708540852506
 30
0.0
 10
31.01307475163459
 20
4.646204500908243
 30
0.0
 10
30.41414464894189
 20
4.674786733269475
 30
0.0
 10
29.84631620848119
 20
4.709263197475413
 30
0.0
 10
29.29997377029849
 20
4.74809303711295
 30
0.0
 10
28.76927879664458
 20
4.79171629766839
 30
0.0
 10
28.30331767998033
 20
4.834717431126901
 30
0.0
 10
27.90667484339614
 20
4.874501171715402
 30
0.0
 10
27.51678692855628
 20
4.916344509550336
 30
0.0
 10
27.05236537848106
 20
4.969964414493416
 30
0.0
 10
26.46668402699712
 20
5.042822143370581
 30
0.0
 10
25.73455627532763
 20
5.141695191802773
 30
0.0
 10
25.22137232631113
 20
5.220963398918125
 30
0.0
 10
24.93664289948141
 20
5.264943712840697
 30
0.0
  0
SPLINE
  5
A1
330
1F
100
AcDbEntity
  8
0
  6
Continuous
 62
     1
370
    15
100
AcDbSpline
210
0.0
220
0.0
230
1.0
 70
     8
 71
     3
 72
    29
 73
    25
 74
     0
 42
0.000000001
 43
0.00000001
 40
0.0
 40
0.0
 40
0.0
 40
0.0
 40
0.0689444636072773
 40
0.1318178395949528
 40
0.1856618288031433
 40
0.2282857185248865
 40
0.2625881756275491
 40
0.2910274720841488
 40
0.3182334693168277
 40
0.3570403396510109
 40
0.4026302865720944
 40
0.4391929959529473
 40
0.4690767756561778
 40
0.5130874420188808
 40
0.5635758546870036
 40
0.6066734049826737
 40
0.6441488992826646
 40
0.6801591937097109
 40
0.7294120478465863
 40
0.7843922720793067
 40
0.8295867580915773
 40
0.8671140468505908
 40
0.9224160941873366
 40
0.9999999999999999
 40
0.9999999999999999
 40
0.9999999999999999
 40
0.9999999999999999
 10
8.790502050267325
 20
-5.824964682290049
 30
0.0
 10
9.020161245931154
 20
-5.802011578292683
 30
0.0
 10
9.459256387608704
 20
-5.758126566754042
 30
0.0
 10
10.12598595821144
 20
-5.701593100795622
 30
0.0
 10
10.69207173685112
 20
-5.657836121564827
 30
0.0
 10
11.15502042788943
 20
-5.624988037291272
 30
0.0
 10
11.52438968111482
 20
-5.600895363952075
 30
0.0
 10
11.84008645556755
 20
-5.58172689921614
 30
0.0
 10
12.17156054041522
 20
-5.563016136686176
 30
0.0
 10
12.56397552818853
 20
-5.542915726739811
 30
0.0
 10
12.98938169028925
 20
-5.523928919941906
 30
0.0
 10
13.38328120047671
 20
-5.508870546190177
 30
0.0
 10
13.77144462851282
 20
-5.49604261416679
 30
0.0
 10
14.20848262585151
 20
-5.484121905970071
 30
0.0
 10
14.69179521503444
 20
-5.474547211589992
 30
0.0
 10
15.15237097336921
 20
-5.468910341460473
 30
0.0
 10
15.56205649230349
 20
-5.46653116505514
 30
0.0
 10
15.9932312325064
 20
-5.466556656828757
 30
0.0
 10
16.48587699561367
 20
-5.46993139856787
 30
0.0
 10
17.01076436405496
 20
-5.477944087590168
 30
0.0
 10
17.49576503050988
 20
-5.489202530563444
 30
0.0
 10
17.9839168451693
 20
-5.503757084102121
 30
0.0
 10
18.58146524240716
 20
-5.525566701341043
 30
0.0
 10
19.04669245743701
 20
-5.548872159273731
 30
0.0
 10
19.31830991268287
 20
-5.562478777658277
 30
0.0
  0
SPLINE
  5
A2
330
1F
100
AcDbEntity
  8
0
  6
Continuous
 62
     1
370
    15
100
AcDbSpline
210
0.0
220
0.0
230
1.0
 70
     8
 71
     3
 72
    17
 73
    13
 74
     0
 42
0.000000001
 43
0.00000001
 40
0.0
 40
0.0
 40
0.0
 40
0.0
 40
0.1692091310650203
 40
0.304975186641073
 40
0.4133970970236565
 40
0.4981535367191378
 40
0.5680601425370735
 40
0.6371440755474066
 40
0.7249088021099559
 40
0.8346145116684147
 40
0.9403278174041234
 40
1.0
 40
1.0
 40
1.0
 40
1.0
 10
24.93664289948141
 20
-5.264943712840685
 30
0.0
 10
25.2213723167557
 20
-5.220963389452018
 30
0.0
 10
25.73455624854996
 20
-5.141695165275395
 30
0.0
 10
26.4666841031023
 20
-5.042822218764358
 30
0.0
 10
27.05236517514687
 20
-4.96996421305987
 30
0.0
 10
27.51678746773147
 20
-4.916345043685653
 30
0.0
 10
27.90667321482474
 20
-4.874499558366824
 30
0.0
 10
28.30332440891033
 20
-4.83472409715926
 30
0.0
 10
28.76924243490309
 20
-4.791680275812647
 30
0.0
 10
29.30014345377571
 20
-4.748261134500027
 30
0.0
 10
29.77557077042942
 20
-4.713768646103988
 30
0.0
 10
30.05935771912618
 20
-4.697087287330745
 30
0.0
 10
30.16174993498375
 20
-4.691068542296304
 30
0.0
  0
LINE
  5
A3
330
1F
100
AcDbEntity
  8
0
  6
Continuous
 62
     1
370
    15
100
AcDbLine
 10
4.767089569785865
 20
-6.999999999999999
 30
0.0
 11
5.567268574691742
 21
-6.999999999999999
 31
0.0
  0
LINE
  5
A4
330
1F
100
AcDbEntity
  8
0
  6
Continuous
 62
     4
370
    15
100
AcDbLine
 10
1.999999999999991
 20
8.0
 30
0.0
 11
1.999999999999991
 21
-7.999999999999994
 31
0.0
  0
LINE
  5
A5
330
1F
100
AcDbEntity
  8
0
  6
Continuous
 62
     4
370
    15
100
AcDbLine
 10
-59.23291043021414
 20
7.999999999999993
 30
0.0
 11
-59.23291043021414
 21
-7.999999999999996
 31
0.0
  0
LINE
  5
A6
330
1F
100
AcDbEntity
  8
0
  6
Continuous
 62
     4
370
    15
100
AcDbLine
 10
3.767089569785869
 20
7.000000000000005
 30
0.0
 11
3.767089569785869
 21
6.939863559395561
 31
0.0
1001
PE_URL
1000

  0
SPLINE
  5
A7
330
1F
100
AcDbEntity
  8
0
  6
Continuous
 62
     4
370
    15
100
AcDbSpline
210
0.0
220
0.0
230
1.0
 70
     8
 71
     3
 72
     8
 73
     4
 74
     0
 42
0.000000001
 43
0.00000001
 40
0.0
 40
0.0
 40
0.0
 40
0.0
 40
1.0
 40
1.0
 40
1.0
 40
1.0
 10
2.737037270353447
 20
7.262965382899774
 30
0.0
 10
3.080771829515719
 20
7.160922581127429
 30
0.0
 10
3.42411384852381
 20
7.053277948016111
 30
0.0
 10
3.767089569785869
 20
6.939863559395562
 30
0.0
1001
PE_URL
1000

  0
LINE
  5
A8
330
1F
100
AcDbEntity
  8
0
  6
Continuous
 62
     4
370
    15
100
AcDbLine
 10
2.737037270353447
 20
-7.106448758584209
 30
0.0
 11
2.737037270353447
 21
7.26297178841971
 31
0.0
1001
PE_URL
1000

  0
SPLINE
  5
A9
330
1F
100
AcDbEntity
  8
0
  6
Continuous
 62
     4
370
    15
100
AcDbSpline
210
0.0
220
0.0
230
1.0
 70
     8
 71
     3
 72
     8
 73
     4
 74
     0
 42
0.000000001
 43
0.00000001
 40
0.0
 40
0.0
 40
0.0
 40
0.0
 40
1.0
 40
1.0
 40
1.0
 40
1.0
 10
3.767089569785869
 20
-6.922809126685348
 30
0.0
 10
3.422900338648702
 20
-6.990446884839128
 30
0.0
 10
3.079533063910372
 20
-7.051815017014923
 30
0.0
 10
2.736982456567418
 20
-7.10650343766386
 30
0.0
1001
PE_URL
1000

  0
LINE
  5
AA
330
1F
100
AcDbEntity
  8
0
  6
Continuous
 62
     4
370
    15
100
AcDbLine
 10
3.767089569785869
 20
-6.922809126685348
 30
0.0
 11
3.767089569785869
 21
-6.999999999999995
 31
0.0
1001
PE_URL
1000

  0
LINE
  5
AB
330
1F
100
AcDbEntity
  8
0
  6
Continuous
 62
     4
370
    15
100
AcDbLine
 10
-60.23291043021414
 20
6.999999999999994
 30
0.0
 11
-60.23291043021414
 21
-7.000000000000004
 31
0.0
  0
SPLINE
  5
AC
330
1F
100
AcDbEntity
  8
0
  6
Continuous
 62
     4
370
    15
100
AcDbSpline
210
0.0
220
0.0
230
1.0
 70
     8
 71
     3
 72
    10
 73
     6
 74
     0
 42
0.000000001
 43
0.00000001
 40
0.0
 40
0.0
 40
0.0
 40
0.0
 40
0.5
 40
0.5
 40
1.0
 40
1.0
 40
1.0
 40
1.0
 10
4.767089569785879
 20
-5.902585391349517
 30
0.0
 10
4.428571289341503
 20
-5.881656094136988
 30
0.0
 10
4.092591957735927
 20
-5.853895931482328
 30
0.0
 10
3.416020057528948
 20
-5.784652578227134
 30
0.0
 10
3.076317346396596
 20
-5.743170110157194
 30
0.0
 10
2.736982456567414
 20
-5.695024080605317
 30
0.0
  0
SPLINE
  5
AD
330
1F
100
AcDbEntity
  8
0
  6
Continuous
 62
     4
370
    15
100
AcDbSpline
210
0.0
220
0.0
230
1.0
 70
     8
 71
     3
 72
    10
 73
     6
 74
     0
 42
0.000000001
 43
0.00000001
 40
0.0
 40
0.0
 40
0.0
 40
0.0
 40
0.5
 40
0.5
 40
1.0
 40
1.0
 40
1.0
 40
1.0
 10
4.767089569785862
 20
-1.412113747464872
 30
0.0
 10
4.428577075643428
 20
-1.260825042568307
 30
0.0
 10
4.092603474033211
 20
-1.108267784156747
 30
0.0
 10
3.416043235213417
 20
-0.8002295109589456
 30
0.0
 10
3.076346372914644
 20
-0.6448785651210449
 30
0.0
 10
2.737017258130281
 20
-0.489009781077773
 30
0.0
  0
SPLINE
  5
AE
330
1F
100
AcDbEntity
  8
0
  6
Continuous
 62
     1
370
    15
100
AcDbSpline
210
0.0
220
0.0
230
1.0
 70
    24
 71
     3
 72
    14
 73
    10
 74
     0
 42
0.000000001
 43
0.00000001
 40
0.0
 40
0.0
 40
0.0
 40
0.0
 40
0.2500000000000001
 40
0.2500000000000001
 40
0.5000000000000002
 40
0.5000000000000002
 40
0.7500000000000001
 40
0.7500000000000001
 40
1.0
 40
1.0
 40
1.0
 40
1.0
 10
4.767089569785862
 20
-1.412113747464872
 30
0.0
 10
4.767089569785862
 20
-1.915286180308362
 30
0.0
 10
4.767089569785862
 20
-2.409606137146761
 30
0.0
 10
4.767089569785862
 20
-3.342063145283978
 30
0.0
 10
4.767089569785862
 20
-3.779888213118296
 30
0.0
 10
4.767089569785862
 20
-4.564709390021224
 30
0.0
 10
4.767089569785862
 20
-4.911478866558048
 30
0.0
 10
4.767089569785862
 20
-5.492534898825769
 30
0.0
 10
4.767089569785862
 20
-5.726786178903011
 30
0.0
 10
4.767089569785862
 20
-5.902585391349514
 30
0.0
  0
SPLINE
  5
AF
330
1F
100
AcDbEntity
  8
0
  6
Continuous
 62
     4
370
    15
100
AcDbSpline
210
0.0
220
0.0
230
1.0
 70
     8
 71
     3
 72
    10
 73
     6
 74
     0
 42
0.000000001
 43
0.00000001
 40
0.0
 40
0.0
 40
0.0
 40
0.0
 40
0.5
 40
0.5
 40
1.0
 40
1.0
 40
1.0
 40
1.0
 10
4.767089569785862
 20
4.741655175553838
 30
0.0
 10
4.428578207863502
 20
4.776150550653986
 30
0.0
 10
4.092605727455497
 20
4.805030563878318
 30
0.0
 10
3.416047770448158
 20
4.851641099695268
 30
0.0
 10
3.076352052605253
 20
4.869326641202925
 30
0.0
 10
2.737024067838846
 20
4.881281933895353
 30
0.0
  0
SPLINE
  5
B0
330
1F
100
AcDbEntity
  8
0
  6
Continuous
 62
     1
370
    15
100
AcDbSpline
210
0.0
220
0.0
230
1.0
 70
    24
 71
     3
 72
    14
 73
    10
 74
     0
 42
0.000000001
 43
0.00000001
 40
0.0
 40
0.0
 40
0.0
 40
0.0
 40
0.25
 40
0.25
 40
0.5
 40
0.5
 40
0.75
 40
0.75
 40
1.0
 40
1.0
 40
1.0
 40
1.0
 10
4.767089569785846
 20
4.74165517555384
 30
0.0
 10
4.767089569785847
 20
4.461127006091794
 30
0.0
 10
4.767089569785846
 20
4.103805176192924
 30
0.0
 10
4.767089569785847
 20
3.248425607037868
 30
0.0
 10
4.767089569785847
 20
2.750510032209207
 30
0.0
 10
4.767089569785847
 20
1.65680787459952
 30
0.0
 10
4.767089569785847
 20
1.061604062053811
 30
0.0
 10
4.767089569785847
 20
-0.1644751272614691
 30
0.0
 10
4.767089569785846
 20
-0.7946876719849794
 30
0.0
 10
4.767089569785846
 20
-1.412113747464865
 30
0.0
  0
SPLINE
  5
B1
330
1F
100
AcDbEntity
  8
0
  6
Continuous
 62
     4
370
    15
100
AcDbSpline
210
0.0
220
0.0
230
1.0
 70
     8
 71
     3
 72
     8
 73
     4
 74
     0
 42
0.000000001
 43
0.00000001
 40
0.0
 40
0.0
 40
0.0
 40
0.0
 40
1.0
 40
1.0
 40
1.0
 40
1.0
 10
4.767089569785862
 20
-6.984750284093809
 30
0.0
 10
4.432835629081435
 20
-6.972019807633015
 30
0.0
 10
4.101078636356904
 20
-6.95137964707923
 30
0.0
 10
3.767089569785865
 20
-6.922809126685348
 30
0.0
1001
PE_URL
1000

  0
SPLINE
  5
B2
330
1F
100
AcDbEntity
  8
0
  6
Continuous
 62
     1
370
    15
100
AcDbSpline
210
0.0
220
0.0
230
1.0
 70
    24
 71
     3
 72
     8
 73
     4
 74
     0
 42
0.000000001
 43
0.00000001
 40
0.0
 40
0.0
 40
0.0
 40
0.0
 40
1.0
 40
1.0
 40
1.0
 40
1.0
 10
4.767089569785869
 20
-5.902585391349517
 30
0.0
 10
4.767089569785869
 20
-6.269013862696758
 30
0.0
 10
4.767089569785869
 20
-6.63207918569635
 30
0.0
 10
4.767089569785869
 20
-6.984750284085921
 30
0.0
  0
SPLINE
  5
B3
330
1F
100
AcDbEntity
  8
0
  6
Continuous
 62
     4
370
    15
100
AcDbSpline
210
0.0
220
0.0
230
1.0
 70
     8
 71
     3
 72
     8
 73
     4
 74
     0
 42
0.000000001
 43
0.00000001
 40
0.0
 40
0.0
 40
0.0
 40
0.0
 40
1.0
 40
1.0
 40
1.0
 40
1.0
 10
3.767089569785869
 20
6.939863559395561
 30
0.0
 10
4.101078636356908
 20
6.914630502897241
 30
0.0
 10
4.432835629081438
 20
6.881567418118548
 30
0.0
 10
4.767089569785869
 20
6.840624904494398
 30
0.0
  0
SPLINE
  5
B4
330
1F
100
AcDbEntity
  8
0
  6
Continuous
 62
     4
370
    15
100
AcDbSpline
210
0.0
220
0.0
230
1.0
 70
    24
 71
     3
 72
    10
 73
     6
 74
     0
 42
0.000000001
 43
0.00000001
 40
0.0
 40
0.0
 40
0.0
 40
0.0
 40
0.5
 40
0.5
 40
1.0
 40
1.0
 40
1.0
 40
1.0
 10
4.767089569785869
 20
6.840624904494388
 30
0.0
 10
4.767089569785869
 20
6.524003377759662
 30
0.0
 10
4.767089569785869
 20
6.164408373966687
 30
0.0
 10
4.767089569785869
 20
5.437571861411
 30
0.0
 10
4.767089569785869
 20
5.072325442721031
 30
0.0
 10
4.767089569785869
 20
4.741655175553838
 30
0.0
  0
LINE
  5
B5
330
1F
100
AcDbEntity
  8
0
  6
Continuous
 62
     1
370
    15
100
AcDbLine
 10
4.767089569785865
 20
7.000000000000005
 30
0.0
 11
4.767089569785865
 21
6.840624904494396
 31
0.0
  0
LINE
  5
B6
330
1F
100
AcDbEntity
  8
0
  6
Continuous
 62
     1
370
    15
100
AcDbLine
 10
4.767089569785865
 20
-6.984750284093807
 30
0.0
 11
4.767089569785865
 21
-6.999999999999995
 31
0.0
  0
SPLINE
  5
B7
330
1F
100
AcDbEntity
  8
0
  6
Continuous
 62
     1
370
    15
100
AcDbSpline
210
0.0
220
0.0
230
1.0
 70
     8
 71
     3
 72
    58
 73
    54
 74
     0
 42
0.000000001
 43
0.00000001
 40
0.0
 40
0.0
 40
0.0
 40
0.0
 40
0.03125
 40
0.03125
 40
0.0625
 40
0.0625
 40
0.125
 40
0.125
 40
0.15625
 40
0.15625
 40
0.1875
 40
0.1875
 40
0.21875
 40
0.21875
 40
0.25
 40
0.25
 40
0.28125
 40
0.28125
 40
0.3125
 40
0.3125
 40
0.3749999999999999
 40
0.3749999999999999
 40
0.4062499999999999
 40
0.4062499999999999
 40
0.4374999999999999
 40
0.4374999999999999
 40
0.4687499999999999
 40
0.4687499999999999
 40
0.4999999999999999
 40
0.4999999999999999
 40
0.5624999999999996
 40
0.5624999999999996
 40
0.6249999999999993
 40
0.6249999999999993
 40
0.6562499999999993
 40
0.6562499999999993
 40
0.6874999999999993
 40
0.6874999999999993
 40
0.7187499999999993
 40
0.7187499999999993
 40
0.7499999999999993
 40
0.7499999999999993
 40
0.8124999999999993
 40
0.8124999999999993
 40
0.8437499999999994
 40
0.8437499999999994
 40
0.8749999999999996
 40
0.8749999999999996
 40
0.9062499999999997
 40
0.9062499999999997
 40
0.9374999999999998
 40
0.9374999999999998
 40
1.0
 40
1.0
 40
1.0
 40
1.0
 10
4.767089569785869
 20
6.8406249044944
 30
0.0
 10
5.131698771729509
 20
6.795964197767627
 30
0.0
 10
5.497772682496747
 20
6.741946729677978
 30
0.0
 10
6.228386336266531
 20
6.615822018328041
 30
0.0
 10
6.591556010387251
 20
6.543819797955138
 30
0.0
 10
7.681873832925195
 20
6.301533043416702
 30
0.0
 10
8.417462194272655
 20
6.10409767400361
 30
0.0
 10
9.507196557371964
 20
5.761274882726346
 30
0.0
 10
9.870760085236714
 20
5.639019279344926
 30
0.0
 10
10.60149965566099
 20
5.379116776910969
 30
0.0
 10
10.96753849373622
 20
5.241588986142609
 30
0.0
 10
11.69649210920699
 20
4.953092565948548
 30
0.0
 10
12.05834758723095
 20
4.802296130660962
 30
0.0
 10
12.78776392842235
 20
4.487313701817569
 30
0.0
 10
13.1538595311541
 20
4.32330932757977
 30
0.0
 10
13.88436113776046
 20
3.984256770458555
 30
0.0
 10
14.24725454018228
 20
3.809462127456651
 30
0.0
 10
14.97442965840827
 20
3.449829709348498
 30
0.0
 10
15.34011718763523
 20
3.264743955402336
 30
0.0
 10
16.43680774285878
 20
2.696986531302563
 30
0.0
 10
17.16134519247016
 20
2.302926646884058
 30
0.0
 10
18.25758609790896
 20
1.694644706013565
 30
0.0
 10
18.62359099063161
 20
1.48919299861632
 30
0.0
 10
19.3523224980623
 20
1.075424964068649
 30
0.0
 10
19.71423019715174
 20
0.8672714931176803
 30
0.0
 10
20.44383376786509
 20
0.4480759751301644
 30
0.0
 10
20.8099456405093
 20
0.2373337513527609
 30
0.0
 10
21.54032443887638
 20
-0.1838702290041925
 30
0.0
 10
21.90297354880911
 20
-0.3940193279852829
 30
0.0
 10
22.99416518390415
 20
-1.022638237996567
 30
0.0
 10
23.72971764462037
 20
-1.439953546328299
 30
0.0
 10
25.18139379811866
 20
-2.250880149594859
 30
0.0
 10
25.91538760854569
 20
-2.647797586329105
 30
0.0
 10
27.00813569632832
 20
-3.216981157249079
 30
0.0
 10
27.37012764391409
 20
-3.402224678377514
 30
0.0
 10
28.09990772717991
 20
-3.763968928255464
 30
0.0
 10
28.46603044687966
 20
-3.940171921974034
 30
0.0
 10
29.19627568196717
 20
-4.281083825125063
 30
0.0
 10
29.55871249056898
 20
-4.445550899679313
 30
0.0
 10
30.28644894045873
 20
-4.762449628949077
 30
0.0
 10
30.65226389692251
 20
-4.914932348209942
 30
0.0
 10
31.74886929249299
 20
-5.351603368429677
 30
0.0
 10
32.47329961981495
 20
-5.614369046047496
 30
0.0
 10
33.56975512229234
 20
-5.961965815255637
 30
0.0
 10
33.93567587356086
 20
-6.069918835782915
 30
0.0
 10
34.66393115371027
 20
-6.26874431578835
 30
0.0
 10
35.02603937310067
 20
-6.359632639676158
 30
0.0
 10
35.75598524328545
 20
-6.524394174521693
 30
0.0
 10
36.12211338664715
 20
-6.598100473123224
 30
0.0
 10
36.85221430997748
 20
-6.727261338779701
 30
0.0
 10
37.21447081879165
 20
-6.782651641496594
 30
0.0
 10
38.30647259514667
 20
-6.921345527913868
 30
0.0
 10
39.0419451221914
 20
-6.976811232818701
 30
0.0
 10
39.76708956978588
 20
-6.994083706607501
 30
0.0
  0
SPLINE
  5
B8
330
1F
100
AcDbEntity
  8
0
  6
Continuous
 62
     1
370
    15
100
AcDbSpline
210
0.0
220
0.0
230
1.0
 70
     8
 71
     3
 72
    15
 73
    11
 74
     0
 42
0.000000001
 43
0.00000001
 40
0.0
 40
0.0
 40
0.0
 40
0.0
 40
0.0635872444658345
 40
0.1950353702115726
 40
0.3265035999110497
 40
0.4579978669965287
 40
0.5895069801208874
 40
0.7263463483984907
 40
0.8631769697032091
 40
1.0
 40
1.0
 40
1.0
 40
1.0
 10
22.37300936435697
 20
-0.6617733281613852
 30
0.0
 10
21.99985283388151
 20
-0.5129708877111698
 30
0.0
 10
20.8553037552176
 20
-0.0565626991602935
 30
0.0
 10
18.93921864632266
 20
0.723546759899114
 30
0.0
 10
16.62459048527615
 20
1.634700936343654
 30
0.0
 10
14.3095506361892
 20
2.487554361957083
 30
0.0
 10
11.9629511471663
 20
3.260870065585641
 30
0.0
 10
9.585077776422235
 20
3.917498396519132
 30
0.0
 10
7.176026359878215
 20
4.441947370278046
 30
0.0
 10
5.570053650204738
 20
4.641754421309304
 30
0.0
 10
4.767089569785862
 20
4.741655175553838
 30
0.0
  0
SPLINE
  5
B9
330
1F
100
AcDbEntity
  8
0
  6
Continuous
 62
     4
370
    15
100
AcDbSpline
210
0.0
220
0.0
230
1.0
 70
    24
 71
     3
 72
    10
 73
     6
 74
     0
 42
0.000000001
 43
0.00000001
 40
0.0
 40
0.0
 40
0.0
 40
0.0
 40
0.5
 40
0.5
 40
1.0
 40
1.0
 40
1.0
 40
1.0
 10
4.767089569785869
 20
6.840624904494388
 30
0.0
 10
4.767089569785869
 20
6.524003377759661
 30
0.0
 10
4.767089569785869
 20
6.164408373966686
 30
0.0
 10
4.767089569785869
 20
5.437571861410999
 30
0.0
 10
4.767089569785869
 20
5.072325442721031
 30
0.0
 10
4.767089569785869
 20
4.741655175553838
 30
0.0
  0
SPLINE
  5
BA
330
1F
100
AcDbEntity
  8
0
  6
Continuous
 62
     1
370
    15
100
AcDbSpline
210
0.0
220
0.0
230
1.0
 70
     8
 71
     3
 72
    23
 73
    19
 74
     0
 42
0.000000001
 43
0.00000001
 40
0.0
 40
0.0
 40
0.0
 40
0.0
 40
0.0642142170922882
 40
0.1284011841133289
 40
0.1925709884278352
 40
0.2567337827539389
 40
0.3208997465476898
 40
0.383934267172985
 40
0.4469993084160502
 40
0.5100740795525224
 40
0.5731154314450824
 40
0.6374248665717334
 40
0.7017281208240175
 40
0.7660349541876795
 40
0.8303551133680812
 40
0.8946982956835595
 40
0.9590599319533957
 40
0.9999999999999999
 40
0.9999999999999999
 40
0.9999999999999999
 40
0.9999999999999999
 10
39.76708956978586
 20
-6.64258608462329
 30
0.0
 10
39.03497355640625
 20
-6.488296587167696
 30
0.0
 10
37.57105221183594
 20
-6.179783066850585
 30
0.0
 10
35.37577586426957
 20
-5.456694644926584
 30
0.0
 10
33.18118368404512
 20
-4.570900751739988
 30
0.0
 10
30.98688879373776
 20
-3.531568390429553
 30
0.0
 10
28.80549373155007
 20
-2.384768054849263
 30
0.0
 10
26.63659077431127
 20
-1.168251869683331
 30
0.0
 10
24.47984961063162
 20
0.0776149551867061
 30
0.0
 10
22.32290861106086
 20
1.320889568128765
 30
0.0
 10
20.1521485969808
 20
2.531008156726812
 30
0.0
 10
17.96741064566171
 20
3.667570174780525
 30
0.0
 10
15.76831127066072
 20
4.691492219114972
 30
0.0
 10
13.56905971585343
 20
5.560744135482822
 30
0.0
 10
11.36926143983601
 20
6.250028997967211
 30
0.0
 10
9.168687502613505
 20
6.724661375769745
 30
0.0
 10
7.234438628898282
 20
6.978675254122279
 30
0.0
 10
6.033989227495631
 20
6.97484326397428
 30
0.0
 10
5.567268574691759
 20
6.973353431132244
 30
0.0
  0
SPLINE
  5
BB
330
1F
100
AcDbEntity
  8
0
  6
Continuous
 62
     1
370
    15
100
AcDbSpline
210
0.0
220
0.0
230
1.0
 70
     8
 71
     3
 72
    15
 73
    11
 74
     0
 42
0.000000001
 43
0.00000001
 40
0.0
 40
0.0
 40
0.0
 40
0.0
 40
0.127308684613632
 40
0.2545915795820399
 40
0.3818541922516785
 40
0.5091020635182185
 40
0.6363407587088117
 40
0.7635758583786679
 40
0.890812949054131
 40
0.9999999999999999
 40
0.9999999999999999
 40
0.9999999999999999
 40
0.9999999999999999
 10
39.76708956978587
 20
-5.522805850577506
 30
0.0
 10
38.99532719771956
 20
-5.362503938466215
 30
0.0
 10
37.45195879388559
 20
-5.041932587514841
 30
0.0
 10
35.13719947026177
 20
-4.32410183541293
 30
0.0
 10
32.82285754255894
 20
-3.463601984291226
 30
0.0
 10
30.50882494327368
 20
-2.473588074667499
 30
0.0
 10
28.19498372705178
 20
-1.394339517865912
 30
0.0
 10
25.88121683862025
 20
-0.2658596009282928
 30
0.0
 10
23.67686913842255
 20
0.8243377371173646
 30
0.0
 10
22.24374783444384
 20
1.501281360418294
 30
0.0
 10
21.58189372869962
 20
1.813912199967764
 30
0.0
  0
LINE
  5
BC
330
1F
100
AcDbEntity
  8
0
  6
Continuous
 62
     1
370
    15
100
AcDbLine
 10
39.76708956978587
 20
-6.642586084623295
 30
0.0
 11
39.76708956978587
 21
-5.522805850577506
 31
0.0
  0
LINE
  5
BD
330
1F
100
AcDbEntity
  8
0
  6
Continuous
 62
     1
370
    15
100
AcDbLine
 10
39.76708956978588
 20
-6.994083706607503
 30
0.0
 11
39.76708956978587
 21
-6.642586084623296
 31
0.0
  0
SPLINE
  5
BE
330
1F
100
AcDbEntity
  8
0
  6
Continuous
 62
     1
370
    15
100
AcDbSpline
210
0.0
220
0.0
230
1.0
 70
     8
 71
     3
 72
     8
 73
     4
 74
     0
 42
0.000000001
 43
0.00000001
 40
0.0
 40
0.0
 40
0.0
 40
0.0
 40
1.0
 40
1.0
 40
1.0
 40
1.0
 10
35.43602901765307
 20
1.957814097821566
 30
0.0
 10
35.18367109988478
 20
2.256741973958845
 30
0.0
 10
34.95836145390367
 20
2.544766358140582
 30
0.0
 10
34.76708956979206
 20
2.819069700710162
 30
0.0
  0
LINE
  5
BF
330
1F
100
AcDbEntity
  8
0
  6
Continuous
 62
     1
370
    15
100
AcDbLine
 10
34.76708956978586
 20
2.937719435296597
 30
0.0
 11
39.76708956978587
 21
0.0000000000000083
 31
0.0
  0
LINE
  5
C0
330
1F
100
AcDbEntity
  8
0
  6
Continuous
 62
     1
370
    15
100
AcDbLine
 10
39.76708956978587
 20
0.0000000000000083
 30
0.0
 11
39.76708956978587
 21
-1.870700622207505
 31
0.0
  0
SPLINE
  5
C1
330
1F
100
AcDbEntity
  8
0
  6
Continuous
 62
     1
370
    15
100
AcDbSpline
210
0.0
220
0.0
230
1.0
 70
     8
 71
     3
 72
    12
 73
     8
 74
     0
 42
0.000000001
 43
0.00000001
 40
0.0
 40
0.0
 40
0.0
 40
0.0
 40
0.5000000000000013
 40
0.5000000000000013
 40
0.7500000000000007
 40
0.7500000000000007
 40
1.0
 40
1.0
 40
1.0
 40
1.0
 10
39.76708956978587
 20
-1.870700622207505
 30
0.0
 10
39.01737002782847
 20
-1.281295658585779
 30
0.0
 10
38.28017322420416
 20
-0.6677266902608325
 30
0.0
 10
37.19365059672117
 20
0.2898153268938095
 30
0.0
 10
36.83474019846811
 20
0.6152938823799559
 30
0.0
 10
36.12424991457289
 20
1.280396025891964
 30
0.0
 10
35.77460206446693
 20
1.618303437966512
 30
0.0
 10
35.43602901765306
 20
1.957814097821574
 30
0.0
  0
SPLINE
  5
C2
330
1F
100
AcDbEntity
  8
0
  6
Continuous
 62
     1
370
    15
100
AcDbSpline
210
0.0
220
0.0
230
1.0
 70
     8
 71
     3
 72
    14
 73
    10
 74
     0
 42
0.000000001
 43
0.00000001
 40
0.0
 40
0.0
 40
0.0
 40
0.0
 40
0.1528348345098095
 40
0.3056682430447381
 40
0.4492164645101716
 40
0.5927605730228338
 40
0.7363069596081854
 40
0.8798620114933119
 40
1.0
 40
1.0
 40
1.0
 40
1.0
 10
35.43602901765306
 20
1.957814097821574
 30
0.0
 10
34.61481991968123
 20
2.305379547700122
 30
0.0
 10
32.97240938575747
 20
3.000507204612725
 30
0.0
 10
30.55863447094707
 20
3.880008771790687
 30
0.0
 10
28.19500327832055
 20
4.597320356899968
 30
0.0
 10
25.88122811434739
 20
5.132613970810527
 30
0.0
 10
23.56742368443347
 20
5.476228777381942
 30
0.0
 10
21.37936061077612
 20
5.632871250681656
 30
0.0
 10
19.96253332518148
 20
5.574909467360926
 30
0.0
 10
19.31702982649296
 20
5.54850220212531
 30
0.0
  0
SPLINE
  5
C3
330
1F
100
AcDbEntity
  8
0
  6
Continuous
 62
     1
370
    15
100
AcDbSpline
210
0.0
220
0.0
230
1.0
 70
    24
 71
     3
 72
    10
 73
     6
 74
     0
 42
0.000000001
 43
0.00000001
 40
0.0
 40
0.0
 40
0.0
 40
0.0
 40
0.5
 40
0.5
 40
1.0
 40
1.0
 40
1.0
 40
1.0
 10
39.76708956978587
 20
-5.522805850577504
 30
0.0
 10
39.76708956978587
 20
-5.099439723026626
 30
0.0
 10
39.76708956978588
 20
-4.564500387345273
 30
0.0
 10
39.76708956978586
 20
-3.320817914054752
 30
0.0
 10
39.76708956978587
 20
-2.61315210135916
 30
0.0
 10
39.76708956978587
 20
-1.870700622207729
 30
0.0
  0
SPLINE
  5
C4
330
1F
100
AcDbEntity
  8
0
  6
Continuous
 62
     1
370
    15
100
AcDbSpline
210
0.0
220
0.0
230
1.0
 70
    24
 71
     3
 72
     8
 73
     4
 74
     0
 42
0.000000001
 43
0.00000001
 40
0.0
 40
0.0
 40
0.0
 40
0.0
 40
1.0
 40
1.0
 40
1.0
 40
1.0
 10
34.76708956978588
 20
2.819069700709573
 30
0.0
 10
34.76708956978588
 20
2.908476784845314
 30
0.0
 10
34.76708956978586
 20
2.995514202061703
 30
0.0
 10
34.76708956978586
 20
3.079907577329861
 30
0.0
  0
SPLINE
  5
C5
330
1F
100
AcDbEntity
  8
0
  6
Continuous
 62
     1
370
    15
100
AcDbSpline
210
0.0
220
0.0
230
1.0
 70
     8
 71
     3
 72
     9
 73
     5
 74
     0
 42
0.000000001
 43
0.00000001
 40
0.0
 40
0.0
 40
0.0
 40
0.0
 40
0.8891827938012989
 40
1.0
 40
1.0
 40
1.0
 40
1.0
 10
39.76708956978588
 20
4.900000000000007
 30
0.0
 10
38.99532572346078
 20
4.896236445628439
 30
0.0
 10
38.12737837708245
 20
4.892003846439828
 30
0.0
 10
37.25945932870632
 20
4.789456626604599
 30
0.0
 10
37.16327896455864
 20
4.778092630199014
 30
0.0
  0
SPLINE
  5
C6
330
1F
100
AcDbEntity
  8
0
  6
Continuous
 62
     1
370
    15
100
AcDbSpline
210
0.0
220
0.0
230
1.0
 70
     8
 71
     3
 72
    10
 73
     6
 74
     0
 42
0.000000001
 43
0.00000001
 40
0.0
 40
0.0
 40
0.0
 40
0.0
 40
0.5
 40
0.5
 40
1.0
 40
1.0
 40
1.0
 40
1.0
 10
39.76708956978587
 20
4.900000000000007
 30
0.0
 10
38.91923194837792
 20
4.670048856844462
 30
0.0
 10
38.07682455944862
 20
4.406806050126997
 30
0.0
 10
36.40711278590038
 20
3.806841720755541
 30
0.0
 10
35.57978891957345
 20
3.470463921901173
 30
0.0
 10
34.76708956978587
 20
3.079907577329801
 30
0.0
  0
SPLINE
  5
C7
330
1F
100
AcDbEntity
  8
0
  6
Continuous
 62
     1
370
    15
100
AcDbSpline
210
0.0
220
0.0
230
1.0
 70
     8
 71
     3
 72
     9
 73
     5
 74
     0
 42
0.000000001
 43
0.00000001
 40
0.0
 40
0.0
 40
0.0
 40
0.0
 40
0.401931579648566
 40
1.0
 40
1.0
 40
1.0
 40
1.0
 10
8.794877323066775
 20
-5.798929652963611
 30
0.0
 10
8.255242213276976
 20
-5.854608848030825
 30
0.0
 10
6.912637807169769
 20
-5.993137886022556
 30
0.0
 10
5.570049335950209
 20
-5.936474170301846
 30
0.0
 10
4.767089569785879
 20
-5.902585391349517
 30
0.0
  0
SPLINE
  5
C8
330
1F
100
AcDbEntity
  8
0
  6
Continuous
 62
     1
370
    15
100
AcDbSpline
210
0.0
220
0.0
230
1.0
 70
     8
 71
     3
 72
    16
 73
    12
 74
     0
 42
0.000000001
 43
0.00000001
 40
0.0
 40
0.0
 40
0.0
 40
0.0
 40
0.0683463458973
 40
0.1830182790814373
 40
0.2977022247054589
 40
0.4124032533628506
 40
0.5271264072617398
 40
0.6418621775494942
 40
0.7612485572130329
 40
0.8806275039037529
 40
0.9999999999999999
 40
0.9999999999999999
 40
0.9999999999999999
 40
0.9999999999999999
 10
24.94659782603275
 20
-5.240388845772124
 30
0.0
 10
24.48688814251321
 20
-5.315384889225946
 30
0.0
 10
23.25587463257012
 20
-5.516209770653543
 30
0.0
 10
21.253459097126
 20
-5.623415490936158
 30
0.0
 10
18.93922014591432
 20
-5.574654524934561
 30
0.0
 10
16.62459223595338
 20
-5.314914977426836
 30
0.0
 10
14.30954989412618
 20
-4.86425480098586
 30
0.0
 10
11.96294286804243
 20
-4.228100246492764
 30
0.0
 10
9.585072733027765
 20
-3.42098172645086
 30
0.0
 10
7.176022714621428
 20
-2.472636338863185
 30
0.0
 10
5.570052821348272
 20
-1.765614910488102
 30
0.0
 10
4.767089569785858
 20
-1.41211374746487
 30
0.0
  0
SPLINE
  5
C9
330
1F
100
AcDbEntity
  8
0
  6
Continuous
 62
     4
370
    15
100
AcDbSpline
210
0.0
220
0.0
230
1.0
 70
    24
 71
     3
 72
    14
 73
    10
 74
     0
 42
0.000000001
 43
0.00000001
 40
0.0
 40
0.0
 40
0.0
 40
0.0
 40
0.25
 40
0.25
 40
0.5
 40
0.5
 40
0.75
 40
0.75
 40
1.0
 40
1.0
 40
1.0
 40
1.0
 10
4.767089569785872
 20
-1.412113747464876
 30
0.0
 10
4.767089569785872
 20
-1.915286180308365
 30
0.0
 10
4.767089569785872
 20
-2.409606137146766
 30
0.0
 10
4.767089569785872
 20
-3.34206314528398
 30
0.0
 10
4.767089569785872
 20
-3.7798882131183
 30
0.0
 10
4.767089569785872
 20
-4.564709390021227
 30
0.0
 10
4.767089569785872
 20
-4.911478866558051
 30
0.0
 10
4.767089569785872
 20
-5.492534898825769
 30
0.0
 10
4.767089569785872
 20
-5.726786178903011
 30
0.0
 10
4.767089569785872
 20
-5.902585391349514
 30
0.0
  0
SPLINE
  5
CA
330
1F
100
AcDbEntity
  8
0
  6
Continuous
 62
     4
370
    15
100
AcDbSpline
210
0.0
220
0.0
230
1.0
 70
    24
 71
     3
 72
    14
 73
    10
 74
     0
 42
0.000000001
 43
0.00000001
 40
0.0
 40
0.0
 40
0.0
 40
0.0
 40
0.25
 40
0.25
 40
0.5
 40
0.5
 40
0.75
 40
0.75
 40
1.0
 40
1.0
 40
1.0
 40
1.0
 10
4.767089569785846
 20
4.74165517555384
 30
0.0
 10
4.767089569785847
 20
4.461127006091794
 30
0.0
 10
4.767089569785846
 20
4.103805176192924
 30
0.0
 10
4.767089569785847
 20
3.248425607037868
 30
0.0
 10
4.767089569785847
 20
2.750510032209207
 30
0.0
 10
4.767089569785847
 20
1.65680787459952
 30
0.0
 10
4.767089569785847
 20
1.061604062053811
 30
0.0
 10
4.767089569785847
 20
-0.1644751272614691
 30
0.0
 10
4.767089569785846
 20
-0.7946876719849794
 30
0.0
 10
4.767089569785846
 20
-1.412113747464865
 30
0.0
  0
LINE
  5
CB
330
1F
100
AcDbEntity
  8
0
  6
Continuous
 62
     1
370
    15
100
AcDbLine
 10
39.76708956978587
 20
0.0000000000000083
 30
0.0
 11
39.76708956978587
 21
4.900000000000007
 31
0.0
  0
SPLINE
  5
CC
330
1F
100
AcDbEntity
  8
0
  6
Continuous
 62
     1
370
    15
100
AcDbSpline
210
0.0
220
0.0
230
1.0
 70
     8
 71
     3
 72
    12
 73
     8
 74
     0
 42
0.000000001
 43
0.00000001
 40
0.0
 40
0.0
 40
0.0
 40
0.0
 40
0.008659793343799
 40
0.2564170157024273
 40
0.5042629217345614
 40
0.7521799112424127
 40
1.0
 40
1.0
 40
1.0
 40
1.0
 10
13.64607863076228
 20
-5.500430701924741
 30
0.0
 10
13.62045122195603
 20
-5.510541941707293
 30
0.0
 10
12.86162206456152
 20
-5.809936376096447
 30
0.0
 10
11.36925728983982
 20
-6.236679114217148
 30
0.0
 10
9.168685450712236
 20
-6.731147142984204
 30
0.0
 10
6.967690911858721
 20
-7.001119257239528
 30
0.0
 10
5.50052775597767
 20
-6.990205897404666
 30
0.0
 10
4.767089569783291
 20
-6.98475028409371
 30
0.0
  0
SPLINE
  5
CD
330
1F
100
AcDbEntity
  8
0
  6
Continuous
 62
     4
370
    15
100
AcDbSpline
210
0.0
220
0.0
230
1.0
 70
    24
 71
     3
 72
     8
 73
     4
 74
     0
 42
0.000000001
 43
0.00000001
 40
0.0
 40
0.0
 40
0.0
 40
0.0
 40
1.0
 40
1.0
 40
1.0
 40
1.0
 10
4.767089569785869
 20
-5.902585391349517
 30
0.0
 10
4.767089569785869
 20
-6.26901386269676
 30
0.0
 10
4.767089569785869
 20
-6.632079185696352
 30
0.0
 10
4.767089569785869
 20
-6.984750284085924
 30
0.0
  0
SPLINE
  5
CE
330
1F
100
AcDbEntity
  8
0
  6
Continuous
 62
     1
370
    15
100
AcDbSpline
210
0.0
220
0.0
230
1.0
 70
     8
 71
     3
 72
    14
 73
    10
 74
     0
 42
0.000000001
 43
0.00000001
 40
0.0
 40
0.0
 40
0.0
 40
0.0
 40
0.0285397163838728
 40
0.2382599622754152
 40
0.3435988193740648
 40
0.5059807453561302
 40
0.6690390275551631
 40
0.8341630290105936
 40
1.0
 40
1.0
 40
1.0
 40
1.0
 10
30.13570897918484
 20
4.692642659569828
 30
0.0
 10
30.22728970610241
 20
4.732780907696859
 30
0.0
 10
30.99183901861289
 20
5.067869643545414
 30
0.0
 10
32.09544809298805
 20
5.483815406318895
 30
0.0
 10
33.62839572271092
 20
5.98864406675553
 30
0.0
 10
35.01079865793808
 20
6.371165825593656
 30
0.0
 10
36.58668562536936
 20
6.697393731360425
 30
0.0
 10
38.17182235445702
 20
6.921331378947595
 30
0.0
 10
39.23457069283527
 20
6.969798127709683
 30
0.0
 10
39.76708956978548
 20
6.994083706607505
 30
0.0
  0
SPLINE
  5
CF
330
1F
100
AcDbEntity
  8
0
  6
Continuous
 62
     1
370
    15
100
AcDbSpline
210
0.0
220
0.0
230
1.0
 70
    24
 71
     3
 72
    10
 73
     6
 74
     0
 42
0.000000001
 43
0.00000001
 40
0.0
 40
0.0
 40
0.0
 40
0.0
 40
0.5
 40
0.5
 40
1.0
 40
1.0
 40
1.0
 40
1.0
 10
39.76708956978587
 20
4.900000000000007
 30
0.0
 10
39.76708956978587
 20
5.197025797651207
 30
0.0
 10
39.76708956978588
 20
5.542197282069828
 30
0.0
 10
39.76708956978588
 20
6.266366126725995
 30
0.0
 10
39.76708956978587
 20
6.643514050610314
 30
0.0
 10
39.76708956978587
 20
6.994083706607516
 30
0.0
  0
LINE
  5
D0
330
1F
100
AcDbEntity
  8
중심선
100
AcDbLine
 10
-63.23291043021412
 20
0.0
 30
0.0
 11
46.76708956978587
 21
0.0000000000000084
 31
0.0
  0
CIRCLE
  5
D1
330
1F
100
AcDbEntity
  8
외형선
100
AcDbCircle
 10
0.0
 20
0.0
 30
0.0
 40
3.000000000000004
  0
INSERT
  5
D2
330
1F
100
AcDbEntity
  8
0
  6
Continuous
 62
     7
100
AcDbBlockReference
 66
     1
  2
블럭10
 10
-27.20622263194275
 20
-52.04717430164393
 30
0.0
  0
ATTRIB
  5
D3
330
D2
100
AcDbEntity
  8
FORMAT
 62
     2
100
AcDbText
 10
-40.16616182680052
 20
-49.97180738881174
 30
0.0
 40
4.233333333333333
  1
SEME35140E [ 2 FLUTE ]
 41
0.75
  7
SLDTEXTSTYLE0
 11
-40.16616182680052
 21
-52.08847405547841
 31
0.0
100
AcDbAttribute
  2
AUTOATTR0
 70
     0
 74
     1
  0
SEQEND
  5
D4
330
D2
100
AcDbEntity
  8
0
  6
Continuous
 62
     7
  0
HATCH
  5
D5
330
1F
100
AcDbEntity
  8
중심선
100
AcDbHatch
 10
0.0
 20
0.0
 30
0.0
210
0.0
220
0.0
230
1.0
  2
SOLID
 70
     1
 71
     0
 91
        1
 92
        0
 93
        4
 72
     1
 10
-21.4913133275619
 20
-35.8
 11
-24.93758857139918
 21
-35.8
 72
     1
 10
-24.93758857139918
 20
-35.8
 11
-27.0658184306032
 21
-38.33632558057259
 72
     1
 10
-27.06581843060321
 20
-38.33632558057259
 11
-23.61951010165278
 21
-38.3362861512701
 72
     1
 10
-23.61951010165277
 20
-38.3362861512701
 11
-21.4913133275619
 21
-35.8
 97
        0
 75
     0
 76
     1
 98
        1
 10
-3.267949192431141
 20
0.0000000000000026
  0
HATCH
  5
D6
330
1F
100
AcDbEntity
  8
중심선
100
AcDbHatch
 10
0.0
 20
0.0
 30
0.0
210
0.0
220
0.0
230
1.0
  2
SOLID
 70
     1
 71
     0
 91
        1
 92
        0
 93
        4
 72
     1
 10
-16.47854933652595
 20
-35.8
 11
-19.92482458036323
 21
-35.8
 72
     1
 10
-19.92482458036323
 20
-35.8
 11
-24.45596258872062
 21
-41.20000000000002
 72
     1
 10
-24.45596258872062
 20
-41.20000000000002
 11
-21.00968734488334
 21
-41.20000000000002
 72
     1
 10
-21.00968734488334
 20
-41.20000000000002
 11
-16.47854933652595
 21
-35.8
 97
        0
 75
     0
 76
     1
 98
        1
 10
-3.267949192431141
 20
0.0000000000000026
  0
HATCH
  5
D7
330
1F
100
AcDbEntity
  8
중심선
100
AcDbHatch
 10
0.0
 20
0.0
 30
0.0
210
0.0
220
0.0
230
1.0
  2
SOLID
 70
     1
 71
     0
 91
        1
 92
        0
 93
        4
 72
     1
 10
-11.46578534549005
 20
-35.80000000000003
 11
-14.91206058932717
 21
-35.8
 72
     1
 10
-14.91206058932717
 20
-35.8
 11
-21.96049749121642
 21
-44.20000000000002
 72
     1
 10
-21.96049749121642
 20
-44.20000000000002
 11
-18.51422224737913
 21
-44.20000000000002
 72
     1
 10
-18.51422224737914
 20
-44.20000000000002
 11
-11.46578534549005
 21
-35.80000000000003
 97
        0
 75
     0
 76
     1
 98
        1
 10
-3.267949192431141
 20
0.0000000000000026
  0
HATCH
  5
D8
330
1F
100
AcDbEntity
  8
중심선
100
AcDbHatch
 10
0.0
 20
0.0
 30
0.0
210
0.0
220
0.0
230
1.0
  2
SOLID
 70
     1
 71
     0
 91
        1
 92
        0
 93
        6
 72
     3
 10
-6.665894914477855
 20
-40.00000000005127
 11
3.960054785062284
 21
1.540882976769353E-10
 40
0.3939339440162627
 50
17.09539180608439
 51
320.0019657685081
 73
     0
 72
     1
 10
-4.982895258777259
 20
-38.5878940046383
 11
-2.677593385076221
 21
-36.65356729459038
 72
     3
 10
-6.665894914530702
 20
-40.00000000000015
 11
6.600054785286829
 21
-1.278976924368180E-13
 40
0.636358354079598
 50
39.99873849337413
 51
368.4976242363724
 73
     1
 72
     1
 10
-0.2405624226300915
 20
-39.03999999993002
 11
-7.985827607694779
 21
-39.03999999992999
 72
     1
 10
-7.985827607694779
 20
-39.03999999992999
 11
-7.985852652140712
 21
-40.95999999992991
 72
     1
 10
-7.985852652140712
 20
-40.95999999992991
 11
-3.544472882668676
 21
-40.95999999992988
 97
        0
 75
     0
 76
     1
 98
        1
 10
-3.267949192431141
 20
0.0000000000000026
  0
DIMENSION
  5
D9
330
1F
100
AcDbEntity
  8
치수문자_일반주서
100
AcDbDimension
  2
_D
 10
4.767089569785867
 20
19.2447175951853
 30
0.0
 11
22.26708956978587
 21
19.2447175951853
 31
0.0
 70
   160
  1
<>
 71
     2
 42
35.00000000000001
  3
SLDDIMSTYLE0
100
AcDbAlignedDimension
 13
39.76708956978588
 23
6.994083706607516
 33
0.0
 14
4.767089569785865
 24
7.000000000000005
 34
0.0
100
AcDbRotatedDimension
  0
DIMENSION
  5
E4
330
1F
100
AcDbEntity
  8
치수문자_일반주서
100
AcDbDimension
  2
_D_1
 10
-60.23291043021414
 20
27.68415911661227
 30
0.0
 11
-10.23291043021412
 21
27.68415911661227
 31
0.0
 70
   160
  1
<>
 71
     2
 42
100.0
  3
SLDDIMSTYLE0
100
AcDbAlignedDimension
 13
39.76708956978587
 23
6.994083706607516
 33
0.0
 14
-60.23291043021414
 24
6.999999999999994
 34
0.0
 50
0.0000000000000041
100
AcDbRotatedDimension
  0
DIMENSION
  5
EE
330
1F
100
AcDbEntity
  8
치수문자_일반주서
100
AcDbDimension
  2
_D_2
 10
55.33327988203219
 20
-6.994083706607444
 30
0.0
 11
55.33327988203217
 21
0.0000000000000056
 31
0.0
 70
   160
  1
%%c<>
 71
     2
 42
14.0006201617649
 52
-270.0
  3
SLDDIMSTYLE1
100
AcDbAlignedDimension
 13
39.76819663241609
 23
7.006536455157394
 33
0.0
 14
39.76708956978588
 24
-6.994083706607503
 34
0.0
 50
90.0000000000002
100
AcDbRotatedDimension
  0
DIMENSION
  5
FC
330
1F
100
AcDbEntity
  8
치수문자_일반주서
100
AcDbDimension
  2
_D_3
 10
-71.65246987560265
 20
-8.000000000000043
 30
0.0
 11
-71.65246987560268
 21
0.0000000000000024
 31
0.0
 70
   160
  1
%%c<>
 71
     2
 42
15.99999999999999
 52
-270.0
  3
SLDDIMSTYLE1
100
AcDbAlignedDimension
 13
-59.23291043021414
 23
7.999999999999996
 33
0.0
 14
-59.23291043021414
 24
-7.999999999999996
 34
0.0
 50
90.0000000000002
100
AcDbRotatedDimension
  0
INSERT
  5
10F
330
1F
100
AcDbEntity
  8
외형선
100
AcDbBlockReference
  2
SW_DOWELSYMBOL_0
 10
0.0
 20
0.0
 30
0.0
  0
LINE
  5
189
330
1F
100
AcDbEntity
  8
0
  6
Continuous
 62
     4
370
    15
100
AcDbLine
 10
2.737032740966864
 20
7.262967259033126
 30
0.0
 11
1.999999999999991
 21
8.0
 31
0.0
1001
PE_URL
1000

  0
LINE
  5
18A
330
1F
100
AcDbEntity
  8
0
  6
Continuous
 62
     4
370
    15
100
AcDbLine
 10
2.924002049871707
 20
-7.075997950128273
 30
0.0
 11
1.999999999999992
 21
-7.999999999999989
 31
0.0
1001
PE_URL
1000

  0
ENDSEC
  0
SECTION
  2
OBJECTS
  0
DICTIONARY
  5
C
330
0
100
AcDbDictionary
281
     1
  3
ACAD_DETAILVIEWSTYLE
350
140
  3
ACAD_GROUP
350
D
  3
ACAD_LAYOUT
350
1A
  3
ACAD_MLINESTYLE
350
17
  3
ACAD_PLOTSETTINGS
350
19
  3
ACAD_PLOTSTYLENAME
350
E
  3
ACAD_SCALELIST
350
47
  3
ACAD_SECTIONVIEWSTYLE
350
141
  3
AcDbVariableDictionary
350
13B
  3
APPDATA
350
131
  3
DWGPROPS
350
18D
  0
DICTIONARY
  5
18B
330
1F
100
AcDbDictionary
280
     1
281
     1
  3
DIM_BOUNDING_BOXES_V1
360
18C
  0
DICTIONARY
  5
140
102
{ACAD_REACTORS
330
C
102
}
330
C
100
AcDbDictionary
281
     1
  0
DICTIONARY
  5
D
102
{ACAD_REACTORS
330
C
102
}
330
C
100
AcDbDictionary
281
     1
  0
DICTIONARY
  5
1A
102
{ACAD_REACTORS
330
C
102
}
330
C
100
AcDbDictionary
281
     1
  3
Layout1
350
1E
  3
Layout2
350
26
  3
Model
350
22
  0
DICTIONARY
  5
17
102
{ACAD_REACTORS
330
C
102
}
330
C
100
AcDbDictionary
281
     1
  3
Standard
350
18
  0
DICTIONARY
  5
19
102
{ACAD_REACTORS
330
C
102
}
330
C
100
AcDbDictionary
281
     1
  0
ACDBDICTIONARYWDFLT
  5
E
102
{ACAD_REACTORS
330
C
102
}
330
C
100
AcDbDictionary
281
     1
  3
Normal
350
F
100
AcDbDictionaryWithDefault
340
F
  0
DICTIONARY
  5
47
102
{ACAD_REACTORS
330
C
102
}
330
C
100
AcDbDictionary
281
     1
  3
A0
350
48
  3
A1
350
49
  3
A2
350
4A
  3
A3
350
4B
  3
A4
350
4C
  3
A5
350
4D
  3
A6
350
4E
  3
A7
350
4F
  3
A8
350
50
  3
A9
350
51
  3
B0
350
52
  3
B1
350
53
  3
B2
350
54
  3
B3
350
55
  3
B4
350
56
  3
B5
350
57
  3
B6
350
58
  3
B7
350
59
  3
B8
350
5A
  3
B9
350
5B
  3
C0
350
5C
  3
C1
350
5D
  3
C2
350
5E
  3
C3
350
5F
  3
C4
350
60
  3
C5
350
61
  3
C6
350
62
  3
C7
350
63
  3
C8
350
64
  3
C9
350
65
  3
D0
350
66
  3
D1
350
67
  3
D2
350
68
  0
DICTIONARY
  5
141
102
{ACAD_REACTORS
330
C
102
}
330
C
100
AcDbDictionary
281
     1
  0
DICTIONARY
  5
13B
102
{ACAD_REACTORS
330
C
102
}
330
C
100
AcDbDictionary
281
     1
  0
DICTIONARY
  5
131
102
{ACAD_REACTORS
330
C
102
}
330
C
100
AcDbDictionary
281
     1
  0
XRECORD
  5
18D
102
{ACAD_REACTORS
330
C
102
}
330
C
100
AcDbXrecord
280
     1
  1
DWGPROPS COOKIE
  2

  3

  4

  6

  7

  8
12017152
  9

300
=
301
=
302
=
303
=
304
=
305
=
306
=
307
=
308
=
309
=
 40
0.0
 41
2458250.135130949
 42
2459699.326086273
  1

 90
        0
  0
DICTIONARY
  5
18C
102
{ACAD_REACTORS
330
18B
102
}
330
18B
100
AcDbDictionary
281
     1
  0
LAYOUT
  5
1E
102
{ACAD_REACTORS
330
1A
102
}
330
1A
100
AcDbPlotSettings
  1

  2
none_device
  4

  6

 40
0.0
 41
0.0
 42
0.0
 43
0.0
 44
0.0
 45
0.0
 46
0.0
 47
0.0
 48
0.0
 49
0.0
140
0.0
141
0.0
142
1.0
143
1.0
 70
   688
 72
     1
 73
     0
 74
     5
  7

 75
    16
147
1.0
148
0.0
149
0.0
100
AcDbLayout
  1
Layout1
 70
     1
 71
     1
 10
0.0
 20
0.0
 11
420.0
 21
297.0
 12
0.0
 22
0.0
 32
0.0
 14
1.000000000000000E+20
 24
1.000000000000000E+20
 34
1.000000000000000E+20
 15
-1.000000000000000E+20
 25
-1.000000000000000E+20
 35
-1.000000000000000E+20
146
0.0
 13
0.0
 23
0.0
 33
0.0
 16
1.0
 26
0.0
 36
0.0
 17
0.0
 27
1.0
 37
0.0
 76
     0
330
1B
  0
LAYOUT
  5
26
102
{ACAD_REACTORS
330
1A
102
}
330
1A
100
AcDbPlotSettings
  1

  2
none_device
  4

  6

 40
0.0
 41
0.0
 42
0.0
 43
0.0
 44
0.0
 45
0.0
 46
0.0
 47
0.0
 48
0.0
 49
0.0
140
0.0
141
0.0
142
1.0
143
1.0
 70
   688
 72
     1
 73
     0
 74
     5
  7

 75
    16
147
1.0
148
0.0
149
0.0
100
AcDbLayout
  1
Layout2
 70
     1
 71
     2
 10
0.0
 20
0.0
 11
0.0
 21
0.0
 12
0.0
 22
0.0
 32
0.0
 14
0.0
 24
0.0
 34
0.0
 15
0.0
 25
0.0
 35
0.0
146
0.0
 13
0.0
 23
0.0
 33
0.0
 16
1.0
 26
0.0
 36
0.0
 17
0.0
 27
1.0
 37
0.0
 76
     0
330
23
  0
LAYOUT
  5
22
102
{ACAD_REACTORS
330
1A
102
}
330
1A
100
AcDbPlotSettings
  1

  2
none_device
  4
ANSI_A_(11.00_x_8.50_Inches)
  6

 40
6.35
 41
19.05
 42
6.35000508
 43
19.05000254
 44
279.4
 45
215.9
 46
143.1772945079719
 47
108.2235447896264
 48
0.0
 49
0.0
140
0.0
141
0.0
142
0.0821570819270314
143
1.0
 70
  1696
 72
     0
 73
     0
 74
     0
  7

 75
     0
147
0.0235690232323232
148
0.0
149
0.0
100
AcDbLayout
  1
Model
 70
     1
 71
     0
 10
0.0
 20
0.0
 11
420.0
 21
297.0
 12
0.0
 22
0.0
 32
0.0
 14
-76.02746987560269
 24
-49.97180738881174
 34
0.0
 15
55.8836132153655
 25
32.05915911661227
 35
0.0
146
0.0
 13
0.0
 23
0.0
 33
0.0
 16
1.0
 26
0.0
 36
0.0
 17
0.0
 27
1.0
 37
0.0
 76
     0
330
1F
331
29
  0
MLINESTYLE
  5
18
102
{ACAD_REACTORS
330
17
102
}
330
17
100
AcDbMlineStyle
  2
Standard
 70
     0
  3

 62
   256
 51
90.0
 52
90.0
 71
     2
 49
0.5
 62
   256
  6
BYLAYER
 49
-0.5
 62
   256
  6
BYLAYER
  0
ACDBPLACEHOLDER
  5
F
102
{ACAD_REACTORS
330
E
102
}
330
E
  0
SCALE
  5
48
102
{ACAD_REACTORS
330
47
102
}
330
47
100
AcDbScale
 70
     0
300
1:1
140
1.0
141
1.0
290
     1
  0
SCALE
  5
49
102
{ACAD_REACTORS
330
47
102
}
330
47
100
AcDbScale
 70
     0
300
1:2
140
1.0
141
2.0
290
     0
  0
SCALE
  5
4A
102
{ACAD_REACTORS
330
47
102
}
330
47
100
AcDbScale
 70
     0
300
1:4
140
1.0
141
4.0
290
     0
  0
SCALE
  5
4B
102
{ACAD_REACTORS
330
47
102
}
330
47
100
AcDbScale
 70
     0
300
1:5
140
1.0
141
5.0
290
     0
  0
SCALE
  5
4C
102
{ACAD_REACTORS
330
47
102
}
330
47
100
AcDbScale
 70
     0
300
1:8
140
1.0
141
8.0
290
     0
  0
SCALE
  5
4D
102
{ACAD_REACTORS
330
47
102
}
330
47
100
AcDbScale
 70
     0
300
1:10
140
1.0
141
10.0
290
     0
  0
SCALE
  5
4E
102
{ACAD_REACTORS
330
47
102
}
330
47
100
AcDbScale
 70
     0
300
1:16
140
1.0
141
16.0
290
     0
  0
SCALE
  5
4F
102
{ACAD_REACTORS
330
47
102
}
330
47
100
AcDbScale
 70
     0
300
1:20
140
1.0
141
20.0
290
     0
  0
SCALE
  5
50
102
{ACAD_REACTORS
330
47
102
}
330
47
100
AcDbScale
 70
     0
300
1:30
140
1.0
141
30.0
290
     0
  0
SCALE
  5
51
102
{ACAD_REACTORS
330
47
102
}
330
47
100
AcDbScale
 70
     0
300
1:40
140
1.0
141
40.0
290
     0
  0
SCALE
  5
52
102
{ACAD_REACTORS
330
47
102
}
330
47
100
AcDbScale
 70
     0
300
1:50
140
1.0
141
50.0
290
     0
  0
SCALE
  5
53
102
{ACAD_REACTORS
330
47
102
}
330
47
100
AcDbScale
 70
     0
300
1:100
140
1.0
141
100.0
290
     0
  0
SCALE
  5
54
102
{ACAD_REACTORS
330
47
102
}
330
47
100
AcDbScale
 70
     0
300
2:1
140
2.0
141
1.0
290
     0
  0
SCALE
  5
55
102
{ACAD_REACTORS
330
47
102
}
330
47
100
AcDbScale
 70
     0
300
4:1
140
4.0
141
1.0
290
     0
  0
SCALE
  5
56
102
{ACAD_REACTORS
330
47
102
}
330
47
100
AcDbScale
 70
     0
300
8:1
140
8.0
141
1.0
290
     0
  0
SCALE
  5
57
102
{ACAD_REACTORS
330
47
102
}
330
47
100
AcDbScale
 70
     0
300
10:1
140
10.0
141
1.0
290
     0
  0
SCALE
  5
58
102
{ACAD_REACTORS
330
47
102
}
330
47
100
AcDbScale
 70
     0
300
100:1
140
100.0
141
1.0
290
     0
  0
SCALE
  5
59
102
{ACAD_REACTORS
330
47
102
}
330
47
100
AcDbScale
 70
     0
300
1/128" = 1'-0"
140
0.0078125
141
12.0
290
     0
  0
SCALE
  5
5A
102
{ACAD_REACTORS
330
47
102
}
330
47
100
AcDbScale
 70
     0
300
1/64" = 1'-0"
140
0.015625
141
12.0
290
     0
  0
SCALE
  5
5B
102
{ACAD_REACTORS
330
47
102
}
330
47
100
AcDbScale
 70
     0
300
1/32" = 1'-0"
140
0.03125
141
12.0
290
     0
  0
SCALE
  5
5C
102
{ACAD_REACTORS
330
47
102
}
330
47
100
AcDbScale
 70
     0
300
1/16" = 1'-0"
140
0.0625
141
12.0
290
     0
  0
SCALE
  5
5D
102
{ACAD_REACTORS
330
47
102
}
330
47
100
AcDbScale
 70
     0
300
3/32" = 1'-0"
140
0.09375
141
12.0
290
     0
  0
SCALE
  5
5E
102
{ACAD_REACTORS
330
47
102
}
330
47
100
AcDbScale
 70
     0
300
1/8" = 1'-0"
140
0.125
141
12.0
290
     0
  0
SCALE
  5
5F
102
{ACAD_REACTORS
330
47
102
}
330
47
100
AcDbScale
 70
     0
300
3/16" = 1'-0"
140
0.1875
141
12.0
290
     0
  0
SCALE
  5
60
102
{ACAD_REACTORS
330
47
102
}
330
47
100
AcDbScale
 70
     0
300
1/4" = 1'-0"
140
0.25
141
12.0
290
     0
  0
SCALE
  5
61
102
{ACAD_REACTORS
330
47
102
}
330
47
100
AcDbScale
 70
     0
300
3/8" = 1'-0"
140
0.375
141
12.0
290
     0
  0
SCALE
  5
62
102
{ACAD_REACTORS
330
47
102
}
330
47
100
AcDbScale
 70
     0
300
1/2" = 1'-0"
140
0.5
141
12.0
290
     0
  0
SCALE
  5
63
102
{ACAD_REACTORS
330
47
102
}
330
47
100
AcDbScale
 70
     0
300
3/4" = 1'-0"
140
0.75
141
12.0
290
     0
  0
SCALE
  5
64
102
{ACAD_REACTORS
330
47
102
}
330
47
100
AcDbScale
 70
     0
300
1" = 1'-0"
140
1.0
141
12.0
290
     0
  0
SCALE
  5
65
102
{ACAD_REACTORS
330
47
102
}
330
47
100
AcDbScale
 70
     0
300
1-1/2" = 1'-0"
140
1.5
141
12.0
290
     0
  0
SCALE
  5
66
102
{ACAD_REACTORS
330
47
102
}
330
47
100
AcDbScale
 70
     0
300
3" = 1'-0"
140
3.0
141
12.0
290
     0
  0
SCALE
  5
67
102
{ACAD_REACTORS
330
47
102
}
330
47
100
AcDbScale
 70
     0
300
6" = 1'-0"
140
6.0
141
12.0
290
     0
  0
SCALE
  5
68
102
{ACAD_REACTORS
330
47
102
}
330
47
100
AcDbScale
 70
     0
300
1'-0" = 1'-0"
140
12.0
141
12.0
290
     0
  0
ENDSEC
  0
EOF
