  0
SECTION
  2
HEADER
  9
$ACADVER
  1
AC1015
  9
$ACADMAINTVER
 70
     6
  9
$DWGCODEPAGE
  3
ANSI_949
  9
$INSBASE
 10
0.0
 20
0.0
 30
0.0
  9
$EXTMIN
 10
-60.64455944538855
 20
-49.97180738881173
 30
0.0
  9
$EXTMAX
 10
71.26652364557964
 20
32.75915911661227
 30
0.0
  9
$LIMMIN
 10
0.0
 20
0.0
  9
$LIMMAX
 10
420.0
 20
297.0
  9
$ORTHOMODE
 70
     1
  9
$REGENMODE
 70
     1
  9
$FILLMODE
 70
     1
  9
$QTEXTMODE
 70
     0
  9
$MIRRTEXT
 70
     1
  9
$LTSCALE
 40
1.0
  9
$ATTMODE
 70
     1
  9
$TEXTSIZE
 40
3.5
  9
$TRACEWID
 40
1.0
  9
$TEXTSTYLE
  7
Standard
  9
$CLAYER
  8
0
  9
$CELTYPE
  6
ByLayer
  9
$CECOLOR
 62
   256
  9
$CELTSCALE
 40
1.0
  9
$DISPSILH
 70
     0
  9
$DIMSCALE
 40
1.0
  9
$DIMASZ
 40
3.302
  9
$DIMEXO
 40
1.0
  9
$DIMDLI
 40
3.75
  9
$DIMRND
 40
0.0
  9
$DIMDLE
 40
0.0
  9
$DIMEXE
 40
1.0
  9
$DIMTP
 40
0.0
  9
$DIMTM
 40
0.0
  9
$DIMTXT
 40
3.5
  9
$DIMCEN
 40
2.5
  9
$DIMTSZ
 40
0.0
  9
$DIMTOL
 70
     0
  9
$DIMLIM
 70
     0
  9
$DIMTIH
 70
     1
  9
$DIMTOH
 70
     1
  9
$DIMSE1
 70
     0
  9
$DIMSE2
 70
     0
  9
$DIMTAD
 70
     1
  9
$DIMZIN
 70
     0
  9
$DIMBLK
  1

  9
$DIMASO
 70
     1
  9
$DIMSHO
 70
     1
  9
$DIMPOST
  1

  9
$DIMAPOST
  1

  9
$DIMALT
 70
     0
  9
$DIMALTD
 70
     3
  9
$DIMALTF
 40
0.0393700787401575
  9
$DIMLFAC
 40
1.0
  9
$DIMTOFL
 70
     1
  9
$DIMTVP
 40
0.0
  9
$DIMTIX
 70
     0
  9
$DIMSOXD
 70
     0
  9
$DIMSAH
 70
     0
  9
$DIMBLK1
  1

  9
$DIMBLK2
  1

  9
$DIMSTYLE
  2
ISO-25
  9
$DIMCLRD
 70
     0
  9
$DIMCLRE
 70
     0
  9
$DIMCLRT
 70
     0
  9
$DIMTFAC
 40
1.0
  9
$DIMGAP
 40
1.524
  9
$DIMJUST
 70
     0
  9
$DIMSD1
 70
     0
  9
$DIMSD2
 70
     0
  9
$DIMTOLJ
 70
     0
  9
$DIMTZIN
 70
     0
  9
$DIMALTZ
 70
     0
  9
$DIMALTTZ
 70
     0
  9
$DIMUPT
 70
     0
  9
$DIMDEC
 70
     2
  9
$DIMTDEC
 70
     2
  9
$DIMALTU
 70
     2
  9
$DIMALTTD
 70
     3
  9
$DIMTXSTY
  7
Standard
  9
$DIMAUNIT
 70
     0
  9
$DIMADEC
 70
     2
  9
$DIMALTRND
 40
0.0
  9
$DIMAZIN
 70
     0
  9
$DIMDSEP
 70
    44
  9
$DIMATFIT
 70
     3
  9
$DIMFRAC
 70
     0
  9
$DIMLDRBLK
  1

  9
$DIMLUNIT
 70
     2
  9
$DIMLWD
 70
    -2
  9
$DIMLWE
 70
    -2
  9
$DIMTMOVE
 70
     0
  9
$LUNITS
 70
     2
  9
$LUPREC
 70
     2
  9
$SKETCHINC
 40
1.0
  9
$FILLETRAD
 40
10.0
  9
$AUNITS
 70
     0
  9
$AUPREC
 70
     2
  9
$MENU
  1
.
  9
$ELEVATION
 40
0.0
  9
$PELEVATION
 40
0.0
  9
$THICKNESS
 40
0.0
  9
$LIMCHECK
 70
     0
  9
$CHAMFERA
 40
0.0
  9
$CHAMFERB
 40
0.0
  9
$CHAMFERC
 40
0.0
  9
$CHAMFERD
 40
0.0
  9
$SKPOLY
 70
     0
  9
$TDCREATE
 40
2458250.510542292
  9
$TDUCREATE
 40
2458250.135542292
  9
$TDUPDATE
 40
2459702.688133426
  9
$TDUUPDATE
 40
2459702.313133426
  9
$TDINDWG
 40
0.0044899653
  9
$TDUSRTIMER
 40
0.0014358565
  9
$USRTIMER
 70
     1
  9
$ANGBASE
 50
0.0
  9
$ANGDIR
 70
     0
  9
$PDMODE
 70
     0
  9
$PDSIZE
 40
-1.0
  9
$PLINEWID
 40
0.0
  9
$SPLFRAME
 70
     0
  9
$SPLINETYPE
 70
     6
  9
$SPLINESEGS
 70
     8
  9
$HANDSEED
  5
19D
  9
$SURFTAB1
 70
     6
  9
$SURFTAB2
 70
     6
  9
$SURFTYPE
 70
     6
  9
$SURFU
 70
     6
  9
$SURFV
 70
     6
  9
$UCSBASE
  2

  9
$UCSNAME
  2

  9
$UCSORG
 10
0.0
 20
0.0
 30
0.0
  9
$UCSXDIR
 10
1.0
 20
0.0
 30
0.0
  9
$UCSYDIR
 10
0.0
 20
1.0
 30
0.0
  9
$UCSORTHOREF
  2

  9
$UCSORTHOVIEW
 70
     0
  9
$UCSORGTOP
 10
0.0
 20
0.0
 30
0.0
  9
$UCSORGBOTTOM
 10
0.0
 20
0.0
 30
0.0
  9
$UCSORGLEFT
 10
0.0
 20
0.0
 30
0.0
  9
$UCSORGRIGHT
 10
0.0
 20
0.0
 30
0.0
  9
$UCSORGFRONT
 10
0.0
 20
0.0
 30
0.0
  9
$UCSORGBACK
 10
0.0
 20
0.0
 30
0.0
  9
$PUCSBASE
  2

  9
$PUCSNAME
  2

  9
$PUCSORG
 10
0.0
 20
0.0
 30
0.0
  9
$PUCSXDIR
 10
1.0
 20
0.0
 30
0.0
  9
$PUCSYDIR
 10
0.0
 20
1.0
 30
0.0
  9
$PUCSORTHOREF
  2

  9
$PUCSORTHOVIEW
 70
     0
  9
$PUCSORGTOP
 10
0.0
 20
0.0
 30
0.0
  9
$PUCSORGBOTTOM
 10
0.0
 20
0.0
 30
0.0
  9
$PUCSORGLEFT
 10
0.0
 20
0.0
 30
0.0
  9
$PUCSORGRIGHT
 10
0.0
 20
0.0
 30
0.0
  9
$PUCSORGFRONT
 10
0.0
 20
0.0
 30
0.0
  9
$PUCSORGBACK
 10
0.0
 20
0.0
 30
0.0
  9
$USERI1
 70
     0
  9
$USERI2
 70
     0
  9
$USERI3
 70
     0
  9
$USERI4
 70
     0
  9
$USERI5
 70
     0
  9
$USERR1
 40
0.0
  9
$USERR2
 40
0.0
  9
$USERR3
 40
0.0
  9
$USERR4
 40
0.0
  9
$USERR5
 40
0.0
  9
$WORLDVIEW
 70
     1
  9
$SHADEDGE
 70
     3
  9
$SHADEDIF
 70
    70
  9
$TILEMODE
 70
     1
  9
$MAXACTVP
 70
    64
  9
$PINSBASE
 10
0.0
 20
0.0
 30
0.0
  9
$PLIMCHECK
 70
     0
  9
$PEXTMIN
 10
1.000000000000000E+20
 20
1.000000000000000E+20
 30
1.000000000000000E+20
  9
$PEXTMAX
 10
-1.000000000000000E+20
 20
-1.000000000000000E+20
 30
-1.000000000000000E+20
  9
$PLIMMIN
 10
0.0
 20
0.0
  9
$PLIMMAX
 10
0.0
 20
0.0
  9
$UNITMODE
 70
     0
  9
$VISRETAIN
 70
     1
  9
$PLINEGEN
 70
     0
  9
$PSLTSCALE
 70
     1
  9
$TREEDEPTH
 70
  3020
  9
$CMLSTYLE
  2
Standard
  9
$CMLJUST
 70
     0
  9
$CMLSCALE
 40
20.0
  9
$PROXYGRAPHICS
 70
     1
  9
$MEASUREMENT
 70
     1
  9
$CELWEIGHT
370
    -1
  9
$ENDCAPS
280
     0
  9
$JOINSTYLE
280
     0
  9
$LWDISPLAY
290
     1
  9
$INSUNITS
 70
     4
  9
$HYPERLINKBASE
  1

  9
$STYLESHEET
  1

  9
$XEDIT
290
     1
  9
$CEPSNTYPE
380
     0
  9
$PSTYLEMODE
290
     1
  9
$FINGERPRINTGUID
  2
{DB7077AD-56C4-4B0A-ACC0-F2A14586394B}
  9
$VERSIONGUID
  2
{FAEB1C32-E019-11D5-929B-00C0DF256EC4}
  9
$EXTNAMES
290
     1
  9
$PSVPSCALE
 40
0.0
  9
$OLESTARTUP
290
     0
  0
ENDSEC
  0
SECTION
  2
CLASSES
  0
CLASS
  1
ACDBDICTIONARYWDFLT
  2
AcDbDictionaryWithDefault
  3
ObjectDBX Classes
 90
        0
280
     0
281
     0
  0
CLASS
  1
VISUALSTYLE
  2
AcDbVisualStyle
  3
ObjectDBX Classes
 90
     4095
280
     0
281
     0
  0
CLASS
  1
MATERIAL
  2
AcDbMaterial
  3
ObjectDBX Classes
 90
     1153
280
     0
281
     0
  0
CLASS
  1
SCALE
  2
AcDbScale
  3
ObjectDBX Classes
 90
     1153
280
     0
281
     0
  0
CLASS
  1
SUN
  2
AcDbSun
  3
SCENEOE
 90
     1153
280
     0
281
     0
  0
CLASS
  1
ACDBPLACEHOLDER
  2
AcDbPlaceHolder
  3
ObjectDBX Classes
 90
        0
280
     0
281
     0
  0
CLASS
  1
LAYOUT
  2
AcDbLayout
  3
ObjectDBX Classes
 90
        0
280
     0
281
     0
  0
CLASS
  1
TABLESTYLE
  2
AcDbTableStyle
  3
ObjectDBX Classes
 90
     4095
280
     0
281
     0
  0
CLASS
  1
MLEADERSTYLE
  2
AcDbMLeaderStyle
  3
ACDB_MLEADERSTYLE_CLASS
 90
     4095
280
     0
281
     0
  0
CLASS
  1
DIMASSOC
  2
AcDbDimAssoc
  3
"AcDbDimAssoc|Product Desc:     AcDim ARX App For Dimension|Company:          Autodesk, Inc.|WEB Address:      www.autodesk.com"
 90
        0
280
     0
281
     0
  0
CLASS
  1
BREAKDATA
  2
AcDbBreakData
  3
ObjectDBX Classes
 90
     1024
280
     0
281
     0
  0
ENDSEC
  0
SECTION
  2
TABLES
  0
TABLE
  2
VPORT
  5
8
330
0
100
AcDbSymbolTable
 70
     1
  0
VPORT
  5
29
330
8
100
AcDbSymbolTableRecord
100
AcDbViewportTableRecord
  2
*Active
 70
     0
 10
0.0
 20
0.0
 11
1.0
 21
1.0
 12
-0.2668885905737444
 22
0.5843184579515173
 13
0.0
 23
0.0
 14
10.0
 24
10.0
 15
10.0
 25
10.0
 16
0.0
 26
0.0
 36
1.0
 17
0.0
 27
0.0
 37
0.0
 40
5.53381110939402
 41
1.531481481481481
 42
50.0
 43
0.0
 44
0.0
 50
0.0
 51
0.0
 71
    16
 72
  2000
 73
     1
 74
     3
 75
     0
 76
     0
 77
     0
 78
     0
281
     0
 65
     1
110
0.0
120
0.0
130
0.0
111
1.0
121
0.0
131
0.0
112
0.0
122
1.0
132
0.0
 79
     0
146
0.0
  0
ENDTAB
  0
TABLE
  2
LTYPE
  5
5
330
0
100
AcDbSymbolTable
 70
     6
  0
LTYPE
  5
14
330
5
100
AcDbSymbolTableRecord
100
AcDbLinetypeTableRecord
  2
ByBlock
 70
     0
  3

 72
    65
 73
     0
 40
0.0
  0
LTYPE
  5
15
330
5
100
AcDbSymbolTableRecord
100
AcDbLinetypeTableRecord
  2
ByLayer
 70
     0
  3

 72
    65
 73
     0
 40
0.0
  0
LTYPE
  5
16
330
5
100
AcDbSymbolTableRecord
100
AcDbLinetypeTableRecord
  2
Continuous
 70
     0
  3
Solid line
 72
    65
 73
     0
 40
0.0
  0
LTYPE
  5
6A
330
5
100
AcDbSymbolTableRecord
100
AcDbLinetypeTableRecord
  2
HIDDEN
 70
     0
  3
Hidden __ __ __ __ __ __ __ __ __ __ __ __ __ __
 72
    65
 73
     2
 40
1.905
 49
1.27
 74
     0
 49
-0.635
 74
     0
  0
LTYPE
  5
6B
330
5
100
AcDbSymbolTableRecord
100
AcDbLinetypeTableRecord
  2
PHANTOM
 70
     0
  3
Phantom ______  __  __  ______  __  __  ______
 72
    65
 73
     6
 40
12.7
 49
6.35
 74
     0
 49
-1.27
 74
     0
 49
1.27
 74
     0
 49
-1.27
 74
     0
 49
1.27
 74
     0
 49
-1.27
 74
     0
  0
LTYPE
  5
6C
330
5
100
AcDbSymbolTableRecord
100
AcDbLinetypeTableRecord
  2
CENTER
 70
     0
  3
Center ____ _ ____ _ ____ _ ____ _ ____ _ ____
 72
    65
 73
     4
 40
10.16
 49
6.35
 74
     0
 49
-1.27
 74
     0
 49
1.27
 74
     0
 49
-1.27
 74
     0
  0
LTYPE
  5
6D
330
5
100
AcDbSymbolTableRecord
100
AcDbLinetypeTableRecord
  2
CENTERX2
 70
     0
  3
Center (2x) ________  __  ________  __  _____
 72
    65
 73
     4
 40
20.32
 49
12.7
 74
     0
 49
-2.54
 74
     0
 49
2.54
 74
     0
 49
-2.54
 74
     0
  0
LTYPE
  5
6E
330
5
100
AcDbSymbolTableRecord
100
AcDbLinetypeTableRecord
  2
DOT2
 70
     0
  3
Dot (.5x) ........................................
 72
    65
 73
     2
 40
0.635
 49
0.0
 74
     0
 49
-0.635
 74
     0
  0
ENDTAB
  0
TABLE
  2
LAYER
  5
2
330
0
100
AcDbSymbolTable
 70
    17
  0
LAYER
  5
10
330
2
100
AcDbSymbolTableRecord
100
AcDbLayerTableRecord
  2
0
 70
     0
 62
     7
  6
Continuous
370
    -3
390
F
  0
LAYER
  5
6F
330
2
100
AcDbSymbolTableRecord
100
AcDbLayerTableRecord
  2
FORMAT
 70
     0
 62
     2
  6
Continuous
370
    -3
390
F
  0
LAYER
  5
70
330
2
100
AcDbSymbolTableRecord
100
AcDbLayerTableRecord
  2
외형선
 70
     0
 62
   100
  6
Continuous
370
    30
390
F
  0
LAYER
  5
71
330
2
100
AcDbSymbolTableRecord
100
AcDbLayerTableRecord
  2
숨은선
 70
     0
 62
     2
  6
HIDDEN
370
    15
390
F
  0
LAYER
  5
72
330
2
100
AcDbSymbolTableRecord
100
AcDbLayerTableRecord
  2
중심선
 70
     0
 62
     1
  6
CENTERX2
370
    -3
390
F
  0
LAYER
  5
73
330
2
100
AcDbSymbolTableRecord
100
AcDbLayerTableRecord
  2
파단선
 70
     0
 62
     4
  6
Continuous
370
    -3
390
F
  0
LAYER
  5
74
330
2
100
AcDbSymbolTableRecord
100
AcDbLayerTableRecord
  2
해칭선
 70
     0
 62
     4
  6
Continuous
370
    -3
390
F
  0
LAYER
  5
75
330
2
100
AcDbSymbolTableRecord
100
AcDbLayerTableRecord
  2
가는실선
 70
     0
 62
     4
  6
Continuous
370
    -3
390
F
  0
LAYER
  5
76
330
2
100
AcDbSymbolTableRecord
100
AcDbLayerTableRecord
  2
치수_보조선
 70
     0
 62
     4
  6
Continuous
370
    -3
390
F
  0
LAYER
  5
77
330
2
100
AcDbSymbolTableRecord
100
AcDbLayerTableRecord
  2
치수문자_일반주서
 70
     0
 62
     7
  6
Continuous
370
    15
390
F
  0
LAYER
  5
78
330
2
100
AcDbSymbolTableRecord
100
AcDbLayerTableRecord
  2
개별주서
 70
     0
 62
   100
  6
Continuous
370
    30
390
F
  0
LAYER
  5
79
330
2
100
AcDbSymbolTableRecord
100
AcDbLayerTableRecord
  2
중간선
 70
     0
 62
     2
  6
Continuous
370
    15
390
F
  0
LAYER
  5
7A
330
2
100
AcDbSymbolTableRecord
100
AcDbLayerTableRecord
  2
윤곽선
 70
     0
 62
     3
  6
Continuous
370
    40
390
F
  0
LAYER
  5
7B
330
2
100
AcDbSymbolTableRecord
100
AcDbLayerTableRecord
  2
중심마크
 70
     0
 62
   100
  6
Continuous
370
    30
390
F
  0
LAYER
  5
7C
330
2
100
AcDbSymbolTableRecord
100
AcDbLayerTableRecord
  2
가상선
 70
     0
 62
     4
  6
PHANTOM
370
    -3
390
F
  0
LAYER
  5
7D
330
2
100
AcDbSymbolTableRecord
100
AcDbLayerTableRecord
  2
특수지정선
 70
     0
 62
     5
  6
CENTERX2
370
    60
390
F
  0
LAYER
  5
130
330
2
100
AcDbSymbolTableRecord
100
AcDbLayerTableRecord
  2
Defpoints
 70
     0
 62
     7
  6
Continuous
290
     0
370
    -3
390
F
  0
ENDTAB
  0
TABLE
  2
STYLE
  5
3
330
0
100
AcDbSymbolTable
 70
     2
  0
STYLE
  5
11
330
3
100
AcDbSymbolTableRecord
100
AcDbTextStyleTableRecord
  2
Standard
 70
     0
 40
0.0
 41
1.0
 50
0.0
 71
     0
 42
3.5
  3
txt
  4

  0
STYLE
  5
93
330
3
100
AcDbSymbolTableRecord
100
AcDbTextStyleTableRecord
  2
SLDTEXTSTYLE0
 70
     0
 40
0.0
 41
0.75
 50
0.0
 71
     0
 42
3.5
  3
TXT
  4

  0
ENDTAB
  0
TABLE
  2
VIEW
  5
6
330
0
100
AcDbSymbolTable
 70
     0
  0
ENDTAB
  0
TABLE
  2
UCS
  5
7
330
0
100
AcDbSymbolTable
 70
     0
  0
ENDTAB
  0
TABLE
  2
APPID
  5
9
330
0
100
AcDbSymbolTable
 70
     3
  0
APPID
  5
12
330
9
100
AcDbSymbolTableRecord
100
AcDbRegAppTableRecord
  2
ACAD
 70
     0
  0
APPID
  5
12E
330
9
100
AcDbSymbolTableRecord
100
AcDbRegAppTableRecord
  2
PE_URL
 70
     0
  0
APPID
  5
196
330
9
100
AcDbSymbolTableRecord
100
AcDbRegAppTableRecord
  2
ENABLE_CUSTOM_SPLIT
 70
     0
  0
ENDTAB
  0
TABLE
  2
DIMSTYLE
  5
A
330
0
100
AcDbSymbolTable
 70
     3
100
AcDbDimStyleTable
  0
DIMSTYLE
105
27
330
A
100
AcDbSymbolTableRecord
100
AcDbDimStyleTableRecord
  2
ISO-25
 70
     0
 41
2.5
 42
0.625
 43
3.75
 44
1.25
 73
     0
 74
     0
 77
     1
 78
     8
140
2.5
141
2.5
143
0.03937007874016
147
0.625
171
     3
172
     1
178
     0
271
     2
272
     2
274
     3
278
    44
283
     0
284
     8
340
11
  0
DIMSTYLE
105
D6
102
{ACAD_REACTORS
330
D5
330
E0
330
185
102
}
330
A
100
AcDbSymbolTableRecord
100
AcDbDimStyleTableRecord
  2
SLDDIMSTYLE0
 70
     0
 41
3.302
 44
0.0
 45
0.000000001
 73
     0
 74
     0
 77
     1
 78
    12
 79
     3
140
3.5
147
0.875
173
     1
178
     0
271
     2
272
     2
276
     2
284
    12
340
93
  0
DIMSTYLE
105
EB
102
{ACAD_REACTORS
330
EA
330
F8
102
}
330
A
100
AcDbSymbolTableRecord
100
AcDbDimStyleTableRecord
  2
SLDDIMSTYLE1
 70
     0
 41
3.302
 44
0.0
 45
0.000000001
 73
     0
 74
     0
 77
     1
 78
    12
 79
     3
140
3.5
147
0.875
172
     1
173
     1
178
     0
271
     2
272
     2
276
     2
284
    12
289
     0
340
93
  0
ENDTAB
  0
TABLE
  2
BLOCK_RECORD
  5
1
330
0
100
AcDbSymbolTable
 70
     8
  0
BLOCK_RECORD
  5
1F
102
{ACAD_XDICTIONARY
360
199
102
}
330
1
100
AcDbSymbolTableRecord
100
AcDbBlockTableRecord
  2
*Model_Space
340
22
  0
BLOCK_RECORD
  5
1B
330
1
100
AcDbSymbolTableRecord
100
AcDbBlockTableRecord
  2
*Paper_Space
340
1E
  0
BLOCK_RECORD
  5
23
330
1
100
AcDbSymbolTableRecord
100
AcDbBlockTableRecord
  2
*Paper_Space0
340
26
  0
BLOCK_RECORD
  5
7E
330
1
100
AcDbSymbolTableRecord
100
AcDbBlockTableRecord
  2
블럭10
340
0
102
{BLKREFS
331
CE
102
}
  0
BLOCK_RECORD
  5
D7
330
1
100
AcDbSymbolTableRecord
100
AcDbBlockTableRecord
  2
_D
340
0
  0
BLOCK_RECORD
  5
E1
330
1
100
AcDbSymbolTableRecord
100
AcDbBlockTableRecord
  2
_D_1
340
0
  0
BLOCK_RECORD
  5
EC
330
1
100
AcDbSymbolTableRecord
100
AcDbBlockTableRecord
  2
_D_2
340
0
  0
BLOCK_RECORD
  5
F9
330
1
100
AcDbSymbolTableRecord
100
AcDbBlockTableRecord
  2
_D_3
340
0
  0
BLOCK_RECORD
  5
105
330
1
100
AcDbSymbolTableRecord
100
AcDbBlockTableRecord
  2
SW_DOWELSYMBOL_0
340
0
102
{BLKREFS
331
10B
102
}
  0
BLOCK_RECORD
  5
188
330
1
100
AcDbSymbolTableRecord
100
AcDbBlockTableRecord
  2
*D7
340
0
  0
ENDTAB
  0
ENDSEC
  0
SECTION
  2
BLOCKS
  0
BLOCK
  5
20
330
1F
100
AcDbEntity
  8
0
100
AcDbBlockBegin
  2
*Model_Space
 70
     0
 10
0.0
 20
0.0
 30
0.0
  3
*Model_Space
  1

  0
ENDBLK
  5
21
330
1F
100
AcDbEntity
  8
0
100
AcDbBlockEnd
  0
BLOCK
  5
1C
330
1B
100
AcDbEntity
 67
     1
  8
0
100
AcDbBlockBegin
  2
*Paper_Space
 70
     0
 10
0.0
 20
0.0
 30
0.0
  3
*Paper_Space
  1

  0
ENDBLK
  5
1D
330
1B
100
AcDbEntity
 67
     1
  8
0
100
AcDbBlockEnd
  0
BLOCK
  5
24
330
23
100
AcDbEntity
  8
0
100
AcDbBlockBegin
  2
*Paper_Space0
 70
     0
 10
0.0
 20
0.0
 30
0.0
  3
*Paper_Space0
  1

  0
ENDBLK
  5
25
330
23
100
AcDbEntity
  8
0
100
AcDbBlockEnd
  0
BLOCK
  5
7F
330
7E
100
AcDbEntity
  8
0
100
AcDbBlockBegin
  2
블럭10
 70
     2
 10
0.0
 20
0.0
 30
0.0
  3
블럭10
  1

  0
ELLIPSE
  5
81
330
7E
100
AcDbEntity
  8
중심선
100
AcDbEllipse
 10
20.54032771741204
 20
12.0471743016438
 30
0.0
 11
6.600054785286829
 21
-1.261213355974178E-13
 31
0.0
210
0.0
220
0.0
230
1.0
 40
0.636358354079598
 41
0.9219305317359503
 42
6.513795318482858
  0
ELLIPSE
  5
82
330
7E
100
AcDbEntity
  8
중심선
100
AcDbEllipse
 10
20.54032771746488
 20
12.04717430159265
 30
0.0
 11
3.960054785062283
 21
1.540847449632565E-10
 31
0.0
210
0.0
220
0.0
230
1.0
 40
0.3939339440162632
 41
1.131841032648279
 42
5.62031148352944
  0
LINE
  5
83
330
7E
100
AcDbEntity
  8
중심선
100
AcDbLine
 10
2.268634060543552
 20
16.24717430164393
 30
0.0
 11
5.714909304380834
 21
16.24717430164393
 31
0.0
  0
LINE
  5
84
330
7E
100
AcDbEntity
  8
중심선
100
AcDbLine
 10
5.245725140726316
 20
7.84717430164391
 30
0.0
 11
8.692000384563599
 21
7.84717430164391
 31
0.0
  0
LINE
  5
85
330
7E
100
AcDbEntity
  8
중심선
100
AcDbLine
 10
15.74043728645272
 20
16.24717430164393
 30
0.0
 11
8.692000384563599
 21
7.84717430164391
 31
0.0
  0
LINE
  5
86
330
7E
100
AcDbEntity
  8
중심선
100
AcDbLine
 10
0.1404042013395286
 20
13.71084872107135
 30
0.0
 11
3.58671253028996
 21
13.71088815037384
 31
0.0
  0
LINE
  5
87
330
7E
100
AcDbEntity
  8
중심선
100
AcDbLine
 10
2.750260043222114
 20
10.84717430164391
 30
0.0
 11
6.196535287059397
 21
10.84717430164391
 31
0.0
  0
LINE
  5
88
330
7E
100
AcDbEntity
  8
중심선
100
AcDbLine
 10
12.29416204261559
 20
16.24717430164393
 30
0.0
 11
5.245725140726316
 21
7.84717430164391
 31
0.0
  0
LINE
  5
89
330
7E
100
AcDbEntity
  8
중심선
100
AcDbLine
 10
10.72767329541681
 20
16.24717430164393
 30
0.0
 11
6.196535287059397
 21
10.84717430164391
 31
0.0
  0
LINE
  5
8A
330
7E
100
AcDbEntity
  8
중심선
100
AcDbLine
 10
7.28139805157953
 20
16.24717430164393
 30
0.0
 11
2.750260043222114
 21
10.84717430164391
 31
0.0
  0
LINE
  5
8B
330
7E
100
AcDbEntity
  8
중심선
100
AcDbLine
 10
5.714909304380834
 20
16.24717430164393
 30
0.0
 11
3.58671253028996
 21
13.71088815037384
 31
0.0
  0
LINE
  5
8C
330
7E
100
AcDbEntity
  8
중심선
100
AcDbLine
 10
2.268634060543552
 20
16.24717430164393
 30
0.0
 11
0.1404042013395286
 21
13.71084872107135
 31
0.0
  0
LINE
  5
8D
330
7E
100
AcDbEntity
  8
중심선
100
AcDbLine
 10
7.28139805157953
 20
16.24717430164393
 30
0.0
 11
10.72767329541681
 21
16.24717430164393
 31
0.0
  0
LINE
  5
8E
330
7E
100
AcDbEntity
  8
중심선
100
AcDbLine
 10
12.29416204261559
 20
16.24717430164393
 30
0.0
 11
15.74043728645272
 21
16.24717430164393
 31
0.0
  0
LINE
  5
8F
330
7E
100
AcDbEntity
  8
중심선
100
AcDbLine
 10
19.22036997980202
 20
11.08717430171403
 30
0.0
 11
23.66174974927406
 21
11.08717430171406
 31
0.0
  0
LINE
  5
90
330
7E
100
AcDbEntity
  8
중심선
100
AcDbLine
 10
19.22039502424796
 20
13.00717430171391
 30
0.0
 11
19.22036997980202
 21
11.08717430171403
 31
0.0
  0
LINE
  5
91
330
7E
100
AcDbEntity
  8
중심선
100
AcDbLine
 10
19.22039502424796
 20
13.00717430171391
 30
0.0
 11
26.96566020931264
 21
13.00717430171391
 31
0.0
  0
LINE
  5
92
330
7E
100
AcDbEntity
  8
중심선
100
AcDbLine
 10
22.22332737316547
 20
13.45928029700563
 30
0.0
 11
24.52862924686651
 21
15.39360700705356
 31
0.0
  0
ATTDEF
  5
94
330
7E
100
AcDbEntity
  8
FORMAT
 62
     2
100
AcDbText
 10
-12.95993919485777
 20
2.075366912832191
 30
0.0
 40
4.233333333333333
  1
SEME35160E [ 2 FLUTE ]
 41
0.75
  7
SLDTEXTSTYLE0
 11
-12.95993919485777
 21
-0.0412997538344756
 31
0.0
100
AcDbAttributeDefinition
  3

  2
AUTOATTR0
 70
     0
 74
     1
  0
ENDBLK
  5
80
330
7E
100
AcDbEntity
  8
0
100
AcDbBlockEnd
  0
BLOCK
  5
D8
330
D7
100
AcDbEntity
  8
0
100
AcDbBlockBegin
  2
_D
 70
     0
 10
0.0
 20
0.0
 30
0.0
  3
_D
  1

  0
LINE
  5
DA
330
D7
100
AcDbEntity
  8
치수문자_일반주서
 62
     0
370
    -2
100
AcDbLine
 10
55.15000000000001
 20
8.055738521837158
 30
0.0
 11
55.15000000000001
 21
15.14661926091858
 31
0.0
  0
LINE
  5
DB
330
D7
100
AcDbEntity
  8
치수문자_일반주서
 62
     0
370
    -2
100
AcDbLine
 10
15.14999999999999
 20
8.0625
 30
0.0
 11
15.14999999999999
 21
15.14661926091858
 31
0.0
  0
LINE
  5
DC
330
D7
100
AcDbEntity
  8
치수문자_일반주서
 62
     0
370
    -2
100
AcDbLine
 10
51.84800000000001
 20
15.14661926091858
 30
0.0
 11
18.45199999999999
 21
15.14661926091858
 31
0.0
  0
SOLID
  5
DD
330
D7
100
AcDbEntity
  8
치수문자_일반주서
 62
     0
100
AcDbTrace
 10
51.84800000000001
 20
14.59628592758525
 30
0.0
 11
51.84800000000001
 21
15.69695259425191
 31
0.0
 12
55.15000000000001
 22
15.14661926091858
 32
0.0
 13
55.15000000000001
 23
15.14661926091858
 33
0.0
  0
SOLID
  5
DE
330
D7
100
AcDbEntity
  8
치수문자_일반주서
 62
     0
100
AcDbTrace
 10
18.45199999999999
 20
15.69695259425191
 30
0.0
 11
18.45199999999999
 21
14.59628592758525
 31
0.0
 12
15.14999999999999
 22
15.14661926091858
 32
0.0
 13
15.14999999999999
 23
15.14661926091858
 33
0.0
  0
MTEXT
  5
DF
330
D7
100
AcDbEntity
  8
치수문자_일반주서
 62
     0
100
AcDbMText
 10
35.05527429111947
 20
19.52161926091858
 30
0.0
 40
3.5
 41
0.0
 71
     2
 72
     1
  1
\A1;40
  7
SLDTEXTSTYLE0
 73
     1
 44
1.0
  0
POINT
  5
135
330
D7
100
AcDbEntity
  8
Defpoints
 62
     0
100
AcDbPoint
 10
55.15000000000001
 20
7.993238521837158
 30
0.0
  0
POINT
  5
136
330
D7
100
AcDbEntity
  8
Defpoints
 62
     0
100
AcDbPoint
 10
15.14999999999999
 20
8.0
 30
0.0
  0
POINT
  5
137
330
D7
100
AcDbEntity
  8
Defpoints
 62
     0
100
AcDbPoint
 10
15.14999999999999
 20
15.14661926091858
 30
0.0
  0
ENDBLK
  5
D9
330
D7
100
AcDbEntity
  8
0
100
AcDbBlockEnd
  0
BLOCK
  5
E2
330
E1
100
AcDbEntity
  8
0
100
AcDbBlockBegin
  2
_D_1
 70
     0
 10
0.0
 20
0.0
 30
0.0
  3
_D_1
  1

  0
LINE
  5
E4
330
E1
100
AcDbEntity
  8
치수문자_일반주서
 62
     0
370
    -2
100
AcDbLine
 10
55.15000000000001
 20
8.055738521837158
 30
0.0
 11
55.15
 21
28.38415911661227
 31
0.0
  0
LINE
  5
E5
330
E1
100
AcDbEntity
  8
치수문자_일반주서
 62
     0
370
    -2
100
AcDbLine
 10
-44.85
 20
7.062499999999992
 30
0.0
 11
-44.85000000000001
 21
28.38415911661227
 31
0.0
  0
LINE
  5
E6
330
E1
100
AcDbEntity
  8
치수문자_일반주서
 62
     0
370
    -2
100
AcDbLine
 10
51.848
 20
28.38415911661227
 30
0.0
 11
-41.54800000000001
 21
28.38415911661227
 31
0.0
  0
SOLID
  5
E7
330
E1
100
AcDbEntity
  8
치수문자_일반주서
 62
     0
100
AcDbTrace
 10
51.848
 20
27.83382578327893
 30
0.0
 11
51.848
 21
28.9344924499456
 31
0.0
 12
55.15
 22
28.38415911661227
 32
0.0
 13
55.15
 23
28.38415911661227
 33
0.0
  0
SOLID
  5
E8
330
E1
100
AcDbEntity
  8
치수문자_일반주서
 62
     0
100
AcDbTrace
 10
-41.54800000000001
 20
28.9344924499456
 30
0.0
 11
-41.54800000000001
 21
27.83382578327893
 31
0.0
 12
-44.85000000000001
 22
28.38415911661227
 32
0.0
 13
-44.85000000000001
 23
28.38415911661227
 33
0.0
  0
MTEXT
  5
E9
330
E1
100
AcDbEntity
  8
치수문자_일반주서
 62
     0
100
AcDbMText
 10
5.150000000000014
 20
32.75915911661227
 30
0.0
 40
3.5
 41
0.0
 71
     2
 72
     1
  1
\A1;100
  7
SLDTEXTSTYLE0
 73
     1
 44
1.0
  0
POINT
  5
131
330
E1
100
AcDbEntity
  8
Defpoints
 62
     0
100
AcDbPoint
 10
55.15000000000001
 20
7.993238521837158
 30
0.0
  0
POINT
  5
132
330
E1
100
AcDbEntity
  8
Defpoints
 62
     0
100
AcDbPoint
 10
-44.85
 20
6.999999999999992
 30
0.0
  0
POINT
  5
133
330
E1
100
AcDbEntity
  8
Defpoints
 62
     0
100
AcDbPoint
 10
-44.85
 20
28.38415911661227
 30
0.0
  0
ENDBLK
  5
E3
330
E1
100
AcDbEntity
  8
0
100
AcDbBlockEnd
  0
BLOCK
  5
ED
330
EC
100
AcDbEntity
  8
0
100
AcDbBlockBegin
  2
_D_2
 70
     0
 10
0.0
 20
0.0
 30
0.0
  3
_D_2
  1

  0
LINE
  5
EF
330
EC
100
AcDbEntity
  8
치수문자_일반주서
 62
     0
370
    -2
100
AcDbLine
 10
55.21250000000001
 20
8.008777388013286
 30
0.0
 11
70.71619031224625
 21
8.008777388013343
 31
0.0
  0
LINE
  5
F0
330
EC
100
AcDbEntity
  8
치수문자_일반주서
 62
     0
370
    -2
100
AcDbLine
 10
55.21250000000001
 20
-7.993238521837153
 30
0.0
 11
70.71619031224631
 21
-7.993238521837096
 31
0.0
  0
LINE
  5
F1
330
EC
100
AcDbEntity
  8
치수문자_일반주서
 62
     0
370
    -2
100
AcDbLine
 10
70.71619031224627
 20
4.706777388013343
 30
0.0
 11
70.7161903122463
 21
-4.691238521837096
 31
0.0
  0
SOLID
  5
F2
330
EC
100
AcDbEntity
  8
치수문자_일반주서
 62
     0
100
AcDbTrace
 10
71.2665236455796
 20
4.706777388013345
 30
0.0
 11
70.16585697891294
 21
4.706777388013341
 31
0.0
 12
70.71619031224625
 22
8.008777388013343
 32
0.0
 13
70.71619031224625
 23
8.008777388013343
 33
0.0
  0
SOLID
  5
F3
330
EC
100
AcDbEntity
  8
치수문자_일반주서
 62
     0
100
AcDbTrace
 10
70.16585697891297
 20
-4.691238521837098
 30
0.0
 11
71.26652364557962
 21
-4.691238521837095
 31
0.0
 12
70.71619031224631
 22
-7.993238521837096
 32
0.0
 13
70.71619031224631
 23
-7.993238521837096
 33
0.0
  0
MTEXT
  5
F4
330
EC
100
AcDbEntity
  8
치수문자_일반주서
 62
     0
100
AcDbMText
 10
66.34119031224628
 20
-0.0000000000000142
 30
0.0
 40
3.5
 41
0.0
 71
     2
 72
     1
  1
\A1;%%c16
  7
SLDTEXTSTYLE0
 11
-3.552266113284929E-15
 21
1.0
 31
0.0
 73
     1
 44
1.0
  0
POINT
  5
F5
330
EC
100
AcDbEntity
  8
Defpoints
 62
     0
100
AcDbPoint
 10
55.15000000000001
 20
8.008777388013286
 30
0.0
  0
POINT
  5
F6
330
EC
100
AcDbEntity
  8
Defpoints
 62
     0
100
AcDbPoint
 10
55.15000000000001
 20
-7.993238521837153
 30
0.0
  0
POINT
  5
F7
330
EC
100
AcDbEntity
  8
Defpoints
 62
     0
100
AcDbPoint
 10
70.71619031224631
 20
-7.993238521837095
 30
0.0
  0
ENDBLK
  5
EE
330
EC
100
AcDbEntity
  8
0
100
AcDbBlockEnd
  0
BLOCK
  5
FA
330
F9
100
AcDbEntity
  8
0
100
AcDbBlockBegin
  2
_D_3
 70
     0
 10
0.0
 20
0.0
 30
0.0
  3
_D_3
  1

  0
LINE
  5
FC
330
F9
100
AcDbEntity
  8
치수문자_일반주서
 62
     0
370
    -2
100
AcDbLine
 10
-43.9125
 20
7.999999999999996
 30
0.0
 11
-56.26955944538857
 21
7.99999999999995
 31
0.0
  0
LINE
  5
FD
330
F9
100
AcDbEntity
  8
치수문자_일반주서
 62
     0
370
    -2
100
AcDbLine
 10
-43.9125
 20
-8.000000000000004
 30
0.0
 11
-56.26955944538851
 21
-8.00000000000005
 31
0.0
  0
LINE
  5
FE
330
F9
100
AcDbEntity
  8
치수문자_일반주서
 62
     0
370
    -2
100
AcDbLine
 10
-56.26955944538855
 20
4.697999999999951
 30
0.0
 11
-56.26955944538852
 21
-4.69800000000005
 31
0.0
  0
SOLID
  5
FF
330
F9
100
AcDbEntity
  8
치수문자_일반주서
 62
     0
100
AcDbTrace
 10
-55.71922611205522
 20
4.697999999999952
 30
0.0
 11
-56.81989277872189
 21
4.697999999999949
 31
0.0
 12
-56.26955944538857
 22
7.99999999999995
 32
0.0
 13
-56.26955944538857
 23
7.99999999999995
 33
0.0
  0
SOLID
  5
100
330
F9
100
AcDbEntity
  8
치수문자_일반주서
 62
     0
100
AcDbTrace
 10
-56.81989277872186
 20
-4.698000000000052
 30
0.0
 11
-55.71922611205519
 21
-4.698000000000048
 31
0.0
 12
-56.26955944538851
 22
-8.00000000000005
 32
0.0
 13
-56.26955944538851
 23
-8.00000000000005
 33
0.0
  0
MTEXT
  5
101
330
F9
100
AcDbEntity
  8
치수문자_일반주서
 62
     0
100
AcDbMText
 10
-60.64455944538854
 20
-0.0000000000000165
 30
0.0
 40
3.5
 41
0.0
 71
     2
 72
     1
  1
\A1;%%c16
  7
SLDTEXTSTYLE0
 11
-3.552713678800501E-15
 21
1.0
 31
0.0
 73
     1
 44
1.0
  0
POINT
  5
102
330
F9
100
AcDbEntity
  8
Defpoints
 62
     0
100
AcDbPoint
 10
-43.85
 20
7.999999999999996
 30
0.0
  0
POINT
  5
103
330
F9
100
AcDbEntity
  8
Defpoints
 62
     0
100
AcDbPoint
 10
-43.85
 20
-8.000000000000004
 30
0.0
  0
POINT
  5
104
330
F9
100
AcDbEntity
  8
Defpoints
 62
     0
100
AcDbPoint
 10
-56.26955944538852
 20
-8.00000000000005
 30
0.0
  0
ENDBLK
  5
FB
330
F9
100
AcDbEntity
  8
0
100
AcDbBlockEnd
  0
BLOCK
  5
106
330
105
100
AcDbEntity
  8
0
100
AcDbBlockBegin
  2
SW_DOWELSYMBOL_0
 70
     0
 10
0.0
 20
0.0
 30
0.0
  3
SW_DOWELSYMBOL_0
  1

  0
CIRCLE
  5
108
330
105
100
AcDbEntity
  8
외형선
 62
     0
100
AcDbCircle
 10
0.0
 20
0.0
 30
0.0
 40
3.000000000000004
  0
HATCH
  5
109
330
105
100
AcDbEntity
  8
0
  6
Continuous
 62
     0
370
    30
100
AcDbHatch
 10
0.0
 20
0.0
 30
0.0
210
0.0
220
0.0
230
1.0
  2
SOLID
 70
     1
 71
     0
 91
        1
 92
        0
 93
        3
 72
     2
 10
0.0000000000000087
 20
-0.0000000000000035
 40
3.000000000000004
 50
0.0
 51
90.0
 73
     1
 72
     1
 10
0.0000000000000087
 20
3.000000000000001
 11
0.0000000000000087
 21
-0.0000000000000036
 72
     1
 10
0.0000000000000087
 20
-0.0000000000000035
 11
3.000000000000013
 21
-0.0000000000000035
 97
        0
 75
     0
 76
     1
 98
        1
 10
0.0
 20
0.0
  0
HATCH
  5
10A
330
105
100
AcDbEntity
  8
0
  6
Continuous
 62
     0
370
    30
100
AcDbHatch
 10
0.0
 20
0.0
 30
0.0
210
0.0
220
0.0
230
1.0
  2
SOLID
 70
     1
 71
     0
 91
        1
 92
        0
 93
        3
 72
     2
 10
0.0000000000000087
 20
-0.0000000000000035
 40
3.000000000000004
 50
180.0
 51
270.0000000000007
 73
     1
 72
     1
 10
0.0000000000000087
 20
-3.000000000000008
 11
0.0000000000000087
 21
-0.0000000000000036
 72
     1
 10
0.0000000000000087
 20
-0.0000000000000035
 11
-2.999999999999996
 21
-0.0000000000000035
 97
        0
 75
     0
 76
     1
 98
        1
 10
0.0
 20
0.0
  0
ENDBLK
  5
107
330
105
100
AcDbEntity
  8
0
100
AcDbBlockEnd
  0
BLOCK
  5
189
330
188
100
AcDbEntity
  8
0
100
AcDbBlockBegin
  2
*D7
 70
     1
 10
0.0
 20
0.0
 30
0.0
  3
*D7
  1

  0
LINE
  5
18B
330
188
100
AcDbEntity
  8
치수문자_일반주서
 62
     0
370
    -2
100
AcDbLine
 10
0.1499999999999995
 20
7.9125
 30
0.0
 11
0.1499999999999986
 21
22.1137373675304
 31
0.0
  0
LINE
  5
18C
330
188
100
AcDbEntity
  8
치수문자_일반주서
 62
     0
370
    -2
100
AcDbLine
 10
55.15000000000001
 20
8.118238521837158
 30
0.0
 11
55.15000000000001
 21
22.1137373675304
 31
0.0
  0
LINE
  5
18D
330
188
100
AcDbEntity
  8
치수문자_일반주서
 62
     0
370
    -2
100
AcDbLine
 10
3.451999999999999
 20
22.1137373675304
 30
0.0
 11
51.84800000000001
 21
22.1137373675304
 31
0.0
  0
SOLID
  5
18E
330
188
100
AcDbEntity
  8
치수문자_일반주서
 62
     0
100
AcDbTrace
 10
3.451999999999999
 20
22.66407070086374
 30
0.0
 11
3.451999999999999
 21
21.56340403419707
 31
0.0
 12
0.1499999999999986
 22
22.1137373675304
 32
0.0
 13
0.1499999999999986
 23
22.1137373675304
 33
0.0
  0
SOLID
  5
18F
330
188
100
AcDbEntity
  8
치수문자_일반주서
 62
     0
100
AcDbTrace
 10
51.84800000000001
 20
21.56340403419707
 30
0.0
 11
51.84800000000001
 21
22.66407070086374
 31
0.0
 12
55.15000000000001
 22
22.1137373675304
 32
0.0
 13
55.15000000000001
 23
22.1137373675304
 33
0.0
  0
MTEXT
  5
190
330
188
100
AcDbEntity
  8
치수문자_일반주서
 62
     0
100
AcDbMText
 10
27.65
 20
24.7387373675304
 30
0.0
 40
3.5
 41
0.0
 71
     5
 72
     1
  1
\A1;55
  7
SLDTEXTSTYLE0
 73
     1
 44
1.0
  0
POINT
  5
191
330
188
100
AcDbEntity
  8
Defpoints
 62
     0
100
AcDbPoint
 10
0.1499999999999995
 20
7.85
 30
0.0
  0
POINT
  5
192
330
188
100
AcDbEntity
  8
Defpoints
 62
     0
100
AcDbPoint
 10
55.15000000000001
 20
8.055738521837158
 30
0.0
  0
POINT
  5
193
330
188
100
AcDbEntity
  8
Defpoints
 62
     0
100
AcDbPoint
 10
55.15000000000001
 20
22.1137373675304
 30
0.0
  0
ENDBLK
  5
18A
330
188
100
AcDbEntity
  8
0
100
AcDbBlockEnd
  0
ENDSEC
  0
SECTION
  2
ENTITIES
  0
LINE
  5
95
330
1F
100
AcDbEntity
  8
0
  6
Continuous
 62
     4
370
    15
100
AcDbLine
 10
-0.0000000000000009
 20
8.0
 30
0.0
 11
-43.85
 21
7.999999999999996
 31
0.0
  0
LINE
  5
98
330
1F
100
AcDbEntity
  8
0
  6
Continuous
 62
     4
370
    15
100
AcDbLine
 10
-43.85
 20
-8.000000000000004
 30
0.0
 11
0.0000000000000009
 21
-8.0
 31
0.0
  0
LINE
  5
99
330
1F
100
AcDbEntity
  8
0
  6
Continuous
 62
     4
370
    15
100
AcDbLine
 10
-43.85
 20
7.999999999999992
 30
0.0
 11
-44.85
 21
6.999999999999992
 31
0.0
  0
LINE
  5
9A
330
1F
100
AcDbEntity
  8
0
  6
Continuous
 62
     4
370
    15
100
AcDbLine
 10
-44.85
 20
-6.999999999999999
 30
0.0
 11
-43.85
 21
-7.999999999999999
 31
0.0
  0
SPLINE
  5
9B
330
1F
100
AcDbEntity
  8
0
  6
Continuous
 62
     1
370
    15
100
AcDbSpline
210
0.0
220
0.0
230
1.0
 70
     8
 71
     3
 72
     9
 73
     5
 74
     0
 42
0.000000001
 43
0.00000001
 40
0.0
 40
0.0
 40
0.0
 40
0.0
 40
0.5257090934122286
 40
1.0
 40
1.0
 40
1.0
 40
1.0
 10
34.4232227629445
 20
2.050024020311521
 30
0.0
 10
34.03465331218298
 20
2.235634637963421
 30
0.0
 10
33.29551933936271
 20
2.588701799969607
 30
0.0
 10
32.55592144815523
 20
2.976180693076623
 30
0.0
 10
32.20513689382403
 20
3.159958408571974
 30
0.0
  0
LINE
  5
9C
330
1F
100
AcDbEntity
  8
0
  6
Continuous
 62
     1
370
    15
100
AcDbLine
 10
29.9799182991661
 20
2.263809411750338
 30
0.0
 11
29.91426550113025
 21
2.299953169266109
 31
0.0
  0
LINE
  5
9D
330
1F
100
AcDbEntity
  8
0
  6
Continuous
 62
     1
370
    15
100
AcDbLine
 10
16.06461098926389
 20
8.000000000000004
 30
0.0
 11
15.14999999999999
 21
8.000000000000004
 31
0.0
  0
SPLINE
  5
9E
330
1F
100
AcDbEntity
  8
0
  6
Continuous
 62
     1
370
    15
100
AcDbSpline
210
0.0
220
0.0
230
1.0
 70
     8
 71
     3
 72
    20
 73
    16
 74
     0
 42
0.000000001
 43
0.00000001
 40
0.0
 40
0.0
 40
0.0
 40
0.0
 40
0.1260346556619862
 40
0.2429985351457462
 40
0.3432721258177501
 40
0.4213390637345066
 40
0.4838132671418552
 40
0.5363508326731005
 40
0.5870521749055854
 40
0.6588874665492104
 40
0.7431052543025473
 40
0.8106555254593325
 40
0.8662841033764306
 40
0.949516424340369
 40
1.0
 40
1.0
 40
1.0
 40
1.0
 10
31.77892616898939
 20
6.357108861009663
 30
0.0
 10
31.52209284281515
 20
6.343525204531405
 30
0.0
 10
31.02691061131584
 20
6.317335514014914
 30
0.0
 10
30.26417912628863
 20
6.289397601074281
 30
0.0
 10
29.61607896449092
 20
6.271078266261958
 30
0.0
 10
29.0897577354656
 20
6.259846723282299
 30
0.0
 10
28.6725425622675
 20
6.253503804492607
 30
0.0
 10
28.31518839239752
 20
6.24980857085023
 30
0.0
 10
27.93780373038477
 20
6.247561711438795
 30
0.0
 10
27.48869707590326
 20
6.247305316723831
 30
0.0
 10
27.00250606014876
 20
6.25033635323441
 30
0.0
 10
26.55204058851369
 20
6.256038677559071
 30
0.0
 10
26.10470708704752
 20
6.264206013530745
 30
0.0
 10
25.69437797539538
 20
6.2735579186703
 30
0.0
 10
25.40468531050774
 20
6.283104120773108
 30
0.0
 10
25.29531371045732
 20
6.286708227900896
 30
0.0
  0
SPLINE
  5
9F
330
1F
100
AcDbEntity
  8
0
  6
Continuous
 62
     1
370
    15
100
AcDbSpline
210
0.0
220
0.0
230
1.0
 70
     8
 71
     3
 72
    33
 73
    29
 74
     0
 42
0.000000001
 43
0.00000001
 40
0.0
 40
0.0
 40
0.0
 40
0.0
 40
0.0585096054394437
 40
0.1066113563858348
 40
0.1450590487422173
 40
0.1782053324987796
 40
0.2159154851535467
 40
0.2478146025815162
 40
0.2769306232583955
 40
0.3064442590222711
 40
0.3476665095622738
 40
0.3889658659316241
 40
0.4176673265580979
 40
0.4521470500209325
 40
0.5000904212392587
 40
0.5462842122073138
 40
0.5835377029924526
 40
0.6191690240442885
 40
0.6591821481824567
 40
0.6965961833571311
 40
0.7272408946199823
 40
0.752483041566588
 40
0.7778923630063819
 40
0.806054072376244
 40
0.8416175013144777
 40
0.8847718311713134
 40
0.9370945799381285
 40
1.0
 40
1.0
 40
1.0
 40
1.0
 10
52.17791678770595
 20
5.471622940775488
 30
0.0
 10
51.91412298813809
 20
5.449809094156724
 30
0.0
 10
51.43345977793735
 20
5.410061709799024
 30
0.0
 10
50.76217077927108
 20
5.365594844952553
 30
0.0
 10
50.19150471502908
 20
5.334592082283264
 30
0.0
 10
49.67305318878644
 20
5.310767525600817
 30
0.0
 10
49.18919165864713
 20
5.292838466002994
 30
0.0
 10
48.7300048466415
 20
5.279971584256881
 30
0.0
 10
48.30750456765802
 20
5.2714174006661
 30
0.0
 10
47.84144743091292
 20
5.265493088686762
 30
0.0
 10
47.31894061161258
 20
5.263588223383178
 30
0.0
 10
46.80045750584653
 20
5.267238778461529
 30
0.0
 10
46.31381471672188
 20
5.275038951323588
 30
0.0
 10
45.79088619875585
 20
5.287652471710905
 30
0.0
 10
45.18298822843718
 20
5.308621384915334
 30
0.0
 10
44.56469829483405
 20
5.337460402300511
 30
0.0
 10
44.01802850488967
 20
5.369261126071992
 30
0.0
 10
43.50261179517673
 20
5.403542220235117
 30
0.0
 10
42.97572011273896
 20
5.443285532223356
 30
0.0
 10
42.47161815736965
 20
5.486104910842584
 30
0.0
 10
42.03611801735706
 20
5.526699698010113
 30
0.0
 10
41.65683995568978
 20
5.564657519340618
 30
0.0
 10
41.29004850276303
 20
5.603637852821723
 30
0.0
 10
40.8726023062847
 20
5.650474666462584
 30
0.0
 10
40.36682866112464
 20
5.710852989061647
 30
0.0
 10
39.74242247350715
 20
5.790175172285553
 30
0.0
 10
39.00214973400051
 20
5.893058372230605
 30
0.0
 10
38.4850387426462
 20
5.973281349806448
 30
0.0
 10
38.20273724935323
 20
6.017076718198747
 30
0.0
  0
SPLINE
  5
A0
330
1F
100
AcDbEntity
  8
0
  6
Continuous
 62
     1
370
    15
100
AcDbSpline
210
0.0
220
0.0
230
1.0
 70
     8
 71
     3
 72
    30
 73
    26
 74
     0
 42
0.000000001
 43
0.00000001
 40
0.0
 40
0.0
 40
0.0
 40
0.0
 40
0.0689437061568319
 40
0.1319487396609129
 40
0.1857502575603549
 40
0.2282250319912381
 40
0.2624601749420477
 40
0.291004818379624
 40
0.3183641161056454
 40
0.3572862978745927
 40
0.4028531939178345
 40
0.4392766163634447
 40
0.4690054921661716
 40
0.5129979399079048
 40
0.5637106540308836
 40
0.6068953993926955
 40
0.644345620898728
 40
0.6802453231455745
 40
0.7293770603824724
 40
0.7758867655989559
 40
0.8160547583237195
 40
0.8481833056383967
 40
0.8832155229793998
 40
0.933719453059056
 40
1.0
 40
1.0
 40
1.0
 40
1.0
 10
19.74714891081556
 20
-6.657114755272316
 30
0.0
 10
20.00964424965986
 20
-6.630897271751981
 30
0.0
 10
20.51202410502449
 20
-6.580720626189591
 30
0.0
 10
21.27440899172711
 20
-6.516228076735926
 30
0.0
 10
21.92112333514908
 20
-6.466179689769438
 30
0.0
 10
22.44909035500003
 20
-6.428593290053556
 30
0.0
 10
22.87068842086202
 20
-6.401020900862719
 30
0.0
 10
23.23234293676295
 20
-6.379132412724124
 30
0.0
 10
23.61276575073431
 20
-6.357740415478683
 30
0.0
 10
24.06228201183065
 20
-6.33475353412049
 30
0.0
 10
24.54825448857879
 20
-6.313057024427636
 30
0.0
 10
24.99707625393762
 20
-6.295858079954396
 30
0.0
 10
25.43930622526591
 20
-6.281174633785358
 30
0.0
 10
25.93894308466813
 20
-6.267554347321774
 30
0.0
 10
26.49269399695107
 20
-6.256641048215309
 30
0.0
 10
27.02023747255621
 20
-6.250184891068807
 30
0.0
 10
27.48823330277325
 20
-6.247464119590056
 30
0.0
 10
27.97987045182564
 20
-6.247493367190708
 30
0.0
 10
28.50778298379321
 20
-6.251138044891913
 30
0.0
 10
29.05319068514759
 20
-6.259051946859795
 30
0.0
 10
29.53110207074738
 20
-6.269281040141053
 30
0.0
 10
29.96456696293417
 20
-6.281023708456417
 30
0.0
 10
30.43853303639153
 20
-6.29646543657502
 30
0.0
 10
31.04630022451357
 20
-6.320131091534464
 30
0.0
 10
31.51367152202207
 20
-6.343720684871837
 30
0.0
 10
31.77892616898939
 20
-6.357108861009662
 30
0.0
  0
SPLINE
  5
A1
330
1F
100
AcDbEntity
  8
0
  6
Continuous
 62
     1
370
    15
100
AcDbSpline
210
0.0
220
0.0
230
1.0
 70
     8
 71
     3
 72
    19
 73
    15
 74
     0
 42
0.000000001
 43
0.00000001
 40
0.0
 40
0.0
 40
0.0
 40
0.0
 40
0.1469385753596383
 40
0.269157458170277
 40
0.3699601512216317
 40
0.4530315237352878
 40
0.5188134778249319
 40
0.5781662250054791
 40
0.6371284751216809
 40
0.7087103866778212
 40
0.796104525714089
 40
0.889569785953474
 40
0.9727997452858971
 40
1.0
 40
1.0
 40
1.0
 40
1.0
 10
38.20273724935322
 20
-6.017076718198743
 30
0.0
 10
38.48503874127895
 20
-5.973281348879066
 30
0.0
 10
39.00214973012877
 20
-5.893058369604484
 30
0.0
 10
39.74242248511025
 20
-5.790175180155704
 30
0.0
 10
40.36682862841006
 20
-5.710852966872015
 30
0.0
 10
40.87260239681658
 20
-5.650474727868518
 30
0.0
 10
41.29004825116253
 20
-5.6036376821662
 30
0.0
 10
41.65684079725412
 20
-5.564658090156643
 30
0.0
 10
42.03611460434483
 20
-5.526697383033119
 30
0.0
 10
42.47163547833745
 20
-5.486116659303796
 30
0.0
 10
42.97563757059369
 20
-5.443229545560077
 30
0.0
 10
43.50292594539163
 20
-5.403755301955263
 30
0.0
 10
43.90037688302126
 20
-5.376536215906171
 30
0.0
 10
44.11822851006993
 20
-5.36414366905789
 30
0.0
 10
44.17188791657174
 20
-5.361091239668522
 30
0.0
  0
LINE
  5
A2
330
1F
100
AcDbEntity
  8
0
  6
Continuous
 62
     1
370
    15
100
AcDbLine
 10
15.14999999999999
 20
-8.000000000000004
 30
0.0
 11
16.0646109892639
 21
-8.000000000000004
 31
0.0
  0
LINE
  5
A3
330
1F
100
AcDbEntity
  8
0
  6
Continuous
 62
     4
370
    15
100
AcDbLine
 10
15.14999999999999
 20
8.0
 30
0.0
 11
15.14999999999999
 21
7.817891595304613
 31
0.0
1001
PE_URL
1000

  0
LINE
  5
A7
330
1F
100
AcDbEntity
  8
0
  6
Continuous
 62
     1
370
    15
100
AcDbLine
 10
15.14999999999999
 20
-7.982561004667597
 30
0.0
 11
15.14999999999999
 21
-7.999999999999999
 31
0.0
  0
LINE
  5
AA
330
1F
100
AcDbEntity
  8
0
  6
Continuous
 62
     4
370
    15
100
AcDbLine
 10
-43.85
 20
7.999999999999992
 30
0.0
 11
-43.85
 21
-8.000000000000004
 31
0.0
  0
LINE
  5
AB
330
1F
100
AcDbEntity
  8
0
  6
Continuous
 62
     4
370
    15
100
AcDbLine
 10
-44.85
 20
6.999999999999992
 30
0.0
 11
-44.85
 21
-7.000000000000006
 31
0.0
  0
SPLINE
  5
AE
330
1F
100
AcDbEntity
  8
0
  6
Continuous
 62
     1
370
    15
100
AcDbSpline
210
0.0
220
0.0
230
1.0
 70
    24
 71
     3
 72
    14
 73
    10
 74
     0
 42
0.000000001
 43
0.00000001
 40
0.0
 40
0.0
 40
0.0
 40
0.0
 40
0.25
 40
0.25
 40
0.5
 40
0.5
 40
0.75
 40
0.75
 40
1.0
 40
1.0
 40
1.0
 40
1.0
 10
15.15
 20
-1.613718172925187
 30
0.0
 10
15.15
 20
-2.188776933608065
 30
0.0
 10
15.15
 20
-2.753719932119032
 30
0.0
 10
15.15
 20
-3.819399464456436
 30
0.0
 10
15.15
 20
-4.319779444646827
 30
0.0
 10
15.15
 20
-5.21673692404904
 30
0.0
 10
15.15
 20
-5.613055409168941
 30
0.0
 10
15.15
 20
-6.277141690645587
 30
0.0
 10
15.15
 20
-6.544869164671621
 30
0.0
 10
15.15
 20
-6.745794428716724
 30
0.0
  0
SPLINE
  5
B0
330
1F
100
AcDbEntity
  8
0
  6
Continuous
 62
     1
370
    15
100
AcDbSpline
210
0.0
220
0.0
230
1.0
 70
    24
 71
     3
 72
    14
 73
    10
 74
     0
 42
0.000000001
 43
0.00000001
 40
0.0
 40
0.0
 40
0.0
 40
0.0
 40
0.25
 40
0.25
 40
0.5
 40
0.5
 40
0.75
 40
0.75
 40
1.0
 40
1.0
 40
1.0
 40
1.0
 10
15.14999999999999
 20
5.419063239591348
 30
0.0
 10
15.14999999999999
 20
5.098472486791509
 30
0.0
 10
15.14999999999999
 20
4.690117163698926
 30
0.0
 10
15.14999999999999
 20
3.71256332313486
 30
0.0
 10
15.14999999999999
 20
3.143527264015328
 30
0.0
 10
15.14999999999999
 20
1.893599244116025
 30
0.0
 10
15.14999999999999
 20
1.213373297242526
 30
0.0
 10
15.14999999999999
 20
-0.1878499418353733
 30
0.0
 10
15.14999999999999
 20
-0.9080897091574798
 30
0.0
 10
15.14999999999999
 20
-1.613718172925181
 30
0.0
  0
SPLINE
  5
B1
330
1F
100
AcDbEntity
  8
0
  6
Continuous
 62
     1
370
    15
100
AcDbSpline
210
0.0
220
0.0
230
1.0
 70
    24
 71
     3
 72
     8
 73
     4
 74
     0
 42
0.000000001
 43
0.00000001
 40
0.0
 40
0.0
 40
0.0
 40
0.0
 40
1.0
 40
1.0
 40
1.0
 40
1.0
 10
15.14999999999999
 20
-6.745794428716728
 30
0.0
 10
15.14999999999999
 20
-7.164571375350275
 30
0.0
 10
15.14999999999999
 20
-7.579505417231173
 30
0.0
 10
15.14999999999999
 20
-7.982561004658574
 30
0.0
  0
SPLINE
  5
B2
330
1F
100
AcDbEntity
  8
0
  6
Continuous
 62
     4
370
    15
100
AcDbSpline
210
0.0
220
0.0
230
1.0
 70
    24
 71
     3
 72
    10
 73
     6
 74
     0
 42
0.000000001
 43
0.00000001
 40
0.0
 40
0.0
 40
0.0
 40
0.0
 40
0.5
 40
0.5
 40
1.0
 40
1.0
 40
1.0
 40
1.0
 10
15.14999999999999
 20
7.817891595304607
 30
0.0
 10
15.14999999999999
 20
7.456034344707017
 30
0.0
 10
15.14999999999999
 20
7.045065933828383
 30
0.0
 10
15.14999999999999
 20
6.21439371248123
 30
0.0
 10
15.14999999999999
 20
5.796969997460415
 30
0.0
 10
15.14999999999999
 20
5.41906323959135
 30
0.0
  0
SPLINE
  5
B3
330
1F
100
AcDbEntity
  8
0
  6
Continuous
 62
     1
370
    15
100
AcDbSpline
210
0.0
220
0.0
230
1.0
 70
     8
 71
     3
 72
    23
 73
    19
 74
     0
 42
0.000000001
 43
0.00000001
 40
0.0
 40
0.0
 40
0.0
 40
0.0
 40
0.0642030079190872
 40
0.1283974347944185
 40
0.1925848517185898
 40
0.2567668375758828
 40
0.3209449772972539
 40
0.3839731529515834
 40
0.4470008464231253
 40
0.5100308878937415
 40
0.5730661037085522
 40
0.6373937167447113
 40
0.7017279578845463
 40
0.7660702796098919
 40
0.8304137915372932
 40
0.8947490682114962
 40
0.9590775146128072
 40
1.0
 40
1.0
 40
1.0
 40
1.0
 10
55.15000000000001
 20
-7.591526953855192
 30
0.0
 10
54.31348656304937
 20
-7.415197701034113
 30
0.0
 10
52.64057149323077
 20
-7.06256276265279
 30
0.0
 10
50.13143471974477
 20
-6.236174154165769
 30
0.0
 10
47.62261925544075
 20
-5.223766773989669
 30
0.0
 10
45.1140661926012
 20
-4.035853925604751
 30
0.0
 10
42.62062234055483
 20
-2.725191282435599
 30
0.0
 10
40.14231928354526
 20
-1.335065735435214
 30
0.0
 10
37.67895785333028
 20
0.088680922106611
 30
0.0
 10
35.21548802467622
 20
1.509676190091668
 30
0.0
 10
32.73505482998672
 20
2.892438192315892
 30
0.0
 10
30.23751397408862
 20
4.191448667919448
 30
0.0
 10
27.72291637004771
 20
5.361814990322836
 30
0.0
 10
25.20802762254435
 20
6.355326825379437
 30
0.0
 10
22.69310998357612
 20
7.143038176951849
 30
0.0
 10
20.17846300917585
 20
7.68541342426224
 30
0.0
 10
17.96899965410643
 20
7.975664652334442
 30
0.0
 10
16.59776071521497
 20
7.971259299833947
 30
0.0
 10
16.0646109892639
 20
7.96954646014442
 30
0.0
  0
SPLINE
  5
B4
330
1F
100
AcDbEntity
  8
0
  6
Continuous
 62
     1
370
    15
100
AcDbSpline
210
0.0
220
0.0
230
1.0
 70
     8
 71
     3
 72
    15
 73
    11
 74
     0
 42
0.000000001
 43
0.00000001
 40
0.0
 40
0.0
 40
0.0
 40
0.0
 40
0.1295748307040161
 40
0.259149267048348
 40
0.3887233178388012
 40
0.5182969918899674
 40
0.6478702980250257
 40
0.7774432450755442
 40
0.9070158418812826
 40
1.0
 40
1.0
 40
1.0
 40
1.0
 10
55.15
 20
-6.311778114945725
 30
0.0
 10
54.25309892931175
 20
-6.125042635893068
 30
0.0
 10
52.45929951764458
 20
-5.751572246115291
 30
0.0
 10
49.76860598126464
 20
-4.911628145365742
 30
0.0
 10
47.07792154886197
 20
-3.904056411052695
 30
0.0
 10
44.38724612670451
 20
-2.745369518769098
 30
0.0
 10
41.69657946172865
 20
-1.484017614226774
 30
0.0
 10
39.00592139806579
 20
-0.1691747911036474
 30
0.0
 10
36.56852920453808
 20
1.036425847492964
 30
0.0
 10
35.02802346658787
 20
1.759041503320923
 30
0.0
 10
34.38440054366659
 20
2.06095014870612
 30
0.0
  0
LINE
  5
B5
330
1F
100
AcDbEntity
  8
0
  6
Continuous
 62
     1
370
    15
100
AcDbLine
 10
55.15
 20
-7.591526953855197
 30
0.0
 11
55.15
 21
-6.311778114945725
 31
0.0
  0
SPLINE
  5
B6
330
1F
100
AcDbEntity
  8
0
  6
Continuous
 62
     1
370
    15
100
AcDbSpline
210
0.0
220
0.0
230
1.0
 70
     8
 71
     3
 72
    62
 73
    58
 74
     0
 42
0.000000001
 43
0.00000001
 40
0.0
 40
0.0
 40
0.0
 40
0.0
 40
0.0312499999999999
 40
0.0312499999999999
 40
0.0624999999999998
 40
0.0624999999999998
 40
0.0937499999999997
 40
0.0937499999999997
 40
0.1249999999999996
 40
0.1249999999999996
 40
0.1562499999999994
 40
0.1562499999999994
 40
0.1874999999999993
 40
0.1874999999999993
 40
0.2499999999999991
 40
0.2499999999999991
 40
0.3124999999999989
 40
0.3124999999999989
 40
0.3437499999999988
 40
0.3437499999999988
 40
0.3749999999999987
 40
0.3749999999999987
 40
0.4062499999999988
 40
0.4062499999999988
 40
0.4374999999999989
 40
0.4374999999999989
 40
0.468749999999999
 40
0.468749999999999
 40
0.4999999999999991
 40
0.4999999999999991
 40
0.5312499999999992
 40
0.5312499999999992
 40
0.5624999999999993
 40
0.5624999999999993
 40
0.6249999999999993
 40
0.6249999999999993
 40
0.6562499999999994
 40
0.6562499999999994
 40
0.6874999999999996
 40
0.6874999999999996
 40
0.7187499999999997
 40
0.7187499999999997
 40
0.7499999999999998
 40
0.7499999999999998
 40
0.7812499999999998
 40
0.7812499999999998
 40
0.8124999999999999
 40
0.8124999999999999
 40
0.84375
 40
0.84375
 40
0.875
 40
0.875
 40
0.9062500000000001
 40
0.9062500000000001
 40
0.9375000000000002
 40
0.9375000000000002
 40
1.0
 40
1.0
 40
1.0
 40
1.0
 10
15.14999999999999
 20
7.817891595304618
 30
0.0
 10
15.56716893347122
 20
7.766835935660945
 30
0.0
 10
15.98545761707794
 20
7.705101336745181
 30
0.0
 10
16.81917375387936
 20
7.561042701450718
 30
0.0
 10
17.2330829586298
 20
7.478851987770388
 30
0.0
 10
18.06647150525319
 20
7.294069690605653
 30
0.0
 10
18.48473542020867
 20
7.191523765765587
 30
0.0
 10
19.31930280481566
 20
6.967345092666961
 30
0.0
 10
19.73378630069185
 20
6.845911486165203
 30
0.0
 10
20.56590943633933
 20
6.584547135599188
 30
0.0
 10
20.98398854534325
 20
6.444536542032792
 30
0.0
 10
21.81908959174653
 20
6.14750208736644
 30
0.0
 10
22.23502382975663
 20
5.990624573935297
 30
0.0
 10
23.48083868422079
 20
5.496599782608774
 30
0.0
 10
24.32123714341394
 20
5.134171334326834
 30
0.0
 10
25.98106075647604
 20
4.360745872364562
 30
0.0
 10
26.82014711551098
 20
3.946754734130712
 30
0.0
 10
28.0675502533924
 20
3.298914390290526
 30
0.0
 10
28.48244511977931
 20
3.078368440066238
 30
0.0
 10
29.31723687863335
 20
2.628636061519583
 30
0.0
 10
29.73545391333325
 20
2.399740710850085
 30
0.0
 10
30.56843246117511
 20
1.936697306453242
 30
0.0
 10
30.9824439904542
 20
1.702700741107769
 30
0.0
 10
31.81649633239265
 20
1.229597043118689
 30
0.0
 10
32.23479455518263
 20
0.9908116989447904
 30
0.0
 10
33.06883398776518
 20
0.511686036828016
 30
0.0
 10
33.48283922803183
 20
0.2716833415295553
 30
0.0
 10
34.31583522069329
 20
-0.209364617339081
 30
0.0
 10
34.73405455042859
 20
-0.4502616466432561
 30
0.0
 10
35.56883795176751
 20
-0.9298627196940364
 30
0.0
 10
35.98371395907434
 20
-1.168244673130043
 30
0.0
 10
36.81533800918202
 20
-1.641560481140272
 30
0.0
 10
37.2333184655344
 20
-1.876722443901196
 30
0.0
 10
38.48613273021844
 20
-2.573391369698283
 30
0.0
 10
39.31501225399909
 20
-3.02521070440737
 30
0.0
 10
40.56798807891364
 20
-3.676440499152318
 30
0.0
 10
40.98571647955511
 20
-3.888819170207436
 30
0.0
 10
41.81623478525589
 20
-4.301653136704219
 30
0.0
 10
42.23219619017905
 20
-4.50264398670518
 30
0.0
 10
43.06730257509579
 20
-4.892360028623997
 30
0.0
 10
43.48537787144093
 20
-5.080905251564257
 30
0.0
 10
44.31748057210382
 20
-5.443120634586988
 30
0.0
 10
44.73197867883654
 20
-5.616885610738198
 30
0.0
 10
45.56655596147006
 20
-5.949480668494432
 30
0.0
 10
45.98481835718898
 20
-6.108039519488289
 30
0.0
 10
46.8181909903027
 20
-6.407769985974864
 30
0.0
 10
47.23210223137119
 20
-6.548835207985104
 30
0.0
 10
48.06583281314568
 20
-6.81350475199676
 30
0.0
 10
48.48412227287953
 20
-6.936906905520214
 30
0.0
 10
49.3184487679558
 20
-7.164327830212474
 30
0.0
 10
49.73265031834969
 20
-7.268218002969058
 30
0.0
 10
50.56521767500372
 20
-7.456392934806649
 30
0.0
 10
50.98337412880711
 20
-7.540621622942792
 30
0.0
 10
51.81833720561428
 20
-7.688276323661059
 30
0.0
 10
52.23370587301444
 20
-7.751643584710614
 30
0.0
 10
53.48033949455486
 20
-7.910086042963123
 30
0.0
 10
54.32070237582718
 20
-7.973493970477088
 30
0.0
 10
55.15
 20
-7.993238521837149
 30
0.0
  0
SPLINE
  5
B7
330
1F
100
AcDbEntity
  8
0
  6
Continuous
 62
     1
370
    15
100
AcDbSpline
210
0.0
220
0.0
230
1.0
 70
     8
 71
     3
 72
    15
 73
    11
 74
     0
 42
0.000000001
 43
0.00000001
 40
0.0
 40
0.0
 40
0.0
 40
0.0
 40
0.0818902110081127
 40
0.2156013074838561
 40
0.3493120561053135
 40
0.483022466406968
 40
0.6167325479311099
 40
0.7444946938863013
 40
0.872250117087045
 40
1.0
 40
1.0
 40
1.0
 40
1.0
 10
35.27252611343821
 20
-0.7578935688579291
 30
0.0
 10
34.72324196349376
 20
-0.5381162920416296
 30
0.0
 10
33.27708155615949
 20
0.0405153618948991
 30
0.0
 10
30.93404835365043
 20
0.9918081651827027
 30
0.0
 10
28.2434270766355
 20
2.042761299632688
 30
0.0
 10
25.55281827818598
 20
3.017798935474791
 30
0.0
 10
22.9020925728127
 20
3.867352720325613
 30
0.0
 10
20.29137632119181
 20
4.562154247270244
 30
0.0
 10
17.72063851066166
 20
5.103098777583732
 30
0.0
 10
16.00686711661384
 20
5.31374327476937
 30
0.0
 10
15.15
 20
5.419063239591347
 30
0.0
  0
SPLINE
  5
B8
330
1F
100
AcDbEntity
  8
0
  6
Continuous
 62
     4
370
    15
100
AcDbSpline
210
0.0
220
0.0
230
1.0
 70
    24
 71
     3
 72
    10
 73
     6
 74
     0
 42
0.000000001
 43
0.00000001
 40
0.0
 40
0.0
 40
0.0
 40
0.0
 40
0.5
 40
0.5
 40
1.0
 40
1.0
 40
1.0
 40
1.0
 10
15.14999999999999
 20
7.817891595304605
 30
0.0
 10
15.14999999999999
 20
7.456034344707017
 30
0.0
 10
15.14999999999999
 20
7.045065933828383
 30
0.0
 10
15.14999999999999
 20
6.214393712481227
 30
0.0
 10
15.14999999999999
 20
5.796969997460415
 30
0.0
 10
15.14999999999999
 20
5.41906323959135
 30
0.0
  0
LINE
  5
B9
330
1F
100
AcDbEntity
  8
0
  6
Continuous
 62
     1
370
    15
100
AcDbLine
 10
55.15000000000001
 20
-7.993238521837153
 30
0.0
 11
55.15
 21
-7.591526953855203
 31
0.0
  0
SPLINE
  5
BA
330
1F
100
AcDbEntity
  8
0
  6
Continuous
 62
     1
370
    15
100
AcDbSpline
210
0.0
220
0.0
230
1.0
 70
     8
 71
     3
 72
     8
 73
     4
 74
     0
 42
0.000000001
 43
0.00000001
 40
0.0
 40
0.0
 40
0.0
 40
0.0
 40
1.0
 40
1.0
 40
1.0
 40
1.0
 10
50.20015961782927
 20
2.237560614295321
 30
0.0
 10
50.18334167603632
 20
2.257479982395577
 30
0.0
 10
50.16662136476896
 20
2.277367021152033
 30
0.0
 10
50.15000000000817
 20
2.297221294791131
 30
0.0
  0
LINE
  5
BB
330
1F
100
AcDbEntity
  8
0
  6
Continuous
 62
     1
370
    15
100
AcDbLine
 10
50.15000000000001
 20
2.937719435296592
 30
0.0
 11
55.15
 21
0.0000000000000054
 31
0.0
  0
LINE
  5
BC
330
1F
100
AcDbEntity
  8
0
  6
Continuous
 62
     1
370
    15
100
AcDbLine
 10
55.15
 20
0.0000000000000054
 30
0.0
 11
55.15
 21
-2.137943568237152
 31
0.0
  0
SPLINE
  5
BD
330
1F
100
AcDbEntity
  8
0
  6
Continuous
 62
     1
370
    15
100
AcDbSpline
210
0.0
220
0.0
230
1.0
 70
     8
 71
     3
 72
    12
 73
     8
 74
     0
 42
0.000000001
 43
0.00000001
 40
0.0
 40
0.0
 40
0.0
 40
0.0
 40
0.5
 40
0.5
 40
0.75
 40
0.75
 40
1.0
 40
1.0
 40
1.0
 40
1.0
 10
55.15000000000001
 20
-2.137943568237159
 30
0.0
 10
54.29316304501941
 20
-1.464327440546185
 30
0.0
 10
53.45064017802371
 20
-0.7630972272402888
 30
0.0
 10
52.20889110091626
 20
0.3312574405559822
 30
0.0
 10
51.79870036019438
 20
0.7032296227316178
 30
0.0
 10
50.9867033635173
 20
1.46334895264321
 30
0.0
 10
50.58709642869206
 20
1.849539909839663
 30
0.0
 10
50.20015961782928
 20
2.237560614295321
 30
0.0
  0
SPLINE
  5
BE
330
1F
100
AcDbEntity
  8
0
  6
Continuous
 62
     1
370
    15
100
AcDbSpline
210
0.0
220
0.0
230
1.0
 70
     8
 71
     3
 72
    15
 73
    11
 74
     0
 42
0.000000001
 43
0.00000001
 40
0.0
 40
0.0
 40
0.0
 40
0.0
 40
0.1051403725785433
 40
0.2102612564114311
 40
0.3155350192815334
 40
0.4615670154186484
 40
0.607598601081895
 40
0.7536297863775241
 40
0.8996605814209538
 40
1.0
 40
1.0
 40
1.0
 40
1.0
 10
50.20015961782927
 20
2.237560614295325
 30
0.0
 10
49.55453353432008
 20
2.512797836396722
 30
0.0
 10
48.26340104009934
 20
3.063221262821232
 30
0.0
 10
46.32605308332323
 20
3.818120808117059
 30
0.0
 10
44.13692044731965
 20
4.588850365316326
 30
0.0
 10
41.69660856117678
 20
5.315383785144299
 30
0.0
 10
39.00594880585089
 20
5.918969803779445
 30
0.0
 10
36.31530562389651
 20
6.291155113900823
 30
0.0
 10
33.9052891939031
 20
6.442644092206192
 30
0.0
 10
32.3921552433853
 20
6.363417552219844
 30
0.0
 10
31.77589981788236
 20
6.331150887993782
 30
0.0
  0
SPLINE
  5
BF
330
1F
100
AcDbEntity
  8
0
  6
Continuous
 62
     1
370
    15
100
AcDbSpline
210
0.0
220
0.0
230
1.0
 70
    24
 71
     3
 72
    10
 73
     6
 74
     0
 42
0.000000001
 43
0.00000001
 40
0.0
 40
0.0
 40
0.0
 40
0.0
 40
0.5
 40
0.5
 40
1.0
 40
1.0
 40
1.0
 40
1.0
 10
55.15
 20
-6.311778114945722
 30
0.0
 10
55.14999999999999
 20
-5.827931112030435
 30
0.0
 10
55.14999999999999
 20
-5.216571871251745
 30
0.0
 10
55.15
 20
-3.795220473205438
 30
0.0
 10
55.15
 20
-2.986459544410478
 30
0.0
 10
55.15
 20
-2.137943568237414
 30
0.0
  0
SPLINE
  5
C0
330
1F
100
AcDbEntity
  8
0
  6
Continuous
 62
     1
370
    15
100
AcDbSpline
210
0.0
220
0.0
230
1.0
 70
    24
 71
     3
 72
     8
 73
     4
 74
     0
 42
0.000000001
 43
0.00000001
 40
0.0
 40
0.0
 40
0.0
 40
0.0
 40
1.0
 40
1.0
 40
1.0
 40
1.0
 10
50.14999999999999
 20
2.297221294800892
 30
0.0
 10
50.14999999999999
 20
2.873887513832465
 30
0.0
 10
50.15000000000001
 20
3.404182854907316
 30
0.0
 10
50.15000000000001
 20
3.849725336690625
 30
0.0
  0
SPLINE
  5
C1
330
1F
100
AcDbEntity
  8
0
  6
Continuous
 62
     1
370
    15
100
AcDbSpline
210
0.0
220
0.0
230
1.0
 70
     8
 71
     3
 72
     9
 73
     5
 74
     0
 42
0.000000001
 43
0.00000001
 40
0.0
 40
0.0
 40
0.0
 40
0.0
 40
0.9044644342555751
 40
0.9999999999999999
 40
0.9999999999999999
 40
0.9999999999999999
 40
0.9999999999999999
 10
55.15000000000001
 20
5.600000000000004
 30
0.0
 10
54.25310078979473
 20
5.596052308711435
 30
0.0
 10
53.26146510326441
 20
5.591687635940396
 30
0.0
 10
52.26982990256202
 20
5.473150513064001
 30
0.0
 10
52.17509347265084
 20
5.461826001968288
 30
0.0
  0
SPLINE
  5
C2
330
1F
100
AcDbEntity
  8
0
  6
Continuous
 62
     1
370
    15
100
AcDbSpline
210
0.0
220
0.0
230
1.0
 70
     8
 71
     3
 72
    10
 73
     6
 74
     0
 42
0.000000001
 43
0.00000001
 40
0.0
 40
0.0
 40
0.0
 40
0.0
 40
0.5
 40
0.5
 40
1.0
 40
1.0
 40
1.0
 40
1.0
 10
55.15
 20
5.600000000000002
 30
0.0
 10
54.30451548105719
 20
5.370725705910415
 30
0.0
 10
53.46427087673433
 20
5.112464311961331
 30
0.0
 10
51.79521591934474
 20
4.53287448272785
 30
0.0
 10
50.96772385668928
 20
4.212516972543656
 30
0.0
 10
50.15
 20
3.849725336688059
 30
0.0
  0
SPLINE
  5
C3
330
1F
100
AcDbEntity
  8
0
  6
Continuous
 62
     1
370
    15
100
AcDbSpline
210
0.0
220
0.0
230
1.0
 70
     8
 71
     3
 72
     9
 73
     5
 74
     0
 42
0.000000001
 43
0.00000001
 40
0.0
 40
0.0
 40
0.0
 40
0.0
 40
0.4412505363451268
 40
1.0
 40
1.0
 40
1.0
 40
1.0
 10
19.75060971881481
 20
-6.637532768366042
 30
0.0
 10
19.07393261913739
 20
-6.70125108993915
 30
0.0
 10
17.54038864821708
 20
-6.845655042625276
 30
0.0
 10
16.0068589155991
 20
-6.781590472765282
 30
0.0
 10
15.15000000000001
 20
-6.745794428716728
 30
0.0
  0
SPLINE
  5
C4
330
1F
100
AcDbEntity
  8
0
  6
Continuous
 62
     1
370
    15
100
AcDbSpline
210
0.0
220
0.0
230
1.0
 70
     8
 71
     3
 72
    16
 73
    12
 74
     0
 42
0.000000001
 43
0.00000001
 40
0.0
 40
0.0
 40
0.0
 40
0.0
 40
0.082215631579575
 40
0.1988876477728446
 40
0.3155593602611223
 40
0.4322307771402744
 40
0.5489019065129435
 40
0.6655727564883657
 40
0.7770538829660766
 40
0.8885292957958709
 40
1.0
 40
1.0
 40
1.0
 40
1.0
 10
38.21132300600608
 20
-5.991715748735342
 30
0.0
 10
37.57931629989076
 20
-6.089957759805694
 30
0.0
 10
36.05043031141207
 20
-6.32761478583419
 30
0.0
 10
33.62466838392545
 20
-6.434223481408383
 30
0.0
 10
30.93403984126614
 20
-6.341331827991432
 30
0.0
 10
28.24341739885163
 20
-6.001888789670788
 30
0.0
 10
25.55280863365888
 20
-5.438990328601299
 30
0.0
 10
22.90207659134525
 20
-4.682729500743982
 30
0.0
 10
20.29136759063575
 20
-3.770460666465071
 30
0.0
 10
17.72063306238142
 20
-2.746636336762871
 30
0.0
 10
16.00686562252828
 20
-1.991352243666916
 30
0.0
 10
15.14999999999999
 20
-1.613718172925183
 30
0.0
  0
SPLINE
  5
C5
330
1F
100
AcDbEntity
  8
0
  6
Continuous
 62
     4
370
    15
100
AcDbSpline
210
0.0
220
0.0
230
1.0
 70
    24
 71
     3
 72
    14
 73
    10
 74
     0
 42
0.000000001
 43
0.00000001
 40
0.0
 40
0.0
 40
0.0
 40
0.0
 40
0.2499999999999999
 40
0.2499999999999999
 40
0.4999999999999998
 40
0.4999999999999998
 40
0.7499999999999999
 40
0.7499999999999999
 40
1.0
 40
1.0
 40
1.0
 40
1.0
 10
15.14999999999999
 20
-1.613718172925185
 30
0.0
 10
15.14999999999999
 20
-2.188776933608064
 30
0.0
 10
15.14999999999999
 20
-2.753719932119031
 30
0.0
 10
15.14999999999999
 20
-3.819399464456434
 30
0.0
 10
15.14999999999999
 20
-4.319779444646824
 30
0.0
 10
15.14999999999999
 20
-5.216736924049038
 30
0.0
 10
15.14999999999999
 20
-5.613055409168942
 30
0.0
 10
15.14999999999999
 20
-6.277141690645585
 30
0.0
 10
15.14999999999999
 20
-6.544869164671621
 30
0.0
 10
15.14999999999999
 20
-6.745794428716724
 30
0.0
  0
SPLINE
  5
C6
330
1F
100
AcDbEntity
  8
0
  6
Continuous
 62
     4
370
    15
100
AcDbSpline
210
0.0
220
0.0
230
1.0
 70
    24
 71
     3
 72
    14
 73
    10
 74
     0
 42
0.000000001
 43
0.00000001
 40
0.0
 40
0.0
 40
0.0
 40
0.0
 40
0.25
 40
0.25
 40
0.5
 40
0.5
 40
0.75
 40
0.75
 40
1.0
 40
1.0
 40
1.0
 40
1.0
 10
15.15
 20
5.419063239591348
 30
0.0
 10
15.15
 20
5.098472486791508
 30
0.0
 10
15.15
 20
4.690117163698925
 30
0.0
 10
15.15
 20
3.71256332313486
 30
0.0
 10
15.15
 20
3.143527264015324
 30
0.0
 10
15.15
 20
1.893599244116023
 30
0.0
 10
15.15
 20
1.213373297242526
 30
0.0
 10
15.15
 20
-0.187849941835376
 30
0.0
 10
15.15
 20
-0.9080897091574819
 30
0.0
 10
15.15
 20
-1.613718172925183
 30
0.0
  0
LINE
  5
C7
330
1F
100
AcDbEntity
  8
0
  6
Continuous
 62
     1
370
    15
100
AcDbLine
 10
55.15
 20
0.0000000000000054
 30
0.0
 11
55.15
 21
5.600000000000006
 31
0.0
  0
SPLINE
  5
C8
330
1F
100
AcDbEntity
  8
0
  6
Continuous
 62
     1
370
    15
100
AcDbSpline
210
0.0
220
0.0
230
1.0
 70
     8
 71
     3
 72
    12
 73
     8
 74
     0
 42
0.000000001
 43
0.00000001
 40
0.0
 40
0.0
 40
0.0
 40
0.0
 40
0.008729426493529
 40
0.2565891910024525
 40
0.5044172322209113
 40
0.7522189623198825
 40
1.0
 40
1.0
 40
1.0
 40
1.0
 10
25.29661736992728
 20
-6.286195704019089
 30
0.0
 10
25.26709177308339
 20
-6.297839807771554
 30
0.0
 10
24.3992284588494
 20
-6.640101829681972
 30
0.0
 10
22.69310732733352
 20
-7.12779271460391
 30
0.0
 10
20.17846319761131
 20
-7.692822341013721
 30
0.0
 10
17.66412567537966
 20
-8.001324702616298
 30
0.0
 10
15.98801856389665
 20
-7.988815396547182
 30
0.0
 10
15.14999999999974
 20
-7.98256100466759
 30
0.0
  0
SPLINE
  5
C9
330
1F
100
AcDbEntity
  8
0
  6
Continuous
 62
     4
370
    15
100
AcDbSpline
210
0.0
220
0.0
230
1.0
 70
    24
 71
     3
 72
     8
 73
     4
 74
     0
 42
0.000000001
 43
0.00000001
 40
0.0
 40
0.0
 40
0.0
 40
0.0
 40
1.0
 40
1.0
 40
1.0
 40
1.0
 10
15.14999999999999
 20
-6.745794428716728
 30
0.0
 10
15.14999999999999
 20
-7.164571375350278
 30
0.0
 10
15.14999999999999
 20
-7.57950541723118
 30
0.0
 10
15.14999999999999
 20
-7.982561004658582
 30
0.0
  0
SPLINE
  5
CA
330
1F
100
AcDbEntity
  8
0
  6
Continuous
 62
     1
370
    15
100
AcDbSpline
210
0.0
220
0.0
230
1.0
 70
     8
 71
     3
 72
    14
 73
    10
 74
     0
 42
0.000000001
 43
0.00000001
 40
0.0
 40
0.0
 40
0.0
 40
0.0
 40
0.0278625581259918
 40
0.2375557250592464
 40
0.3428802025290999
 40
0.5054353196493159
 40
0.6686695914117075
 40
0.8339773195772405
 40
1.0
 40
1.0
 40
1.0
 40
1.0
 10
44.14230349786424
 20
5.362802022793107
 30
0.0
 10
44.24449651164103
 20
5.40759319422162
 30
0.0
 10
45.11579251303322
 20
5.789482005609237
 30
0.0
 10
46.37515297832408
 20
6.26346139499109
 30
0.0
 10
48.12626405191925
 20
6.842452591794705
 30
0.0
 10
49.70860045680294
 20
7.279406657498355
 30
0.0
 10
51.51075974875816
 20
7.65368245510524
 30
0.0
 10
53.32479045182751
 20
7.909902320976631
 30
0.0
 10
54.5407222289029
 20
7.965419855885708
 30
0.0
 10
55.14999999999969
 20
7.99323852183714
 30
0.0
  0
SPLINE
  5
CB
330
1F
100
AcDbEntity
  8
0
  6
Continuous
 62
     1
370
    15
100
AcDbSpline
210
0.0
220
0.0
230
1.0
 70
    24
 71
     3
 72
    10
 73
     6
 74
     0
 42
0.000000001
 43
0.00000001
 40
0.0
 40
0.0
 40
0.0
 40
0.0
 40
0.5
 40
0.5
 40
1.0
 40
1.0
 40
1.0
 40
1.0
 10
55.15
 20
5.600000000000006
 30
0.0
 10
55.15
 20
5.939458054458518
 30
0.0
 10
55.14999999999999
 20
6.333939750936943
 30
0.0
 10
55.14999999999999
 20
7.161561287686847
 30
0.0
 10
55.15
 20
7.592587486411785
 30
0.0
 10
55.15000000000001
 20
7.993238521837158
 30
0.0
  0
LINE
  5
CC
330
1F
100
AcDbEntity
  8
중심선
100
AcDbLine
 10
-47.84999999999999
 20
-0.0000000000000035
 30
0.0
 11
62.15
 21
0.0000000000000053
 31
0.0
  0
CIRCLE
  5
CD
330
1F
100
AcDbEntity
  8
외형선
100
AcDbCircle
 10
0.0000000000000009
 20
0.0
 30
0.0
 40
3.000000000000004
  0
INSERT
  5
CE
330
1F
100
AcDbEntity
  8
0
  6
Continuous
 62
     7
100
AcDbBlockReference
 66
     1
  2
블럭10
 10
-18.88815778634501
 20
-52.04717430164393
 30
0.0
  0
ATTRIB
  5
CF
330
CE
100
AcDbEntity
  8
FORMAT
 62
     2
100
AcDbText
 10
-31.84809698120278
 20
-49.97180738881173
 30
0.0
 40
4.233333333333333
  1
SEME35160E [ 2 FLUTE ]
 41
0.75
  7
SLDTEXTSTYLE0
 11
-31.84809698120278
 21
-52.0884740554784
 31
0.0
100
AcDbAttribute
  2
AUTOATTR0
 70
     0
 74
     1
  0
SEQEND
  5
D0
330
CE
100
AcDbEntity
  8
0
  6
Continuous
 62
     7
  0
HATCH
  5
D1
330
1F
100
AcDbEntity
  8
중심선
100
AcDbHatch
 10
0.0
 20
0.0
 30
0.0
210
0.0
220
0.0
230
1.0
  2
SOLID
 70
     1
 71
     0
 91
        1
 92
        0
 93
        4
 72
     1
 10
-13.17324848196416
 20
-35.8
 11
-16.61952372580144
 21
-35.8
 72
     1
 10
-16.61952372580144
 20
-35.8
 11
-18.74775358500547
 21
-38.33632558057259
 72
     1
 10
-18.74775358500546
 20
-38.33632558057259
 11
-15.30144525605503
 21
-38.3362861512701
 72
     1
 10
-15.30144525605503
 20
-38.3362861512701
 11
-13.17324848196416
 21
-35.8
 97
        0
 75
     0
 76
     1
 98
        1
 10
5.050115653166602
 20
0.0000000000000036
  0
HATCH
  5
D2
330
1F
100
AcDbEntity
  8
중심선
100
AcDbHatch
 10
0.0
 20
0.0
 30
0.0
210
0.0
220
0.0
230
1.0
  2
SOLID
 70
     1
 71
     0
 91
        1
 92
        0
 93
        4
 72
     1
 10
-8.160484490928207
 20
-35.8
 11
-11.60675973476549
 21
-35.8
 72
     1
 10
-11.60675973476549
 20
-35.8
 11
-16.13789774312288
 21
-41.20000000000002
 72
     1
 10
-16.13789774312288
 20
-41.20000000000002
 11
-12.6916224992856
 21
-41.20000000000002
 72
     1
 10
-12.69162249928559
 20
-41.20000000000002
 11
-8.160484490928207
 21
-35.8
 97
        0
 75
     0
 76
     1
 98
        1
 10
5.050115653166602
 20
0.0000000000000036
  0
HATCH
  5
D3
330
1F
100
AcDbEntity
  8
중심선
100
AcDbHatch
 10
0.0
 20
0.0
 30
0.0
210
0.0
220
0.0
230
1.0
  2
SOLID
 70
     1
 71
     0
 91
        1
 92
        0
 93
        4
 72
     1
 10
-3.14772049989231
 20
-35.80000000000003
 11
-6.593995743729428
 21
-35.8
 72
     1
 10
-6.593995743729428
 20
-35.8
 11
-13.64243264561867
 21
-44.20000000000002
 72
     1
 10
-13.64243264561867
 20
-44.20000000000002
 11
-10.19615740178139
 21
-44.20000000000002
 72
     1
 10
-10.19615740178139
 20
-44.20000000000002
 11
-3.14772049989231
 21
-35.80000000000003
 97
        0
 75
     0
 76
     1
 98
        1
 10
5.050115653166602
 20
0.0000000000000036
  0
HATCH
  5
D4
330
1F
100
AcDbEntity
  8
중심선
100
AcDbHatch
 10
0.0
 20
0.0
 30
0.0
210
0.0
220
0.0
230
1.0
  2
SOLID
 70
     1
 71
     0
 91
        1
 92
        0
 93
        6
 72
     3
 10
1.652169931119888
 20
-40.00000000005127
 11
3.960054785062284
 21
1.540882976769353E-10
 40
0.3939339440162627
 50
17.09539180608438
 51
320.0019657685078
 73
     0
 72
     1
 10
3.335169586820483
 20
-38.5878940046383
 11
5.640471460521521
 21
-36.65356729459038
 72
     3
 10
1.652169931067041
 20
-40.00000000000014
 11
6.600054785286829
 21
-1.278976924368180E-13
 40
0.636358354079598
 50
39.99873849337404
 51
368.4976242363724
 73
     1
 72
     1
 10
8.077502422967651
 20
-39.03999999993002
 11
0.3322372379029641
 21
-39.03999999992999
 72
     1
 10
0.3322372379029641
 20
-39.03999999992999
 11
0.3322121934570301
 21
-40.95999999992991
 72
     1
 10
0.3322121934570301
 20
-40.95999999992991
 11
4.773591962929067
 21
-40.95999999992988
 97
        0
 75
     0
 76
     1
 98
        1
 10
5.050115653166602
 20
0.0000000000000036
  0
DIMENSION
  5
D5
102
{ACAD_XDICTIONARY
360
197
102
}
330
1F
100
AcDbEntity
  8
치수문자_일반주서
100
AcDbDimension
  2
_D
 10
15.14999999999999
 20
15.14661926091858
 30
0.0
 11
35.05527429111947
 21
15.14661926091858
 31
0.0
 70
   160
  1
<>
 71
     2
 42
40.00000000000001
  3
SLDDIMSTYLE0
100
AcDbAlignedDimension
 13
55.15000000000001
 23
7.993238521837158
 33
0.0
 14
15.14999999999999
 24
8.0
 34
0.0
 50
0.0000000000000102
100
AcDbRotatedDimension
1001
ENABLE_CUSTOM_SPLIT
1070
     1
  0
DIMENSION
  5
E0
330
1F
100
AcDbEntity
  8
치수문자_일반주서
100
AcDbDimension
  2
_D_1
 10
-44.85000000000001
 20
28.38415911661227
 30
0.0
 11
5.150000000000014
 21
28.38415911661227
 31
0.0
 70
   160
  1
<>
 71
     2
 42
100.0
  3
SLDDIMSTYLE0
100
AcDbAlignedDimension
 13
55.15000000000001
 23
7.993238521837158
 33
0.0
 14
-44.85
 24
6.999999999999992
 34
0.0
 50
0.0000000000000041
100
AcDbRotatedDimension
  0
DIMENSION
  5
EA
330
1F
100
AcDbEntity
  8
치수문자_일반주서
100
AcDbDimension
  2
_D_2
 10
70.71619031224631
 20
-7.993238521837096
 30
0.0
 11
70.71619031224628
 21
0.0000000000000012
 31
0.0
 70
   160
  1
%%c<>
 71
     2
 42
16.00201590985044
 52
-270.0
  3
SLDDIMSTYLE1
100
AcDbAlignedDimension
 13
55.15000000000001
 23
8.008777388013286
 33
0.0
 14
55.15000000000001
 24
-7.993238521837153
 34
0.0
 50
90.0000000000002
100
AcDbRotatedDimension
  0
DIMENSION
  5
F8
330
1F
100
AcDbEntity
  8
치수문자_일반주서
100
AcDbDimension
  2
_D_3
 10
-56.26955944538851
 20
-8.00000000000005
 30
0.0
 11
-56.26955944538854
 21
-0.0000000000000011
 31
0.0
 70
   160
  1
%%c<>
 71
     2
 42
16.0
 52
-270.0
  3
SLDDIMSTYLE1
100
AcDbAlignedDimension
 13
-43.85
 23
7.999999999999996
 33
0.0
 14
-43.85
 24
-8.000000000000004
 34
0.0
 50
90.0000000000002
100
AcDbRotatedDimension
  0
INSERT
  5
10B
330
1F
100
AcDbEntity
  8
외형선
100
AcDbBlockReference
  2
SW_DOWELSYMBOL_0
 10
0.0000000000000009
 20
0.0
 30
0.0
  0
LINE
  5
17F
330
1F
100
AcDbEntity
  8
0
  6
Continuous
 62
     4
370
    15
100
AcDbLine
 10
0.1499999999999995
 20
7.85
 30
0.0
 11
0.1499999999999995
 21
-7.85
 31
0.0
1001
PE_URL
1000

  0
LINE
  5
180
330
1F
100
AcDbEntity
  8
0
  6
Continuous
 62
     4
370
    15
100
AcDbLine
 10
0.1499999999999995
 20
7.85
 30
0.0
 11
-0.0000000000000009
 21
8.0
 31
0.0
1001
PE_URL
1000

  0
LINE
  5
181
330
1F
100
AcDbEntity
  8
0
  6
Continuous
 62
     4
370
    15
100
AcDbLine
 10
0.1499999999999984
 20
-7.85
 30
0.0
 11
-0.0000000000000019
 21
-8.0
 31
0.0
1001
PE_URL
1000

  0
LINE
  5
182
330
1F
100
AcDbEntity
  8
0
  6
Continuous
 62
     4
370
    15
100
AcDbLine
 10
0.0000000000000009
 20
-8.0
 30
0.0
 11
-0.0000000000000009
 21
8.0
 31
0.0
1001
PE_URL
1000

  0
LINE
  5
183
102
{ACAD_REACTORS
102
}
330
1F
100
AcDbEntity
  8
0
  6
Continuous
 62
     4
370
    15
100
AcDbLine
 10
0.1499999999999995
 20
7.85
 30
0.0
 11
15.14999999999999
 21
7.85
 31
0.0
1001
PE_URL
1000

  0
LINE
  5
184
330
1F
100
AcDbEntity
  8
0
  6
Continuous
 62
     4
370
    15
100
AcDbLine
 10
0.1500000000000007
 20
-7.849999999999999
 30
0.0
 11
15.14999999999999
 21
-7.849999999999996
 31
0.0
1001
PE_URL
1000

  0
DIMENSION
  5
185
102
{ACAD_REACTORS
102
}
102
{ACAD_XDICTIONARY
360
186
102
}
330
1F
100
AcDbEntity
  8
치수문자_일반주서
100
AcDbDimension
  2
*D7
 10
55.15000000000001
 20
22.1137373675304
 30
0.0
 11
27.65
 21
24.7387373675304
 31
0.0
 70
    32
 71
     5
 42
55.00000000000001
  3
SLDDIMSTYLE0
100
AcDbAlignedDimension
 13
0.1499999999999995
 23
7.85
 33
0.0
 14
55.15000000000001
 24
8.055738521837158
 34
0.0
100
AcDbRotatedDimension
1001
ENABLE_CUSTOM_SPLIT
1070
     1
1001
PE_URL
1000

  0
ENDSEC
  0
SECTION
  2
OBJECTS
  0
DICTIONARY
  5
C
330
0
100
AcDbDictionary
281
     1
  3
ACAD_GROUP
350
D
  3
ACAD_LAYOUT
350
1A
  3
ACAD_MLINESTYLE
350
17
  3
ACAD_PLOTSETTINGS
350
19
  3
ACAD_PLOTSTYLENAME
350
E
  3
ACAD_SCALELIST
350
47
  3
APPDATA
350
12D
  3
DWGPROPS
350
19C
  0
DICTIONARY
  5
199
330
1F
100
AcDbDictionary
280
     1
281
     1
  3
DIM_BOUNDING_BOXES_V1
360
19A
  0
DICTIONARY
  5
197
330
D5
100
AcDbDictionary
280
     1
281
     1
  3
ACAD_CUSTOM_BREAKDATA
360
198
  0
DICTIONARY
  5
186
330
185
100
AcDbDictionary
280
     1
281
     1
  3
ACAD_CUSTOM_BREAKDATA
360
195
  0
DICTIONARY
  5
D
102
{ACAD_REACTORS
330
C
102
}
330
C
100
AcDbDictionary
281
     1
  0
DICTIONARY
  5
1A
102
{ACAD_REACTORS
330
C
102
}
330
C
100
AcDbDictionary
281
     1
  3
Layout1
350
1E
  3
Layout2
350
26
  3
Model
350
22
  0
DICTIONARY
  5
17
102
{ACAD_REACTORS
330
C
102
}
330
C
100
AcDbDictionary
281
     1
  3
Standard
350
18
  0
DICTIONARY
  5
19
102
{ACAD_REACTORS
330
C
102
}
330
C
100
AcDbDictionary
281
     1
  0
ACDBDICTIONARYWDFLT
  5
E
102
{ACAD_REACTORS
330
C
102
}
330
C
100
AcDbDictionary
281
     1
  3
Normal
350
F
100
AcDbDictionaryWithDefault
340
F
  0
DICTIONARY
  5
47
102
{ACAD_REACTORS
330
C
102
}
330
C
100
AcDbDictionary
281
     1
  3
A0
350
48
  3
A1
350
49
  3
A2
350
4A
  3
A3
350
4B
  3
A4
350
4C
  3
A5
350
4D
  3
A6
350
4E
  3
A7
350
4F
  3
A8
350
50
  3
A9
350
51
  3
B0
350
52
  3
B1
350
53
  3
B2
350
54
  3
B3
350
55
  3
B4
350
56
  3
B5
350
57
  3
B6
350
58
  3
B7
350
59
  3
B8
350
5A
  3
B9
350
5B
  3
C0
350
5C
  3
C1
350
5D
  3
C2
350
5E
  3
C3
350
5F
  3
C4
350
60
  3
C5
350
61
  3
C6
350
62
  3
C7
350
63
  3
C8
350
64
  3
C9
350
65
  3
D0
350
66
  3
D1
350
67
  3
D2
350
68
  0
DICTIONARY
  5
12D
102
{ACAD_REACTORS
330
C
102
}
330
C
100
AcDbDictionary
281
     1
  0
XRECORD
  5
19C
102
{ACAD_REACTORS
330
C
102
}
330
C
100
AcDbXrecord
280
     1
  1
DWGPROPS COOKIE
  2

  3

  4

  6

  7

  8
12016016
  9

300
=
301
=
302
=
303
=
304
=
305
=
306
=
307
=
308
=
309
=
 40
0.0
 41
2458250.135542292
 42
2459702.313133426
  1

 90
        0
  0
DICTIONARY
  5
19A
102
{ACAD_REACTORS
330
199
102
}
330
199
100
AcDbDictionary
281
     1
  0
BREAKDATA
  5
198
102
{ACAD_REACTORS
330
197
102
}
330
197
100
AcDbBreakData
 70
     0
330
D5
 90
        0
  0
BREAKDATA
  5
195
102
{ACAD_REACTORS
330
186
102
}
330
186
100
AcDbBreakData
 70
     0
330
185
 90
        0
  0
LAYOUT
  5
1E
102
{ACAD_REACTORS
330
1A
102
}
330
1A
100
AcDbPlotSettings
  1

  2
none_device
  4

  6

 40
0.0
 41
0.0
 42
0.0
 43
0.0
 44
0.0
 45
0.0
 46
0.0
 47
0.0
 48
0.0
 49
0.0
140
0.0
141
0.0
142
1.0
143
1.0
 70
   688
 72
     1
 73
     0
 74
     5
  7

 75
    16
147
1.0
148
0.0
149
0.0
100
AcDbLayout
  1
Layout1
 70
     1
 71
     1
 10
0.0
 20
0.0
 11
420.0
 21
297.0
 12
0.0
 22
0.0
 32
0.0
 14
1.000000000000000E+20
 24
1.000000000000000E+20
 34
1.000000000000000E+20
 15
-1.000000000000000E+20
 25
-1.000000000000000E+20
 35
-1.000000000000000E+20
146
0.0
 13
0.0
 23
0.0
 33
0.0
 16
1.0
 26
0.0
 36
0.0
 17
0.0
 27
1.0
 37
0.0
 76
     0
330
1B
  0
LAYOUT
  5
26
102
{ACAD_REACTORS
330
1A
102
}
330
1A
100
AcDbPlotSettings
  1

  2
none_device
  4

  6

 40
0.0
 41
0.0
 42
0.0
 43
0.0
 44
0.0
 45
0.0
 46
0.0
 47
0.0
 48
0.0
 49
0.0
140
0.0
141
0.0
142
1.0
143
1.0
 70
   688
 72
     1
 73
     0
 74
     5
  7

 75
    16
147
1.0
148
0.0
149
0.0
100
AcDbLayout
  1
Layout2
 70
     1
 71
     2
 10
0.0
 20
0.0
 11
0.0
 21
0.0
 12
0.0
 22
0.0
 32
0.0
 14
0.0
 24
0.0
 34
0.0
 15
0.0
 25
0.0
 35
0.0
146
0.0
 13
0.0
 23
0.0
 33
0.0
 16
1.0
 26
0.0
 36
0.0
 17
0.0
 27
1.0
 37
0.0
 76
     0
330
23
  0
LAYOUT
  5
22
102
{ACAD_REACTORS
330
1A
102
}
330
1A
100
AcDbPlotSettings
  1

  2
none_device
  4
ANSI_A_(11.00_x_8.50_Inches)
  6

 40
6.35
 41
19.05
 42
6.35000508
 43
19.05000254
 44
279.4
 45
215.9
 46
132.7433451032389
 47
107.4931683312952
 48
0.0
 49
0.0
140
0.0
141
0.0
142
0.0821570819270314
143
1.0
 70
  1696
 72
     0
 73
     0
 74
     0
  7

 75
     0
147
0.0235690232323232
148
0.0
149
0.0
100
AcDbLayout
  1
Model
 70
     1
 71
     0
 10
0.0
 20
0.0
 11
420.0
 21
297.0
 12
0.0
 22
0.0
 32
0.0
 14
-60.64455944538855
 24
-49.97180738881173
 34
0.0
 15
71.26652364557964
 25
32.75915911661227
 35
0.0
146
0.0
 13
0.0
 23
0.0
 33
0.0
 16
1.0
 26
0.0
 36
0.0
 17
0.0
 27
1.0
 37
0.0
 76
     0
330
1F
331
29
  0
MLINESTYLE
  5
18
102
{ACAD_REACTORS
330
17
102
}
330
17
100
AcDbMlineStyle
  2
Standard
 70
     0
  3

 62
   256
 51
90.0
 52
90.0
 71
     2
 49
0.5
 62
   256
  6
BYLAYER
 49
-0.5
 62
   256
  6
BYLAYER
  0
ACDBPLACEHOLDER
  5
F
102
{ACAD_REACTORS
330
E
102
}
330
E
  0
SCALE
  5
48
102
{ACAD_REACTORS
330
47
102
}
330
47
100
AcDbScale
 70
     0
300
1:1
140
1.0
141
1.0
290
     1
  0
SCALE
  5
49
102
{ACAD_REACTORS
330
47
102
}
330
47
100
AcDbScale
 70
     0
300
1:2
140
1.0
141
2.0
290
     0
  0
SCALE
  5
4A
102
{ACAD_REACTORS
330
47
102
}
330
47
100
AcDbScale
 70
     0
300
1:4
140
1.0
141
4.0
290
     0
  0
SCALE
  5
4B
102
{ACAD_REACTORS
330
47
102
}
330
47
100
AcDbScale
 70
     0
300
1:5
140
1.0
141
5.0
290
     0
  0
SCALE
  5
4C
102
{ACAD_REACTORS
330
47
102
}
330
47
100
AcDbScale
 70
     0
300
1:8
140
1.0
141
8.0
290
     0
  0
SCALE
  5
4D
102
{ACAD_REACTORS
330
47
102
}
330
47
100
AcDbScale
 70
     0
300
1:10
140
1.0
141
10.0
290
     0
  0
SCALE
  5
4E
102
{ACAD_REACTORS
330
47
102
}
330
47
100
AcDbScale
 70
     0
300
1:16
140
1.0
141
16.0
290
     0
  0
SCALE
  5
4F
102
{ACAD_REACTORS
330
47
102
}
330
47
100
AcDbScale
 70
     0
300
1:20
140
1.0
141
20.0
290
     0
  0
SCALE
  5
50
102
{ACAD_REACTORS
330
47
102
}
330
47
100
AcDbScale
 70
     0
300
1:30
140
1.0
141
30.0
290
     0
  0
SCALE
  5
51
102
{ACAD_REACTORS
330
47
102
}
330
47
100
AcDbScale
 70
     0
300
1:40
140
1.0
141
40.0
290
     0
  0
SCALE
  5
52
102
{ACAD_REACTORS
330
47
102
}
330
47
100
AcDbScale
 70
     0
300
1:50
140
1.0
141
50.0
290
     0
  0
SCALE
  5
53
102
{ACAD_REACTORS
330
47
102
}
330
47
100
AcDbScale
 70
     0
300
1:100
140
1.0
141
100.0
290
     0
  0
SCALE
  5
54
102
{ACAD_REACTORS
330
47
102
}
330
47
100
AcDbScale
 70
     0
300
2:1
140
2.0
141
1.0
290
     0
  0
SCALE
  5
55
102
{ACAD_REACTORS
330
47
102
}
330
47
100
AcDbScale
 70
     0
300
4:1
140
4.0
141
1.0
290
     0
  0
SCALE
  5
56
102
{ACAD_REACTORS
330
47
102
}
330
47
100
AcDbScale
 70
     0
300
8:1
140
8.0
141
1.0
290
     0
  0
SCALE
  5
57
102
{ACAD_REACTORS
330
47
102
}
330
47
100
AcDbScale
 70
     0
300
10:1
140
10.0
141
1.0
290
     0
  0
SCALE
  5
58
102
{ACAD_REACTORS
330
47
102
}
330
47
100
AcDbScale
 70
     0
300
100:1
140
100.0
141
1.0
290
     0
  0
SCALE
  5
59
102
{ACAD_REACTORS
330
47
102
}
330
47
100
AcDbScale
 70
     0
300
1/128" = 1'-0"
140
0.0078125
141
12.0
290
     0
  0
SCALE
  5
5A
102
{ACAD_REACTORS
330
47
102
}
330
47
100
AcDbScale
 70
     0
300
1/64" = 1'-0"
140
0.015625
141
12.0
290
     0
  0
SCALE
  5
5B
102
{ACAD_REACTORS
330
47
102
}
330
47
100
AcDbScale
 70
     0
300
1/32" = 1'-0"
140
0.03125
141
12.0
290
     0
  0
SCALE
  5
5C
102
{ACAD_REACTORS
330
47
102
}
330
47
100
AcDbScale
 70
     0
300
1/16" = 1'-0"
140
0.0625
141
12.0
290
     0
  0
SCALE
  5
5D
102
{ACAD_REACTORS
330
47
102
}
330
47
100
AcDbScale
 70
     0
300
3/32" = 1'-0"
140
0.09375
141
12.0
290
     0
  0
SCALE
  5
5E
102
{ACAD_REACTORS
330
47
102
}
330
47
100
AcDbScale
 70
     0
300
1/8" = 1'-0"
140
0.125
141
12.0
290
     0
  0
SCALE
  5
5F
102
{ACAD_REACTORS
330
47
102
}
330
47
100
AcDbScale
 70
     0
300
3/16" = 1'-0"
140
0.1875
141
12.0
290
     0
  0
SCALE
  5
60
102
{ACAD_REACTORS
330
47
102
}
330
47
100
AcDbScale
 70
     0
300
1/4" = 1'-0"
140
0.25
141
12.0
290
     0
  0
SCALE
  5
61
102
{ACAD_REACTORS
330
47
102
}
330
47
100
AcDbScale
 70
     0
300
3/8" = 1'-0"
140
0.375
141
12.0
290
     0
  0
SCALE
  5
62
102
{ACAD_REACTORS
330
47
102
}
330
47
100
AcDbScale
 70
     0
300
1/2" = 1'-0"
140
0.5
141
12.0
290
     0
  0
SCALE
  5
63
102
{ACAD_REACTORS
330
47
102
}
330
47
100
AcDbScale
 70
     0
300
3/4" = 1'-0"
140
0.75
141
12.0
290
     0
  0
SCALE
  5
64
102
{ACAD_REACTORS
330
47
102
}
330
47
100
AcDbScale
 70
     0
300
1" = 1'-0"
140
1.0
141
12.0
290
     0
  0
SCALE
  5
65
102
{ACAD_REACTORS
330
47
102
}
330
47
100
AcDbScale
 70
     0
300
1-1/2" = 1'-0"
140
1.5
141
12.0
290
     0
  0
SCALE
  5
66
102
{ACAD_REACTORS
330
47
102
}
330
47
100
AcDbScale
 70
     0
300
3" = 1'-0"
140
3.0
141
12.0
290
     0
  0
SCALE
  5
67
102
{ACAD_REACTORS
330
47
102
}
330
47
100
AcDbScale
 70
     0
300
6" = 1'-0"
140
6.0
141
12.0
290
     0
  0
SCALE
  5
68
102
{ACAD_REACTORS
330
47
102
}
330
47
100
AcDbScale
 70
     0
300
1'-0" = 1'-0"
140
12.0
141
12.0
290
     0
  0
ENDSEC
  0
EOF
