  0
SECTION
  2
HEADER
  9
$ACADVER
  1
AC1015
  9
$ACADMAINTVER
 70
     6
  9
$DWGCODEPAGE
  3
ANSI_949
  9
$INSBASE
 10
0.0
 20
0.0
 30
0.0
  9
$EXTMIN
 10
-70.79455944538856
 20
-49.97180738881175
 30
0.0
  9
$EXTMAX
 10
68.11652364557962
 20
33.10915911661224
 30
0.0
  9
$LIMMIN
 10
0.0
 20
0.0
  9
$LIMMAX
 10
420.0
 20
297.0
  9
$ORTHOMODE
 70
     0
  9
$REGENMODE
 70
     1
  9
$FILLMODE
 70
     1
  9
$QTEXTMODE
 70
     0
  9
$MIRRTEXT
 70
     1
  9
$LTSCALE
 40
1.0
  9
$ATTMODE
 70
     1
  9
$TEXTSIZE
 40
3.5
  9
$TRACEWID
 40
1.0
  9
$TEXTSTYLE
  7
Standard
  9
$CLAYER
  8
0
  9
$CELTYPE
  6
ByLayer
  9
$CECOLOR
 62
   256
  9
$CELTSCALE
 40
1.0
  9
$DISPSILH
 70
     0
  9
$DIMSCALE
 40
1.0
  9
$DIMASZ
 40
3.302
  9
$DIMEXO
 40
1.0
  9
$DIMDLI
 40
3.75
  9
$DIMRND
 40
0.0
  9
$DIMDLE
 40
0.0
  9
$DIMEXE
 40
1.0
  9
$DIMTP
 40
0.0
  9
$DIMTM
 40
0.0
  9
$DIMTXT
 40
3.5
  9
$DIMCEN
 40
2.5
  9
$DIMTSZ
 40
0.0
  9
$DIMTOL
 70
     0
  9
$DIMLIM
 70
     0
  9
$DIMTIH
 70
     1
  9
$DIMTOH
 70
     1
  9
$DIMSE1
 70
     0
  9
$DIMSE2
 70
     0
  9
$DIMTAD
 70
     1
  9
$DIMZIN
 70
     0
  9
$DIMBLK
  1

  9
$DIMASO
 70
     1
  9
$DIMSHO
 70
     1
  9
$DIMPOST
  1

  9
$DIMAPOST
  1

  9
$DIMALT
 70
     0
  9
$DIMALTD
 70
     3
  9
$DIMALTF
 40
0.0393700787401575
  9
$DIMLFAC
 40
1.0
  9
$DIMTOFL
 70
     1
  9
$DIMTVP
 40
0.0
  9
$DIMTIX
 70
     0
  9
$DIMSOXD
 70
     0
  9
$DIMSAH
 70
     0
  9
$DIMBLK1
  1

  9
$DIMBLK2
  1

  9
$DIMSTYLE
  2
ISO-25
  9
$DIMCLRD
 70
     0
  9
$DIMCLRE
 70
     0
  9
$DIMCLRT
 70
     0
  9
$DIMTFAC
 40
1.0
  9
$DIMGAP
 40
1.524
  9
$DIMJUST
 70
     0
  9
$DIMSD1
 70
     0
  9
$DIMSD2
 70
     0
  9
$DIMTOLJ
 70
     0
  9
$DIMTZIN
 70
     0
  9
$DIMALTZ
 70
     0
  9
$DIMALTTZ
 70
     0
  9
$DIMUPT
 70
     0
  9
$DIMDEC
 70
     2
  9
$DIMTDEC
 70
     2
  9
$DIMALTU
 70
     2
  9
$DIMALTTD
 70
     3
  9
$DIMTXSTY
  7
Standard
  9
$DIMAUNIT
 70
     0
  9
$DIMADEC
 70
     2
  9
$DIMALTRND
 40
0.0
  9
$DIMAZIN
 70
     0
  9
$DIMDSEP
 70
    44
  9
$DIMATFIT
 70
     3
  9
$DIMFRAC
 70
     0
  9
$DIMLDRBLK
  1

  9
$DIMLUNIT
 70
     2
  9
$DIMLWD
 70
    -2
  9
$DIMLWE
 70
    -2
  9
$DIMTMOVE
 70
     0
  9
$LUNITS
 70
     2
  9
$LUPREC
 70
     2
  9
$SKETCHINC
 40
1.0
  9
$FILLETRAD
 40
10.0
  9
$AUNITS
 70
     0
  9
$AUPREC
 70
     2
  9
$MENU
  1
.
  9
$ELEVATION
 40
0.0
  9
$PELEVATION
 40
0.0
  9
$THICKNESS
 40
0.0
  9
$LIMCHECK
 70
     0
  9
$CHAMFERA
 40
0.0
  9
$CHAMFERB
 40
0.0
  9
$CHAMFERC
 40
0.0
  9
$CHAMFERD
 40
0.0
  9
$SKPOLY
 70
     0
  9
$TDCREATE
 40
2458250.510747604
  9
$TDUCREATE
 40
2458250.135747604
  9
$TDUPDATE
 40
2458269.773104769
  9
$TDUUPDATE
 40
2458269.398104769
  9
$TDINDWG
 40
0.0011165625
  9
$TDUSRTIMER
 40
2458269.396988356
  9
$USRTIMER
 70
     1
  9
$ANGBASE
 50
0.0
  9
$ANGDIR
 70
     0
  9
$PDMODE
 70
     0
  9
$PDSIZE
 40
-1.0
  9
$PLINEWID
 40
0.0
  9
$SPLFRAME
 70
     0
  9
$SPLINETYPE
 70
     6
  9
$SPLINESEGS
 70
     8
  9
$HANDSEED
  5
134
  9
$SURFTAB1
 70
     6
  9
$SURFTAB2
 70
     6
  9
$SURFTYPE
 70
     6
  9
$SURFU
 70
     6
  9
$SURFV
 70
     6
  9
$UCSBASE
  2

  9
$UCSNAME
  2

  9
$UCSORG
 10
0.0
 20
0.0
 30
0.0
  9
$UCSXDIR
 10
1.0
 20
0.0
 30
0.0
  9
$UCSYDIR
 10
0.0
 20
1.0
 30
0.0
  9
$UCSORTHOREF
  2

  9
$UCSORTHOVIEW
 70
     0
  9
$UCSORGTOP
 10
0.0
 20
0.0
 30
0.0
  9
$UCSORGBOTTOM
 10
0.0
 20
0.0
 30
0.0
  9
$UCSORGLEFT
 10
0.0
 20
0.0
 30
0.0
  9
$UCSORGRIGHT
 10
0.0
 20
0.0
 30
0.0
  9
$UCSORGFRONT
 10
0.0
 20
0.0
 30
0.0
  9
$UCSORGBACK
 10
0.0
 20
0.0
 30
0.0
  9
$PUCSBASE
  2

  9
$PUCSNAME
  2

  9
$PUCSORG
 10
0.0
 20
0.0
 30
0.0
  9
$PUCSXDIR
 10
1.0
 20
0.0
 30
0.0
  9
$PUCSYDIR
 10
0.0
 20
1.0
 30
0.0
  9
$PUCSORTHOREF
  2

  9
$PUCSORTHOVIEW
 70
     0
  9
$PUCSORGTOP
 10
0.0
 20
0.0
 30
0.0
  9
$PUCSORGBOTTOM
 10
0.0
 20
0.0
 30
0.0
  9
$PUCSORGLEFT
 10
0.0
 20
0.0
 30
0.0
  9
$PUCSORGRIGHT
 10
0.0
 20
0.0
 30
0.0
  9
$PUCSORGFRONT
 10
0.0
 20
0.0
 30
0.0
  9
$PUCSORGBACK
 10
0.0
 20
0.0
 30
0.0
  9
$USERI1
 70
     0
  9
$USERI2
 70
     0
  9
$USERI3
 70
     0
  9
$USERI4
 70
     0
  9
$USERI5
 70
     0
  9
$USERR1
 40
0.0
  9
$USERR2
 40
0.0
  9
$USERR3
 40
0.0
  9
$USERR4
 40
0.0
  9
$USERR5
 40
0.0
  9
$WORLDVIEW
 70
     1
  9
$SHADEDGE
 70
     3
  9
$SHADEDIF
 70
    70
  9
$TILEMODE
 70
     1
  9
$MAXACTVP
 70
    64
  9
$PINSBASE
 10
0.0
 20
0.0
 30
0.0
  9
$PLIMCHECK
 70
     0
  9
$PEXTMIN
 10
1.000000000000000E+20
 20
1.000000000000000E+20
 30
1.000000000000000E+20
  9
$PEXTMAX
 10
-1.000000000000000E+20
 20
-1.000000000000000E+20
 30
-1.000000000000000E+20
  9
$PLIMMIN
 10
0.0
 20
0.0
  9
$PLIMMAX
 10
0.0
 20
0.0
  9
$UNITMODE
 70
     0
  9
$VISRETAIN
 70
     1
  9
$PLINEGEN
 70
     0
  9
$PSLTSCALE
 70
     1
  9
$TREEDEPTH
 70
  3020
  9
$CMLSTYLE
  2
Standard
  9
$CMLJUST
 70
     0
  9
$CMLSCALE
 40
20.0
  9
$PROXYGRAPHICS
 70
     1
  9
$MEASUREMENT
 70
     1
  9
$CELWEIGHT
370
    -1
  9
$ENDCAPS
280
     0
  9
$JOINSTYLE
280
     0
  9
$LWDISPLAY
290
     1
  9
$INSUNITS
 70
     4
  9
$HYPERLINKBASE
  1

  9
$STYLESHEET
  1

  9
$XEDIT
290
     1
  9
$CEPSNTYPE
380
     0
  9
$PSTYLEMODE
290
     1
  9
$FINGERPRINTGUID
  2
{D227E539-2051-426D-8EDB-1FDFF2D07C1F}
  9
$VERSIONGUID
  2
{FAEB1C32-E019-11D5-929B-00C0DF256EC4}
  9
$EXTNAMES
290
     1
  9
$PSVPSCALE
 40
0.0
  9
$OLESTARTUP
290
     0
  0
ENDSEC
  0
SECTION
  2
CLASSES
  0
CLASS
  1
ACDBDICTIONARYWDFLT
  2
AcDbDictionaryWithDefault
  3
ObjectDBX Classes
 90
        0
280
     0
281
     0
  0
CLASS
  1
VISUALSTYLE
  2
AcDbVisualStyle
  3
ObjectDBX Classes
 90
     4095
280
     0
281
     0
  0
CLASS
  1
MATERIAL
  2
AcDbMaterial
  3
ObjectDBX Classes
 90
     1153
280
     0
281
     0
  0
CLASS
  1
SCALE
  2
AcDbScale
  3
ObjectDBX Classes
 90
     1153
280
     0
281
     0
  0
CLASS
  1
SUN
  2
AcDbSun
  3
SCENEOE
 90
     1153
280
     0
281
     0
  0
CLASS
  1
ACDBPLACEHOLDER
  2
AcDbPlaceHolder
  3
ObjectDBX Classes
 90
        0
280
     0
281
     0
  0
CLASS
  1
LAYOUT
  2
AcDbLayout
  3
ObjectDBX Classes
 90
        0
280
     0
281
     0
  0
CLASS
  1
TABLESTYLE
  2
AcDbTableStyle
  3
ObjectDBX Classes
 90
     4095
280
     0
281
     0
  0
CLASS
  1
MLEADERSTYLE
  2
AcDbMLeaderStyle
  3
ACDB_MLEADERSTYLE_CLASS
 90
     4095
280
     0
281
     0
  0
CLASS
  1
RASTERVARIABLES
  2
AcDbRasterVariables
  3
ISM
 90
        0
280
     0
281
     0
  0
ENDSEC
  0
SECTION
  2
TABLES
  0
TABLE
  2
VPORT
  5
8
330
0
100
AcDbSymbolTable
 70
     1
  0
VPORT
  5
29
330
8
100
AcDbSymbolTableRecord
100
AcDbViewportTableRecord
  2
*Active
 70
     0
 10
0.0
 20
0.0
 11
1.0
 21
1.0
 12
-13.05482265198788
 22
-16.59478609253638
 13
0.0
 23
0.0
 14
10.0
 24
10.0
 15
10.0
 25
10.0
 16
0.0
 26
0.0
 36
1.0
 17
0.0
 27
0.0
 37
0.0
 40
205.1860403742916
 41
1.354916067146283
 42
50.0
 43
0.0
 44
0.0
 50
0.0
 51
0.0
 71
    16
 72
  2000
 73
     1
 74
     3
 75
     0
 76
     0
 77
     0
 78
     0
281
     0
 65
     1
110
0.0
120
0.0
130
0.0
111
1.0
121
0.0
131
0.0
112
0.0
122
1.0
132
0.0
 79
     0
146
0.0
  0
ENDTAB
  0
TABLE
  2
LTYPE
  5
5
330
0
100
AcDbSymbolTable
 70
     6
  0
LTYPE
  5
14
330
5
100
AcDbSymbolTableRecord
100
AcDbLinetypeTableRecord
  2
ByBlock
 70
     0
  3

 72
    65
 73
     0
 40
0.0
  0
LTYPE
  5
15
330
5
100
AcDbSymbolTableRecord
100
AcDbLinetypeTableRecord
  2
ByLayer
 70
     0
  3

 72
    65
 73
     0
 40
0.0
  0
LTYPE
  5
16
330
5
100
AcDbSymbolTableRecord
100
AcDbLinetypeTableRecord
  2
Continuous
 70
     0
  3
Solid line
 72
    65
 73
     0
 40
0.0
  0
LTYPE
  5
6A
330
5
100
AcDbSymbolTableRecord
100
AcDbLinetypeTableRecord
  2
HIDDEN
 70
     0
  3
Hidden __ __ __ __ __ __ __ __ __ __ __ __ __ __
 72
    65
 73
     2
 40
1.905
 49
1.27
 74
     0
 49
-0.635
 74
     0
  0
LTYPE
  5
6B
330
5
100
AcDbSymbolTableRecord
100
AcDbLinetypeTableRecord
  2
PHANTOM
 70
     0
  3
Phantom ______  __  __  ______  __  __  ______
 72
    65
 73
     6
 40
12.7
 49
6.35
 74
     0
 49
-1.27
 74
     0
 49
1.27
 74
     0
 49
-1.27
 74
     0
 49
1.27
 74
     0
 49
-1.27
 74
     0
  0
LTYPE
  5
6C
330
5
100
AcDbSymbolTableRecord
100
AcDbLinetypeTableRecord
  2
CENTER
 70
     0
  3
Center ____ _ ____ _ ____ _ ____ _ ____ _ ____
 72
    65
 73
     4
 40
10.16
 49
6.35
 74
     0
 49
-1.27
 74
     0
 49
1.27
 74
     0
 49
-1.27
 74
     0
  0
LTYPE
  5
6D
330
5
100
AcDbSymbolTableRecord
100
AcDbLinetypeTableRecord
  2
CENTERX2
 70
     0
  3
Center (2x) ________  __  ________  __  _____
 72
    65
 73
     4
 40
20.32
 49
12.7
 74
     0
 49
-2.54
 74
     0
 49
2.54
 74
     0
 49
-2.54
 74
     0
  0
LTYPE
  5
6E
330
5
100
AcDbSymbolTableRecord
100
AcDbLinetypeTableRecord
  2
DOT2
 70
     0
  3
Dot (.5x) ........................................
 72
    65
 73
     2
 40
0.635
 49
0.0
 74
     0
 49
-0.635
 74
     0
  0
ENDTAB
  0
TABLE
  2
LAYER
  5
2
330
0
100
AcDbSymbolTable
 70
    17
  0
LAYER
  5
10
330
2
100
AcDbSymbolTableRecord
100
AcDbLayerTableRecord
  2
0
 70
     0
 62
     7
  6
Continuous
370
    -3
390
F
  0
LAYER
  5
6F
330
2
100
AcDbSymbolTableRecord
100
AcDbLayerTableRecord
  2
FORMAT
 70
     0
 62
     2
  6
Continuous
370
    -3
390
F
  0
LAYER
  5
70
330
2
100
AcDbSymbolTableRecord
100
AcDbLayerTableRecord
  2
외형선
 70
     0
 62
   100
  6
Continuous
370
    30
390
F
  0
LAYER
  5
71
330
2
100
AcDbSymbolTableRecord
100
AcDbLayerTableRecord
  2
숨은선
 70
     0
 62
     2
  6
HIDDEN
370
    15
390
F
  0
LAYER
  5
72
330
2
100
AcDbSymbolTableRecord
100
AcDbLayerTableRecord
  2
중심선
 70
     0
 62
     1
  6
CENTERX2
370
    -3
390
F
  0
LAYER
  5
73
330
2
100
AcDbSymbolTableRecord
100
AcDbLayerTableRecord
  2
파단선
 70
     0
 62
     4
  6
Continuous
370
    -3
390
F
  0
LAYER
  5
74
330
2
100
AcDbSymbolTableRecord
100
AcDbLayerTableRecord
  2
해칭선
 70
     0
 62
     4
  6
Continuous
370
    -3
390
F
  0
LAYER
  5
75
330
2
100
AcDbSymbolTableRecord
100
AcDbLayerTableRecord
  2
가는실선
 70
     0
 62
     4
  6
Continuous
370
    -3
390
F
  0
LAYER
  5
76
330
2
100
AcDbSymbolTableRecord
100
AcDbLayerTableRecord
  2
치수_보조선
 70
     0
 62
     4
  6
Continuous
370
    -3
390
F
  0
LAYER
  5
77
330
2
100
AcDbSymbolTableRecord
100
AcDbLayerTableRecord
  2
치수문자_일반주서
 70
     0
 62
     7
  6
Continuous
370
    15
390
F
  0
LAYER
  5
78
330
2
100
AcDbSymbolTableRecord
100
AcDbLayerTableRecord
  2
개별주서
 70
     0
 62
   100
  6
Continuous
370
    30
390
F
  0
LAYER
  5
79
330
2
100
AcDbSymbolTableRecord
100
AcDbLayerTableRecord
  2
중간선
 70
     0
 62
     2
  6
Continuous
370
    15
390
F
  0
LAYER
  5
7A
330
2
100
AcDbSymbolTableRecord
100
AcDbLayerTableRecord
  2
윤곽선
 70
     0
 62
     3
  6
Continuous
370
    40
390
F
  0
LAYER
  5
7B
330
2
100
AcDbSymbolTableRecord
100
AcDbLayerTableRecord
  2
중심마크
 70
     0
 62
   100
  6
Continuous
370
    30
390
F
  0
LAYER
  5
7C
330
2
100
AcDbSymbolTableRecord
100
AcDbLayerTableRecord
  2
가상선
 70
     0
 62
     4
  6
PHANTOM
370
    -3
390
F
  0
LAYER
  5
7D
330
2
100
AcDbSymbolTableRecord
100
AcDbLayerTableRecord
  2
특수지정선
 70
     0
 62
     5
  6
CENTERX2
370
    60
390
F
  0
LAYER
  5
12A
330
2
100
AcDbSymbolTableRecord
100
AcDbLayerTableRecord
  2
Defpoints
 70
     0
 62
     7
  6
Continuous
290
     0
370
    -3
390
F
  0
ENDTAB
  0
TABLE
  2
STYLE
  5
3
330
0
100
AcDbSymbolTable
 70
     2
  0
STYLE
  5
11
330
3
100
AcDbSymbolTableRecord
100
AcDbTextStyleTableRecord
  2
Standard
 70
     0
 40
0.0
 41
1.0
 50
0.0
 71
     0
 42
3.5
  3
txt
  4

  0
STYLE
  5
93
330
3
100
AcDbSymbolTableRecord
100
AcDbTextStyleTableRecord
  2
SLDTEXTSTYLE0
 70
     0
 40
0.0
 41
0.75
 50
0.0
 71
     0
 42
3.5
  3
TXT
  4

  0
ENDTAB
  0
TABLE
  2
VIEW
  5
6
330
0
100
AcDbSymbolTable
 70
     0
  0
ENDTAB
  0
TABLE
  2
UCS
  5
7
330
0
100
AcDbSymbolTable
 70
     0
  0
ENDTAB
  0
TABLE
  2
APPID
  5
9
330
0
100
AcDbSymbolTable
 70
     1
  0
APPID
  5
12
330
9
100
AcDbSymbolTableRecord
100
AcDbRegAppTableRecord
  2
ACAD
 70
     0
  0
ENDTAB
  0
TABLE
  2
DIMSTYLE
  5
A
330
0
100
AcDbSymbolTable
 70
     3
100
AcDbDimStyleTable
  0
DIMSTYLE
105
27
330
A
100
AcDbSymbolTableRecord
100
AcDbDimStyleTableRecord
  2
ISO-25
 70
     0
 41
2.5
 42
0.625
 43
3.75
 44
1.25
 73
     0
 74
     0
 77
     1
 78
     8
140
2.5
141
2.5
143
0.03937007874016
147
0.625
171
     3
172
     1
178
     0
271
     2
272
     2
274
     3
278
    44
283
     0
284
     8
340
11
  0
DIMSTYLE
105
D0
102
{ACAD_REACTORS
330
CF
330
DA
102
}
330
A
100
AcDbSymbolTableRecord
100
AcDbDimStyleTableRecord
  2
SLDDIMSTYLE0
 70
     0
 41
3.302
 44
0.0
 45
0.000000001
 73
     0
 74
     0
 77
     1
 78
    12
 79
     3
140
3.5
147
0.875
173
     1
178
     0
271
     2
272
     2
276
     2
284
    12
340
93
  0
DIMSTYLE
105
E5
102
{ACAD_REACTORS
330
E4
330
F2
102
}
330
A
100
AcDbSymbolTableRecord
100
AcDbDimStyleTableRecord
  2
SLDDIMSTYLE1
 70
     0
 41
3.302
 44
0.0
 45
0.000000001
 73
     0
 74
     0
 77
     1
 78
    12
 79
     3
140
3.5
147
0.875
172
     1
173
     1
178
     0
271
     2
272
     2
276
     2
284
    12
289
     0
340
93
  0
ENDTAB
  0
TABLE
  2
BLOCK_RECORD
  5
1
330
0
100
AcDbSymbolTable
 70
     7
  0
BLOCK_RECORD
  5
1F
330
1
100
AcDbSymbolTableRecord
100
AcDbBlockTableRecord
  2
*Model_Space
340
22
  0
BLOCK_RECORD
  5
1B
330
1
100
AcDbSymbolTableRecord
100
AcDbBlockTableRecord
  2
*Paper_Space
340
1E
  0
BLOCK_RECORD
  5
23
330
1
100
AcDbSymbolTableRecord
100
AcDbBlockTableRecord
  2
*Paper_Space0
340
26
  0
BLOCK_RECORD
  5
7E
330
1
100
AcDbSymbolTableRecord
100
AcDbBlockTableRecord
  2
블럭10
340
0
102
{BLKREFS
331
C8
102
}
  0
BLOCK_RECORD
  5
D1
330
1
100
AcDbSymbolTableRecord
100
AcDbBlockTableRecord
  2
_D
340
0
  0
BLOCK_RECORD
  5
DB
330
1
100
AcDbSymbolTableRecord
100
AcDbBlockTableRecord
  2
_D_1
340
0
  0
BLOCK_RECORD
  5
E6
330
1
100
AcDbSymbolTableRecord
100
AcDbBlockTableRecord
  2
_D_2
340
0
  0
BLOCK_RECORD
  5
F3
330
1
100
AcDbSymbolTableRecord
100
AcDbBlockTableRecord
  2
_D_3
340
0
  0
BLOCK_RECORD
  5
FF
330
1
100
AcDbSymbolTableRecord
100
AcDbBlockTableRecord
  2
SW_DOWELSYMBOL_0
340
0
102
{BLKREFS
331
105
102
}
  0
ENDTAB
  0
ENDSEC
  0
SECTION
  2
BLOCKS
  0
BLOCK
  5
20
330
1F
100
AcDbEntity
  8
0
100
AcDbBlockBegin
  2
*Model_Space
 70
     0
 10
0.0
 20
0.0
 30
0.0
  3
*Model_Space
  1
*Model_Space
  0
ENDBLK
  5
21
330
1F
100
AcDbEntity
  8
0
100
AcDbBlockEnd
  0
BLOCK
  5
1C
330
1B
100
AcDbEntity
 67
     1
  8
0
100
AcDbBlockBegin
  2
*Paper_Space
 70
     0
 10
0.0
 20
0.0
 30
0.0
  3
*Paper_Space
  1
*Paper_Space
  0
ENDBLK
  5
1D
330
1B
100
AcDbEntity
 67
     1
  8
0
100
AcDbBlockEnd
  0
BLOCK
  5
24
330
23
100
AcDbEntity
  8
0
100
AcDbBlockBegin
  2
*Paper_Space0
 70
     0
 10
0.0
 20
0.0
 30
0.0
  3
*Paper_Space0
  1
*Paper_Space0
  0
ENDBLK
  5
25
330
23
100
AcDbEntity
  8
0
100
AcDbBlockEnd
  0
BLOCK
  5
7F
330
7E
100
AcDbEntity
  8
0
100
AcDbBlockBegin
  2
블럭10
 70
     2
 10
0.0
 20
0.0
 30
0.0
  3
블럭10
  1
블럭10
  0
ELLIPSE
  5
81
330
7E
100
AcDbEntity
  8
중심선
100
AcDbEllipse
 10
20.54032771741204
 20
12.0471743016438
 30
0.0
 11
6.600054785286829
 21
-1.261213355974178E-13
 31
0.0
210
0.0
220
0.0
230
1.0
 40
0.636358354079598
 41
0.9219305317359503
 42
6.513795318482858
  0
ELLIPSE
  5
82
330
7E
100
AcDbEntity
  8
중심선
100
AcDbEllipse
 10
20.54032771746488
 20
12.04717430159265
 30
0.0
 11
3.960054785062283
 21
1.540847449632565E-10
 31
0.0
210
0.0
220
0.0
230
1.0
 40
0.3939339440162632
 41
1.131841032648279
 42
5.62031148352944
  0
LINE
  5
83
330
7E
100
AcDbEntity
  8
중심선
100
AcDbLine
 10
2.268634060543552
 20
16.24717430164393
 30
0.0
 11
5.714909304380834
 21
16.24717430164393
 31
0.0
  0
LINE
  5
84
330
7E
100
AcDbEntity
  8
중심선
100
AcDbLine
 10
5.245725140726316
 20
7.84717430164391
 30
0.0
 11
8.692000384563599
 21
7.84717430164391
 31
0.0
  0
LINE
  5
85
330
7E
100
AcDbEntity
  8
중심선
100
AcDbLine
 10
15.74043728645272
 20
16.24717430164393
 30
0.0
 11
8.692000384563599
 21
7.84717430164391
 31
0.0
  0
LINE
  5
86
330
7E
100
AcDbEntity
  8
중심선
100
AcDbLine
 10
0.1404042013395286
 20
13.71084872107135
 30
0.0
 11
3.58671253028996
 21
13.71088815037384
 31
0.0
  0
LINE
  5
87
330
7E
100
AcDbEntity
  8
중심선
100
AcDbLine
 10
2.750260043222114
 20
10.84717430164391
 30
0.0
 11
6.196535287059397
 21
10.84717430164391
 31
0.0
  0
LINE
  5
88
330
7E
100
AcDbEntity
  8
중심선
100
AcDbLine
 10
12.29416204261559
 20
16.24717430164393
 30
0.0
 11
5.245725140726316
 21
7.84717430164391
 31
0.0
  0
LINE
  5
89
330
7E
100
AcDbEntity
  8
중심선
100
AcDbLine
 10
10.72767329541681
 20
16.24717430164393
 30
0.0
 11
6.196535287059397
 21
10.84717430164391
 31
0.0
  0
LINE
  5
8A
330
7E
100
AcDbEntity
  8
중심선
100
AcDbLine
 10
7.28139805157953
 20
16.24717430164393
 30
0.0
 11
2.750260043222114
 21
10.84717430164391
 31
0.0
  0
LINE
  5
8B
330
7E
100
AcDbEntity
  8
중심선
100
AcDbLine
 10
5.714909304380834
 20
16.24717430164393
 30
0.0
 11
3.58671253028996
 21
13.71088815037384
 31
0.0
  0
LINE
  5
8C
330
7E
100
AcDbEntity
  8
중심선
100
AcDbLine
 10
2.268634060543552
 20
16.24717430164393
 30
0.0
 11
0.1404042013395286
 21
13.71084872107135
 31
0.0
  0
LINE
  5
8D
330
7E
100
AcDbEntity
  8
중심선
100
AcDbLine
 10
7.28139805157953
 20
16.24717430164393
 30
0.0
 11
10.72767329541681
 21
16.24717430164393
 31
0.0
  0
LINE
  5
8E
330
7E
100
AcDbEntity
  8
중심선
100
AcDbLine
 10
12.29416204261559
 20
16.24717430164393
 30
0.0
 11
15.74043728645272
 21
16.24717430164393
 31
0.0
  0
LINE
  5
8F
330
7E
100
AcDbEntity
  8
중심선
100
AcDbLine
 10
19.22036997980202
 20
11.08717430171403
 30
0.0
 11
23.66174974927406
 21
11.08717430171406
 31
0.0
  0
LINE
  5
90
330
7E
100
AcDbEntity
  8
중심선
100
AcDbLine
 10
19.22039502424796
 20
13.00717430171391
 30
0.0
 11
19.22036997980202
 21
11.08717430171403
 31
0.0
  0
LINE
  5
91
330
7E
100
AcDbEntity
  8
중심선
100
AcDbLine
 10
19.22039502424796
 20
13.00717430171391
 30
0.0
 11
26.96566020931264
 21
13.00717430171391
 31
0.0
  0
LINE
  5
92
330
7E
100
AcDbEntity
  8
중심선
100
AcDbLine
 10
22.22332737316547
 20
13.45928029700563
 30
0.0
 11
24.52862924686651
 21
15.39360700705356
 31
0.0
  0
ATTDEF
  5
94
330
7E
100
AcDbEntity
  8
FORMAT
 62
     2
100
AcDbText
 10
-12.95993919485777
 20
2.075366912832191
 30
0.0
 40
4.233333333333333
  1
SEME35170E [ 2 FLUTE ]
 41
0.75
  7
SLDTEXTSTYLE0
 11
-12.95993919485777
 21
-0.0412997538344756
 31
0.0
100
AcDbAttributeDefinition
  3

  2
AUTOATTR0
 70
     0
 74
     1
  0
ENDBLK
  5
80
330
7E
100
AcDbEntity
  8
0
100
AcDbBlockEnd
  0
BLOCK
  5
D2
330
D1
100
AcDbEntity
  8
0
100
AcDbBlockBegin
  2
_D
 70
     0
 10
0.0
 20
0.0
 30
0.0
  3
_D
  1
_D
  0
SOLID
  5
D4
330
D1
100
AcDbEntity
  8
치수문자_일반주서
100
AcDbTrace
 10
52.00000000000001
 20
20.74344981802975
 30
0.0
 11
48.69800000000001
 21
21.25144981802975
 31
0.0
 12
48.69800000000001
 22
20.23544981802975
 32
0.0
 13
48.69800000000001
 23
20.23544981802975
 33
0.0
  0
SOLID
  5
D5
330
D1
100
AcDbEntity
  8
치수문자_일반주서
100
AcDbTrace
 10
9.999999999999991
 20
20.74344981802975
 30
0.0
 11
13.30199999999999
 21
20.23544981802975
 31
0.0
 12
13.30199999999999
 22
21.25144981802975
 32
0.0
 13
13.30199999999999
 23
21.25144981802975
 33
0.0
  0
LINE
  5
D6
330
D1
100
AcDbEntity
  8
치수문자_일반주서
100
AcDbLine
 10
52.00000000000001
 20
9.492815929451979
 30
0.0
 11
52.00000000000001
 21
21.74344981802975
 31
0.0
  0
LINE
  5
D7
330
D1
100
AcDbEntity
  8
치수문자_일반주서
100
AcDbLine
 10
9.999999999999991
 20
9.500000000000002
 30
0.0
 11
9.999999999999991
 21
21.74344981802975
 31
0.0
  0
LINE
  5
D8
330
D1
100
AcDbEntity
  8
치수문자_일반주서
100
AcDbLine
 10
52.00000000000001
 20
20.74344981802975
 30
0.0
 11
9.999999999999991
 21
20.74344981802975
 31
0.0
  0
MTEXT
  5
D9
330
D1
100
AcDbEntity
  8
치수문자_일반주서
100
AcDbMText
 10
28.41388880647717
 20
25.25518673260865
 30
0.0
 40
3.5
 41
0.0
 71
     1
 72
     1
  1
42
  7
SLDTEXTSTYLE0
 73
     1
 44
1.0
  0
ENDBLK
  5
D3
330
D1
100
AcDbEntity
  8
0
100
AcDbBlockEnd
  0
BLOCK
  5
DC
330
DB
100
AcDbEntity
  8
0
100
AcDbBlockBegin
  2
_D_1
 70
     0
 10
0.0
 20
0.0
 30
0.0
  3
_D_1
  1
_D_1
  0
LINE
  5
DE
330
DB
100
AcDbEntity
  8
치수문자_일반주서
 62
     0
370
    -2
100
AcDbLine
 10
52.00000000000001
 20
6.012500000000006
 30
0.0
 11
52.00000000000001
 21
28.73415911661224
 31
0.0
  0
LINE
  5
DF
330
DB
100
AcDbEntity
  8
치수문자_일반주서
 62
     0
370
    -2
100
AcDbLine
 10
-48.00000000000001
 20
5.867234286575735
 30
0.0
 11
-48.00000000000001
 21
28.73415911661224
 31
0.0
  0
LINE
  5
E0
330
DB
100
AcDbEntity
  8
치수문자_일반주서
 62
     0
370
    -2
100
AcDbLine
 10
48.69800000000001
 20
28.73415911661224
 30
0.0
 11
-44.69800000000001
 21
28.73415911661224
 31
0.0
  0
SOLID
  5
E1
330
DB
100
AcDbEntity
  8
치수문자_일반주서
 62
     0
100
AcDbTrace
 10
48.69800000000001
 20
28.18382578327891
 30
0.0
 11
48.69800000000001
 21
29.28449244994557
 31
0.0
 12
52.00000000000001
 22
28.73415911661224
 32
0.0
 13
52.00000000000001
 23
28.73415911661224
 33
0.0
  0
SOLID
  5
E2
330
DB
100
AcDbEntity
  8
치수문자_일반주서
 62
     0
100
AcDbTrace
 10
-44.69800000000001
 20
29.28449244994557
 30
0.0
 11
-44.69800000000001
 21
28.18382578327891
 31
0.0
 12
-48.00000000000001
 22
28.73415911661224
 32
0.0
 13
-48.00000000000001
 23
28.73415911661224
 33
0.0
  0
MTEXT
  5
E3
330
DB
100
AcDbEntity
  8
치수문자_일반주서
 62
     0
100
AcDbMText
 10
-1.499999999999993
 20
33.10915911661224
 30
0.0
 40
3.5
 41
0.0
 71
     2
 72
     1
  1
\A1;100
  7
SLDTEXTSTYLE0
 73
     1
 44
1.0
  0
POINT
  5
130
330
DB
100
AcDbEntity
  8
Defpoints
 62
     0
100
AcDbPoint
 10
52.00000000000001
 20
5.950000000000006
 30
0.0
  0
POINT
  5
131
330
DB
100
AcDbEntity
  8
Defpoints
 62
     0
100
AcDbPoint
 10
-48.00000000000001
 20
5.804734286575735
 30
0.0
  0
POINT
  5
132
330
DB
100
AcDbEntity
  8
Defpoints
 62
     0
100
AcDbPoint
 10
-48.00000000000001
 20
28.73415911661224
 30
0.0
  0
ENDBLK
  5
DD
330
DB
100
AcDbEntity
  8
0
100
AcDbBlockEnd
  0
BLOCK
  5
E7
330
E6
100
AcDbEntity
  8
0
100
AcDbBlockBegin
  2
_D_2
 70
     0
 10
0.0
 20
0.0
 30
0.0
  3
_D_2
  1
_D_2
  0
LINE
  5
E9
330
E6
100
AcDbEntity
  8
치수문자_일반주서
 62
     0
370
    -2
100
AcDbLine
 10
52.06250000000001
 20
8.509932906189182
 30
0.0
 11
67.56619031224625
 21
8.509932906189233
 31
0.0
  0
LINE
  5
EA
330
E6
100
AcDbEntity
  8
치수문자_일반주서
 62
     0
370
    -2
100
AcDbLine
 10
52.06250000000001
 20
-8.492815929451975
 30
0.0
 11
67.5661903122463
 21
-8.492815929451924
 31
0.0
  0
LINE
  5
EB
330
E6
100
AcDbEntity
  8
치수문자_일반주서
 62
     0
370
    -2
100
AcDbLine
 10
67.56619031224626
 20
5.207932906189233
 30
0.0
 11
67.56619031224629
 21
-5.190815929451924
 31
0.0
  0
SOLID
  5
EC
330
E6
100
AcDbEntity
  8
치수문자_일반주서
 62
     0
100
AcDbTrace
 10
68.11652364557959
 20
5.207932906189235
 30
0.0
 11
67.01585697891294
 21
5.207932906189232
 31
0.0
 12
67.56619031224625
 22
8.509932906189233
 32
0.0
 13
67.56619031224625
 23
8.509932906189233
 33
0.0
  0
SOLID
  5
ED
330
E6
100
AcDbEntity
  8
치수문자_일반주서
 62
     0
100
AcDbTrace
 10
67.01585697891296
 20
-5.190815929451926
 30
0.0
 11
68.11652364557962
 21
-5.190815929451922
 31
0.0
 12
67.5661903122463
 22
-8.492815929451924
 32
0.0
 13
67.5661903122463
 23
-8.492815929451924
 33
0.0
  0
MTEXT
  5
EE
330
E6
100
AcDbEntity
  8
치수문자_일반주서
 62
     0
100
AcDbMText
 10
63.19119031224628
 20
-0.0000000000000133
 30
0.0
 40
3.5
 41
0.0
 71
     2
 72
     1
  1
\A1;%%c17
  7
SLDTEXTSTYLE0
 11
-3.343189940067389E-15
 21
1.0
 31
0.0
 73
     1
 44
1.0
  0
POINT
  5
EF
330
E6
100
AcDbEntity
  8
Defpoints
 62
     0
100
AcDbPoint
 10
52.00000000000001
 20
8.509932906189182
 30
0.0
  0
POINT
  5
F0
330
E6
100
AcDbEntity
  8
Defpoints
 62
     0
100
AcDbPoint
 10
52.00000000000001
 20
-8.492815929451975
 30
0.0
  0
POINT
  5
F1
330
E6
100
AcDbEntity
  8
Defpoints
 62
     0
100
AcDbPoint
 10
67.5661903122463
 20
-8.49281592945192
 30
0.0
  0
ENDBLK
  5
E8
330
E6
100
AcDbEntity
  8
0
100
AcDbBlockEnd
  0
BLOCK
  5
F4
330
F3
100
AcDbEntity
  8
0
100
AcDbBlockBegin
  2
_D_3
 70
     0
 10
0.0
 20
0.0
 30
0.0
  3
_D_3
  1
_D_3
  0
LINE
  5
F6
330
F3
100
AcDbEntity
  8
치수문자_일반주서
 62
     0
370
    -2
100
AcDbLine
 10
-46.1560850383421
 20
8.0
 30
0.0
 11
-66.41955944538857
 21
7.99999999999993
 31
0.0
  0
LINE
  5
F7
330
F3
100
AcDbEntity
  8
치수문자_일반주서
 62
     0
370
    -2
100
AcDbLine
 10
-46.1560850383421
 20
-8.000000000000007
 30
0.0
 11
-66.41955944538851
 21
-8.000000000000078
 31
0.0
  0
LINE
  5
F8
330
F3
100
AcDbEntity
  8
치수문자_일반주서
 62
     0
370
    -2
100
AcDbLine
 10
-66.41955944538856
 20
4.69799999999993
 30
0.0
 11
-66.41955944538853
 21
-4.698000000000079
 31
0.0
  0
SOLID
  5
F9
330
F3
100
AcDbEntity
  8
치수문자_일반주서
 62
     0
100
AcDbTrace
 10
-65.86922611205523
 20
4.697999999999932
 30
0.0
 11
-66.96989277872188
 21
4.697999999999928
 31
0.0
 12
-66.41955944538857
 22
7.99999999999993
 32
0.0
 13
-66.41955944538857
 23
7.99999999999993
 33
0.0
  0
SOLID
  5
FA
330
F3
100
AcDbEntity
  8
치수문자_일반주서
 62
     0
100
AcDbTrace
 10
-66.96989277872186
 20
-4.69800000000008
 30
0.0
 11
-65.8692261120552
 21
-4.698000000000077
 31
0.0
 12
-66.41955944538851
 22
-8.000000000000078
 32
0.0
 13
-66.41955944538851
 23
-8.000000000000078
 33
0.0
  0
MTEXT
  5
FB
330
F3
100
AcDbEntity
  8
치수문자_일반주서
 62
     0
100
AcDbMText
 10
-70.79455944538854
 20
-0.0000000000000164
 30
0.0
 40
3.5
 41
0.0
 71
     2
 72
     1
  1
\A1;%%c16
  7
SLDTEXTSTYLE0
 11
-3.552713678800499E-15
 21
1.0
 31
0.0
 73
     1
 44
1.0
  0
POINT
  5
FC
330
F3
100
AcDbEntity
  8
Defpoints
 62
     0
100
AcDbPoint
 10
-46.0935850383421
 20
8.0
 30
0.0
  0
POINT
  5
FD
330
F3
100
AcDbEntity
  8
Defpoints
 62
     0
100
AcDbPoint
 10
-46.0935850383421
 20
-8.000000000000007
 30
0.0
  0
POINT
  5
FE
330
F3
100
AcDbEntity
  8
Defpoints
 62
     0
100
AcDbPoint
 10
-66.41955944538851
 20
-8.000000000000078
 30
0.0
  0
ENDBLK
  5
F5
330
F3
100
AcDbEntity
  8
0
100
AcDbBlockEnd
  0
BLOCK
  5
100
330
FF
100
AcDbEntity
  8
0
100
AcDbBlockBegin
  2
SW_DOWELSYMBOL_0
 70
     0
 10
0.0
 20
0.0
 30
0.0
  3
SW_DOWELSYMBOL_0
  1
SW_DOWELSYMBOL_0
  0
CIRCLE
  5
102
330
FF
100
AcDbEntity
  8
외형선
 62
     0
100
AcDbCircle
 10
0.0
 20
0.0
 30
0.0
 40
3.000000000000004
  0
HATCH
  5
103
330
FF
100
AcDbEntity
  8
0
  6
Continuous
 62
     0
370
    30
100
AcDbHatch
 10
0.0
 20
0.0
 30
0.0
210
0.0
220
0.0
230
1.0
  2
SOLID
 70
     1
 71
     0
 91
        1
 92
        0
 93
        3
 72
     2
 10
0.0000000000000087
 20
-0.0000000000000035
 40
3.000000000000004
 50
0.0
 51
90.0
 73
     1
 72
     1
 10
0.0000000000000087
 20
3.000000000000001
 11
0.0000000000000087
 21
-0.0000000000000036
 72
     1
 10
0.0000000000000087
 20
-0.0000000000000035
 11
3.000000000000013
 21
-0.0000000000000035
 97
        0
 75
     0
 76
     1
 98
        1
 10
0.0
 20
0.0
  0
HATCH
  5
104
330
FF
100
AcDbEntity
  8
0
  6
Continuous
 62
     0
370
    30
100
AcDbHatch
 10
0.0
 20
0.0
 30
0.0
210
0.0
220
0.0
230
1.0
  2
SOLID
 70
     1
 71
     0
 91
        1
 92
        0
 93
        3
 72
     2
 10
0.0000000000000087
 20
-0.0000000000000035
 40
3.000000000000004
 50
180.0
 51
270.0000000000008
 73
     1
 72
     1
 10
0.0000000000000087
 20
-3.000000000000008
 11
0.0000000000000087
 21
-0.0000000000000036
 72
     1
 10
0.0000000000000087
 20
-0.0000000000000035
 11
-2.999999999999996
 21
-0.0000000000000035
 97
        0
 75
     0
 76
     1
 98
        1
 10
0.0
 20
0.0
  0
ENDBLK
  5
101
330
FF
100
AcDbEntity
  8
0
100
AcDbBlockEnd
  0
ENDSEC
  0
SECTION
  2
ENTITIES
  0
LINE
  5
95
330
1F
100
AcDbEntity
  8
0
  6
Continuous
 62
     4
370
    15
100
AcDbLine
 10
9.999999999999991
 20
8.000000000000004
 30
0.0
 11
-46.0935850383421
 21
8.0
 31
0.0
  0
LINE
  5
96
330
1F
100
AcDbEntity
  8
0
  6
Continuous
 62
     4
370
    15
100
AcDbLine
 10
-46.09358503834211
 20
-8.0
 30
0.0
 11
9.999999999999993
 21
-7.999999999999996
 31
0.0
  0
SPLINE
  5
99
330
1F
100
AcDbEntity
  8
0
  6
Continuous
 62
     1
370
    15
100
AcDbSpline
210
0.0
220
0.0
230
1.0
 70
     8
 71
     3
 72
    10
 73
     6
 74
     0
 42
0.000000001
 43
0.00000001
 40
0.0
 40
0.0
 40
0.0
 40
0.0
 40
0.4989435565009916
 40
0.6864087071478056
 40
1.0
 40
1.0
 40
1.0
 40
1.0
 10
29.97782578712664
 20
2.178138090976693
 30
0.0
 10
29.58586105592892
 20
2.365295306483301
 30
0.0
 10
29.04662570378658
 20
2.62277201032168
 30
0.0
 10
28.26144012812638
 20
3.021624055276705
 30
0.0
 10
27.86750506198668
 20
3.228221505170672
 30
0.0
 10
27.62095677727071
 20
3.357522629331036
 30
0.0
  0
LINE
  5
9A
330
1F
100
AcDbEntity
  8
0
  6
Continuous
 62
     1
370
    15
100
AcDbLine
 10
10.47219074967756
 20
8.500000000000004
 30
0.0
 11
9.999999999999991
 21
8.500000000000004
 31
0.0
  0
SPLINE
  5
9B
330
1F
100
AcDbEntity
  8
0
  6
Continuous
 62
     1
370
    15
100
AcDbSpline
210
0.0
220
0.0
230
1.0
 70
     8
 71
     3
 72
    23
 73
    19
 74
     0
 42
0.000000001
 43
0.00000001
 40
0.0
 40
0.0
 40
0.0
 40
0.0
 40
0.1289186007480061
 40
0.2237139025542026
 40
0.2900284635700099
 40
0.3274187132107856
 40
0.3746305292553009
 40
0.4340930230674582
 40
0.4970124777817952
 40
0.5493971793486988
 40
0.591100151933249
 40
0.6423740551657882
 40
0.7141431439537076
 40
0.7906081146525379
 40
0.8514315925548499
 40
0.9031034279196604
 40
0.9749532808228873
 40
1.0
 40
1.0
 40
1.0
 40
1.0
 10
27.16831569933015
 20
6.754432516906612
 30
0.0
 10
26.87002812543734
 20
6.739420982440101
 30
0.0
 10
26.35240633267973
 20
6.713371297295023
 30
0.0
 10
25.68335967021773
 20
6.687805270841344
 30
0.0
 10
25.22578234334688
 20
6.673258040927249
 30
0.0
 10
24.88144826264534
 20
6.663897633634633
 30
0.0
 10
24.55016056706562
 20
6.656045838155968
 30
0.0
 10
24.15957028879768
 20
6.648579857746362
 30
0.0
 10
23.75664005199335
 20
6.642988336119187
 30
0.0
 10
23.39487644335399
 20
6.639763958233864
 30
0.0
 10
23.05995735029183
 20
6.63813937860989
 30
0.0
 10
22.6803023083455
 20
6.637835161691188
 30
0.0
 10
22.22050302044877
 20
6.639913360239976
 30
0.0
 10
21.73870793129035
 20
6.645183704777269
 30
0.0
 10
21.30323792145547
 20
6.652462871031391
 30
0.0
 10
20.87840568699025
 20
6.661795352179478
 30
0.0
 10
20.53603705827601
 20
6.67050603935508
 30
0.0
 10
20.31280831754851
 20
6.678181613586552
 30
0.0
 10
20.25510609484629
 20
6.680165666769976
 30
0.0
  0
SPLINE
  5
9C
330
1F
100
AcDbEntity
  8
0
  6
Continuous
 62
     1
370
    15
100
AcDbSpline
210
0.0
220
0.0
230
1.0
 70
     8
 71
     3
 72
    32
 73
    28
 74
     0
 42
0.000000001
 43
0.00000001
 40
0.0
 40
0.0
 40
0.0
 40
0.0
 40
0.0652530550078658
 40
0.1183367873408385
 40
0.1611034603903555
 40
0.1963682626118166
 40
0.2246970486369461
 40
0.2508866764869246
 40
0.2767953820978686
 40
0.3037573066746309
 40
0.3557580198113198
 40
0.4044854009530758
 40
0.449153206723371
 40
0.5031443200699164
 40
0.5389510897020067
 40
0.5673741120256431
 40
0.5885951726180354
 40
0.6145477531637157
 40
0.6526709407830578
 40
0.6893445760465732
 40
0.7145685694444428
 40
0.7586916573067561
 40
0.8151339904392179
 40
0.8481444508858299
 40
0.8853793951344977
 40
0.9353407317696437
 40
1.0
 40
1.0
 40
1.0
 40
1.0
 10
48.84214407966022
 20
5.813597865844004
 30
0.0
 10
48.53134134533015
 20
5.787925074023851
 30
0.0
 10
47.96769881437223
 20
5.741367319667354
 30
0.0
 10
47.16768352943317
 20
5.69055390881216
 30
0.0
 10
46.50192164914491
 20
5.656738687804225
 30
0.0
 10
45.96699079932812
 20
5.634346432300687
 30
0.0
 10
45.52095745734209
 20
5.619380112679321
 30
0.0
 10
45.12299322961893
 20
5.608803761307393
 30
0.0
 10
44.7310621194929
 20
5.601004991491843
 30
0.0
 10
44.21137755458798
 20
5.594183062996191
 30
0.0
 10
43.57725316073783
 20
5.592289274329747
 30
0.0
 10
42.86476652111563
 20
5.599501366034652
 30
0.0
 10
42.15016884724223
 20
5.614656837224235
 30
0.0
 10
41.47686115401855
 20
5.637847200679003
 30
0.0
 10
40.88417905594972
 20
5.665153395013344
 30
0.0
 10
40.45701552198618
 20
5.688319290882286
 30
0.0
 10
40.08123991730933
 20
5.711057637848731
 30
0.0
 10
39.65911372146231
 20
5.739029116530602
 30
0.0
 10
39.16004572412234
 20
5.776001387630648
 30
0.0
 10
38.66460670414046
 20
5.817213058663293
 30
0.0
 10
38.13876602148802
 20
5.864909707576846
 30
0.0
 10
37.51617863489842
 20
5.92672491220048
 30
0.0
 10
36.85362990478863
 20
6.000379701341878
 30
0.0
 10
36.21802888770532
 20
6.077247282401978
 30
0.0
 10
35.61194134498695
 20
6.155051069183881
 30
0.0
 10
34.86364389986856
 20
6.258846033018084
 30
0.0
 10
34.30740406014033
 20
6.344699192555256
 30
0.0
 10
33.99362050403712
 20
6.393130296870672
 30
0.0
  0
SPLINE
  5
9D
330
1F
100
AcDbEntity
  8
0
  6
Continuous
 62
     1
370
    15
100
AcDbSpline
210
0.0
220
0.0
230
1.0
 70
     8
 71
     3
 72
    31
 73
    27
 74
     0
 42
0.000000001
 43
0.00000001
 40
0.0
 40
0.0
 40
0.0
 40
0.0
 40
0.0797624670748313
 40
0.1375352522281493
 40
0.1797882661960023
 40
0.2244854985760499
 40
0.2643174322124215
 40
0.3061476806612213
 40
0.3618618137018049
 40
0.4213322619332554
 40
0.4699349603572662
 40
0.5116775798737023
 40
0.542000532481593
 40
0.5787314327362997
 40
0.6244596639776849
 40
0.6629995388838454
 40
0.6898735426766789
 40
0.7204758865337897
 40
0.759288161509829
 40
0.7981158095934909
 40
0.8275672209178414
 40
0.8389446567579611
 40
0.8549335458340058
 40
0.8790344051128572
 40
0.9302917026905724
 40
1.0
 40
1.0
 40
1.0
 40
1.0
 10
14.38460404109414
 20
-7.073171045196308
 30
0.0
 10
14.72046608695888
 20
-7.040443124426985
 30
0.0
 10
15.2995965086462
 20
-6.984010029978078
 30
0.0
 10
16.0672002919101
 20
-6.919153250195644
 30
0.0
 10
16.69122088563729
 20
-6.870662828605925
 30
0.0
 10
17.23254738394872
 20
-6.831851467021857
 30
0.0
 10
17.77058342267795
 20
-6.796638818812574
 30
0.0
 10
18.35646918214161
 20
-6.762030888063781
 30
0.0
 10
19.02572834451337
 20
-6.727497925930427
 30
0.0
 10
19.72372599323004
 20
-6.697657555230854
 30
0.0
 10
20.3619787221258
 20
-6.675668449518925
 30
0.0
 10
20.87623308273525
 20
-6.661678700388581
 30
0.0
 10
21.33993130908922
 20
-6.651729736643011
 30
0.0
 10
21.82061326200613
 20
-6.643979143791258
 30
0.0
 10
22.33633206120982
 20
-6.639042727219369
 30
0.0
 10
22.81004919034665
 20
-6.63769027628785
 30
0.0
 10
23.21922904001696
 20
-6.638673018633752
 30
0.0
 10
23.62950319882898
 20
-6.641550508450382
 30
0.0
 10
24.09097336671801
 20
-6.647339332111583
 30
0.0
 10
24.54721865221564
 20
-6.655869895426139
 30
0.0
 10
24.88598361919386
 20
-6.664038705025901
 30
0.0
 10
25.12568346545035
 20
-6.670568580205937
 30
0.0
 10
25.34424827523645
 20
-6.676993633628891
 30
0.0
 10
25.7333744436135
 20
-6.689727963636869
 30
0.0
 10
26.35247055473738
 20
-6.713368525171983
 30
0.0
 10
26.87005160432182
 20
-6.739419968982124
 30
0.0
 10
27.16831569933015
 20
-6.754432516906609
 30
0.0
  0
SPLINE
  5
9E
330
1F
100
AcDbEntity
  8
0
  6
Continuous
 62
     1
370
    15
100
AcDbSpline
210
0.0
220
0.0
230
1.0
 70
     8
 71
     3
 72
    18
 73
    14
 74
     0
 42
0.000000001
 43
0.00000001
 40
0.0
 40
0.0
 40
0.0
 40
0.0
 40
0.1518350485791162
 40
0.2691559243435823
 40
0.3565922613694762
 40
0.4341085247406316
 40
0.5474395143684249
 40
0.6402112171882591
 40
0.7230888772385761
 40
0.8529180873159685
 40
0.9267012962130061
 40
0.976206265900895
 40
1.0
 40
1.0
 40
1.0
 40
1.0
 10
33.99362050403712
 20
-6.393130296870669
 30
0.0
 10
34.30740470226048
 20
-6.344699206555529
 30
0.0
 10
34.86364568026637
 20
-6.258846071836453
 30
0.0
 10
35.611936613529
 20
-6.155050966022934
 30
0.0
 10
36.21804116112726
 20
-6.077247550001901
 30
0.0
 10
36.81254155315884
 20
-6.005341910608015
 30
0.0
 10
37.41255215678864
 20
-5.938138401784483
 30
0.0
 10
38.02113862648056
 20
-5.876127488580177
 30
0.0
 10
38.66649410890118
 20
-5.816387895168803
 30
0.0
 10
39.27061284046811
 20
-5.767042945325495
 30
0.0
 10
39.80469419492704
 20
-5.729239199789028
 30
0.0
 10
40.11445218106531
 20
-5.708984579137696
 30
0.0
 10
40.26993341845002
 20
-5.699849977731524
 30
0.0
 10
40.32040469595697
 20
-5.696884764627737
 30
0.0
  0
LINE
  5
9F
330
1F
100
AcDbEntity
  8
0
  6
Continuous
 62
     1
370
    15
100
AcDbLine
 10
9.999999999999991
 20
-8.500000000000004
 30
0.0
 11
10.47219074967757
 21
-8.500000000000004
 31
0.0
  0
LINE
  5
A4
330
1F
100
AcDbEntity
  8
0
  6
Continuous
 62
     1
370
    15
100
AcDbLine
 10
9.999999999999991
 20
7.000000000000001
 30
0.0
 11
9.999999999999991
 21
6.810887430307586
 31
0.0
  0
SPLINE
  5
A8
330
1F
100
AcDbEntity
  8
0
  6
Continuous
 62
     1
370
    15
100
AcDbSpline
210
0.0
220
0.0
230
1.0
 70
    24
 71
     3
 72
    14
 73
    10
 74
     0
 42
0.000000001
 43
0.00000001
 40
0.0
 40
0.0
 40
0.0
 40
0.0
 40
0.2500000000000002
 40
0.2500000000000002
 40
0.5000000000000001
 40
0.5000000000000001
 40
0.75
 40
0.75
 40
1.0
 40
1.0
 40
1.0
 40
1.0
 10
9.999999999999991
 20
5.703567905236754
 30
0.0
 10
9.999999999999991
 20
5.340364280252184
 30
0.0
 10
9.999999999999991
 20
4.884649061268068
 30
0.0
 10
9.999999999999991
 20
3.806234310456567
 30
0.0
 10
9.999999999999991
 20
3.183734327632529
 30
0.0
 10
9.999999999999991
 20
1.825832353050465
 30
0.0
 10
9.999999999999991
 20
1.091153908235962
 30
0.0
 10
9.999999999999991
 20
-0.4146970283451704
 30
0.0
 10
9.999999999999991
 20
-1.185069613922151
 30
0.0
 10
9.999999999999991
 20
-1.936734268027277
 30
0.0
  0
SPLINE
  5
A9
330
1F
100
AcDbEntity
  8
0
  6
Continuous
 62
     1
370
    15
100
AcDbSpline
210
0.0
220
0.0
230
1.0
 70
    24
 71
     3
 72
    14
 73
    10
 74
     0
 42
0.000000001
 43
0.00000001
 40
0.0
 40
0.0
 40
0.0
 40
0.0
 40
0.25
 40
0.25
 40
0.5
 40
0.5
 40
0.75
 40
0.75
 40
1.0
 40
1.0
 40
1.0
 40
1.0
 10
9.999999999999991
 20
-1.936734268027281
 30
0.0
 10
9.999999999999991
 20
-2.447781757443036
 30
0.0
 10
9.999999999999991
 20
-2.949389977752397
 30
0.0
 10
9.999999999999991
 20
-3.905343378034013
 30
0.0
 10
9.999999999999991
 20
-4.359521891395329
 30
0.0
 10
9.999999999999991
 20
-5.19416663983358
 30
0.0
 10
9.999999999999991
 20
-5.574492583218273
 30
0.0
 10
9.999999999999991
 20
-6.24202429957312
 30
0.0
 10
9.999999999999991
 20
-6.529166625891378
 30
0.0
 10
9.999999999999991
 20
-6.765179597273952
 30
0.0
  0
SPLINE
  5
AA
330
1F
100
AcDbEntity
  8
0
  6
Continuous
 62
     4
370
    15
100
AcDbSpline
210
0.0
220
0.0
230
1.0
 70
    24
 71
     3
 72
     8
 73
     4
 74
     0
 42
0.000000001
 43
0.00000001
 40
0.0
 40
0.0
 40
0.0
 40
0.0
 40
1.0
 40
1.0
 40
1.0
 40
1.0
 10
9.999999999999991
 20
6.810887430307606
 30
0.0
 10
9.999999999999991
 20
6.431285635178591
 30
0.0
 10
9.999999999999991
 20
6.052856254144822
 30
0.0
 10
9.999999999999991
 20
5.703567905236752
 30
0.0
  0
SPLINE
  5
AB
330
1F
100
AcDbEntity
  8
0
  6
Continuous
 62
     1
370
    15
100
AcDbSpline
210
0.0
220
0.0
230
1.0
 70
     8
 71
     3
 72
    23
 73
    19
 74
     0
 42
0.000000001
 43
0.00000001
 40
0.0
 40
0.0
 40
0.0
 40
0.0
 40
0.0634513770686036
 40
0.1268919050966046
 40
0.1903239079877205
 40
0.2537497219284096
 40
0.3171716920371569
 40
0.3794579423990726
 40
0.4417460007180287
 40
0.5040397622049355
 40
0.5663431105555565
 40
0.6299265929954411
 40
0.6935191054604019
 40
0.7571040678772533
 40
0.820679542717056
 40
0.8842477056300962
 40
0.9478107423431581
 40
1.0
 40
1.0
 40
1.0
 40
1.0
 10
52.00000000000001
 20
-8.065997388471146
 30
0.0
 10
51.12160872855046
 20
-7.881144096932175
 30
0.0
 10
49.36497637470962
 20
-7.511469120431708
 30
0.0
 10
46.73034060380313
 20
-6.648040192055742
 30
0.0
 10
44.09611987844786
 20
-5.590874079944998
 30
0.0
 10
41.46221619047501
 20
-4.350288352251359
 30
0.0
 10
38.84417886409734
 20
-2.980396548860545
 30
0.0
 10
36.24199352531286
 20
-1.525426293076624
 30
0.0
 10
33.65538711704644
 20
-0.0323334024994021
 30
0.0
 10
31.06850203585442
 20
1.461841611662191
 30
0.0
 10
28.46360610799357
 20
2.920876763042198
 30
0.0
 10
25.84060928863294
 20
4.298035881706382
 30
0.0
 10
23.19976452524013
 20
5.546620501427537
 30
0.0
 10
20.55913171711961
 20
6.616845740279677
 30
0.0
 10
17.91891342395004
 20
7.476911306391256
 30
0.0
 10
15.27905999826331
 20
8.089312239528317
 30
0.0
 10
12.79685892072606
 20
8.448795304425838
 30
0.0
 10
11.19460104469608
 20
8.470274386320577
 30
0.0
 10
10.47219074967756
 20
8.479958663814507
 30
0.0
  0
SPLINE
  5
AC
330
1F
100
AcDbEntity
  8
0
  6
Continuous
 62
     1
370
    15
100
AcDbSpline
210
0.0
220
0.0
230
1.0
 70
     8
 71
     3
 72
    15
 73
    11
 74
     0
 42
0.000000001
 43
0.00000001
 40
0.0
 40
0.0
 40
0.0
 40
0.0
 40
0.127573231487162
 40
0.2551443571758855
 40
0.3827134910687682
 40
0.510280747418332
 40
0.6378462407128767
 40
0.7654100856622671
 40
0.8929723971836636
 40
0.9999999999999999
 40
0.9999999999999999
 40
0.9999999999999999
 40
0.9999999999999999
 10
52.00000000000001
 20
-6.706264247129832
 30
0.0
 10
51.06135604126245
 20
-6.511211592356387
 30
0.0
 10
49.18408361759401
 20
-6.121109502462802
 30
0.0
 10
46.36820622601141
 20
-5.247224959672675
 30
0.0
 10
43.552378796303
 20
-4.199520005356685
 30
0.0
 10
40.73659910603818
 20
-2.99413247643428
 30
0.0
 10
37.92086403571829
 20
-1.680264355153263
 30
0.0
 10
35.10517087998704
 20
-0.30691256615703
 30
0.0
 10
32.44059168897249
 20
1.010728097084454
 30
0.0
 10
30.7145786524294
 20
1.825334319676826
 30
0.0
 10
29.92711497031646
 20
2.196984360512827
 30
0.0
  0
LINE
  5
AD
330
1F
100
AcDbEntity
  8
0
  6
Continuous
 62
     1
370
    15
100
AcDbLine
 10
51.99999999999972
 20
-8.065997388471148
 30
0.0
 11
52.00000000000001
 21
-6.706264247129832
 31
0.0
  0
SPLINE
  5
AE
330
1F
100
AcDbEntity
  8
0
  6
Continuous
 62
     1
370
    15
100
AcDbSpline
210
0.0
220
0.0
230
1.0
 70
     8
 71
     3
 72
    62
 73
    58
 74
     0
 42
0.000000001
 43
0.00000001
 40
0.0
 40
0.0
 40
0.0
 40
0.0
 40
0.0312499999999999
 40
0.0312499999999999
 40
0.0624999999999999
 40
0.0624999999999999
 40
0.0937499999999998
 40
0.0937499999999998
 40
0.1249999999999998
 40
0.1249999999999998
 40
0.1562499999999998
 40
0.1562499999999998
 40
0.1874999999999998
 40
0.1874999999999998
 40
0.2187499999999998
 40
0.2187499999999998
 40
0.2499999999999998
 40
0.2499999999999998
 40
0.3124999999999997
 40
0.3124999999999997
 40
0.3749999999999997
 40
0.3749999999999997
 40
0.4062499999999996
 40
0.4062499999999996
 40
0.4374999999999993
 40
0.4374999999999993
 40
0.4687499999999992
 40
0.4687499999999992
 40
0.4999999999999991
 40
0.4999999999999991
 40
0.531249999999999
 40
0.531249999999999
 40
0.5624999999999989
 40
0.5624999999999989
 40
0.5937499999999987
 40
0.5937499999999987
 40
0.6249999999999987
 40
0.6249999999999987
 40
0.6874999999999984
 40
0.6874999999999984
 40
0.7187499999999983
 40
0.7187499999999983
 40
0.7499999999999984
 40
0.7499999999999984
 40
0.7812499999999987
 40
0.7812499999999987
 40
0.8124999999999989
 40
0.8124999999999989
 40
0.843749999999999
 40
0.843749999999999
 40
0.8749999999999992
 40
0.8749999999999992
 40
0.9062499999999993
 40
0.9062499999999993
 40
0.9374999999999996
 40
0.9374999999999996
 40
1.0
 40
1.0
 40
1.0
 40
1.0
 10
9.999999999999991
 20
8.240580457669896
 30
0.0
 10
10.43854304115344
 20
8.178603751702576
 30
0.0
 10
10.87725079723431
 20
8.105665106366546
 30
0.0
 10
11.74978411012533
 20
7.938843639142077
 30
0.0
 10
12.18602699097393
 20
7.844832341252139
 30
0.0
 10
13.06276270222309
 20
7.635947135636619
 30
0.0
 10
13.50182685421072
 20
7.52116276702984
 30
0.0
 10
14.37612204854504
 20
7.272333078757113
 30
0.0
 10
14.81098292787873
 20
7.138362618944684
 30
0.0
 10
15.68693954763455
 20
6.851234550686317
 30
0.0
 10
16.12614460206153
 20
6.698246399732901
 30
0.0
 10
17.00177692992833
 20
6.375250716812969
 30
0.0
 10
17.43645417134548
 20
6.205495991014406
 30
0.0
 10
18.31120424880074
 20
5.8493271175903
 30
0.0
 10
18.75033448114057
 20
5.663006615472161
 30
0.0
 10
19.62687701980085
 20
5.27608119564389
 30
0.0
 10
20.06256928510252
 20
5.075753106161351
 30
0.0
 10
21.37224635686123
 20
4.455061425559594
 30
0.0
 10
22.25392419760937
 20
4.013980823192348
 30
0.0
 10
23.99605056073093
 20
3.097653324774222
 30
0.0
 10
24.87833925241541
 20
2.618609246281611
 30
0.0
 10
26.18731939872747
 20
1.885672244600423
 30
0.0
 10
26.6234431715736
 20
1.638582185509431
 30
0.0
 10
27.50014346681719
 20
1.139872529921648
 30
0.0
 10
27.93922245344146
 20
0.8885342486251494
 30
0.0
 10
28.81361181624328
 20
0.3848906567153613
 30
0.0
 10
29.24842696804049
 20
0.1326836684669966
 30
0.0
 10
30.12432193775458
 20
-0.3726181398743798
 30
0.0
 10
30.56352861215765
 20
-0.6253510859712057
 30
0.0
 10
31.43922900594512
 20
-1.12797107726929
 30
0.0
 10
31.87393397454448
 20
-1.377520055129046
 30
0.0
 10
32.74859626832953
 20
-1.87331380203202
 30
0.0
 10
33.18771490332787
 20
-2.119391028665343
 30
0.0
 10
34.06429929454507
 20
-2.604964185534973
 30
0.0
 10
34.50009269672078
 20
-2.844158724502521
 30
0.0
 10
35.37309696998869
 20
-3.314662848361073
 30
0.0
 10
35.81191198278162
 20
-3.546248937326323
 30
0.0
 10
37.1274718551533
 20
-4.225812654313188
 30
0.0
 10
37.99771737824244
 20
-4.657678149777343
 30
0.0
 10
39.31331671133723
 20
-5.266783221611136
 30
0.0
 10
39.75207971028071
 20
-5.463121433143074
 30
0.0
 10
40.62485167435899
 20
-5.840137565505632
 30
0.0
 10
41.0608608309644
 20
-6.021123903133639
 30
0.0
 10
41.93752410071472
 20
-6.367290613257643
 30
0.0
 10
42.37661711277639
 20
-6.532241954237091
 30
0.0
 10
43.25109904868421
 20
-6.843958865188633
 30
0.0
 10
43.68587297268386
 20
-6.990688466464698
 30
0.0
 10
44.56170468779645
 20
-7.265951134223025
 30
0.0
 10
45.00091217219008
 20
-7.394250403295671
 30
0.0
 10
45.87667902852827
 20
-7.630658083933995
 30
0.0
 10
46.31141622472065
 20
-7.738644133289051
 30
0.0
 10
47.18598913780799
 20
-7.934288424678307
 30
0.0
 10
47.62509536602148
 20
-8.021848533416216
 30
0.0
 10
48.5017200010175
 20
-8.175352579427067
 30
0.0
 10
48.93761903384236
 20
-8.241231768961205
 30
0.0
 10
50.24695240151248
 20
-8.40605060189208
 30
0.0
 10
51.12921755452374
 20
-8.472083675774895
 30
0.0
 10
52.00000000000001
 20
-8.492815929451973
 30
0.0
  0
SPLINE
  5
AF
330
1F
100
AcDbEntity
  8
0
  6
Continuous
 62
     1
370
    15
100
AcDbSpline
210
0.0
220
0.0
230
1.0
 70
     8
 71
     3
 72
    15
 73
    11
 74
     0
 42
0.000000001
 43
0.00000001
 40
0.0
 40
0.0
 40
0.0
 40
0.0
 40
0.0673570318949075
 40
0.2021993104461971
 40
0.337040281967786
 40
0.4718800736939522
 40
0.6067188130092322
 40
0.7378149424585523
 40
0.8689083104804123
 40
1.0
 40
1.0
 40
1.0
 40
1.0
 10
30.88036418649691
 20
-0.8049907841334487
 30
0.0
 10
30.41154612887928
 20
-0.6179909776302072
 30
0.0
 10
29.00419955632079
 20
-0.0566356021807368
 30
0.0
 10
26.65833729843176
 20
0.8981472417038582
 30
0.0
 10
23.84278325647733
 20
2.005666866700574
 30
0.0
 10
21.02726230055791
 20
3.04131449906069
 30
0.0
 10
18.23778705325201
 20
3.95813845861109
 30
0.0
 10
15.47446691487645
 20
4.722731343417035
 30
0.0
 10
12.73721372309245
 20
5.331382562171865
 30
0.0
 10
10.91240068022811
 20
5.579506653709895
 30
0.0
 10
9.999999999999991
 20
5.703567905236752
 30
0.0
  0
SPLINE
  5
B0
330
1F
100
AcDbEntity
  8
0
  6
Continuous
 62
     4
370
    15
100
AcDbSpline
210
0.0
220
0.0
230
1.0
 70
    24
 71
     3
 72
    10
 73
     6
 74
     0
 42
0.000000001
 43
0.00000001
 40
0.0
 40
0.0
 40
0.0
 40
0.0
 40
0.5
 40
0.5
 40
1.0
 40
1.0
 40
1.0
 40
1.0
 10
9.999999999999991
 20
8.240580457669887
 30
0.0
 10
9.999999999999991
 20
7.863542473166512
 30
0.0
 10
9.999999999999991
 20
7.431903322676407
 30
0.0
 10
9.999999999999991
 20
6.553221002210707
 30
0.0
 10
9.999999999999991
 20
6.108612298806951
 30
0.0
 10
9.999999999999991
 20
5.703567905236752
 30
0.0
  0
LINE
  5
B1
330
1F
100
AcDbEntity
  8
0
  6
Continuous
 62
     4
370
    15
100
AcDbLine
 10
9.999999999999991
 20
8.24058045766989
 30
0.0
 11
9.999999999999991
 21
8.500000000000004
 31
0.0
  0
LINE
  5
B2
330
1F
100
AcDbEntity
  8
0
  6
Continuous
 62
     1
370
    15
100
AcDbLine
 10
52.00000000000001
 20
-8.492815929451975
 30
0.0
 11
51.99999999999938
 21
-8.065997388471132
 31
0.0
  0
SPLINE
  5
B3
330
1F
100
AcDbEntity
  8
0
  6
Continuous
 62
     1
370
    15
100
AcDbSpline
210
0.0
220
0.0
230
1.0
 70
     8
 71
     3
 72
    12
 73
     8
 74
     0
 42
0.000000001
 43
0.00000001
 40
0.0
 40
0.0
 40
0.0
 40
0.0
 40
0.5
 40
0.5
 40
0.75
 40
0.75
 40
1.0
 40
1.0
 40
1.0
 40
1.0
 10
52.00000000000001
 20
-2.271565041251975
 30
0.0
 10
51.13715695544915
 20
-1.593227129824496
 30
0.0
 10
50.28800949642206
 20
-0.8884683195177497
 30
0.0
 10
49.0351931749634
 20
0.2089986119583388
 30
0.0
 10
48.62112237108492
 20
0.5816397821643413
 30
0.0
 10
47.80079766494968
 20
1.342002132623455
 30
0.0
 10
47.39431261189922
 20
1.730079591834414
 30
0.0
 10
47.00000000000001
 20
2.119477407732852
 30
0.0
  0
LINE
  5
B4
330
1F
100
AcDbEntity
  8
0
  6
Continuous
 62
     1
370
    15
100
AcDbLine
 10
47.00000000000001
 20
2.937719435296592
 30
0.0
 11
52.00000000000001
 21
0.0000000000000057
 31
0.0
  0
LINE
  5
B5
330
1F
100
AcDbEntity
  8
0
  6
Continuous
 62
     1
370
    15
100
AcDbLine
 10
52.00000000000001
 20
0.0000000000000057
 30
0.0
 11
52.00000000000001
 21
-2.271565041251976
 31
0.0
  0
SPLINE
  5
B6
330
1F
100
AcDbEntity
  8
0
  6
Continuous
 62
     1
370
    15
100
AcDbSpline
210
0.0
220
0.0
230
1.0
 70
     8
 71
     3
 72
    15
 73
    11
 74
     0
 42
0.000000001
 43
0.00000001
 40
0.0
 40
0.0
 40
0.0
 40
0.0
 40
0.1051990546290498
 40
0.2104260279518156
 40
0.3158000871540766
 40
0.4577504234741628
 40
0.5996988998450996
 40
0.7416456459381306
 40
0.883590791642999
 40
1.0
 40
1.0
 40
1.0
 40
1.0
 10
46.99999999999999
 20
2.264895297195892
 30
0.0
 10
46.3045701226609
 20
2.563520136285721
 30
0.0
 10
44.91352580839884
 20
3.160849066274701
 30
0.0
 10
42.82594207842317
 20
3.981713859710228
 30
0.0
 10
40.49471037111477
 20
4.811190104715648
 30
0.0
 10
37.9208879474508
 20
5.589519833241874
 30
0.0
 10
35.10518089988354
 20
6.238922855825616
 30
0.0
 10
32.2895330788774
 20
6.653749221366549
 30
0.0
 10
29.64274885825992
 20
6.840586778441063
 30
0.0
 10
27.93451792964596
 20
6.768482336371026
 30
0.0
 10
27.16482387586091
 20
6.735993543794354
 30
0.0
  0
SPLINE
  5
B7
330
1F
100
AcDbEntity
  8
0
  6
Continuous
 62
     1
370
    15
100
AcDbSpline
210
0.0
220
0.0
230
1.0
 70
    24
 71
     3
 72
     8
 73
     4
 74
     0
 42
0.000000001
 43
0.00000001
 40
0.0
 40
0.0
 40
0.0
 40
0.0
 40
1.0
 40
1.0
 40
1.0
 40
1.0
 10
47.0
 20
2.119477407718519
 30
0.0
 10
47.0
 20
2.168116799386125
 30
0.0
 10
47.00000000000001
 20
2.216592066035191
 30
0.0
 10
47.00000000000001
 20
2.264895297195891
 30
0.0
  0
SPLINE
  5
B8
330
1F
100
AcDbEntity
  8
0
  6
Continuous
 62
     1
370
    15
100
AcDbSpline
210
0.0
220
0.0
230
1.0
 70
    24
 71
     3
 72
    10
 73
     6
 74
     0
 42
0.000000001
 43
0.00000001
 40
0.0
 40
0.0
 40
0.0
 40
0.0
 40
0.5
 40
0.5
 40
1.0
 40
1.0
 40
1.0
 40
1.0
 10
52.00000000000001
 20
-6.706264247129829
 30
0.0
 10
52.00000000000001
 20
-6.192176806532336
 30
0.0
 10
52.00000000000001
 20
-5.542607613204976
 30
0.0
 10
52.0
 20
-4.032421752780773
 30
0.0
 10
52.00000000000001
 20
-3.173113265936128
 30
0.0
 10
52.00000000000001
 20
-2.271565041252247
 30
0.0
  0
SPLINE
  5
B9
330
1F
100
AcDbEntity
  8
0
  6
Continuous
 62
     1
370
    15
100
AcDbSpline
210
0.0
220
0.0
230
1.0
 70
    24
 71
     3
 72
     8
 73
     4
 74
     0
 42
0.000000001
 43
0.00000001
 40
0.0
 40
0.0
 40
0.0
 40
0.0
 40
1.0
 40
1.0
 40
1.0
 40
1.0
 10
47.00000000000001
 20
2.264895297195889
 30
0.0
 10
47.00000000000001
 20
3.006663638660713
 30
0.0
 10
47.00000000000001
 20
3.683131217132048
 30
0.0
 10
47.00000000000001
 20
4.226834452139615
 30
0.0
  0
SPLINE
  5
BA
330
1F
100
AcDbEntity
  8
0
  6
Continuous
 62
     1
370
    15
100
AcDbSpline
210
0.0
220
0.0
230
1.0
 70
     8
 71
     3
 72
     9
 73
     5
 74
     0
 42
0.000000001
 43
0.00000001
 40
0.0
 40
0.0
 40
0.0
 40
0.0
 40
0.8907939916994249
 40
1.0
 40
1.0
 40
1.0
 40
1.0
 10
52.00000000000001
 20
5.950000000000006
 30
0.0
 10
51.06135666961848
 20
5.945463927416942
 30
0.0
 10
50.00764128858987
 20
5.940371759502328
 30
0.0
 10
48.95392870670567
 20
5.815711621656441
 30
0.0
 10
48.838856961742
 20
5.802097985608093
 30
0.0
  0
SPLINE
  5
BB
330
1F
100
AcDbEntity
  8
0
  6
Continuous
 62
     1
370
    15
100
AcDbSpline
210
0.0
220
0.0
230
1.0
 70
     8
 71
     3
 72
    10
 73
     6
 74
     0
 42
0.000000001
 43
0.00000001
 40
0.0
 40
0.0
 40
0.0
 40
0.0
 40
0.5
 40
0.5
 40
1.0
 40
1.0
 40
1.0
 40
1.0
 10
52.00000000000001
 20
5.950000000000004
 30
0.0
 10
51.15549227516147
 20
5.720990588085914
 30
0.0
 10
50.31587719747081
 20
5.464718560143775
 30
0.0
 10
48.64723123957537
 20
4.89333685256544
 30
0.0
 10
47.81931286183632
 20
4.579197802761078
 30
0.0
 10
47.00000000000002
 20
4.226834452139514
 30
0.0
  0
SPLINE
  5
BC
330
1F
100
AcDbEntity
  8
0
  6
Continuous
 62
     1
370
    15
100
AcDbSpline
210
0.0
220
0.0
230
1.0
 70
     8
 71
     3
 72
     9
 73
     5
 74
     0
 42
0.000000001
 43
0.00000001
 40
0.0
 40
0.0
 40
0.0
 40
0.0
 40
0.3767581641568206
 40
1.0
 40
1.0
 40
1.0
 40
1.0
 10
14.39186620608356
 20
-7.043098458678254
 30
0.0
 10
13.84030823799574
 20
-7.102624772704393
 30
0.0
 10
12.37635066371943
 20
-7.260620855309154
 30
0.0
 10
10.91239710409159
 20
-7.219676591751167
 30
0.0
 10
9.999999999999977
 20
-7.19415841376404
 30
0.0
  0
SPLINE
  5
BD
330
1F
100
AcDbEntity
  8
0
  6
Continuous
 62
     1
370
    15
100
AcDbSpline
210
0.0
220
0.0
230
1.0
 70
     8
 71
     3
 72
    16
 73
    12
 74
     0
 42
0.000000001
 43
0.00000001
 40
0.0
 40
0.0
 40
0.0
 40
0.0
 40
0.0714468836080459
 40
0.1887404119061615
 40
0.30603272525446
 40
0.4233239313054326
 40
0.5406141378516353
 40
0.6579034528121124
 40
0.7719376688946376
 40
0.8859695454668483
 40
1.0
 40
1.0
 40
1.0
 40
1.0
 10
34.00459765806522
 20
-6.36318146508417
 30
0.0
 10
33.43290570975566
 20
-6.455953593048754
 30
0.0
 10
31.9226736554183
 20
-6.701028658064958
 30
0.0
 10
29.47391591025501
 20
-6.829568364689757
 30
0.0
 10
26.65833297111223
 20
-6.765991939215718
 30
0.0
 10
23.84277840360224
 20
-6.445640759083226
 30
0.0
 10
21.0272581408969
 20
-5.892871787371209
 30
0.0
 10
18.23777521091768
 20
-5.131972713393707
 30
0.0
 10
15.47446347497683
 20
-4.196208009124456
 30
0.0
 10
12.73721132462228
 20
-3.129347992598879
 30
0.0
 10
10.91239998212002
 20
-2.334270523699968
 30
0.0
 10
9.999999999999991
 20
-1.936734268027281
 30
0.0
  0
SPLINE
  5
BE
330
1F
100
AcDbEntity
  8
0
  6
Continuous
 62
     4
370
    15
100
AcDbSpline
210
0.0
220
0.0
230
1.0
 70
    24
 71
     3
 72
    14
 73
    10
 74
     0
 42
0.000000001
 43
0.00000001
 40
0.0
 40
0.0
 40
0.0
 40
0.0
 40
0.25
 40
0.25
 40
0.5
 40
0.5
 40
0.75
 40
0.75
 40
1.0
 40
1.0
 40
1.0
 40
1.0
 10
9.999999999999991
 20
-1.936734268027281
 30
0.0
 10
9.999999999999991
 20
-2.539328991243013
 30
0.0
 10
9.999999999999991
 20
-3.128787374468266
 30
0.0
 10
9.999999999999991
 20
-4.234976131103989
 30
0.0
 10
9.999999999999991
 20
-4.751329839608545
 30
0.0
 10
9.999999999999991
 20
-5.670194968431742
 30
0.0
 10
9.999999999999991
 20
-6.072441048394346
 30
0.0
 10
9.999999999999991
 20
-6.738266599954704
 30
0.0
 10
9.999999999999991
 20
-7.00181616703374
 30
0.0
 10
9.999999999999991
 20
-7.194158413764038
 30
0.0
  0
SPLINE
  5
BF
330
1F
100
AcDbEntity
  8
0
  6
Continuous
 62
     4
370
    15
100
AcDbSpline
210
0.0
220
0.0
230
1.0
 70
    24
 71
     3
 72
    14
 73
    10
 74
     0
 42
0.000000001
 43
0.00000001
 40
0.0
 40
0.0
 40
0.0
 40
0.0
 40
0.2500000000000002
 40
0.2500000000000002
 40
0.5000000000000001
 40
0.5000000000000001
 40
0.75
 40
0.75
 40
1.0
 40
1.0
 40
1.0
 40
1.0
 10
9.999999999999991
 20
5.703567905236754
 30
0.0
 10
9.999999999999991
 20
5.340364280252184
 30
0.0
 10
9.999999999999991
 20
4.884649061268068
 30
0.0
 10
9.999999999999991
 20
3.806234310456567
 30
0.0
 10
9.999999999999991
 20
3.183734327632529
 30
0.0
 10
9.999999999999991
 20
1.825832353050465
 30
0.0
 10
9.999999999999991
 20
1.091153908235962
 30
0.0
 10
9.999999999999991
 20
-0.4146970283451704
 30
0.0
 10
9.999999999999991
 20
-1.185069613922151
 30
0.0
 10
9.999999999999991
 20
-1.936734268027277
 30
0.0
  0
LINE
  5
C0
330
1F
100
AcDbEntity
  8
0
  6
Continuous
 62
     1
370
    15
100
AcDbLine
 10
52.00000000000001
 20
0.0000000000000057
 30
0.0
 11
52.00000000000001
 21
5.950000000000006
 31
0.0
  0
SPLINE
  5
C1
330
1F
100
AcDbEntity
  8
0
  6
Continuous
 62
     1
370
    15
100
AcDbSpline
210
0.0
220
0.0
230
1.0
 70
     8
 71
     3
 72
    11
 73
     7
 74
     0
 42
0.000000001
 43
0.00000001
 40
0.0
 40
0.0
 40
0.0
 40
0.0
 40
0.2278140988592324
 40
0.4852271974425601
 40
0.7426195379772057
 40
1.0
 40
1.0
 40
1.0
 40
1.0
 10
20.25515856865066
 20
-6.680148697710372
 30
0.0
 10
19.47637605891229
 20
-6.945966169775393
 30
0.0
 10
17.81762685721725
 20
-7.512137744086409
 30
0.0
 10
15.27906103630912
 20
-8.087555691709847
 30
0.0
 10
12.63946084520912
 20
-8.466350084756908
 30
0.0
 10
10.87980674691447
 20
-8.485860118893777
 30
0.0
 10
9.999999999997518
 20
-8.495614910862738
 30
0.0
  0
SPLINE
  5
C2
330
1F
100
AcDbEntity
  8
0
  6
Continuous
 62
     4
370
    15
100
AcDbSpline
210
0.0
220
0.0
230
1.0
 70
    24
 71
     3
 72
     8
 73
     4
 74
     0
 42
0.000000001
 43
0.00000001
 40
0.0
 40
0.0
 40
0.0
 40
0.0
 40
1.0
 40
1.0
 40
1.0
 40
1.0
 10
9.999999999999991
 20
-7.194158413764042
 30
0.0
 10
9.999999999999991
 20
-7.636109095106409
 30
0.0
 10
9.999999999999991
 20
-8.072752178056456
 30
0.0
 10
9.999999999999991
 20
-8.495614910851648
 30
0.0
  0
SPLINE
  5
C3
330
1F
100
AcDbEntity
  8
0
  6
Continuous
 62
     1
370
    15
100
AcDbSpline
210
0.0
220
0.0
230
1.0
 70
     8
 71
     3
 72
    14
 73
    10
 74
     0
 42
0.000000001
 43
0.00000001
 40
0.0
 40
0.0
 40
0.0
 40
0.0
 40
0.0710180085127319
 40
0.2807228636224289
 40
0.3860534302983268
 40
0.5381316933562086
 40
0.6907654019347355
 40
0.845091839383218
 40
1.0
 40
1.0
 40
1.0
 40
1.0
 10
40.30559267167222
 20
5.697761932473354
 30
0.0
 10
40.5822812912139
 20
5.816200329016453
 30
0.0
 10
41.67598728545553
 20
6.284368425203873
 30
0.0
 10
43.18165479083659
 20
6.835391936132504
 30
0.0
 10
45.00263827038172
 20
7.404609332295528
 30
0.0
 10
46.60045499191288
 20
7.822521021910264
 30
0.0
 10
48.39082549978325
 20
8.172467594210275
 30
0.0
 10
50.19037614942936
 20
8.41289090054751
 30
0.0
 10
51.39603603232705
 20
8.466140862388569
 30
0.0
 10
51.99999999999962
 20
8.492815929451963
 30
0.0
  0
LINE
  5
C4
330
1F
100
AcDbEntity
  8
0
  6
Continuous
 62
     1
370
    15
100
AcDbLine
 10
9.999999999999991
 20
-8.500000000000004
 30
0.0
 11
9.999999999999991
 21
-8.495614910849312
 31
0.0
  0
SPLINE
  5
C5
330
1F
100
AcDbEntity
  8
0
  6
Continuous
 62
     1
370
    15
100
AcDbSpline
210
0.0
220
0.0
230
1.0
 70
    24
 71
     3
 72
    10
 73
     6
 74
     0
 42
0.000000001
 43
0.00000001
 40
0.0
 40
0.0
 40
0.0
 40
0.0
 40
0.5
 40
0.5
 40
1.0
 40
1.0
 40
1.0
 40
1.0
 10
52.00000000000001
 20
5.950000000000006
 30
0.0
 10
52.00000000000001
 20
6.310674182862172
 30
0.0
 10
52.00000000000001
 20
6.729810985370501
 30
0.0
 10
52.0
 20
7.609158868167277
 30
0.0
 10
52.00000000000001
 20
8.067124204312522
 30
0.0
 10
52.00000000000001
 20
8.492815929451982
 30
0.0
  0
LINE
  5
C6
330
1F
100
AcDbEntity
  8
중심선
100
AcDbLine
 10
-57.99999999999999
 20
-0.0000000000000035
 30
0.0
 11
55.00000000000002
 21
-0.0000000000000035
 31
0.0
  0
CIRCLE
  5
C7
330
1F
100
AcDbEntity
  8
외형선
100
AcDbCircle
 10
0.0000000000000087
 20
-0.0000000000000035
 30
0.0
 40
3.000000000000004
  0
INSERT
  5
C8
330
1F
100
AcDbEntity
  8
0
  6
Continuous
 62
     7
100
AcDbBlockReference
 66
     1
  2
블럭10
 10
-23.93827343951161
 20
-52.04717430164393
 30
0.0
  0
ATTRIB
  5
C9
330
C8
100
AcDbEntity
  8
FORMAT
 62
     2
100
AcDbText
 10
-36.89821263436938
 20
-49.97180738881174
 30
0.0
 40
4.233333333333333
  1
SEME35170E [ 2 FLUTE ]
 41
0.75
  7
SLDTEXTSTYLE0
 11
-36.89821263436938
 21
-52.08847405547841
 31
0.0
100
AcDbAttribute
  2
AUTOATTR0
 70
     0
 74
     1
  0
SEQEND
  5
CA
330
C8
100
AcDbEntity
  8
0
  6
Continuous
 62
     7
  0
HATCH
  5
CB
330
1F
100
AcDbEntity
  8
중심선
100
AcDbHatch
 10
0.0
 20
0.0
 30
0.0
210
0.0
220
0.0
230
1.0
  2
SOLID
 70
     1
 71
     0
 91
        1
 92
        0
 93
        4
 72
     1
 10
-18.22336413513076
 20
-35.8
 11
-21.66963937896804
 21
-35.8
 72
     1
 10
-21.66963937896804
 20
-35.8
 11
-23.79786923817207
 21
-38.33632558057259
 72
     1
 10
-23.79786923817207
 20
-38.33632558057259
 11
-20.35156090922163
 21
-38.3362861512701
 72
     1
 10
-20.35156090922163
 20
-38.3362861512701
 11
-18.22336413513076
 21
-35.8
 97
        0
 75
     0
 76
     1
 98
        1
 10
0.0
 20
0.0
  0
HATCH
  5
CC
330
1F
100
AcDbEntity
  8
중심선
100
AcDbHatch
 10
0.0
 20
0.0
 30
0.0
210
0.0
220
0.0
230
1.0
  2
SOLID
 70
     1
 71
     0
 91
        1
 92
        0
 93
        4
 72
     1
 10
-13.21060014409481
 20
-35.8
 11
-16.65687538793209
 21
-35.8
 72
     1
 10
-16.65687538793209
 20
-35.8
 11
-21.18801339628948
 21
-41.20000000000002
 72
     1
 10
-21.18801339628948
 20
-41.20000000000002
 11
-17.7417381524522
 21
-41.20000000000002
 72
     1
 10
-17.7417381524522
 20
-41.20000000000002
 11
-13.21060014409481
 21
-35.8
 97
        0
 75
     0
 76
     1
 98
        1
 10
0.0
 20
0.0
  0
HATCH
  5
CD
330
1F
100
AcDbEntity
  8
중심선
100
AcDbHatch
 10
0.0
 20
0.0
 30
0.0
210
0.0
220
0.0
230
1.0
  2
SOLID
 70
     1
 71
     0
 91
        1
 92
        0
 93
        4
 72
     1
 10
-8.197836153058912
 20
-35.80000000000003
 11
-11.64411139689603
 21
-35.8
 72
     1
 10
-11.64411139689603
 20
-35.8
 11
-18.69254829878528
 21
-44.20000000000002
 72
     1
 10
-18.69254829878528
 20
-44.20000000000002
 11
-15.246273054948
 21
-44.20000000000002
 72
     1
 10
-15.246273054948
 20
-44.20000000000002
 11
-8.197836153058912
 21
-35.80000000000003
 97
        0
 75
     0
 76
     1
 98
        1
 10
0.0
 20
0.0
  0
HATCH
  5
CE
330
1F
100
AcDbEntity
  8
중심선
100
AcDbHatch
 10
0.0
 20
0.0
 30
0.0
210
0.0
220
0.0
230
1.0
  2
SOLID
 70
     1
 71
     0
 91
        1
 92
        0
 93
        6
 72
     3
 10
-3.397945722046714
 20
-40.00000000005127
 11
3.960054785062284
 21
1.540850780301639E-10
 40
0.3939339440162633
 50
17.09539180608433
 51
320.0019657685079
 73
     0
 72
     1
 10
-1.714946066346118
 20
-38.5878940046383
 11
0.5903558073549198
 21
-36.65356729459038
 72
     3
 10
-3.39794572209956
 20
-40.00000000000015
 11
6.600054785286829
 21
-1.249000902703301E-13
 40
0.6363583540795982
 50
39.99873849337408
 51
368.4976242363725
 73
     1
 72
     1
 10
3.027386769801049
 20
-39.03999999993002
 11
-4.717878415263637
 21
-39.03999999992999
 72
     1
 10
-4.717878415263637
 20
-39.03999999992999
 11
-4.717903459709571
 21
-40.95999999992991
 72
     1
 10
-4.717903459709571
 20
-40.95999999992991
 11
-0.2765236902375348
 21
-40.95999999992988
 97
        0
 75
     0
 76
     1
 98
        1
 10
0.0
 20
0.0
  0
DIMENSION
  5
CF
330
1F
100
AcDbEntity
  8
치수문자_일반주서
100
AcDbDimension
  2
_D
 10
9.999999999999991
 20
20.74344981802976
 30
0.0
 11
30.99999999999999
 21
20.74344981802976
 31
0.0
 70
   160
  1
<>
 71
     2
 42
-1.0
  3
SLDDIMSTYLE0
100
AcDbAlignedDimension
 13
52.00000000000001
 23
8.49281592945198
 33
0.0
 14
9.999999999999991
 24
8.5
 34
0.0
100
AcDbRotatedDimension
  0
DIMENSION
  5
DA
330
1F
100
AcDbEntity
  8
치수문자_일반주서
100
AcDbDimension
  2
_D_1
 10
-48.00000000000001
 20
28.73415911661224
 30
0.0
 11
-1.499999999999993
 21
28.73415911661224
 31
0.0
 70
   160
  1
<>
 71
     2
 42
100.0
  3
SLDDIMSTYLE0
100
AcDbAlignedDimension
 13
52.00000000000001
 23
5.950000000000006
 33
0.0
 14
-48.00000000000001
 24
5.804734286575735
 34
0.0
 50
0.0000000000000304
100
AcDbRotatedDimension
  0
DIMENSION
  5
E4
330
1F
100
AcDbEntity
  8
치수문자_일반주서
100
AcDbDimension
  2
_D_2
 10
67.5661903122463
 20
-8.492815929451924
 30
0.0
 11
67.56619031224628
 21
0.0000000000000012
 31
0.0
 70
   160
  1
%%c<>
 71
     2
 42
17.00274883564116
  3
SLDDIMSTYLE1
100
AcDbAlignedDimension
 13
52.00000000000001
 23
8.509932906189182
 33
0.0
 14
52.00000000000001
 24
-8.492815929451975
 34
0.0
 50
90.0000000000002
100
AcDbRotatedDimension
  0
DIMENSION
  5
F2
330
1F
100
AcDbEntity
  8
치수문자_일반주서
100
AcDbDimension
  2
_D_3
 10
-66.41955944538851
 20
-8.000000000000078
 30
0.0
 11
-66.41955944538854
 21
-0.000000000000001
 31
0.0
 70
   160
  1
%%c<>
 71
     2
 42
16.00000000000001
  3
SLDDIMSTYLE1
100
AcDbAlignedDimension
 13
-46.0935850383421
 23
8.0
 33
0.0
 14
-46.0935850383421
 24
-8.000000000000007
 34
0.0
 50
90.0000000000002
100
AcDbRotatedDimension
  0
INSERT
  5
105
330
1F
100
AcDbEntity
  8
외형선
100
AcDbBlockReference
  2
SW_DOWELSYMBOL_0
 10
0.0000000000000087
 20
-0.0000000000000035
 30
0.0
  0
LINE
  5
12C
330
1F
100
AcDbEntity
  8
0
  6
Continuous
 62
     4
370
    15
100
AcDbLine
 10
-48.00000000000001
 20
5.804734286575735
 30
0.0
 11
-48.00000000000001
 21
-5.804734286575737
 31
0.0
  0
LINE
  5
12D
330
1F
100
AcDbEntity
  8
0
  6
Continuous
 62
     4
370
    15
100
AcDbLine
 10
-46.0935850383421
 20
8.0
 30
0.0
 11
-48.00000000000001
 21
5.804734286575735
 31
0.0
  0
LINE
  5
12E
330
1F
100
AcDbEntity
  8
0
  6
Continuous
 62
     4
370
    15
100
AcDbLine
 10
-46.0935850383421
 20
-8.000000000000007
 30
0.0
 11
-48.00000000000001
 21
-5.804734286575743
 31
0.0
  0
LINE
  5
12F
330
1F
100
AcDbEntity
  8
0
  6
Continuous
 62
     4
370
    15
100
AcDbLine
 10
-46.09358503834211
 20
-8.0
 30
0.0
 11
-46.0935850383421
 21
8.0
 31
0.0
  0
ENDSEC
  0
SECTION
  2
OBJECTS
  0
DICTIONARY
  5
C
330
0
100
AcDbDictionary
281
     1
  3
ACAD_GROUP
350
D
  3
ACAD_IMAGE_VARS
350
129
  3
ACAD_LAYOUT
350
1A
  3
ACAD_MLINESTYLE
350
17
  3
ACAD_PLOTSETTINGS
350
19
  3
ACAD_PLOTSTYLENAME
350
E
  3
ACAD_SCALELIST
350
47
  3
APPDATA
350
127
  3
DWGPROPS
350
133
  0
DICTIONARY
  5
D
102
{ACAD_REACTORS
330
C
102
}
330
C
100
AcDbDictionary
281
     1
  0
RASTERVARIABLES
  5
129
102
{ACAD_REACTORS
330
C
102
}
330
C
100
AcDbRasterVariables
 90
        0
 70
     1
 71
     1
 72
     1
  0
DICTIONARY
  5
1A
102
{ACAD_REACTORS
330
C
102
}
330
C
100
AcDbDictionary
281
     1
  3
Layout1
350
1E
  3
Layout2
350
26
  3
Model
350
22
  0
DICTIONARY
  5
17
102
{ACAD_REACTORS
330
C
102
}
330
C
100
AcDbDictionary
281
     1
  3
Standard
350
18
  0
DICTIONARY
  5
19
102
{ACAD_REACTORS
330
C
102
}
330
C
100
AcDbDictionary
281
     1
  0
ACDBDICTIONARYWDFLT
  5
E
102
{ACAD_REACTORS
330
C
102
}
330
C
100
AcDbDictionary
281
     1
  3
Normal
350
F
100
AcDbDictionaryWithDefault
340
F
  0
DICTIONARY
  5
47
102
{ACAD_REACTORS
330
C
102
}
330
C
100
AcDbDictionary
281
     1
  3
A0
350
48
  3
A1
350
49
  3
A2
350
4A
  3
A3
350
4B
  3
A4
350
4C
  3
A5
350
4D
  3
A6
350
4E
  3
A7
350
4F
  3
A8
350
50
  3
A9
350
51
  3
B0
350
52
  3
B1
350
53
  3
B2
350
54
  3
B3
350
55
  3
B4
350
56
  3
B5
350
57
  3
B6
350
58
  3
B7
350
59
  3
B8
350
5A
  3
B9
350
5B
  3
C0
350
5C
  3
C1
350
5D
  3
C2
350
5E
  3
C3
350
5F
  3
C4
350
60
  3
C5
350
61
  3
C6
350
62
  3
C7
350
63
  3
C8
350
64
  3
C9
350
65
  3
D0
350
66
  3
D1
350
67
  3
D2
350
68
  0
DICTIONARY
  5
127
102
{ACAD_REACTORS
330
C
102
}
330
C
100
AcDbDictionary
281
     1
  0
XRECORD
  5
133
102
{ACAD_REACTORS
330
C
102
}
330
C
100
AcDbXrecord
280
     1
  1
DWGPROPS COOKIE
  2

  3

  4

  6

  7

  8
12016016
  9

300
=
301
=
302
=
303
=
304
=
305
=
306
=
307
=
308
=
309
=
 40
0.0
 41
2458250.135747604
 42
2458269.398104769
  1

 90
        0
  0
LAYOUT
  5
1E
102
{ACAD_REACTORS
330
1A
102
}
330
1A
100
AcDbPlotSettings
  1

  2
none_device
  4

  6

 40
0.0
 41
0.0
 42
0.0
 43
0.0
 44
0.0
 45
0.0
 46
0.0
 47
0.0
 48
0.0
 49
0.0
140
0.0
141
0.0
142
1.0
143
1.0
 70
   688
 72
     1
 73
     0
 74
     5
  7

 75
    16
147
1.0
148
0.0
149
0.0
100
AcDbLayout
  1
Layout1
 70
     1
 71
     1
 10
0.0
 20
0.0
 11
420.0
 21
297.0
 12
0.0
 22
0.0
 32
0.0
 14
1.000000000000000E+20
 24
1.000000000000000E+20
 34
1.000000000000000E+20
 15
-1.000000000000000E+20
 25
-1.000000000000000E+20
 35
-1.000000000000000E+20
146
0.0
 13
0.0
 23
0.0
 33
0.0
 16
1.0
 26
0.0
 36
0.0
 17
0.0
 27
1.0
 37
0.0
 76
     0
330
1B
  0
LAYOUT
  5
26
102
{ACAD_REACTORS
330
1A
102
}
330
1A
100
AcDbPlotSettings
  1

  2
none_device
  4

  6

 40
0.0
 41
0.0
 42
0.0
 43
0.0
 44
0.0
 45
0.0
 46
0.0
 47
0.0
 48
0.0
 49
0.0
140
0.0
141
0.0
142
1.0
143
1.0
 70
   688
 72
     1
 73
     0
 74
     5
  7

 75
    16
147
1.0
148
0.0
149
0.0
100
AcDbLayout
  1
Layout2
 70
     1
 71
     2
 10
0.0
 20
0.0
 11
0.0
 21
0.0
 12
0.0
 22
0.0
 32
0.0
 14
0.0
 24
0.0
 34
0.0
 15
0.0
 25
0.0
 35
0.0
146
0.0
 13
0.0
 23
0.0
 33
0.0
 16
1.0
 26
0.0
 36
0.0
 17
0.0
 27
1.0
 37
0.0
 76
     0
330
23
  0
LAYOUT
  5
22
102
{ACAD_REACTORS
330
1A
102
}
330
1A
100
AcDbPlotSettings
  1

  2
none_device
  4
ANSI_A_(11.00_x_8.50_Inches)
  6

 40
6.35
 41
19.05
 42
6.35000508
 43
19.05000254
 44
279.4
 45
215.9
 46
135.7469472958025
 47
106.2136483734351
 48
0.0
 49
0.0
140
0.0
141
0.0
142
0.0780360097573132
143
1.0
 70
  1696
 72
     0
 73
     0
 74
     0
  7

 75
     0
147
0.0235690232323232
148
0.0
149
0.0
100
AcDbLayout
  1
Model
 70
     1
 71
     0
 10
0.0
 20
0.0
 11
420.0
 21
297.0
 12
0.0
 22
0.0
 32
0.0
 14
-70.79455944538856
 24
-49.97180738881175
 34
0.0
 15
68.11652364557962
 25
33.10915911661224
 35
0.0
146
0.0
 13
0.0
 23
0.0
 33
0.0
 16
1.0
 26
0.0
 36
0.0
 17
0.0
 27
1.0
 37
0.0
 76
     0
330
1F
331
29
  0
MLINESTYLE
  5
18
102
{ACAD_REACTORS
330
17
102
}
330
17
100
AcDbMlineStyle
  2
Standard
 70
     0
  3

 62
   256
 51
90.0
 52
90.0
 71
     2
 49
0.5
 62
   256
  6
BYLAYER
 49
-0.5
 62
   256
  6
BYLAYER
  0
ACDBPLACEHOLDER
  5
F
102
{ACAD_REACTORS
330
E
102
}
330
E
  0
SCALE
  5
48
102
{ACAD_REACTORS
330
47
102
}
330
47
100
AcDbScale
 70
     0
300
1:1
140
1.0
141
1.0
290
     1
  0
SCALE
  5
49
102
{ACAD_REACTORS
330
47
102
}
330
47
100
AcDbScale
 70
     0
300
1:2
140
1.0
141
2.0
290
     0
  0
SCALE
  5
4A
102
{ACAD_REACTORS
330
47
102
}
330
47
100
AcDbScale
 70
     0
300
1:4
140
1.0
141
4.0
290
     0
  0
SCALE
  5
4B
102
{ACAD_REACTORS
330
47
102
}
330
47
100
AcDbScale
 70
     0
300
1:5
140
1.0
141
5.0
290
     0
  0
SCALE
  5
4C
102
{ACAD_REACTORS
330
47
102
}
330
47
100
AcDbScale
 70
     0
300
1:8
140
1.0
141
8.0
290
     0
  0
SCALE
  5
4D
102
{ACAD_REACTORS
330
47
102
}
330
47
100
AcDbScale
 70
     0
300
1:10
140
1.0
141
10.0
290
     0
  0
SCALE
  5
4E
102
{ACAD_REACTORS
330
47
102
}
330
47
100
AcDbScale
 70
     0
300
1:16
140
1.0
141
16.0
290
     0
  0
SCALE
  5
4F
102
{ACAD_REACTORS
330
47
102
}
330
47
100
AcDbScale
 70
     0
300
1:20
140
1.0
141
20.0
290
     0
  0
SCALE
  5
50
102
{ACAD_REACTORS
330
47
102
}
330
47
100
AcDbScale
 70
     0
300
1:30
140
1.0
141
30.0
290
     0
  0
SCALE
  5
51
102
{ACAD_REACTORS
330
47
102
}
330
47
100
AcDbScale
 70
     0
300
1:40
140
1.0
141
40.0
290
     0
  0
SCALE
  5
52
102
{ACAD_REACTORS
330
47
102
}
330
47
100
AcDbScale
 70
     0
300
1:50
140
1.0
141
50.0
290
     0
  0
SCALE
  5
53
102
{ACAD_REACTORS
330
47
102
}
330
47
100
AcDbScale
 70
     0
300
1:100
140
1.0
141
100.0
290
     0
  0
SCALE
  5
54
102
{ACAD_REACTORS
330
47
102
}
330
47
100
AcDbScale
 70
     0
300
2:1
140
2.0
141
1.0
290
     0
  0
SCALE
  5
55
102
{ACAD_REACTORS
330
47
102
}
330
47
100
AcDbScale
 70
     0
300
4:1
140
4.0
141
1.0
290
     0
  0
SCALE
  5
56
102
{ACAD_REACTORS
330
47
102
}
330
47
100
AcDbScale
 70
     0
300
8:1
140
8.0
141
1.0
290
     0
  0
SCALE
  5
57
102
{ACAD_REACTORS
330
47
102
}
330
47
100
AcDbScale
 70
     0
300
10:1
140
10.0
141
1.0
290
     0
  0
SCALE
  5
58
102
{ACAD_REACTORS
330
47
102
}
330
47
100
AcDbScale
 70
     0
300
100:1
140
100.0
141
1.0
290
     0
  0
SCALE
  5
59
102
{ACAD_REACTORS
330
47
102
}
330
47
100
AcDbScale
 70
     0
300
1/128" = 1'-0"
140
0.0078125
141
12.0
290
     0
  0
SCALE
  5
5A
102
{ACAD_REACTORS
330
47
102
}
330
47
100
AcDbScale
 70
     0
300
1/64" = 1'-0"
140
0.015625
141
12.0
290
     0
  0
SCALE
  5
5B
102
{ACAD_REACTORS
330
47
102
}
330
47
100
AcDbScale
 70
     0
300
1/32" = 1'-0"
140
0.03125
141
12.0
290
     0
  0
SCALE
  5
5C
102
{ACAD_REACTORS
330
47
102
}
330
47
100
AcDbScale
 70
     0
300
1/16" = 1'-0"
140
0.0625
141
12.0
290
     0
  0
SCALE
  5
5D
102
{ACAD_REACTORS
330
47
102
}
330
47
100
AcDbScale
 70
     0
300
3/32" = 1'-0"
140
0.09375
141
12.0
290
     0
  0
SCALE
  5
5E
102
{ACAD_REACTORS
330
47
102
}
330
47
100
AcDbScale
 70
     0
300
1/8" = 1'-0"
140
0.125
141
12.0
290
     0
  0
SCALE
  5
5F
102
{ACAD_REACTORS
330
47
102
}
330
47
100
AcDbScale
 70
     0
300
3/16" = 1'-0"
140
0.1875
141
12.0
290
     0
  0
SCALE
  5
60
102
{ACAD_REACTORS
330
47
102
}
330
47
100
AcDbScale
 70
     0
300
1/4" = 1'-0"
140
0.25
141
12.0
290
     0
  0
SCALE
  5
61
102
{ACAD_REACTORS
330
47
102
}
330
47
100
AcDbScale
 70
     0
300
3/8" = 1'-0"
140
0.375
141
12.0
290
     0
  0
SCALE
  5
62
102
{ACAD_REACTORS
330
47
102
}
330
47
100
AcDbScale
 70
     0
300
1/2" = 1'-0"
140
0.5
141
12.0
290
     0
  0
SCALE
  5
63
102
{ACAD_REACTORS
330
47
102
}
330
47
100
AcDbScale
 70
     0
300
3/4" = 1'-0"
140
0.75
141
12.0
290
     0
  0
SCALE
  5
64
102
{ACAD_REACTORS
330
47
102
}
330
47
100
AcDbScale
 70
     0
300
1" = 1'-0"
140
1.0
141
12.0
290
     0
  0
SCALE
  5
65
102
{ACAD_REACTORS
330
47
102
}
330
47
100
AcDbScale
 70
     0
300
1-1/2" = 1'-0"
140
1.5
141
12.0
290
     0
  0
SCALE
  5
66
102
{ACAD_REACTORS
330
47
102
}
330
47
100
AcDbScale
 70
     0
300
3" = 1'-0"
140
3.0
141
12.0
290
     0
  0
SCALE
  5
67
102
{ACAD_REACTORS
330
47
102
}
330
47
100
AcDbScale
 70
     0
300
6" = 1'-0"
140
6.0
141
12.0
290
     0
  0
SCALE
  5
68
102
{ACAD_REACTORS
330
47
102
}
330
47
100
AcDbScale
 70
     0
300
1'-0" = 1'-0"
140
12.0
141
12.0
290
     0
  0
ENDSEC
  0
EOF
