  0
SECTION
  2
HEADER
  9
$ACADVER
  1
AC1015
  9
$ACADMAINTVER
 70
     6
  9
$DWGCODEPAGE
  3
ANSI_949
  9
$INSBASE
 10
0.0
 20
0.0
 30
0.0
  9
$EXTMIN
 10
-58.79455944538856
 20
-49.97180738881173
 30
0.0
  9
$EXTMAX
 10
73.1165236455796
 20
33.45915911661227
 30
0.0
  9
$LIMMIN
 10
0.0
 20
0.0
  9
$LIMMAX
 10
420.0
 20
297.0
  9
$ORTHOMODE
 70
     1
  9
$REGENMODE
 70
     1
  9
$FILLMODE
 70
     1
  9
$QTEXTMODE
 70
     0
  9
$MIRRTEXT
 70
     1
  9
$LTSCALE
 40
1.0
  9
$ATTMODE
 70
     1
  9
$TEXTSIZE
 40
3.5
  9
$TRACEWID
 40
1.0
  9
$TEXTSTYLE
  7
Standard
  9
$CLAYER
  8
0
  9
$CELTYPE
  6
ByLayer
  9
$CECOLOR
 62
   256
  9
$CELTSCALE
 40
1.0
  9
$DISPSILH
 70
     0
  9
$DIMSCALE
 40
1.0
  9
$DIMASZ
 40
3.302
  9
$DIMEXO
 40
1.0
  9
$DIMDLI
 40
3.75
  9
$DIMRND
 40
0.0
  9
$DIMDLE
 40
0.0
  9
$DIMEXE
 40
1.0
  9
$DIMTP
 40
0.0
  9
$DIMTM
 40
0.0
  9
$DIMTXT
 40
3.5
  9
$DIMCEN
 40
2.5
  9
$DIMTSZ
 40
0.0
  9
$DIMTOL
 70
     0
  9
$DIMLIM
 70
     0
  9
$DIMTIH
 70
     1
  9
$DIMTOH
 70
     1
  9
$DIMSE1
 70
     0
  9
$DIMSE2
 70
     0
  9
$DIMTAD
 70
     1
  9
$DIMZIN
 70
     0
  9
$DIMBLK
  1

  9
$DIMASO
 70
     1
  9
$DIMSHO
 70
     1
  9
$DIMPOST
  1

  9
$DIMAPOST
  1

  9
$DIMALT
 70
     0
  9
$DIMALTD
 70
     3
  9
$DIMALTF
 40
0.0393700787401575
  9
$DIMLFAC
 40
1.0
  9
$DIMTOFL
 70
     1
  9
$DIMTVP
 40
0.0
  9
$DIMTIX
 70
     0
  9
$DIMSOXD
 70
     0
  9
$DIMSAH
 70
     0
  9
$DIMBLK1
  1

  9
$DIMBLK2
  1

  9
$DIMSTYLE
  2
ISO-25
  9
$DIMCLRD
 70
     0
  9
$DIMCLRE
 70
     0
  9
$DIMCLRT
 70
     0
  9
$DIMTFAC
 40
1.0
  9
$DIMGAP
 40
1.524
  9
$DIMJUST
 70
     0
  9
$DIMSD1
 70
     0
  9
$DIMSD2
 70
     0
  9
$DIMTOLJ
 70
     0
  9
$DIMTZIN
 70
     0
  9
$DIMALTZ
 70
     0
  9
$DIMALTTZ
 70
     0
  9
$DIMUPT
 70
     0
  9
$DIMDEC
 70
     2
  9
$DIMTDEC
 70
     2
  9
$DIMALTU
 70
     2
  9
$DIMALTTD
 70
     3
  9
$DIMTXSTY
  7
Standard
  9
$DIMAUNIT
 70
     0
  9
$DIMADEC
 70
     2
  9
$DIMALTRND
 40
0.0
  9
$DIMAZIN
 70
     0
  9
$DIMDSEP
 70
    44
  9
$DIMATFIT
 70
     3
  9
$DIMFRAC
 70
     0
  9
$DIMLDRBLK
  1

  9
$DIMLUNIT
 70
     2
  9
$DIMLWD
 70
    -2
  9
$DIMLWE
 70
    -2
  9
$DIMTMOVE
 70
     0
  9
$LUNITS
 70
     2
  9
$LUPREC
 70
     2
  9
$SKETCHINC
 40
1.0
  9
$FILLETRAD
 40
10.0
  9
$AUNITS
 70
     0
  9
$AUPREC
 70
     2
  9
$MENU
  1
.
  9
$ELEVATION
 40
0.0
  9
$PELEVATION
 40
0.0
  9
$THICKNESS
 40
0.0
  9
$LIMCHECK
 70
     0
  9
$CHAMFERA
 40
0.0
  9
$CHAMFERB
 40
0.0
  9
$CHAMFERC
 40
0.0
  9
$CHAMFERD
 40
0.0
  9
$SKPOLY
 70
     0
  9
$TDCREATE
 40
2458250.510958611
  9
$TDUCREATE
 40
2458250.135958611
  9
$TDUPDATE
 40
2458264.610566262
  9
$TDUUPDATE
 40
2458264.235566262
  9
$TDINDWG
 40
0.0010855556
  9
$TDUSRTIMER
 40
0.001085544
  9
$USRTIMER
 70
     1
  9
$ANGBASE
 50
0.0
  9
$ANGDIR
 70
     0
  9
$PDMODE
 70
     0
  9
$PDSIZE
 40
-1.0
  9
$PLINEWID
 40
0.0
  9
$SPLFRAME
 70
     0
  9
$SPLINETYPE
 70
     6
  9
$SPLINESEGS
 70
     8
  9
$HANDSEED
  5
135
  9
$SURFTAB1
 70
     6
  9
$SURFTAB2
 70
     6
  9
$SURFTYPE
 70
     6
  9
$SURFU
 70
     6
  9
$SURFV
 70
     6
  9
$UCSBASE
  2

  9
$UCSNAME
  2

  9
$UCSORG
 10
0.0
 20
0.0
 30
0.0
  9
$UCSXDIR
 10
1.0
 20
0.0
 30
0.0
  9
$UCSYDIR
 10
0.0
 20
1.0
 30
0.0
  9
$UCSORTHOREF
  2

  9
$UCSORTHOVIEW
 70
     0
  9
$UCSORGTOP
 10
0.0
 20
0.0
 30
0.0
  9
$UCSORGBOTTOM
 10
0.0
 20
0.0
 30
0.0
  9
$UCSORGLEFT
 10
0.0
 20
0.0
 30
0.0
  9
$UCSORGRIGHT
 10
0.0
 20
0.0
 30
0.0
  9
$UCSORGFRONT
 10
0.0
 20
0.0
 30
0.0
  9
$UCSORGBACK
 10
0.0
 20
0.0
 30
0.0
  9
$PUCSBASE
  2

  9
$PUCSNAME
  2

  9
$PUCSORG
 10
0.0
 20
0.0
 30
0.0
  9
$PUCSXDIR
 10
1.0
 20
0.0
 30
0.0
  9
$PUCSYDIR
 10
0.0
 20
1.0
 30
0.0
  9
$PUCSORTHOREF
  2

  9
$PUCSORTHOVIEW
 70
     0
  9
$PUCSORGTOP
 10
0.0
 20
0.0
 30
0.0
  9
$PUCSORGBOTTOM
 10
0.0
 20
0.0
 30
0.0
  9
$PUCSORGLEFT
 10
0.0
 20
0.0
 30
0.0
  9
$PUCSORGRIGHT
 10
0.0
 20
0.0
 30
0.0
  9
$PUCSORGFRONT
 10
0.0
 20
0.0
 30
0.0
  9
$PUCSORGBACK
 10
0.0
 20
0.0
 30
0.0
  9
$USERI1
 70
     0
  9
$USERI2
 70
     0
  9
$USERI3
 70
     0
  9
$USERI4
 70
     0
  9
$USERI5
 70
     0
  9
$USERR1
 40
0.0
  9
$USERR2
 40
0.0
  9
$USERR3
 40
0.0
  9
$USERR4
 40
0.0
  9
$USERR5
 40
0.0
  9
$WORLDVIEW
 70
     1
  9
$SHADEDGE
 70
     3
  9
$SHADEDIF
 70
    70
  9
$TILEMODE
 70
     1
  9
$MAXACTVP
 70
    64
  9
$PINSBASE
 10
0.0
 20
0.0
 30
0.0
  9
$PLIMCHECK
 70
     0
  9
$PEXTMIN
 10
1.000000000000000E+20
 20
1.000000000000000E+20
 30
1.000000000000000E+20
  9
$PEXTMAX
 10
-1.000000000000000E+20
 20
-1.000000000000000E+20
 30
-1.000000000000000E+20
  9
$PLIMMIN
 10
0.0
 20
0.0
  9
$PLIMMAX
 10
0.0
 20
0.0
  9
$UNITMODE
 70
     0
  9
$VISRETAIN
 70
     1
  9
$PLINEGEN
 70
     0
  9
$PSLTSCALE
 70
     1
  9
$TREEDEPTH
 70
  3020
  9
$CMLSTYLE
  2
Standard
  9
$CMLJUST
 70
     0
  9
$CMLSCALE
 40
20.0
  9
$PROXYGRAPHICS
 70
     1
  9
$MEASUREMENT
 70
     1
  9
$CELWEIGHT
370
    -1
  9
$ENDCAPS
280
     0
  9
$JOINSTYLE
280
     0
  9
$LWDISPLAY
290
     1
  9
$INSUNITS
 70
     4
  9
$HYPERLINKBASE
  1

  9
$STYLESHEET
  1

  9
$XEDIT
290
     1
  9
$CEPSNTYPE
380
     0
  9
$PSTYLEMODE
290
     1
  9
$FINGERPRINTGUID
  2
{EA268A9F-F54E-4EF5-A5C8-5F813E99B755}
  9
$VERSIONGUID
  2
{FAEB1C32-E019-11D5-929B-00C0DF256EC4}
  9
$EXTNAMES
290
     1
  9
$PSVPSCALE
 40
0.0
  9
$OLESTARTUP
290
     0
  0
ENDSEC
  0
SECTION
  2
CLASSES
  0
CLASS
  1
ACDBDICTIONARYWDFLT
  2
AcDbDictionaryWithDefault
  3
ObjectDBX Classes
 90
        0
280
     0
281
     0
  0
CLASS
  1
VISUALSTYLE
  2
AcDbVisualStyle
  3
ObjectDBX Classes
 90
     4095
280
     0
281
     0
  0
CLASS
  1
MATERIAL
  2
AcDbMaterial
  3
ObjectDBX Classes
 90
     1153
280
     0
281
     0
  0
CLASS
  1
SCALE
  2
AcDbScale
  3
ObjectDBX Classes
 90
     1153
280
     0
281
     0
  0
CLASS
  1
SUN
  2
AcDbSun
  3
SCENEOE
 90
     1153
280
     0
281
     0
  0
CLASS
  1
ACDBPLACEHOLDER
  2
AcDbPlaceHolder
  3
ObjectDBX Classes
 90
        0
280
     0
281
     0
  0
CLASS
  1
LAYOUT
  2
AcDbLayout
  3
ObjectDBX Classes
 90
        0
280
     0
281
     0
  0
CLASS
  1
TABLESTYLE
  2
AcDbTableStyle
  3
ObjectDBX Classes
 90
     4095
280
     0
281
     0
  0
CLASS
  1
MLEADERSTYLE
  2
AcDbMLeaderStyle
  3
ACDB_MLEADERSTYLE_CLASS
 90
     4095
280
     0
281
     0
  0
ENDSEC
  0
SECTION
  2
TABLES
  0
TABLE
  2
VPORT
  5
8
330
0
100
AcDbSymbolTable
 70
     1
  0
VPORT
  5
29
330
8
100
AcDbSymbolTableRecord
100
AcDbViewportTableRecord
  2
*Active
 70
     0
 10
0.0
 20
0.0
 11
1.0
 21
1.0
 12
88.70517824833793
 22
28.49942793227475
 13
0.0
 23
0.0
 14
10.0
 24
10.0
 15
10.0
 25
10.0
 16
0.0
 26
0.0
 36
1.0
 17
0.0
 27
0.0
 37
0.0
 40
266.714871421357
 41
2.223011363636363
 42
50.0
 43
0.0
 44
0.0
 50
0.0
 51
0.0
 71
    16
 72
  2000
 73
     1
 74
     3
 75
     0
 76
     0
 77
     0
 78
     0
281
     0
 65
     1
110
0.0
120
0.0
130
0.0
111
1.0
121
0.0
131
0.0
112
0.0
122
1.0
132
0.0
 79
     0
146
0.0
  0
ENDTAB
  0
TABLE
  2
LTYPE
  5
5
330
0
100
AcDbSymbolTable
 70
     6
  0
LTYPE
  5
14
330
5
100
AcDbSymbolTableRecord
100
AcDbLinetypeTableRecord
  2
ByBlock
 70
     0
  3

 72
    65
 73
     0
 40
0.0
  0
LTYPE
  5
15
330
5
100
AcDbSymbolTableRecord
100
AcDbLinetypeTableRecord
  2
ByLayer
 70
     0
  3

 72
    65
 73
     0
 40
0.0
  0
LTYPE
  5
16
330
5
100
AcDbSymbolTableRecord
100
AcDbLinetypeTableRecord
  2
Continuous
 70
     0
  3
Solid line
 72
    65
 73
     0
 40
0.0
  0
LTYPE
  5
6A
330
5
100
AcDbSymbolTableRecord
100
AcDbLinetypeTableRecord
  2
HIDDEN
 70
     0
  3
Hidden __ __ __ __ __ __ __ __ __ __ __ __ __ __
 72
    65
 73
     2
 40
1.905
 49
1.27
 74
     0
 49
-0.635
 74
     0
  0
LTYPE
  5
6B
330
5
100
AcDbSymbolTableRecord
100
AcDbLinetypeTableRecord
  2
PHANTOM
 70
     0
  3
Phantom ______  __  __  ______  __  __  ______
 72
    65
 73
     6
 40
12.7
 49
6.35
 74
     0
 49
-1.27
 74
     0
 49
1.27
 74
     0
 49
-1.27
 74
     0
 49
1.27
 74
     0
 49
-1.27
 74
     0
  0
LTYPE
  5
6C
330
5
100
AcDbSymbolTableRecord
100
AcDbLinetypeTableRecord
  2
CENTER
 70
     0
  3
Center ____ _ ____ _ ____ _ ____ _ ____ _ ____
 72
    65
 73
     4
 40
10.16
 49
6.35
 74
     0
 49
-1.27
 74
     0
 49
1.27
 74
     0
 49
-1.27
 74
     0
  0
LTYPE
  5
6D
330
5
100
AcDbSymbolTableRecord
100
AcDbLinetypeTableRecord
  2
CENTERX2
 70
     0
  3
Center (2x) ________  __  ________  __  _____
 72
    65
 73
     4
 40
20.32
 49
12.7
 74
     0
 49
-2.54
 74
     0
 49
2.54
 74
     0
 49
-2.54
 74
     0
  0
LTYPE
  5
6E
330
5
100
AcDbSymbolTableRecord
100
AcDbLinetypeTableRecord
  2
DOT2
 70
     0
  3
Dot (.5x) ........................................
 72
    65
 73
     2
 40
0.635
 49
0.0
 74
     0
 49
-0.635
 74
     0
  0
ENDTAB
  0
TABLE
  2
LAYER
  5
2
330
0
100
AcDbSymbolTable
 70
    17
  0
LAYER
  5
10
330
2
100
AcDbSymbolTableRecord
100
AcDbLayerTableRecord
  2
0
 70
     0
 62
     7
  6
Continuous
370
    -3
390
F
  0
LAYER
  5
6F
330
2
100
AcDbSymbolTableRecord
100
AcDbLayerTableRecord
  2
FORMAT
 70
     0
 62
     2
  6
Continuous
370
    -3
390
F
  0
LAYER
  5
70
330
2
100
AcDbSymbolTableRecord
100
AcDbLayerTableRecord
  2
외형선
 70
     0
 62
   100
  6
Continuous
370
    30
390
F
  0
LAYER
  5
71
330
2
100
AcDbSymbolTableRecord
100
AcDbLayerTableRecord
  2
숨은선
 70
     0
 62
     2
  6
HIDDEN
370
    15
390
F
  0
LAYER
  5
72
330
2
100
AcDbSymbolTableRecord
100
AcDbLayerTableRecord
  2
중심선
 70
     0
 62
     1
  6
CENTERX2
370
    -3
390
F
  0
LAYER
  5
73
330
2
100
AcDbSymbolTableRecord
100
AcDbLayerTableRecord
  2
파단선
 70
     0
 62
     4
  6
Continuous
370
    -3
390
F
  0
LAYER
  5
74
330
2
100
AcDbSymbolTableRecord
100
AcDbLayerTableRecord
  2
해칭선
 70
     0
 62
     4
  6
Continuous
370
    -3
390
F
  0
LAYER
  5
75
330
2
100
AcDbSymbolTableRecord
100
AcDbLayerTableRecord
  2
가는실선
 70
     0
 62
     4
  6
Continuous
370
    -3
390
F
  0
LAYER
  5
76
330
2
100
AcDbSymbolTableRecord
100
AcDbLayerTableRecord
  2
치수_보조선
 70
     0
 62
     4
  6
Continuous
370
    -3
390
F
  0
LAYER
  5
77
330
2
100
AcDbSymbolTableRecord
100
AcDbLayerTableRecord
  2
치수문자_일반주서
 70
     0
 62
     7
  6
Continuous
370
    15
390
F
  0
LAYER
  5
78
330
2
100
AcDbSymbolTableRecord
100
AcDbLayerTableRecord
  2
개별주서
 70
     0
 62
   100
  6
Continuous
370
    30
390
F
  0
LAYER
  5
79
330
2
100
AcDbSymbolTableRecord
100
AcDbLayerTableRecord
  2
중간선
 70
     0
 62
     2
  6
Continuous
370
    15
390
F
  0
LAYER
  5
7A
330
2
100
AcDbSymbolTableRecord
100
AcDbLayerTableRecord
  2
윤곽선
 70
     0
 62
     3
  6
Continuous
370
    40
390
F
  0
LAYER
  5
7B
330
2
100
AcDbSymbolTableRecord
100
AcDbLayerTableRecord
  2
중심마크
 70
     0
 62
   100
  6
Continuous
370
    30
390
F
  0
LAYER
  5
7C
330
2
100
AcDbSymbolTableRecord
100
AcDbLayerTableRecord
  2
가상선
 70
     0
 62
     4
  6
PHANTOM
370
    -3
390
F
  0
LAYER
  5
7D
330
2
100
AcDbSymbolTableRecord
100
AcDbLayerTableRecord
  2
특수지정선
 70
     0
 62
     5
  6
CENTERX2
370
    60
390
F
  0
LAYER
  5
12B
330
2
100
AcDbSymbolTableRecord
100
AcDbLayerTableRecord
  2
Defpoints
 70
     0
 62
     7
  6
Continuous
290
     0
370
    -3
390
F
  0
ENDTAB
  0
TABLE
  2
STYLE
  5
3
330
0
100
AcDbSymbolTable
 70
     2
  0
STYLE
  5
11
330
3
100
AcDbSymbolTableRecord
100
AcDbTextStyleTableRecord
  2
Standard
 70
     0
 40
0.0
 41
1.0
 50
0.0
 71
     0
 42
3.5
  3
txt
  4

  0
STYLE
  5
93
330
3
100
AcDbSymbolTableRecord
100
AcDbTextStyleTableRecord
  2
SLDTEXTSTYLE0
 70
     0
 40
0.0
 41
0.75
 50
0.0
 71
     0
 42
3.5
  3
TXT
  4

  0
ENDTAB
  0
TABLE
  2
VIEW
  5
6
330
0
100
AcDbSymbolTable
 70
     0
  0
ENDTAB
  0
TABLE
  2
UCS
  5
7
330
0
100
AcDbSymbolTable
 70
     0
  0
ENDTAB
  0
TABLE
  2
APPID
  5
9
330
0
100
AcDbSymbolTable
 70
     2
  0
APPID
  5
12
330
9
100
AcDbSymbolTableRecord
100
AcDbRegAppTableRecord
  2
ACAD
 70
     0
  0
APPID
  5
129
330
9
100
AcDbSymbolTableRecord
100
AcDbRegAppTableRecord
  2
PE_URL
 70
     0
  0
ENDTAB
  0
TABLE
  2
DIMSTYLE
  5
A
330
0
100
AcDbSymbolTable
 70
     3
100
AcDbDimStyleTable
  0
DIMSTYLE
105
27
330
A
100
AcDbSymbolTableRecord
100
AcDbDimStyleTableRecord
  2
ISO-25
 70
     0
 41
2.5
 42
0.625
 43
3.75
 44
1.25
 73
     0
 74
     0
 77
     1
 78
     8
140
2.5
141
2.5
143
0.03937007874016
147
0.625
171
     3
172
     1
178
     0
271
     2
272
     2
274
     3
278
    44
283
     0
284
     8
340
11
  0
DIMSTYLE
105
D1
102
{ACAD_REACTORS
330
D0
330
DB
102
}
330
A
100
AcDbSymbolTableRecord
100
AcDbDimStyleTableRecord
  2
SLDDIMSTYLE0
 70
     0
 41
3.302
 44
0.0
 45
0.000000001
 73
     0
 74
     0
 77
     1
 78
    12
 79
     3
140
3.5
147
0.875
173
     1
178
     0
271
     2
272
     2
276
     2
284
    12
340
93
  0
DIMSTYLE
105
E6
102
{ACAD_REACTORS
330
E5
330
F3
102
}
330
A
100
AcDbSymbolTableRecord
100
AcDbDimStyleTableRecord
  2
SLDDIMSTYLE1
 70
     0
 41
3.302
 44
0.0
 45
0.000000001
 73
     0
 74
     0
 77
     1
 78
    12
 79
     3
140
3.5
147
0.875
172
     1
173
     1
178
     0
271
     2
272
     2
276
     2
284
    12
289
     0
340
93
  0
ENDTAB
  0
TABLE
  2
BLOCK_RECORD
  5
1
330
0
100
AcDbSymbolTable
 70
     7
  0
BLOCK_RECORD
  5
1F
330
1
100
AcDbSymbolTableRecord
100
AcDbBlockTableRecord
  2
*Model_Space
340
22
  0
BLOCK_RECORD
  5
1B
330
1
100
AcDbSymbolTableRecord
100
AcDbBlockTableRecord
  2
*Paper_Space
340
1E
  0
BLOCK_RECORD
  5
23
330
1
100
AcDbSymbolTableRecord
100
AcDbBlockTableRecord
  2
*Paper_Space0
340
26
  0
BLOCK_RECORD
  5
7E
330
1
100
AcDbSymbolTableRecord
100
AcDbBlockTableRecord
  2
블럭10
340
0
102
{BLKREFS
331
C9
102
}
  0
BLOCK_RECORD
  5
D2
330
1
100
AcDbSymbolTableRecord
100
AcDbBlockTableRecord
  2
_D
340
0
  0
BLOCK_RECORD
  5
DC
330
1
100
AcDbSymbolTableRecord
100
AcDbBlockTableRecord
  2
_D_1
340
0
  0
BLOCK_RECORD
  5
E7
330
1
100
AcDbSymbolTableRecord
100
AcDbBlockTableRecord
  2
_D_2
340
0
  0
BLOCK_RECORD
  5
F4
330
1
100
AcDbSymbolTableRecord
100
AcDbBlockTableRecord
  2
_D_3
340
0
  0
BLOCK_RECORD
  5
100
330
1
100
AcDbSymbolTableRecord
100
AcDbBlockTableRecord
  2
SW_DOWELSYMBOL_0
340
0
102
{BLKREFS
331
106
102
}
  0
ENDTAB
  0
ENDSEC
  0
SECTION
  2
BLOCKS
  0
BLOCK
  5
20
330
1F
100
AcDbEntity
  8
0
100
AcDbBlockBegin
  2
*Model_Space
 70
     0
 10
0.0
 20
0.0
 30
0.0
  3
*Model_Space
  1

  0
ENDBLK
  5
21
330
1F
100
AcDbEntity
  8
0
100
AcDbBlockEnd
  0
BLOCK
  5
1C
330
1B
100
AcDbEntity
 67
     1
  8
0
100
AcDbBlockBegin
  2
*Paper_Space
 70
     0
 10
0.0
 20
0.0
 30
0.0
  3
*Paper_Space
  1

  0
ENDBLK
  5
1D
330
1B
100
AcDbEntity
 67
     1
  8
0
100
AcDbBlockEnd
  0
BLOCK
  5
24
330
23
100
AcDbEntity
  8
0
100
AcDbBlockBegin
  2
*Paper_Space0
 70
     0
 10
0.0
 20
0.0
 30
0.0
  3
*Paper_Space0
  1

  0
ENDBLK
  5
25
330
23
100
AcDbEntity
  8
0
100
AcDbBlockEnd
  0
BLOCK
  5
7F
330
7E
100
AcDbEntity
  8
0
100
AcDbBlockBegin
  2
블럭10
 70
     2
 10
0.0
 20
0.0
 30
0.0
  3
블럭10
  1

  0
ELLIPSE
  5
81
330
7E
100
AcDbEntity
  8
중심선
100
AcDbEllipse
 10
20.54032771741204
 20
12.0471743016438
 30
0.0
 11
6.600054785286829
 21
-1.261213355974178E-13
 31
0.0
210
0.0
220
0.0
230
1.0
 40
0.636358354079598
 41
0.9219305317359503
 42
6.513795318482858
  0
ELLIPSE
  5
82
330
7E
100
AcDbEntity
  8
중심선
100
AcDbEllipse
 10
20.54032771746488
 20
12.04717430159265
 30
0.0
 11
3.960054785062283
 21
1.540847449632565E-10
 31
0.0
210
0.0
220
0.0
230
1.0
 40
0.3939339440162632
 41
1.131841032648279
 42
5.62031148352944
  0
LINE
  5
83
330
7E
100
AcDbEntity
  8
중심선
100
AcDbLine
 10
2.268634060543552
 20
16.24717430164393
 30
0.0
 11
5.714909304380834
 21
16.24717430164393
 31
0.0
  0
LINE
  5
84
330
7E
100
AcDbEntity
  8
중심선
100
AcDbLine
 10
5.245725140726316
 20
7.84717430164391
 30
0.0
 11
8.692000384563599
 21
7.84717430164391
 31
0.0
  0
LINE
  5
85
330
7E
100
AcDbEntity
  8
중심선
100
AcDbLine
 10
15.74043728645272
 20
16.24717430164393
 30
0.0
 11
8.692000384563599
 21
7.84717430164391
 31
0.0
  0
LINE
  5
86
330
7E
100
AcDbEntity
  8
중심선
100
AcDbLine
 10
0.1404042013395286
 20
13.71084872107135
 30
0.0
 11
3.58671253028996
 21
13.71088815037384
 31
0.0
  0
LINE
  5
87
330
7E
100
AcDbEntity
  8
중심선
100
AcDbLine
 10
2.750260043222114
 20
10.84717430164391
 30
0.0
 11
6.196535287059397
 21
10.84717430164391
 31
0.0
  0
LINE
  5
88
330
7E
100
AcDbEntity
  8
중심선
100
AcDbLine
 10
12.29416204261559
 20
16.24717430164393
 30
0.0
 11
5.245725140726316
 21
7.84717430164391
 31
0.0
  0
LINE
  5
89
330
7E
100
AcDbEntity
  8
중심선
100
AcDbLine
 10
10.72767329541681
 20
16.24717430164393
 30
0.0
 11
6.196535287059397
 21
10.84717430164391
 31
0.0
  0
LINE
  5
8A
330
7E
100
AcDbEntity
  8
중심선
100
AcDbLine
 10
7.28139805157953
 20
16.24717430164393
 30
0.0
 11
2.750260043222114
 21
10.84717430164391
 31
0.0
  0
LINE
  5
8B
330
7E
100
AcDbEntity
  8
중심선
100
AcDbLine
 10
5.714909304380834
 20
16.24717430164393
 30
0.0
 11
3.58671253028996
 21
13.71088815037384
 31
0.0
  0
LINE
  5
8C
330
7E
100
AcDbEntity
  8
중심선
100
AcDbLine
 10
2.268634060543552
 20
16.24717430164393
 30
0.0
 11
0.1404042013395286
 21
13.71084872107135
 31
0.0
  0
LINE
  5
8D
330
7E
100
AcDbEntity
  8
중심선
100
AcDbLine
 10
7.28139805157953
 20
16.24717430164393
 30
0.0
 11
10.72767329541681
 21
16.24717430164393
 31
0.0
  0
LINE
  5
8E
330
7E
100
AcDbEntity
  8
중심선
100
AcDbLine
 10
12.29416204261559
 20
16.24717430164393
 30
0.0
 11
15.74043728645272
 21
16.24717430164393
 31
0.0
  0
LINE
  5
8F
330
7E
100
AcDbEntity
  8
중심선
100
AcDbLine
 10
19.22036997980202
 20
11.08717430171403
 30
0.0
 11
23.66174974927406
 21
11.08717430171406
 31
0.0
  0
LINE
  5
90
330
7E
100
AcDbEntity
  8
중심선
100
AcDbLine
 10
19.22039502424796
 20
13.00717430171391
 30
0.0
 11
19.22036997980202
 21
11.08717430171403
 31
0.0
  0
LINE
  5
91
330
7E
100
AcDbEntity
  8
중심선
100
AcDbLine
 10
19.22039502424796
 20
13.00717430171391
 30
0.0
 11
26.96566020931264
 21
13.00717430171391
 31
0.0
  0
LINE
  5
92
330
7E
100
AcDbEntity
  8
중심선
100
AcDbLine
 10
22.22332737316547
 20
13.45928029700563
 30
0.0
 11
24.52862924686651
 21
15.39360700705356
 31
0.0
  0
ATTDEF
  5
94
330
7E
100
AcDbEntity
  8
FORMAT
 62
     2
100
AcDbText
 10
-17.58524845355718
 20
2.075366912832191
 30
0.0
 40
4.233333333333333
  1
SEME3518018SE [ 2 FLUTE ]
 41
0.75
  7
SLDTEXTSTYLE0
 11
-17.58524845355718
 21
-0.0412997538344756
 31
0.0
100
AcDbAttributeDefinition
  3

  2
AUTOATTR0
 70
     0
 74
     1
  0
ENDBLK
  5
80
330
7E
100
AcDbEntity
  8
0
100
AcDbBlockEnd
  0
BLOCK
  5
D3
330
D2
100
AcDbEntity
  8
0
100
AcDbBlockBegin
  2
_D
 70
     0
 10
0.0
 20
0.0
 30
0.0
  3
_D
  1

  0
LINE
  5
D5
330
D2
100
AcDbEntity
  8
치수문자_일반주서
 62
     0
370
    -2
100
AcDbLine
 10
56.99999999999999
 20
9.054893337066801
 30
0.0
 11
56.99999999999999
 21
21.24302722564458
 31
0.0
  0
LINE
  5
D6
330
D2
100
AcDbEntity
  8
치수문자_일반주서
 62
     0
370
    -2
100
AcDbLine
 10
11.99999999999999
 20
9.062500000000004
 30
0.0
 11
11.99999999999998
 21
21.24302722564458
 31
0.0
  0
LINE
  5
D7
330
D2
100
AcDbEntity
  8
치수문자_일반주서
 62
     0
370
    -2
100
AcDbLine
 10
53.69799999999999
 20
21.24302722564458
 30
0.0
 11
15.30199999999998
 21
21.24302722564458
 31
0.0
  0
SOLID
  5
D8
330
D2
100
AcDbEntity
  8
치수문자_일반주서
 62
     0
100
AcDbTrace
 10
53.69799999999999
 20
20.69269389231125
 30
0.0
 11
53.69799999999999
 21
21.79336055897792
 31
0.0
 12
56.99999999999999
 22
21.24302722564458
 32
0.0
 13
56.99999999999999
 23
21.24302722564458
 33
0.0
  0
SOLID
  5
D9
330
D2
100
AcDbEntity
  8
치수문자_일반주서
 62
     0
100
AcDbTrace
 10
15.30199999999998
 20
21.79336055897792
 30
0.0
 11
15.30199999999998
 21
20.69269389231125
 31
0.0
 12
11.99999999999998
 22
21.24302722564458
 32
0.0
 13
11.99999999999998
 23
21.24302722564458
 33
0.0
  0
MTEXT
  5
DA
330
D2
100
AcDbEntity
  8
치수문자_일반주서
 62
     0
100
AcDbMText
 10
34.49999999999999
 20
25.61802722564458
 30
0.0
 40
3.5
 41
0.0
 71
     2
 72
     1
  1
\A1;45
  7
SLDTEXTSTYLE0
 73
     1
 44
1.0
  0
POINT
  5
131
330
D2
100
AcDbEntity
  8
Defpoints
 62
     0
100
AcDbPoint
 10
56.99999999999999
 20
8.992393337066801
 30
0.0
  0
POINT
  5
132
330
D2
100
AcDbEntity
  8
Defpoints
 62
     0
100
AcDbPoint
 10
11.99999999999999
 20
9.000000000000004
 30
0.0
  0
POINT
  5
133
330
D2
100
AcDbEntity
  8
Defpoints
 62
     0
100
AcDbPoint
 10
11.99999999999999
 20
21.24302722564458
 30
0.0
  0
ENDBLK
  5
D4
330
D2
100
AcDbEntity
  8
0
100
AcDbBlockEnd
  0
BLOCK
  5
DD
330
DC
100
AcDbEntity
  8
0
100
AcDbBlockBegin
  2
_D_1
 70
     0
 10
0.0
 20
0.0
 30
0.0
  3
_D_1
  1

  0
LINE
  5
DF
330
DC
100
AcDbEntity
  8
치수문자_일반주서
 62
     0
370
    -2
100
AcDbLine
 10
57.00063750916922
 20
9.07445938999479
 30
0.0
 11
57.00063750916922
 21
29.08415911661227
 31
0.0
  0
LINE
  5
E0
330
DC
100
AcDbEntity
  8
치수문자_일반주서
 62
     0
370
    -2
100
AcDbLine
 10
-43.00000000000001
 20
8.062499999999993
 30
0.0
 11
-43.00000000000001
 21
29.08415911661227
 31
0.0
  0
LINE
  5
E1
330
DC
100
AcDbEntity
  8
치수문자_일반주서
 62
     0
370
    -2
100
AcDbLine
 10
53.69863750916922
 20
29.08415911661227
 30
0.0
 11
-39.69800000000001
 21
29.08415911661227
 31
0.0
  0
SOLID
  5
E2
330
DC
100
AcDbEntity
  8
치수문자_일반주서
 62
     0
100
AcDbTrace
 10
53.69863750916922
 20
28.53382578327894
 30
0.0
 11
53.69863750916922
 21
29.6344924499456
 31
0.0
 12
57.00063750916922
 22
29.08415911661227
 32
0.0
 13
57.00063750916922
 23
29.08415911661227
 33
0.0
  0
SOLID
  5
E3
330
DC
100
AcDbEntity
  8
치수문자_일반주서
 62
     0
100
AcDbTrace
 10
-39.69800000000001
 20
29.6344924499456
 30
0.0
 11
-39.69800000000001
 21
28.53382578327894
 31
0.0
 12
-43.00000000000001
 22
29.08415911661227
 32
0.0
 13
-43.00000000000001
 23
29.08415911661227
 33
0.0
  0
MTEXT
  5
E4
330
DC
100
AcDbEntity
  8
치수문자_일반주서
 62
     0
100
AcDbMText
 10
7.0
 20
33.45915911661227
 30
0.0
 40
3.5
 41
0.0
 71
     2
 72
     1
  1
\A1;100
  7
SLDTEXTSTYLE0
 73
     1
 44
1.0
  0
POINT
  5
12C
330
DC
100
AcDbEntity
  8
Defpoints
 62
     0
100
AcDbPoint
 10
57.00063750916922
 20
9.01195938999479
 30
0.0
  0
POINT
  5
12D
330
DC
100
AcDbEntity
  8
Defpoints
 62
     0
100
AcDbPoint
 10
-43.00000000000001
 20
7.999999999999993
 30
0.0
  0
POINT
  5
12E
330
DC
100
AcDbEntity
  8
Defpoints
 62
     0
100
AcDbPoint
 10
-43.00000000000001
 20
29.08415911661227
 30
0.0
  0
ENDBLK
  5
DE
330
DC
100
AcDbEntity
  8
0
100
AcDbBlockEnd
  0
BLOCK
  5
E8
330
E7
100
AcDbEntity
  8
0
100
AcDbBlockBegin
  2
_D_2
 70
     0
 10
0.0
 20
0.0
 30
0.0
  3
_D_2
  1

  0
LINE
  5
EA
330
E7
100
AcDbEntity
  8
치수문자_일반주서
 62
     0
370
    -2
100
AcDbLine
 10
57.06313750916922
 20
9.01195938999479
 30
0.0
 11
72.56619031224623
 21
9.011959389994846
 31
0.0
  0
LINE
  5
EB
330
E7
100
AcDbEntity
  8
치수문자_일반주서
 62
     0
370
    -2
100
AcDbLine
 10
57.06249999999999
 20
-8.992393337066789
 30
0.0
 11
72.56619031224629
 21
-8.992393337066732
 31
0.0
  0
LINE
  5
EC
330
E7
100
AcDbEntity
  8
치수문자_일반주서
 62
     0
370
    -2
100
AcDbLine
 10
72.56619031224625
 20
5.709959389994847
 30
0.0
 11
72.56619031224628
 21
-5.690393337066732
 31
0.0
  0
SOLID
  5
ED
330
E7
100
AcDbEntity
  8
치수문자_일반주서
 62
     0
100
AcDbTrace
 10
73.11652364557958
 20
5.709959389994848
 30
0.0
 11
72.01585697891292
 21
5.709959389994845
 31
0.0
 12
72.56619031224623
 22
9.011959389994846
 32
0.0
 13
72.56619031224623
 23
9.011959389994846
 33
0.0
  0
SOLID
  5
EE
330
E7
100
AcDbEntity
  8
치수문자_일반주서
 62
     0
100
AcDbTrace
 10
72.01585697891295
 20
-5.690393337066734
 30
0.0
 11
73.1165236455796
 21
-5.69039333706673
 31
0.0
 12
72.56619031224629
 22
-8.992393337066732
 32
0.0
 13
72.56619031224629
 23
-8.992393337066732
 33
0.0
  0
MTEXT
  5
EF
330
E7
100
AcDbEntity
  8
치수문자_일반주서
 62
     0
100
AcDbMText
 10
68.19119031224626
 20
-0.0000000000000089
 30
0.0
 40
3.5
 41
0.0
 71
     2
 72
     1
  1
\A1;%%c18
  7
SLDTEXTSTYLE0
 11
-3.157204245136183E-15
 21
1.0
 31
0.0
 73
     1
 44
1.0
  0
POINT
  5
F0
330
E7
100
AcDbEntity
  8
Defpoints
 62
     0
100
AcDbPoint
 10
57.00063750916922
 20
9.01195938999479
 30
0.0
  0
POINT
  5
F1
330
E7
100
AcDbEntity
  8
Defpoints
 62
     0
100
AcDbPoint
 10
56.99999999999999
 20
-8.992393337066789
 30
0.0
  0
POINT
  5
F2
330
E7
100
AcDbEntity
  8
Defpoints
 62
     0
100
AcDbPoint
 10
72.56619031224629
 20
-8.99239333706673
 30
0.0
  0
ENDBLK
  5
E9
330
E7
100
AcDbEntity
  8
0
100
AcDbBlockEnd
  0
BLOCK
  5
F5
330
F4
100
AcDbEntity
  8
0
100
AcDbBlockBegin
  2
_D_3
 70
     0
 10
0.0
 20
0.0
 30
0.0
  3
_D_3
  1

  0
LINE
  5
F7
330
F4
100
AcDbEntity
  8
치수문자_일반주서
 62
     0
370
    -2
100
AcDbLine
 10
-42.06250000000001
 20
9.0
 30
0.0
 11
-54.41955944538858
 21
8.999999999999954
 31
0.0
  0
LINE
  5
F8
330
F4
100
AcDbEntity
  8
치수문자_일반주서
 62
     0
370
    -2
100
AcDbLine
 10
-42.06250000000001
 20
-9.0
 30
0.0
 11
-54.41955944538851
 21
-9.000000000000046
 31
0.0
  0
LINE
  5
F9
330
F4
100
AcDbEntity
  8
치수문자_일반주서
 62
     0
370
    -2
100
AcDbLine
 10
-54.41955944538856
 20
5.697999999999954
 30
0.0
 11
-54.41955944538853
 21
-5.698000000000047
 31
0.0
  0
SOLID
  5
FA
330
F4
100
AcDbEntity
  8
치수문자_일반주서
 62
     0
100
AcDbTrace
 10
-53.86922611205523
 20
5.697999999999956
 30
0.0
 11
-54.9698927787219
 21
5.697999999999952
 31
0.0
 12
-54.41955944538858
 22
8.999999999999954
 32
0.0
 13
-54.41955944538858
 23
8.999999999999954
 33
0.0
  0
SOLID
  5
FB
330
F4
100
AcDbEntity
  8
치수문자_일반주서
 62
     0
100
AcDbTrace
 10
-54.96989277872186
 20
-5.698000000000048
 30
0.0
 11
-53.86922611205519
 21
-5.698000000000045
 31
0.0
 12
-54.41955944538851
 22
-9.000000000000046
 32
0.0
 13
-54.41955944538851
 23
-9.000000000000046
 33
0.0
  0
MTEXT
  5
FC
330
F4
100
AcDbEntity
  8
치수문자_일반주서
 62
     0
100
AcDbMText
 10
-58.79455944538855
 20
-0.000000000000013
 30
0.0
 40
3.5
 41
0.0
 71
     2
 72
     1
  1
\A1;%%c18
  7
SLDTEXTSTYLE0
 11
-3.552713678800501E-15
 21
1.0
 31
0.0
 73
     1
 44
1.0
  0
POINT
  5
FD
330
F4
100
AcDbEntity
  8
Defpoints
 62
     0
100
AcDbPoint
 10
-42.00000000000001
 20
9.0
 30
0.0
  0
POINT
  5
FE
330
F4
100
AcDbEntity
  8
Defpoints
 62
     0
100
AcDbPoint
 10
-42.00000000000001
 20
-9.0
 30
0.0
  0
POINT
  5
FF
330
F4
100
AcDbEntity
  8
Defpoints
 62
     0
100
AcDbPoint
 10
-54.41955944538855
 20
-9.000000000000046
 30
0.0
  0
ENDBLK
  5
F6
330
F4
100
AcDbEntity
  8
0
100
AcDbBlockEnd
  0
BLOCK
  5
101
330
100
100
AcDbEntity
  8
0
100
AcDbBlockBegin
  2
SW_DOWELSYMBOL_0
 70
     0
 10
0.0
 20
0.0
 30
0.0
  3
SW_DOWELSYMBOL_0
  1

  0
CIRCLE
  5
103
330
100
100
AcDbEntity
  8
외형선
 62
     0
100
AcDbCircle
 10
0.0
 20
0.0
 30
0.0
 40
3.000000000000004
  0
HATCH
  5
104
330
100
100
AcDbEntity
  8
0
  6
Continuous
 62
     0
370
    30
100
AcDbHatch
 10
0.0
 20
0.0
 30
0.0
210
0.0
220
0.0
230
1.0
  2
SOLID
 70
     1
 71
     0
 91
        1
 92
        0
 93
        3
 72
     2
 10
0.0000000000000087
 20
-0.0000000000000035
 40
3.000000000000004
 50
0.0
 51
90.0
 73
     1
 72
     1
 10
0.0000000000000087
 20
3.000000000000001
 11
0.0000000000000087
 21
-0.0000000000000036
 72
     1
 10
0.0000000000000087
 20
-0.0000000000000035
 11
3.000000000000013
 21
-0.0000000000000035
 97
        0
 75
     0
 76
     1
 98
        1
 10
0.0
 20
0.0
  0
HATCH
  5
105
330
100
100
AcDbEntity
  8
0
  6
Continuous
 62
     0
370
    30
100
AcDbHatch
 10
0.0
 20
0.0
 30
0.0
210
0.0
220
0.0
230
1.0
  2
SOLID
 70
     1
 71
     0
 91
        1
 92
        0
 93
        3
 72
     2
 10
0.0000000000000087
 20
-0.0000000000000035
 40
3.000000000000004
 50
180.0
 51
270.0000000000008
 73
     1
 72
     1
 10
0.0000000000000087
 20
-3.000000000000008
 11
0.0000000000000087
 21
-0.0000000000000036
 72
     1
 10
0.0000000000000087
 20
-0.0000000000000035
 11
-2.999999999999996
 21
-0.0000000000000035
 97
        0
 75
     0
 76
     1
 98
        1
 10
0.0
 20
0.0
  0
ENDBLK
  5
102
330
100
100
AcDbEntity
  8
0
100
AcDbBlockEnd
  0
ENDSEC
  0
SECTION
  2
ENTITIES
  0
LINE
  5
95
330
1F
100
AcDbEntity
  8
0
  6
Continuous
 62
     4
370
    15
100
AcDbLine
 10
11.99999999999999
 20
9.000000000000004
 30
0.0
 11
-42.00000000000001
 21
9.0
 31
0.0
  0
LINE
  5
96
330
1F
100
AcDbEntity
  8
0
  6
Continuous
 62
     4
370
    15
100
AcDbLine
 10
-42.00000000000001
 20
-9.0
 30
0.0
 11
11.99999999999999
 21
-8.999999999999996
 31
0.0
  0
LINE
  5
97
330
1F
100
AcDbEntity
  8
0
  6
Continuous
 62
     4
370
    15
100
AcDbLine
 10
-42.00000000000001
 20
8.999999999999995
 30
0.0
 11
-43.00000000000001
 21
7.999999999999993
 31
0.0
  0
LINE
  5
98
330
1F
100
AcDbEntity
  8
0
  6
Continuous
 62
     4
370
    15
100
AcDbLine
 10
-43.00000000000001
 20
-7.999999999999993
 30
0.0
 11
-42.00000000000001
 21
-8.999999999999995
 31
0.0
  0
LINE
  5
99
330
1F
100
AcDbEntity
  8
0
  6
Continuous
 62
     1
370
    15
100
AcDbLine
 10
28.68195747605709
 20
2.546929966248691
 30
0.0
 11
28.60786643022972
 21
2.58762958059581
 31
0.0
  0
SPLINE
  5
9A
330
1F
100
AcDbEntity
  8
0
  6
Continuous
 62
     1
370
    15
100
AcDbSpline
210
0.0
220
0.0
230
1.0
 70
     8
 71
     3
 72
     9
 73
     5
 74
     0
 42
0.000000001
 43
0.00000001
 40
0.0
 40
0.0
 40
0.0
 40
0.0
 40
0.5259507176743526
 40
1.0
 40
1.0
 40
1.0
 40
1.0
 10
33.68362807333945
 20
2.306213233905649
 30
0.0
 10
33.2457790204849
 20
2.515012371218558
 30
0.0
 10
32.41328837423077
 20
2.912006101422363
 30
0.0
 10
31.5807818389532
 20
3.34828789593765
 30
0.0
 10
31.18613271337346
 20
3.555106967519369
 30
0.0
  0
LINE
  5
9B
330
1F
100
AcDbEntity
  8
0
  6
Continuous
 62
     1
370
    15
100
AcDbLine
 10
13.0294904609994
 20
9.000000000000009
 30
0.0
 11
11.99999999999999
 21
9.000000000000009
 31
0.0
  0
SPLINE
  5
9C
330
1F
100
AcDbEntity
  8
0
  6
Continuous
 62
     1
370
    15
100
AcDbSpline
210
0.0
220
0.0
230
1.0
 70
     8
 71
     3
 72
    21
 73
    17
 74
     0
 42
0.000000001
 43
0.00000001
 40
0.0
 40
0.0
 40
0.0
 40
0.0
 40
0.1077596083206374
 40
0.2090426866284461
 40
0.3010777986497801
 40
0.3765775604652511
 40
0.4367738827982968
 40
0.4881494451948676
 40
0.5323632500396787
 40
0.5829431153775095
 40
0.6545276175004875
 40
0.7378924440178178
 40
0.8046197279971212
 40
0.8597214268387479
 40
0.9423422891844758
 40
1.0
 40
1.0
 40
1.0
 40
1.0
 10
30.70880388032356
 20
7.151755768973202
 30
0.0
 10
30.46110387913833
 20
7.138606224353086
 30
0.0
 10
29.98059105496805
 20
7.113097444410695
 30
0.0
 10
29.22879842017424
 20
7.083140688673696
 30
0.0
 10
28.55836830540034
 20
7.062726480115995
 30
0.0
 10
27.9914498230578
 20
7.048570528282282
 30
0.0
 10
27.53104718635322
 20
7.039860842458547
 30
0.0
 10
27.14907410953846
 20
7.034477360674749
 30
0.0
 10
26.79188396413345
 20
7.030914761597806
 30
0.0
 10
26.3850770075006
 20
7.028503807188268
 30
0.0
 10
25.87877324329444
 20
7.02822011200766
 30
0.0
 10
25.33236851437631
 20
7.031634605923394
 30
0.0
 10
24.82717921208602
 20
7.03806545203301
 30
0.0
 10
24.32481864830529
 20
7.047233829299759
 30
0.0
 10
23.84477129598174
 20
7.058249698313677
 30
0.0
 10
23.500114928699
 20
7.069605222119234
 30
0.0
 10
23.35845325715723
 20
7.074272602838787
 30
0.0
  0
SPLINE
  5
9D
330
1F
100
AcDbEntity
  8
0
  6
Continuous
 62
     1
370
    15
100
AcDbSpline
210
0.0
220
0.0
230
1.0
 70
     8
 71
     3
 72
    35
 73
    31
 74
     0
 42
0.000000001
 43
0.00000001
 40
0.0
 40
0.0
 40
0.0
 40
0.0
 40
0.0585666763815846
 40
0.106648128148416
 40
0.1450290123312231
 40
0.1781614409489043
 40
0.2101921395460006
 40
0.2375540589086618
 40
0.262773859434654
 40
0.2860539487801942
 40
0.3124186300702063
 40
0.3475538991974287
 40
0.3817102682023708
 40
0.4073834635793472
 40
0.4297750075406028
 40
0.4607199804443872
 40
0.499988942705063
 40
0.5460865736593361
 40
0.5834831013496432
 40
0.6191925541608749
 40
0.6591959661795116
 40
0.6965055048616372
 40
0.7270581507868826
 40
0.7523449994964647
 40
0.7778697462829594
 40
0.8061013457213058
 40
0.8416593913717938
 40
0.8846547600620634
 40
0.936902909868997
 40
1.0
 40
1.0
 40
1.0
 40
1.0
 10
53.65650971207869
 20
6.155578038850688
 30
0.0
 10
53.35937963406793
 20
6.131026576639841
 30
0.0
 10
52.81831484101091
 20
6.086319114139608
 30
0.0
 10
52.06330296917255
 20
6.036290709212404
 30
0.0
 10
51.42180407866594
 20
6.001389769134537
 30
0.0
 10
50.86939887180167
 20
5.975998001409029
 30
0.0
 10
50.37842663427697
 20
5.957492985407898
 30
0.0
 10
49.93523984148773
 20
5.944165596085478
 30
0.0
 10
49.53710653320911
 20
5.934859689719178
 30
0.0
 10
49.14411921229583
 20
5.928115469161805
 30
0.0
 10
48.69895497289409
 20
5.92330929035993
 30
0.0
 10
48.19730353036854
 20
5.921868882971062
 30
0.0
 10
47.69910318381732
 20
5.924903772212444
 30
0.0
 10
47.26801558139361
 20
5.930835569605519
 30
0.0
 10
46.8521110716576
 20
5.93911797427625
 30
0.0
 10
46.36109890128357
 20
5.952250106806225
 30
0.0
 10
45.74280077394089
 20
5.974264361897531
 30
0.0
 10
45.09320601588292
 20
6.004684364089916
 30
0.0
 10
44.47705670517458
 20
6.040362808131206
 30
0.0
 10
43.895935924306
 20
6.078949967280943
 30
0.0
 10
43.30334082036259
 20
6.123653115229555
 30
0.0
 10
42.73742528463174
 20
6.17183951278754
 30
0.0
 10
42.24843510201005
 20
6.217574853882378
 30
0.0
 10
41.82127092315713
 20
6.260261459468501
 30
0.0
 10
41.40717197941295
 20
6.304076975269266
 30
0.0
 10
40.93649980090916
 20
6.356792346983432
 30
0.0
 10
40.36797591997385
 20
6.424638281455413
 30
0.0
 10
39.66684410869873
 20
6.514044581710791
 30
0.0
 10
38.83448369520551
 20
6.629875409082411
 30
0.0
 10
38.25171061811417
 20
6.719943329673246
 30
0.0
 10
37.9329173554625
 20
6.76921301524059
 30
0.0
  0
SPLINE
  5
9E
330
1F
100
AcDbEntity
  8
0
  6
Continuous
 62
     1
370
    15
100
AcDbSpline
210
0.0
220
0.0
230
1.0
 70
     8
 71
     3
 72
    32
 73
    28
 74
     0
 42
0.000000001
 43
0.00000001
 40
0.0
 40
0.0
 40
0.0
 40
0.0
 40
0.0596032761478951
 40
0.1145764365283772
 40
0.1640494361656725
 40
0.2051718243529993
 40
0.2385340374122271
 40
0.2669370150197715
 40
0.2911052190566262
 40
0.3184619421040265
 40
0.3573162276302973
 40
0.4027163576629545
 40
0.439142636130468
 40
0.4690059203653172
 40
0.5058585697327187
 40
0.5500482300322491
 40
0.5892670046886286
 40
0.6233506016197982
 40
0.6539628094907463
 40
0.6862824860102134
 40
0.7294711134469135
 40
0.7759476588083462
 40
0.8159314308883818
 40
0.8479325741461057
 40
0.8829997273276872
 40
0.9337410410722669
 40
1.0
 40
1.0
 40
1.0
 40
1.0
 10
17.17088238556492
 20
-7.489256402167151
 30
0.0
 10
17.42522956074053
 20
-7.463882062397393
 30
0.0
 10
17.91416565378966
 20
-7.415104518309625
 30
0.0
 10
18.66586881633876
 20
-7.349135835254221
 30
0.0
 10
19.33205312528173
 20
-7.296241461258471
 30
0.0
 10
19.89871483997441
 20
-7.253985035786687
 30
0.0
 10
20.36426490006657
 20
-7.221995210997546
 30
0.0
 10
20.75219513914587
 20
-7.197132020185659
 30
0.0
 10
21.11293869602298
 20
-7.175446932394098
 30
0.0
 10
21.52096860381229
 20
-7.15250294727118
 30
0.0
 10
22.02567642266824
 20
-7.126659283291219
 30
0.0
 10
22.57131548787674
 20
-7.102191260077215
 30
0.0
 10
23.07621104369805
 20
-7.082840590689914
 30
0.0
 10
23.54232436484937
 20
-7.067428780096987
 30
0.0
 10
24.04348239952366
 20
-7.053501930317196
 30
0.0
 10
24.58688804477288
 20
-7.041881281049696
 30
0.0
 10
25.11777736293761
 20
-7.034037135244222
 30
0.0
 10
25.5872774272249
 20
-7.029849984631553
 30
0.0
 10
26.02561369558715
 20
-7.028227927063194
 30
0.0
 10
26.50498635844919
 20
-7.028866479457455
 30
0.0
 10
27.05605565388485
 20
-7.032922711108421
 30
0.0
 10
27.64191109998004
 20
-7.041419956480504
 30
0.0
 10
28.17794690549629
 20
-7.052932858866154
 30
0.0
 10
28.66434722366099
 20
-7.066149373268231
 30
0.0
 10
29.19832440206649
 20
-7.083538161123975
 30
0.0
 10
29.88367697200112
 20
-7.110069907589165
 30
0.0
 10
30.41047211579875
 20
-7.136683885536838
 30
0.0
 10
30.70880388032356
 20
-7.15175576897319
 30
0.0
  0
SPLINE
  5
9F
330
1F
100
AcDbEntity
  8
0
  6
Continuous
 62
     1
370
    15
100
AcDbSpline
210
0.0
220
0.0
230
1.0
 70
     8
 71
     3
 72
    19
 73
    15
 74
     0
 42
0.000000001
 43
0.00000001
 40
0.0
 40
0.0
 40
0.0
 40
0.0
 40
0.1473943428883918
 40
0.269445640213486
 40
0.3698825082558785
 40
0.4529458438576876
 40
0.5188946544805526
 40
0.5785202770279123
 40
0.6375901714006755
 40
0.7089609297082858
 40
0.7961157402725018
 40
0.8895634193261426
 40
0.9729804409524596
 40
1.0
 40
1.0
 40
1.0
 40
1.0
 10
37.93291735546249
 20
-6.769213015240579
 30
0.0
 10
38.25171061658505
 20
-6.719943328627068
 30
0.0
 10
38.8344836908811
 20
-6.629875406123772
 30
0.0
 10
39.66684412158131
 20
-6.514044590524628
 30
0.0
 10
40.36797588369124
 20
-6.424638256631983
 30
0.0
 10
40.93649990181191
 20
-6.356792416017882
 30
0.0
 10
41.40717169797229
 20
-6.304076782716472
 30
0.0
 10
41.82127186552932
 20
-6.260262104209671
 30
0.0
 10
42.24843130082991
 20
-6.217572253235447
 30
0.0
 10
42.73744447624605
 20
-6.171852643081372
 30
0.0
 10
43.3032492204707
 20
-6.123590445488677
 30
0.0
 10
43.89628587259249
 20
-6.07918939079961
 30
0.0
 10
44.34352731159196
 20
-6.048611291423843
 30
0.0
 10
44.58874728582132
 20
-6.034704125521428
 30
0.0
 10
44.64874312717115
 20
-6.031301580024352
 30
0.0
  0
LINE
  5
A0
330
1F
100
AcDbEntity
  8
0
  6
Continuous
 62
     1
370
    15
100
AcDbLine
 10
11.99999999999999
 20
-9.000000000000002
 30
0.0
 11
13.02949046099941
 21
-9.000000000000002
 31
0.0
  0
LINE
  5
A1
330
1F
100
AcDbEntity
  8
0
  6
Continuous
 62
     4
370
    15
100
AcDbLine
 10
11.99999999999999
 20
9.000000000000004
 30
0.0
 11
11.99999999999999
 21
8.79517271664101
 31
0.0
1001
PE_URL
1000

  0
SPLINE
  5
A2
330
1F
100
AcDbEntity
  8
0
  6
Continuous
 62
     4
370
    15
100
AcDbSpline
210
0.0
220
0.0
230
1.0
 70
     8
 71
     3
 72
    10
 73
     6
 74
     0
 42
0.000000001
 43
0.00000001
 40
0.0
 40
0.0
 40
0.0
 40
0.0
 40
0.5
 40
0.5
 40
1.0
 40
1.0
 40
1.0
 40
1.0
 10
8.949909972597807
 20
8.998525452209758
 30
0.0
 10
9.458880583147723
 20
8.99321100110872
 30
0.0
 10
9.969090215238468
 20
8.973493649586421
 30
0.0
 10
10.98467855975662
 20
8.905601778007798
 30
0.0
 10
11.49079933344279
 20
8.857463091240884
 30
0.0
 10
11.99999999999999
 20
8.79517271664101
 30
0.0
1001
PE_URL
1000

  0
LINE
  5
A3
330
1F
100
AcDbEntity
  8
0
  6
Continuous
 62
     4
370
    15
100
AcDbLine
 10
8.949909972597807
 20
-8.693412903361743
 30
0.0
 11
8.949909972597807
 21
8.998525451461932
 31
0.0
1001
PE_URL
1000

  0
SPLINE
  5
A4
330
1F
100
AcDbEntity
  8
0
  6
Continuous
 62
     4
370
    15
100
AcDbSpline
210
0.0
220
0.0
230
1.0
 70
     8
 71
     3
 72
    10
 73
     6
 74
     0
 42
0.000000001
 43
0.00000001
 40
0.0
 40
0.0
 40
0.0
 40
0.0
 40
0.5
 40
0.5
 40
1.0
 40
1.0
 40
1.0
 40
1.0
 10
12.00000000000001
 20
-8.980367231381056
 30
0.0
 10
11.49078360758218
 20
-8.96098162449584
 30
0.0
 10
10.98464734386472
 20
-8.927313042699067
 30
0.0
 10
9.969027336577028
 20
-8.831600817935984
 30
0.0
 10
9.458801836193933
 20
-8.769481843761888
 30
0.0
 10
8.949815660077784
 20
-8.693512712812351
 30
0.0
1001
PE_URL
1000

  0
LINE
  5
A5
330
1F
100
AcDbEntity
  8
0
  6
Continuous
 62
     4
370
    15
100
AcDbLine
 10
-42.00000000000001
 20
8.999999999999995
 30
0.0
 11
-42.00000000000001
 21
-8.999999999999979
 31
0.0
  0
LINE
  5
A6
330
1F
100
AcDbEntity
  8
0
  6
Continuous
 62
     4
370
    15
100
AcDbLine
 10
-43.00000000000001
 20
7.999999999999993
 30
0.0
 11
-43.00000000000001
 21
-7.999999999999993
 31
0.0
  0
SPLINE
  5
A7
330
1F
100
AcDbEntity
  8
0
  6
Continuous
 62
     4
370
    15
100
AcDbSpline
210
0.0
220
0.0
230
1.0
 70
     8
 71
     3
 72
    10
 73
     6
 74
     0
 42
0.000000001
 43
0.00000001
 40
0.0
 40
0.0
 40
0.0
 40
0.0
 40
0.5
 40
0.5
 40
1.0
 40
1.0
 40
1.0
 40
1.0
 10
12.0
 20
-7.5889961752221
 30
0.0
 10
11.49078360758217
 20
-7.557537092080477
 30
0.0
 10
10.98464734386472
 20
-7.514038409717356
 30
0.0
 10
9.969027336577025
 20
-7.403173075112339
 30
0.0
 10
9.45880183619393
 20
-7.335735727151014
 30
0.0
 10
8.949815660077784
 20
-7.256749773515653
 30
0.0
1001
PE_URL
1000

  0
SPLINE
  5
A8
330
1F
100
AcDbEntity
  8
0
  6
Continuous
 62
     4
370
    15
100
AcDbSpline
210
0.0
220
0.0
230
1.0
 70
     8
 71
     3
 72
    10
 73
     6
 74
     0
 42
0.000000001
 43
0.00000001
 40
0.0
 40
0.0
 40
0.0
 40
0.0
 40
0.5
 40
0.5
 40
1.0
 40
1.0
 40
1.0
 40
1.0
 10
11.99999999999998
 20
-1.815269926281191
 30
0.0
 10
11.4907935912029
 20
-1.587942324655657
 30
0.0
 10
10.9846671613904
 20
-1.358178847753792
 30
0.0
 10
9.969067255329529
 20
-0.8945583631892733
 30
0.0
 10
9.458851828989669
 20
-0.6605818395086757
 30
0.0
 10
8.949875534726454
 20
-0.4261125319013455
 30
0.0
1001
PE_URL
1000

  0
SPLINE
  5
A9
330
1F
100
AcDbEntity
  8
0
  6
Continuous
 62
     4
370
    15
100
AcDbSpline
210
0.0
220
0.0
230
1.0
 70
    24
 71
     3
 72
    14
 73
    10
 74
     0
 42
0.000000001
 43
0.00000001
 40
0.0
 40
0.0
 40
0.0
 40
0.0
 40
0.25
 40
0.25
 40
0.5
 40
0.5
 40
0.75
 40
0.75
 40
1.0
 40
1.0
 40
1.0
 40
1.0
 10
11.99999999999999
 20
-1.815269926281194
 30
0.0
 10
11.99999999999999
 20
-2.462216915547422
 30
0.0
 10
11.99999999999999
 20
-3.097785421685613
 30
0.0
 10
11.99999999999999
 20
-4.296693483649073
 30
0.0
 10
11.99999999999999
 20
-4.859631915205359
 30
0.0
 10
11.99999999999999
 20
-5.868733628603359
 30
0.0
 10
11.99999999999999
 20
-6.314605512502635
 30
0.0
 10
11.99999999999999
 20
-7.061731333505794
 30
0.0
 10
11.99999999999999
 20
-7.362939898553857
 30
0.0
 10
11.99999999999999
 20
-7.588996175222096
 30
0.0
1001
PE_URL
1000

  0
SPLINE
  5
AA
330
1F
100
AcDbEntity
  8
0
  6
Continuous
 62
     4
370
    15
100
AcDbSpline
210
0.0
220
0.0
230
1.0
 70
     8
 71
     3
 72
    10
 73
     6
 74
     0
 42
0.000000001
 43
0.00000001
 40
0.0
 40
0.0
 40
0.0
 40
0.0
 40
0.5
 40
0.5
 40
1.0
 40
1.0
 40
1.0
 40
1.0
 10
12.00000000000001
 20
6.09648330961462
 30
0.0
 10
11.4907955450092
 20
6.148307011600343
 30
0.0
 10
10.98467103970287
 20
6.190303690133407
 30
0.0
 10
9.969075067475405
 20
6.254557447909818
 30
0.0
 10
9.458861612637932
 20
6.276793722673768
 30
0.0
 10
8.949887252266668
 20
6.288957027979144
 30
0.0
1001
PE_URL
1000

  0
SPLINE
  5
AB
330
1F
100
AcDbEntity
  8
0
  6
Continuous
 62
     4
370
    15
100
AcDbSpline
210
0.0
220
0.0
230
1.0
 70
    24
 71
     3
 72
    14
 73
    10
 74
     0
 42
0.000000001
 43
0.00000001
 40
0.0
 40
0.0
 40
0.0
 40
0.0
 40
0.2499999999999998
 40
0.2499999999999998
 40
0.4999999999999999
 40
0.4999999999999999
 40
0.75
 40
0.75
 40
1.0
 40
1.0
 40
1.0
 40
1.0
 10
11.99999999999999
 20
6.096483309614618
 30
0.0
 10
11.99999999999999
 20
5.735835348724969
 30
0.0
 10
11.99999999999999
 20
5.27645174612899
 30
0.0
 10
11.99999999999999
 20
4.176733161522526
 30
0.0
 10
11.99999999999999
 20
3.536580925406659
 30
0.0
 10
11.99999999999999
 20
2.130434270759456
 30
0.0
 10
11.99999999999999
 20
1.365189105954207
 30
0.0
 10
11.99999999999999
 20
-0.211173955292397
 30
0.0
 10
11.99999999999999
 20
-1.021439632953153
 30
0.0
 10
11.99999999999999
 20
-1.815269926281193
 30
0.0
1001
PE_URL
1000

  0
SPLINE
  5
AC
330
1F
100
AcDbEntity
  8
0
  6
Continuous
 62
     4
370
    15
100
AcDbSpline
210
0.0
220
0.0
230
1.0
 70
    24
 71
     3
 72
     8
 73
     4
 74
     0
 42
0.000000001
 43
0.00000001
 40
0.0
 40
0.0
 40
0.0
 40
0.0
 40
1.0
 40
1.0
 40
1.0
 40
1.0
 10
12.00000000000001
 20
-7.5889961752221
 30
0.0
 10
12.00000000000001
 20
-8.060122244612739
 30
0.0
 10
12.00000000000001
 20
-8.526925942436888
 30
0.0
 10
12.00000000000001
 20
-8.980367231370888
 30
0.0
1001
PE_URL
1000

  0
SPLINE
  5
AD
330
1F
100
AcDbEntity
  8
0
  6
Continuous
 62
     4
370
    15
100
AcDbSpline
210
0.0
220
0.0
230
1.0
 70
    24
 71
     3
 72
    10
 73
     6
 74
     0
 42
0.000000001
 43
0.00000001
 40
0.0
 40
0.0
 40
0.0
 40
0.0
 40
0.4999999999999996
 40
0.4999999999999996
 40
1.0
 40
1.0
 40
1.0
 40
1.0
 10
11.99999999999999
 20
8.795172716641007
 30
0.0
 10
11.99999999999999
 20
8.388078039507453
 30
0.0
 10
11.99999999999999
 20
7.925735097328831
 30
0.0
 10
11.99999999999999
 20
6.991226365223549
 30
0.0
 10
11.99999999999999
 20
6.521625672988904
 30
0.0
 10
11.99999999999999
 20
6.096483309614618
 30
0.0
1001
PE_URL
1000

  0
SPLINE
  5
AE
330
1F
100
AcDbEntity
  8
0
  6
Continuous
 62
     1
370
    15
100
AcDbSpline
210
0.0
220
0.0
230
1.0
 70
     8
 71
     3
 72
    64
 73
    60
 74
     0
 42
0.000000001
 43
0.00000001
 40
0.0
 40
0.0
 40
0.0
 40
0.0
 40
0.03125
 40
0.03125
 40
0.0625
 40
0.0625
 40
0.0937500000000001
 40
0.0937500000000001
 40
0.1250000000000001
 40
0.1250000000000001
 40
0.1562500000000002
 40
0.1562500000000002
 40
0.1875000000000002
 40
0.1875000000000002
 40
0.2187500000000003
 40
0.2187500000000003
 40
0.2500000000000004
 40
0.2500000000000004
 40
0.2812500000000004
 40
0.2812500000000004
 40
0.3125000000000006
 40
0.3125000000000006
 40
0.3437500000000006
 40
0.3437500000000006
 40
0.3750000000000007
 40
0.3750000000000007
 40
0.4062500000000007
 40
0.4062500000000007
 40
0.4375000000000008
 40
0.4375000000000008
 40
0.4687500000000008
 40
0.4687500000000008
 40
0.5000000000000009
 40
0.5000000000000009
 40
0.5312500000000009
 40
0.5312500000000009
 40
0.5625000000000009
 40
0.5625000000000009
 40
0.5937500000000009
 40
0.5937500000000009
 40
0.6250000000000009
 40
0.6250000000000009
 40
0.6562500000000009
 40
0.6562500000000009
 40
0.6875000000000009
 40
0.6875000000000009
 40
0.7187500000000009
 40
0.7187500000000009
 40
0.7500000000000009
 40
0.7500000000000009
 40
0.7812500000000009
 40
0.7812500000000009
 40
0.8125000000000009
 40
0.8125000000000009
 40
0.8750000000000007
 40
0.8750000000000007
 40
0.9375000000000003
 40
0.9375000000000003
 40
1.0
 40
1.0
 40
1.0
 40
1.0
 10
11.99999999999999
 20
8.795172716641014
 30
0.0
 10
12.46956901255268
 20
8.737730471150329
 30
0.0
 10
12.93984640273987
 20
8.66829245295802
 30
0.0
 10
13.87608905355164
 20
8.506343901491972
 30
0.0
 10
14.34284791315873
 20
8.413825947046973
 30
0.0
 10
15.28183453936652
 20
8.205848976917435
 30
0.0
 10
15.75217590728209
 20
8.090492736208883
 30
0.0
 10
16.68882328074729
 20
7.838505916970958
 30
0.0
 10
17.15529036610194
 20
7.701899998897966
 30
0.0
 10
18.09409856294511
 20
7.407594246712116
 30
0.0
 10
18.56449031203848
 20
7.250061753478178
 30
0.0
 10
19.50151560194546
 20
6.916195740601966
 30
0.0
 10
19.96776030593068
 20
6.739945639847332
 30
0.0
 10
20.90636306007163
 20
6.368878657969796
 30
0.0
 10
21.37679158892624
 20
6.174282403730164
 30
0.0
 10
22.31416795288023
 20
5.769359103916188
 30
0.0
 10
22.78025968966254
 20
5.559188250632573
 30
0.0
 10
23.71863000748154
 20
5.123420077946363
 30
0.0
 10
24.18908171112808
 20
4.898076962453674
 30
0.0
 10
25.12678227310523
 20
4.435229904732746
 30
0.0
 10
25.5927904714926
 20
4.197956642233819
 30
0.0
 10
26.53090138167213
 20
3.711647410101839
 30
0.0
 10
27.00136265290257
 20
3.462873446640319
 30
0.0
 10
27.93936050581063
 20
2.957121291758449
 30
0.0
 10
28.4053546026075
 20
2.700439018523928
 30
0.0
 10
29.34317915871226
 20
2.17938831205159
 30
0.0
 10
29.81363638939427
 20
1.915260830631258
 30
0.0
 10
30.75190459763965
 20
1.383019465418341
 30
0.0
 10
31.21795403100034
 20
1.115248700007462
 30
0.0
 10
32.15546531405207
 20
0.5763816753256437
 30
0.0
 10
32.62590489644366
 20
0.3054767615164408
 30
0.0
 10
33.56441649850414
 20
-0.2359741536115465
 30
0.0
 10
34.03059070128594
 20
-0.5061538449056981
 30
0.0
 10
34.96776182233287
 20
-1.045336855475196
 30
0.0
 10
35.43817015039696
 20
-1.314223141926057
 30
0.0
 10
36.37689816139963
 20
-1.847301818023616
 30
0.0
 10
36.84326655451706
 20
-2.111131448534221
 30
0.0
 10
37.78007065719725
 20
-2.63312392576246
 30
0.0
 10
38.25043412791588
 20
-2.891261480317161
 30
0.0
 10
39.18935154221981
 20
-3.398655562225012
 30
0.0
 10
39.65598352800109
 20
-3.647578955540999
 30
0.0
 10
40.59239379109924
 20
-4.135437257442434
 30
0.0
 10
41.06269880578714
 20
-4.374445703420202
 30
0.0
 10
42.00177859957022
 20
-4.839675148327527
 30
0.0
 10
42.46874355511773
 20
-5.065614735594642
 30
0.0
 10
43.40473319511492
 20
-5.503508718347913
 30
0.0
 10
43.87496616073225
 20
-5.715629788671738
 30
0.0
 10
44.81418129458162
 20
-6.123582740181241
 30
0.0
 10
45.28154856513726
 20
-6.319200090021917
 30
0.0
 10
46.21709083875304
 20
-6.692927372280237
 30
0.0
 10
46.68723816921695
 20
-6.871277037541751
 30
0.0
 10
47.62656159072274
 20
-7.208701251686867
 30
0.0
 10
48.09440048303959
 20
-7.367633982305864
 30
0.0
 10
49.4970027931296
 20
-7.813804700279587
 30
0.0
 10
50.44001748702053
 20
-8.071106753173009
 30
0.0
 10
52.30915245627647
 20
-8.494178002622345
 30
0.0
 10
53.25323264231533
 20
-8.661251081151317
 30
0.0
 10
55.12131295258396
 20
-8.898825150312536
 30
0.0
 10
56.06651373143273
 20
-8.970176369485074
 30
0.0
 10
56.99999999999999
 20
-8.992393337066787
 30
0.0
  0
SPLINE
  5
AF
330
1F
100
AcDbEntity
  8
0
  6
Continuous
 62
     1
370
    15
100
AcDbSpline
210
0.0
220
0.0
230
1.0
 70
     8
 71
     3
 72
    15
 73
    11
 74
     0
 42
0.000000001
 43
0.00000001
 40
0.0
 40
0.0
 40
0.0
 40
0.0
 40
0.073408165250826
 40
0.2060724456569133
 40
0.3387379853457339
 40
0.4714043305914429
 40
0.6040710274244088
 40
0.7360478317738113
 40
0.8680242564763836
 40
1.0
 40
1.0
 40
1.0
 40
1.0
 10
34.63813197988657
 20
-0.8519352692642805
 30
0.0
 10
34.08419147272693
 20
-0.6306521184744831
 30
0.0
 10
32.52916180172538
 20
-0.0094629100245688
 30
0.0
 10
29.97302887947443
 20
1.029687923294349
 30
0.0
 10
26.96972845906106
 20
2.207173274650087
 30
0.0
 10
23.9664089204211
 20
3.304140213561046
 30
0.0
 10
20.96828132712424
 20
4.277931022418312
 30
0.0
 10
17.97537697000807
 20
5.088453225179608
 30
0.0
 10
14.98768282091015
 20
5.72723231760581
 30
0.0
 10
12.9958925602384
 20
5.973399857372459
 30
0.0
 10
12.00000000000001
 20
6.096483309614618
 30
0.0
  0
SPLINE
  5
B0
330
1F
100
AcDbEntity
  8
0
  6
Continuous
 62
     4
370
    15
100
AcDbSpline
210
0.0
220
0.0
230
1.0
 70
    24
 71
     3
 72
    10
 73
     6
 74
     0
 42
0.000000001
 43
0.00000001
 40
0.0
 40
0.0
 40
0.0
 40
0.0
 40
0.4999999999999996
 40
0.4999999999999996
 40
1.0
 40
1.0
 40
1.0
 40
1.0
 10
11.99999999999999
 20
8.795172716641007
 30
0.0
 10
11.99999999999999
 20
8.388078039507453
 30
0.0
 10
11.99999999999999
 20
7.925735097328831
 30
0.0
 10
11.99999999999999
 20
6.991226365223549
 30
0.0
 10
11.99999999999999
 20
6.521625672988904
 30
0.0
 10
11.99999999999999
 20
6.096483309614618
 30
0.0
1001
PE_URL
1000

  0
SPLINE
  5
B1
330
1F
100
AcDbEntity
  8
0
  6
Continuous
 62
     1
370
    15
100
AcDbSpline
210
0.0
220
0.0
230
1.0
 70
     8
 71
     3
 72
    26
 73
    22
 74
     0
 42
0.000000001
 43
0.00000001
 40
0.0
 40
0.0
 40
0.0
 40
0.0
 40
0.0535120915719822
 40
0.1069943544305798
 40
0.1604640632724418
 40
0.2139385606400767
 40
0.2674351631859639
 40
0.3209567568117536
 40
0.3713919830660124
 40
0.4218021910499025
 40
0.4722215766046687
 40
0.5226835727774719
 40
0.5731352733603998
 40
0.6294112117828617
 40
0.6856812089793064
 40
0.7419531045808692
 40
0.7982347321349815
 40
0.8545338940290121
 40
0.9108450776203689
 40
0.9671365696009089
 40
1.0
 40
1.0
 40
1.0
 40
1.0
 10
56.99999999999999
 20
-8.54046782308709
 30
0.0
 10
56.21560247820275
 20
-8.378928627491197
 30
0.0
 10
54.64724467352329
 20
-8.055940281487782
 30
0.0
 10
52.29548303795212
 20
-7.336254458130527
 30
0.0
 10
49.94435507332366
 20
-6.463884544324507
 30
0.0
 10
47.59297667223613
 20
-5.440890914988509
 30
0.0
 10
45.24066332229074
 20
-4.295153297625928
 30
0.0
 10
42.93247595067918
 20
-3.07570378716099
 30
0.0
 10
40.67006677747287
 20
-1.814816998499242
 30
0.0
 10
38.45333128135167
 20
-0.5421718355086009
 30
0.0
 10
36.23618661516254
 20
0.7415947545383853
 30
0.0
 10
34.01780855009262
 20
2.009693084851063
 30
0.0
 10
31.71386141293237
 20
3.285066575216604
 30
0.0
 10
29.32488074692164
 20
4.533607163094887
 30
0.0
 10
26.85065331902761
 20
5.71259525391404
 30
0.0
 10
24.37632381439777
 20
6.748147477146121
 30
0.0
 10
21.90148425479841
 20
7.613282287138456
 30
0.0
 10
19.42590423364734
 20
8.289651704982505
 30
0.0
 10
16.94999602113326
 20
8.747171051580482
 30
0.0
 10
14.81785776093773
 20
8.984712223580154
 30
0.0
 10
13.51115475945223
 20
8.975760120366434
 30
0.0
 10
13.0294904609994
 20
8.972460282140602
 30
0.0
  0
SPLINE
  5
B2
330
1F
100
AcDbEntity
  8
0
  6
Continuous
 62
     1
370
    15
100
AcDbSpline
210
0.0
220
0.0
230
1.0
 70
     8
 71
     3
 72
    17
 73
    13
 74
     0
 42
0.000000001
 43
0.00000001
 40
0.0
 40
0.0
 40
0.0
 40
0.0
 40
0.1028777679283434
 40
0.2057049052050173
 40
0.308506523746677
 40
0.4113078502321906
 40
0.5141341126549565
 40
0.6170104268628478
 40
0.7198896213999705
 40
0.822717646977991
 40
0.9255195710847164
 40
1.0
 40
1.0
 40
1.0
 40
1.0
 10
56.99999999999999
 20
-7.100750379313934
 30
0.0
 10
56.19878669302748
 20
-6.938251861024113
 30
0.0
 10
54.596754391213
 20
-6.61333479707648
 30
0.0
 10
52.19434742203413
 20
-5.923941758567442
 30
0.0
 10
49.79260693005291
 20
-5.10627254469952
 30
0.0
 10
47.39087465574976
 20
-4.16434679795631
 30
0.0
 10
44.98848996762567
 20
-3.124407290423336
 30
0.0
 10
42.58526071233379
 20
-2.010468229928273
 30
0.0
 10
40.1819994367909
 20
-0.8484744129609496
 30
0.0
 10
37.77956890692836
 20
0.3320224970356255
 30
0.0
 10
35.59835631535071
 20
1.403120639984372
 30
0.0
 10
34.21785451546344
 20
2.050465838574846
 30
0.0
 10
33.63787368589289
 20
2.322430572940043
 30
0.0
  0
LINE
  5
B3
330
1F
100
AcDbEntity
  8
0
  6
Continuous
 62
     1
370
    15
100
AcDbLine
 10
56.99999999999999
 20
-8.540467823087095
 30
0.0
 11
56.99999999999999
 21
-7.100750379313934
 31
0.0
  0
LINE
  5
B4
330
1F
100
AcDbEntity
  8
0
  6
Continuous
 62
     1
370
    15
100
AcDbLine
 10
56.99999999999999
 20
-8.992393337066789
 30
0.0
 11
57.00000000000056
 21
-8.540467823087099
 31
0.0
  0
SPLINE
  5
B5
330
1F
100
AcDbEntity
  8
0
  6
Continuous
 62
     1
370
    15
100
AcDbSpline
210
0.0
220
0.0
230
1.0
 70
     8
 71
     3
 72
    12
 73
     8
 74
     0
 42
0.000000001
 43
0.00000001
 40
0.0
 40
0.0
 40
0.0
 40
0.0
 40
0.5
 40
0.5
 40
0.75
 40
0.75
 40
1.0
 40
1.0
 40
1.0
 40
1.0
 10
56.99999999999999
 20
-2.405186514266797
 30
0.0
 10
56.13971381298325
 20
-1.728859581839174
 30
0.0
 10
55.29231869166453
 20
-1.027668077686362
 30
0.0
 10
54.04074809507861
 20
0.0617738072465176
 30
0.0
 10
53.62685406331185
 20
0.4312788219872426
 30
0.0
 10
52.80624521854642
 20
1.184136286907569
 30
0.0
 10
52.39797665465187
 20
1.569041250122945
 30
0.0
 10
51.99999999999997
 20
1.955973187525288
 30
0.0
  0
LINE
  5
B6
330
1F
100
AcDbEntity
  8
0
  6
Continuous
 62
     1
370
    15
100
AcDbLine
 10
51.99999999999999
 20
2.937719435296596
 30
0.0
 11
56.99999999999999
 21
0.0000000000000096
 31
0.0
  0
LINE
  5
B7
330
1F
100
AcDbEntity
  8
0
  6
Continuous
 62
     1
370
    15
100
AcDbLine
 10
56.99999999999999
 20
0.0000000000000096
 30
0.0
 11
56.99999999999999
 21
-2.405186514266793
 31
0.0
  0
SPLINE
  5
B8
330
1F
100
AcDbEntity
  8
0
  6
Continuous
 62
     1
370
    15
100
AcDbSpline
210
0.0
220
0.0
230
1.0
 70
     8
 71
     3
 72
    15
 73
    11
 74
     0
 42
0.000000001
 43
0.00000001
 40
0.0
 40
0.0
 40
0.0
 40
0.0
 40
0.1097590973353342
 40
0.2195079930108146
 40
0.3292877526238777
 40
0.4703090112905091
 40
0.6113334475834465
 40
0.7523605941317181
 40
0.8933899827500156
 40
1.0
 40
1.0
 40
1.0
 40
1.0
 10
51.99999999999999
 20
2.269675982330463
 30
0.0
 10
51.2210088758294
 20
2.606284696771331
 30
0.0
 10
49.6630990315319
 20
3.279470839247732
 30
0.0
 10
47.32610624174323
 20
4.202200048963064
 30
0.0
 10
44.76719181153482
 20
5.113058330487751
 30
0.0
 10
41.98577134890534
 20
5.947648700714896
 30
0.0
 10
38.98270007645914
 20
6.63137873636671
 30
0.0
 10
35.97951733410279
 20
7.060980017363513
 30
0.0
 10
33.22062667680628
 20
7.245465279041683
 30
0.0
 10
31.46279050328736
 20
7.162702202362006
 30
0.0
 10
30.70603313616148
 20
7.127072279080831
 30
0.0
  0
SPLINE
  5
B9
330
1F
100
AcDbEntity
  8
0
  6
Continuous
 62
     1
370
    15
100
AcDbSpline
210
0.0
220
0.0
230
1.0
 70
    24
 71
     3
 72
     8
 73
     4
 74
     0
 42
0.000000001
 43
0.00000001
 40
0.0
 40
0.0
 40
0.0
 40
0.0
 40
1.0
 40
1.0
 40
1.0
 40
1.0
 10
52.0
 20
1.9559731875253
 30
0.0
 10
52.0
 20
2.061208827775571
 30
0.0
 10
51.99999999999999
 20
2.165800204981204
 30
0.0
 10
51.99999999999999
 20
2.269675982330464
 30
0.0
  0
SPLINE
  5
BA
330
1F
100
AcDbEntity
  8
0
  6
Continuous
 62
     1
370
    15
100
AcDbSpline
210
0.0
220
0.0
230
1.0
 70
    24
 71
     3
 72
    10
 73
     6
 74
     0
 42
0.000000001
 43
0.00000001
 40
0.0
 40
0.0
 40
0.0
 40
0.0
 40
0.5
 40
0.5
 40
1.0
 40
1.0
 40
1.0
 40
1.0
 10
56.99999999999999
 20
-7.10075037931393
 30
0.0
 10
56.99999999999999
 20
-6.556422501034229
 30
0.0
 10
57.00000000000001
 20
-5.868643355158205
 30
0.0
 10
56.99999999999996
 20
-4.269623032356111
 30
0.0
 10
56.99999999999999
 20
-3.359766987461782
 30
0.0
 10
56.99999999999999
 20
-2.405186514267087
 30
0.0
  0
SPLINE
  5
BB
330
1F
100
AcDbEntity
  8
0
  6
Continuous
 62
     1
370
    15
100
AcDbSpline
210
0.0
220
0.0
230
1.0
 70
    24
 71
     3
 72
    10
 73
     6
 74
     0
 42
0.000000001
 43
0.00000001
 40
0.0
 40
0.0
 40
0.0
 40
0.0
 40
0.4999999999999999
 40
0.4999999999999999
 40
1.0
 40
1.0
 40
1.0
 40
1.0
 10
51.99999999999999
 20
2.269675982330462
 30
0.0
 10
51.99999999999999
 20
2.716702351941899
 30
0.0
 10
52.00000000000001
 20
3.143168731149022
 30
0.0
 10
51.99999999999999
 20
3.928424395620576
 30
0.0
 10
51.99999999999999
 20
4.287058423038028
 30
0.0
 10
52.0
 20
4.600248776142759
 30
0.0
  0
SPLINE
  5
BC
330
1F
100
AcDbEntity
  8
0
  6
Continuous
 62
     1
370
    15
100
AcDbSpline
210
0.0
220
0.0
230
1.0
 70
     8
 71
     3
 72
     9
 73
     5
 74
     0
 42
0.000000001
 43
0.00000001
 40
0.0
 40
0.0
 40
0.0
 40
0.0
 40
0.8972079707053926
 40
1.0
 40
1.0
 40
1.0
 40
1.0
 10
56.99999999999999
 20
6.300000000000009
 30
0.0
 10
55.99913019950811
 20
6.295361490445728
 30
0.0
 10
54.88359195957809
 20
6.290191552476236
 30
0.0
 10
53.76804739296534
 20
6.157543911528124
 30
0.0
 10
53.65337830319464
 20
6.143908791333923
 30
0.0
  0
SPLINE
  5
BD
330
1F
100
AcDbEntity
  8
0
  6
Continuous
 62
     1
370
    15
100
AcDbSpline
210
0.0
220
0.0
230
1.0
 70
     8
 71
     3
 72
    10
 73
     6
 74
     0
 42
0.000000001
 43
0.00000001
 40
0.0
 40
0.0
 40
0.0
 40
0.0
 40
0.5
 40
0.5
 40
1.0
 40
1.0
 40
1.0
 40
1.0
 10
56.99999999999999
 20
6.300000000000009
 30
0.0
 10
56.15631326354517
 20
6.071240674213191
 30
0.0
 10
55.31722513627346
 20
5.816690976438029
 30
0.0
 10
53.6488895869057
 20
5.252507842484858
 30
0.0
 10
52.82062103064067
 20
4.943697147379766
 30
0.0
 10
52.00000000000001
 20
4.600248776142759
 30
0.0
  0
SPLINE
  5
BE
330
1F
100
AcDbEntity
  8
0
  6
Continuous
 62
     1
370
    15
100
AcDbSpline
210
0.0
220
0.0
230
1.0
 70
     8
 71
     3
 72
    10
 73
     6
 74
     0
 42
0.000000001
 43
0.00000001
 40
0.0
 40
0.0
 40
0.0
 40
0.0
 40
0.1338225844943101
 40
0.5670951614369181
 40
0.9999999999999999
 40
0.9999999999999999
 40
0.9999999999999999
 40
0.9999999999999999
 10
17.1750765490933
 20
-7.472518347640881
 30
0.0
 10
16.94423540508151
 20
-7.500213130864029
 30
0.0
 10
15.96600817741043
 20
-7.6175743193528
 30
0.0
 10
14.24071670996334
 20
-7.676006851085431
 30
0.0
 10
12.74669413930806
 20
-7.617991523645885
 30
0.0
 10
11.99999999999998
 20
-7.588996175222098
 30
0.0
  0
SPLINE
  5
BF
330
1F
100
AcDbEntity
  8
0
  6
Continuous
 62
     1
370
    15
100
AcDbSpline
210
0.0
220
0.0
230
1.0
 70
     8
 71
     3
 72
    16
 73
    12
 74
     0
 42
0.000000001
 43
0.00000001
 40
0.0
 40
0.0
 40
0.0
 40
0.0
 40
0.0757512981501146
 40
0.1915056387280302
 40
0.3072614347247882
 40
0.4230183008714183
 40
0.5387758515769375
 40
0.6545337010443228
 40
0.7696895420636378
 40
0.884845060457392
 40
0.9999999999999999
 40
0.9999999999999999
 40
0.9999999999999999
 40
0.9999999999999999
 10
37.94488697614234
 20
-6.738939234931938
 30
0.0
 10
37.28976967638832
 20
-6.843129300175213
 30
0.0
 10
35.63357816555035
 20
-7.106530528679416
 30
0.0
 10
32.9762922978385
 20
-7.235238333178092
 30
0.0
 10
29.97302285275654
 20
-7.15030166854297
 30
0.0
 10
26.96972126822859
 20
-6.790831334995905
 30
0.0
 10
23.96640116619488
 20
-6.182683804148943
 30
0.0
 10
20.96827219928188
 20
-5.34685378670734
 30
0.0
 10
17.97537119088665
 20
-4.314799120928477
 30
0.0
 10
14.98767961537594
 20
-3.131265034975534
 30
0.0
 10
12.99589153643742
 20
-2.253934227499057
 30
0.0
 10
11.99999999999998
 20
-1.815269926281189
 30
0.0
  0
SPLINE
  5
C0
330
1F
100
AcDbEntity
  8
0
  6
Continuous
 62
     4
370
    15
100
AcDbSpline
210
0.0
220
0.0
230
1.0
 70
    24
 71
     3
 72
    14
 73
    10
 74
     0
 42
0.000000001
 43
0.00000001
 40
0.0
 40
0.0
 40
0.0
 40
0.0
 40
0.25
 40
0.25
 40
0.5
 40
0.5
 40
0.75
 40
0.75
 40
1.0
 40
1.0
 40
1.0
 40
1.0
 10
11.99999999999999
 20
-1.815269926281194
 30
0.0
 10
11.99999999999999
 20
-2.462216915547422
 30
0.0
 10
11.99999999999999
 20
-3.097785421685613
 30
0.0
 10
11.99999999999999
 20
-4.296693483649073
 30
0.0
 10
11.99999999999999
 20
-4.859631915205359
 30
0.0
 10
11.99999999999999
 20
-5.868733628603359
 30
0.0
 10
11.99999999999999
 20
-6.314605512502635
 30
0.0
 10
11.99999999999999
 20
-7.061731333505794
 30
0.0
 10
11.99999999999999
 20
-7.362939898553857
 30
0.0
 10
11.99999999999999
 20
-7.588996175222096
 30
0.0
1001
PE_URL
1000

  0
SPLINE
  5
C1
330
1F
100
AcDbEntity
  8
0
  6
Continuous
 62
     4
370
    15
100
AcDbSpline
210
0.0
220
0.0
230
1.0
 70
    24
 71
     3
 72
    14
 73
    10
 74
     0
 42
0.000000001
 43
0.00000001
 40
0.0
 40
0.0
 40
0.0
 40
0.0
 40
0.2499999999999998
 40
0.2499999999999998
 40
0.4999999999999999
 40
0.4999999999999999
 40
0.75
 40
0.75
 40
1.0
 40
1.0
 40
1.0
 40
1.0
 10
11.99999999999999
 20
6.096483309614618
 30
0.0
 10
11.99999999999999
 20
5.735835348724969
 30
0.0
 10
11.99999999999999
 20
5.27645174612899
 30
0.0
 10
11.99999999999999
 20
4.176733161522526
 30
0.0
 10
11.99999999999999
 20
3.536580925406659
 30
0.0
 10
11.99999999999999
 20
2.130434270759456
 30
0.0
 10
11.99999999999999
 20
1.365189105954207
 30
0.0
 10
11.99999999999999
 20
-0.211173955292397
 30
0.0
 10
11.99999999999999
 20
-1.021439632953153
 30
0.0
 10
11.99999999999999
 20
-1.815269926281193
 30
0.0
  0
LINE
  5
C2
330
1F
100
AcDbEntity
  8
0
  6
Continuous
 62
     1
370
    15
100
AcDbLine
 10
56.99999999999999
 20
0.0000000000000096
 30
0.0
 11
56.99999999999999
 21
6.300000000000009
 31
0.0
  0
SPLINE
  5
C3
330
1F
100
AcDbEntity
  8
0
  6
Continuous
 62
     1
370
    15
100
AcDbSpline
210
0.0
220
0.0
230
1.0
 70
     8
 71
     3
 72
    12
 73
     8
 74
     0
 42
0.000000001
 43
0.00000001
 40
0.0
 40
0.0
 40
0.0
 40
0.0
 40
0.1283650914067801
 40
0.3462910965703694
 40
0.5642636360052595
 40
0.7821599520304895
 40
1.0
 40
1.0
 40
1.0
 40
1.0
 10
23.35986494765415
 20
-7.07378085605475
 30
0.0
 10
22.87381917518841
 20
-7.248929063357893
 30
0.0
 10
21.56261126277257
 20
-7.721427186520812
 30
0.0
 10
19.42590131868401
 20
-8.283651520970166
 30
0.0
 10
16.94999533476348
 20
-8.752189137613616
 30
0.0
 10
14.47468469100763
 20
-9.008879269117847
 30
0.0
 10
12.82482387970048
 20
-8.989870425735287
 30
0.0
 10
11.99999999999669
 20
-8.980367231380933
 30
0.0
  0
SPLINE
  5
C4
330
1F
100
AcDbEntity
  8
0
  6
Continuous
 62
     4
370
    15
100
AcDbSpline
210
0.0
220
0.0
230
1.0
 70
    24
 71
     3
 72
     8
 73
     4
 74
     0
 42
0.000000001
 43
0.00000001
 40
0.0
 40
0.0
 40
0.0
 40
0.0
 40
1.0
 40
1.0
 40
1.0
 40
1.0
 10
12.00000000000001
 20
-7.5889961752221
 30
0.0
 10
12.00000000000001
 20
-8.060122244612739
 30
0.0
 10
12.00000000000001
 20
-8.526925942436888
 30
0.0
 10
12.00000000000001
 20
-8.980367231370888
 30
0.0
1001
PE_URL
1000

  0
SPLINE
  5
C5
330
1F
100
AcDbEntity
  8
0
  6
Continuous
 62
     1
370
    15
100
AcDbSpline
210
0.0
220
0.0
230
1.0
 70
     8
 71
     3
 72
    14
 73
    10
 74
     0
 42
0.000000001
 43
0.00000001
 40
0.0
 40
0.0
 40
0.0
 40
0.0
 40
0.0280179241498442
 40
0.2376671258874471
 40
0.3429691606015283
 40
0.5055009140286078
 40
0.6687125068565019
 40
0.8339990531119448
 40
1.0
 40
1.0
 40
1.0
 40
1.0
 10
44.61695557679548
 20
6.033134232715988
 30
0.0
 10
44.73261898763921
 20
6.083720159610475
 30
0.0
 10
45.71375485903884
 20
6.512824464093066
 30
0.0
 10
47.13006937306805
 20
7.04715472084517
 30
0.0
 10
49.09962810665193
 20
7.698193498449035
 30
0.0
 10
50.87980262872913
 20
8.189344440420822
 30
0.0
 10
52.90628718849686
 20
8.61065102182699
 30
0.0
 10
54.94705606128993
 20
8.898622938376684
 30
0.0
 10
56.31470227276454
 20
8.961091634232831
 30
0.0
 10
56.9999999999996
 20
8.99239333706678
 30
0.0
  0
SPLINE
  5
C6
330
1F
100
AcDbEntity
  8
0
  6
Continuous
 62
     1
370
    15
100
AcDbSpline
210
0.0
220
0.0
230
1.0
 70
    24
 71
     3
 72
    10
 73
     6
 74
     0
 42
0.000000001
 43
0.00000001
 40
0.0
 40
0.0
 40
0.0
 40
0.0
 40
0.5000000000000004
 40
0.5000000000000004
 40
1.0
 40
1.0
 40
1.0
 40
1.0
 10
56.99999999999999
 20
6.300000000000009
 30
0.0
 10
57.00000000000002
 20
6.681890311265834
 30
0.0
 10
56.99999999999999
 20
7.12568221980406
 30
0.0
 10
56.99999999999999
 20
8.056756448647704
 30
0.0
 10
56.99999999999999
 20
8.541660922213257
 30
0.0
 10
56.99999999999999
 20
8.992393337066801
 30
0.0
  0
LINE
  5
C7
330
1F
100
AcDbEntity
  8
중심선
100
AcDbLine
 10
-45.99999999999999
 20
0.0000000000000001
 30
0.0
 11
63.99999999999999
 21
0.0000000000000098
 31
0.0
  0
CIRCLE
  5
C8
330
1F
100
AcDbEntity
  8
외형선
100
AcDbCircle
 10
0.0
 20
0.0
 30
0.0
 40
3.000000000000004
  0
INSERT
  5
C9
330
1F
100
AcDbEntity
  8
0
  6
Continuous
 62
     7
100
AcDbBlockReference
 66
     1
  2
블럭10
 10
-21.93827343951162
 20
-52.04717430164393
 30
0.0
  0
ATTRIB
  5
CA
330
C9
100
AcDbEntity
  8
FORMAT
 62
     2
100
AcDbText
 10
-39.5235218930688
 20
-49.97180738881173
 30
0.0
 40
4.233333333333333
  1
SEME3518018SE [ 2 FLUTE ]
 41
0.75
  7
SLDTEXTSTYLE0
 11
-39.5235218930688
 21
-52.0884740554784
 31
0.0
100
AcDbAttribute
  2
AUTOATTR0
 70
     0
 74
     1
  0
SEQEND
  5
CB
330
C9
100
AcDbEntity
  8
0
  6
Continuous
 62
     7
  0
HATCH
  5
CC
330
1F
100
AcDbEntity
  8
중심선
100
AcDbHatch
 10
0.0
 20
0.0
 30
0.0
210
0.0
220
0.0
230
1.0
  2
SOLID
 70
     1
 71
     0
 91
        1
 92
        0
 93
        4
 72
     1
 10
-16.22336413513076
 20
-35.8
 11
-19.66963937896805
 21
-35.8
 72
     1
 10
-19.66963937896805
 20
-35.8
 11
-21.79786923817207
 21
-38.33632558057259
 72
     1
 10
-21.79786923817207
 20
-38.33632558057259
 11
-18.35156090922164
 21
-38.3362861512701
 72
     1
 10
-18.35156090922164
 20
-38.3362861512701
 11
-16.22336413513076
 21
-35.8
 97
        0
 75
     0
 76
     1
 98
        1
 10
1.999999999999998
 20
0.0000000000000036
  0
HATCH
  5
CD
330
1F
100
AcDbEntity
  8
중심선
100
AcDbHatch
 10
0.0
 20
0.0
 30
0.0
210
0.0
220
0.0
230
1.0
  2
SOLID
 70
     1
 71
     0
 91
        1
 92
        0
 93
        4
 72
     1
 10
-11.21060014409481
 20
-35.8
 11
-14.65687538793209
 21
-35.8
 72
     1
 10
-14.65687538793209
 20
-35.8
 11
-19.18801339628948
 21
-41.20000000000002
 72
     1
 10
-19.18801339628948
 20
-41.20000000000002
 11
-15.7417381524522
 21
-41.20000000000002
 72
     1
 10
-15.7417381524522
 20
-41.20000000000002
 11
-11.21060014409481
 21
-35.8
 97
        0
 75
     0
 76
     1
 98
        1
 10
1.999999999999998
 20
0.0000000000000036
  0
HATCH
  5
CE
330
1F
100
AcDbEntity
  8
중심선
100
AcDbHatch
 10
0.0
 20
0.0
 30
0.0
210
0.0
220
0.0
230
1.0
  2
SOLID
 70
     1
 71
     0
 91
        1
 92
        0
 93
        4
 72
     1
 10
-6.197836153058915
 20
-35.80000000000003
 11
-9.644111396896033
 21
-35.8
 72
     1
 10
-9.644111396896031
 20
-35.8
 11
-16.69254829878528
 21
-44.20000000000002
 72
     1
 10
-16.69254829878528
 20
-44.20000000000002
 11
-13.246273054948
 21
-44.20000000000002
 72
     1
 10
-13.246273054948
 20
-44.20000000000002
 11
-6.197836153058914
 21
-35.80000000000003
 97
        0
 75
     0
 76
     1
 98
        1
 10
1.999999999999998
 20
0.0000000000000036
  0
HATCH
  5
CF
330
1F
100
AcDbEntity
  8
중심선
100
AcDbHatch
 10
0.0
 20
0.0
 30
0.0
210
0.0
220
0.0
230
1.0
  2
SOLID
 70
     1
 71
     0
 91
        1
 92
        0
 93
        6
 72
     3
 10
-1.397945722046716
 20
-40.00000000005127
 11
3.960054785062283
 21
1.540882976769353E-10
 40
0.3939339440162628
 50
17.09539180608437
 51
320.0019657685078
 73
     0
 72
     1
 10
0.2850539336538795
 20
-38.5878940046383
 11
2.590355807354917
 21
-36.65356729459038
 72
     3
 10
-1.397945722099563
 20
-40.00000000000014
 11
6.600054785286829
 21
-1.278976924368180E-13
 40
0.636358354079598
 50
39.99873849337404
 51
368.4976242363725
 73
     1
 72
     1
 10
5.027386769801047
 20
-39.03999999993002
 11
-2.71787841526364
 21
-39.03999999992999
 72
     1
 10
-2.71787841526364
 20
-39.03999999992999
 11
-2.717903459709574
 21
-40.95999999992991
 72
     1
 10
-2.717903459709574
 20
-40.95999999992991
 11
1.723476309762463
 21
-40.95999999992988
 97
        0
 75
     0
 76
     1
 98
        1
 10
1.999999999999998
 20
0.0000000000000036
  0
DIMENSION
  5
D0
330
1F
100
AcDbEntity
  8
치수문자_일반주서
100
AcDbDimension
  2
_D
 10
11.99999999999998
 20
21.24302722564458
 30
0.0
 11
34.49999999999999
 21
21.24302722564458
 31
0.0
 70
   160
  1
<>
 71
     2
 42
45.0
  3
SLDDIMSTYLE0
100
AcDbAlignedDimension
 13
56.99999999999999
 23
8.992393337066801
 33
0.0
 14
11.99999999999999
 24
9.000000000000004
 34
0.0
 50
0.000000000000009
100
AcDbRotatedDimension
  0
DIMENSION
  5
DB
330
1F
100
AcDbEntity
  8
치수문자_일반주서
100
AcDbDimension
  2
_D_1
 10
-43.00000000000001
 20
29.08415911661227
 30
0.0
 11
7.0
 21
29.08415911661227
 31
0.0
 70
   160
  1
<>
 71
     2
 42
100.0006375091692
  3
SLDDIMSTYLE0
100
AcDbAlignedDimension
 13
57.00063750916922
 23
9.01195938999479
 33
0.0
 14
-43.00000000000001
 24
7.999999999999993
 34
0.0
 50
0.0000000000000041
100
AcDbRotatedDimension
  0
DIMENSION
  5
E5
330
1F
100
AcDbEntity
  8
치수문자_일반주서
100
AcDbDimension
  2
_D_2
 10
72.56619031224629
 20
-8.992393337066732
 30
0.0
 11
72.56619031224626
 21
0.0000000000000048
 31
0.0
 70
   160
  1
%%c<>
 71
     2
 42
18.00435272706158
 52
-270.0
  3
SLDDIMSTYLE1
100
AcDbAlignedDimension
 13
57.00063750916922
 23
9.01195938999479
 33
0.0
 14
56.99999999999999
 24
-8.992393337066789
 34
0.0
 50
90.0000000000002
100
AcDbRotatedDimension
  0
DIMENSION
  5
F3
330
1F
100
AcDbEntity
  8
치수문자_일반주서
100
AcDbDimension
  2
_D_3
 10
-54.41955944538851
 20
-9.000000000000046
 30
0.0
 11
-54.41955944538855
 21
0.0000000000000024
 31
0.0
 70
   160
  1
%%c<>
 71
     2
 42
18.0
 52
-270.0
  3
SLDDIMSTYLE1
100
AcDbAlignedDimension
 13
-42.00000000000001
 23
9.0
 33
0.0
 14
-42.00000000000001
 24
-9.0
 34
0.0
 50
90.0000000000002
100
AcDbRotatedDimension
  0
INSERT
  5
106
330
1F
100
AcDbEntity
  8
외형선
100
AcDbBlockReference
  2
SW_DOWELSYMBOL_0
 10
0.0
 20
0.0
 30
0.0
  0
LINE
  5
12F
330
1F
100
AcDbEntity
  8
0
100
AcDbLine
 10
11.99999999999999
 20
-9.000000000000002
 30
0.0
 11
11.99999999999998
 21
-13.21348621668902
 31
0.0
  0
ENDSEC
  0
SECTION
  2
OBJECTS
  0
DICTIONARY
  5
C
330
0
100
AcDbDictionary
281
     1
  3
ACAD_GROUP
350
D
  3
ACAD_LAYOUT
350
1A
  3
ACAD_MLINESTYLE
350
17
  3
ACAD_PLOTSETTINGS
350
19
  3
ACAD_PLOTSTYLENAME
350
E
  3
ACAD_SCALELIST
350
47
  3
APPDATA
350
128
  3
DWGPROPS
350
134
  0
DICTIONARY
  5
D
102
{ACAD_REACTORS
330
C
102
}
330
C
100
AcDbDictionary
281
     1
  0
DICTIONARY
  5
1A
102
{ACAD_REACTORS
330
C
102
}
330
C
100
AcDbDictionary
281
     1
  3
Layout1
350
1E
  3
Layout2
350
26
  3
Model
350
22
  0
DICTIONARY
  5
17
102
{ACAD_REACTORS
330
C
102
}
330
C
100
AcDbDictionary
281
     1
  3
Standard
350
18
  0
DICTIONARY
  5
19
102
{ACAD_REACTORS
330
C
102
}
330
C
100
AcDbDictionary
281
     1
  0
ACDBDICTIONARYWDFLT
  5
E
102
{ACAD_REACTORS
330
C
102
}
330
C
100
AcDbDictionary
281
     1
  3
Normal
350
F
100
AcDbDictionaryWithDefault
340
F
  0
DICTIONARY
  5
47
102
{ACAD_REACTORS
330
C
102
}
330
C
100
AcDbDictionary
281
     1
  3
A0
350
48
  3
A1
350
49
  3
A2
350
4A
  3
A3
350
4B
  3
A4
350
4C
  3
A5
350
4D
  3
A6
350
4E
  3
A7
350
4F
  3
A8
350
50
  3
A9
350
51
  3
B0
350
52
  3
B1
350
53
  3
B2
350
54
  3
B3
350
55
  3
B4
350
56
  3
B5
350
57
  3
B6
350
58
  3
B7
350
59
  3
B8
350
5A
  3
B9
350
5B
  3
C0
350
5C
  3
C1
350
5D
  3
C2
350
5E
  3
C3
350
5F
  3
C4
350
60
  3
C5
350
61
  3
C6
350
62
  3
C7
350
63
  3
C8
350
64
  3
C9
350
65
  3
D0
350
66
  3
D1
350
67
  3
D2
350
68
  0
DICTIONARY
  5
128
102
{ACAD_REACTORS
330
C
102
}
330
C
100
AcDbDictionary
281
     1
  0
XRECORD
  5
134
102
{ACAD_REACTORS
330
C
102
}
330
C
100
AcDbXrecord
280
     1
  1
DWGPROPS COOKIE
  2

  3

  4

  6

  7

  8
12011908
  9

300
=
301
=
302
=
303
=
304
=
305
=
306
=
307
=
308
=
309
=
 40
0.0
 41
2458250.135958611
 42
2458264.235566262
  1

 90
        0
  0
LAYOUT
  5
1E
102
{ACAD_REACTORS
330
1A
102
}
330
1A
100
AcDbPlotSettings
  1

  2
none_device
  4

  6

 40
0.0
 41
0.0
 42
0.0
 43
0.0
 44
0.0
 45
0.0
 46
0.0
 47
0.0
 48
0.0
 49
0.0
140
0.0
141
0.0
142
1.0
143
1.0
 70
   688
 72
     1
 73
     0
 74
     5
  7

 75
    16
147
1.0
148
0.0
149
0.0
100
AcDbLayout
  1
Layout1
 70
     1
 71
     1
 10
0.0
 20
0.0
 11
420.0
 21
297.0
 12
0.0
 22
0.0
 32
0.0
 14
1.000000000000000E+20
 24
1.000000000000000E+20
 34
1.000000000000000E+20
 15
-1.000000000000000E+20
 25
-1.000000000000000E+20
 35
-1.000000000000000E+20
146
0.0
 13
0.0
 23
0.0
 33
0.0
 16
1.0
 26
0.0
 36
0.0
 17
0.0
 27
1.0
 37
0.0
 76
     0
330
1B
  0
LAYOUT
  5
26
102
{ACAD_REACTORS
330
1A
102
}
330
1A
100
AcDbPlotSettings
  1

  2
none_device
  4

  6

 40
0.0
 41
0.0
 42
0.0
 43
0.0
 44
0.0
 45
0.0
 46
0.0
 47
0.0
 48
0.0
 49
0.0
140
0.0
141
0.0
142
1.0
143
1.0
 70
   688
 72
     1
 73
     0
 74
     5
  7

 75
    16
147
1.0
148
0.0
149
0.0
100
AcDbLayout
  1
Layout2
 70
     1
 71
     2
 10
0.0
 20
0.0
 11
0.0
 21
0.0
 12
0.0
 22
0.0
 32
0.0
 14
0.0
 24
0.0
 34
0.0
 15
0.0
 25
0.0
 35
0.0
146
0.0
 13
0.0
 23
0.0
 33
0.0
 16
1.0
 26
0.0
 36
0.0
 17
0.0
 27
1.0
 37
0.0
 76
     0
330
23
  0
LAYOUT
  5
22
102
{ACAD_REACTORS
330
1A
102
}
330
1A
100
AcDbPlotSettings
  1

  2
none_device
  4
ANSI_A_(11.00_x_8.50_Inches)
  6

 40
6.35
 41
19.05
 42
6.35000508
 43
19.05000254
 44
279.4
 45
215.9
 46
122.3093956985059
 47
106.7627918729638
 48
0.0
 49
0.0
140
0.0
141
0.0
142
0.0821570819270315
143
1.0
 70
  1696
 72
     0
 73
     0
 74
     0
  7

 75
     0
147
0.0235690232323232
148
0.0
149
0.0
100
AcDbLayout
  1
Model
 70
     1
 71
     0
 10
0.0
 20
0.0
 11
420.0
 21
297.0
 12
0.0
 22
0.0
 32
0.0
 14
-58.79455944538856
 24
-49.97180738881173
 34
0.0
 15
73.1165236455796
 25
33.45915911661227
 35
0.0
146
0.0
 13
0.0
 23
0.0
 33
0.0
 16
1.0
 26
0.0
 36
0.0
 17
0.0
 27
1.0
 37
0.0
 76
     0
330
1F
331
29
  0
MLINESTYLE
  5
18
102
{ACAD_REACTORS
330
17
102
}
330
17
100
AcDbMlineStyle
  2
Standard
 70
     0
  3

 62
   256
 51
90.0
 52
90.0
 71
     2
 49
0.5
 62
   256
  6
BYLAYER
 49
-0.5
 62
   256
  6
BYLAYER
  0
ACDBPLACEHOLDER
  5
F
102
{ACAD_REACTORS
330
E
102
}
330
E
  0
SCALE
  5
48
102
{ACAD_REACTORS
330
47
102
}
330
47
100
AcDbScale
 70
     0
300
1:1
140
1.0
141
1.0
290
     1
  0
SCALE
  5
49
102
{ACAD_REACTORS
330
47
102
}
330
47
100
AcDbScale
 70
     0
300
1:2
140
1.0
141
2.0
290
     0
  0
SCALE
  5
4A
102
{ACAD_REACTORS
330
47
102
}
330
47
100
AcDbScale
 70
     0
300
1:4
140
1.0
141
4.0
290
     0
  0
SCALE
  5
4B
102
{ACAD_REACTORS
330
47
102
}
330
47
100
AcDbScale
 70
     0
300
1:5
140
1.0
141
5.0
290
     0
  0
SCALE
  5
4C
102
{ACAD_REACTORS
330
47
102
}
330
47
100
AcDbScale
 70
     0
300
1:8
140
1.0
141
8.0
290
     0
  0
SCALE
  5
4D
102
{ACAD_REACTORS
330
47
102
}
330
47
100
AcDbScale
 70
     0
300
1:10
140
1.0
141
10.0
290
     0
  0
SCALE
  5
4E
102
{ACAD_REACTORS
330
47
102
}
330
47
100
AcDbScale
 70
     0
300
1:16
140
1.0
141
16.0
290
     0
  0
SCALE
  5
4F
102
{ACAD_REACTORS
330
47
102
}
330
47
100
AcDbScale
 70
     0
300
1:20
140
1.0
141
20.0
290
     0
  0
SCALE
  5
50
102
{ACAD_REACTORS
330
47
102
}
330
47
100
AcDbScale
 70
     0
300
1:30
140
1.0
141
30.0
290
     0
  0
SCALE
  5
51
102
{ACAD_REACTORS
330
47
102
}
330
47
100
AcDbScale
 70
     0
300
1:40
140
1.0
141
40.0
290
     0
  0
SCALE
  5
52
102
{ACAD_REACTORS
330
47
102
}
330
47
100
AcDbScale
 70
     0
300
1:50
140
1.0
141
50.0
290
     0
  0
SCALE
  5
53
102
{ACAD_REACTORS
330
47
102
}
330
47
100
AcDbScale
 70
     0
300
1:100
140
1.0
141
100.0
290
     0
  0
SCALE
  5
54
102
{ACAD_REACTORS
330
47
102
}
330
47
100
AcDbScale
 70
     0
300
2:1
140
2.0
141
1.0
290
     0
  0
SCALE
  5
55
102
{ACAD_REACTORS
330
47
102
}
330
47
100
AcDbScale
 70
     0
300
4:1
140
4.0
141
1.0
290
     0
  0
SCALE
  5
56
102
{ACAD_REACTORS
330
47
102
}
330
47
100
AcDbScale
 70
     0
300
8:1
140
8.0
141
1.0
290
     0
  0
SCALE
  5
57
102
{ACAD_REACTORS
330
47
102
}
330
47
100
AcDbScale
 70
     0
300
10:1
140
10.0
141
1.0
290
     0
  0
SCALE
  5
58
102
{ACAD_REACTORS
330
47
102
}
330
47
100
AcDbScale
 70
     0
300
100:1
140
100.0
141
1.0
290
     0
  0
SCALE
  5
59
102
{ACAD_REACTORS
330
47
102
}
330
47
100
AcDbScale
 70
     0
300
1/128" = 1'-0"
140
0.0078125
141
12.0
290
     0
  0
SCALE
  5
5A
102
{ACAD_REACTORS
330
47
102
}
330
47
100
AcDbScale
 70
     0
300
1/64" = 1'-0"
140
0.015625
141
12.0
290
     0
  0
SCALE
  5
5B
102
{ACAD_REACTORS
330
47
102
}
330
47
100
AcDbScale
 70
     0
300
1/32" = 1'-0"
140
0.03125
141
12.0
290
     0
  0
SCALE
  5
5C
102
{ACAD_REACTORS
330
47
102
}
330
47
100
AcDbScale
 70
     0
300
1/16" = 1'-0"
140
0.0625
141
12.0
290
     0
  0
SCALE
  5
5D
102
{ACAD_REACTORS
330
47
102
}
330
47
100
AcDbScale
 70
     0
300
3/32" = 1'-0"
140
0.09375
141
12.0
290
     0
  0
SCALE
  5
5E
102
{ACAD_REACTORS
330
47
102
}
330
47
100
AcDbScale
 70
     0
300
1/8" = 1'-0"
140
0.125
141
12.0
290
     0
  0
SCALE
  5
5F
102
{ACAD_REACTORS
330
47
102
}
330
47
100
AcDbScale
 70
     0
300
3/16" = 1'-0"
140
0.1875
141
12.0
290
     0
  0
SCALE
  5
60
102
{ACAD_REACTORS
330
47
102
}
330
47
100
AcDbScale
 70
     0
300
1/4" = 1'-0"
140
0.25
141
12.0
290
     0
  0
SCALE
  5
61
102
{ACAD_REACTORS
330
47
102
}
330
47
100
AcDbScale
 70
     0
300
3/8" = 1'-0"
140
0.375
141
12.0
290
     0
  0
SCALE
  5
62
102
{ACAD_REACTORS
330
47
102
}
330
47
100
AcDbScale
 70
     0
300
1/2" = 1'-0"
140
0.5
141
12.0
290
     0
  0
SCALE
  5
63
102
{ACAD_REACTORS
330
47
102
}
330
47
100
AcDbScale
 70
     0
300
3/4" = 1'-0"
140
0.75
141
12.0
290
     0
  0
SCALE
  5
64
102
{ACAD_REACTORS
330
47
102
}
330
47
100
AcDbScale
 70
     0
300
1" = 1'-0"
140
1.0
141
12.0
290
     0
  0
SCALE
  5
65
102
{ACAD_REACTORS
330
47
102
}
330
47
100
AcDbScale
 70
     0
300
1-1/2" = 1'-0"
140
1.5
141
12.0
290
     0
  0
SCALE
  5
66
102
{ACAD_REACTORS
330
47
102
}
330
47
100
AcDbScale
 70
     0
300
3" = 1'-0"
140
3.0
141
12.0
290
     0
  0
SCALE
  5
67
102
{ACAD_REACTORS
330
47
102
}
330
47
100
AcDbScale
 70
     0
300
6" = 1'-0"
140
6.0
141
12.0
290
     0
  0
SCALE
  5
68
102
{ACAD_REACTORS
330
47
102
}
330
47
100
AcDbScale
 70
     0
300
1'-0" = 1'-0"
140
12.0
141
12.0
290
     0
  0
ENDSEC
  0
EOF
