  0
SECTION
  2
HEADER
  9
$ACADVER
  1
AC1015
  9
$ACADMAINTVER
 70
     6
  9
$DWGCODEPAGE
  3
ANSI_949
  9
$INSBASE
 10
0.0
 20
0.0
 30
0.0
  9
$EXTMIN
 10
-65.74343688800961
 20
-49.97180738881174
 30
0.0
  9
$EXTMAX
 10
66.16764620295858
 20
33.80915911661226
 30
0.0
  9
$LIMMIN
 10
0.0
 20
0.0
  9
$LIMMAX
 10
420.0
 20
297.0
  9
$ORTHOMODE
 70
     1
  9
$REGENMODE
 70
     1
  9
$FILLMODE
 70
     1
  9
$QTEXTMODE
 70
     0
  9
$MIRRTEXT
 70
     1
  9
$LTSCALE
 40
1.0
  9
$ATTMODE
 70
     1
  9
$TEXTSIZE
 40
3.5
  9
$TRACEWID
 40
1.0
  9
$TEXTSTYLE
  7
Standard
  9
$CLAYER
  8
0
  9
$CELTYPE
  6
ByLayer
  9
$CECOLOR
 62
   256
  9
$CELTSCALE
 40
1.0
  9
$DISPSILH
 70
     0
  9
$DIMSCALE
 40
1.0
  9
$DIMASZ
 40
3.302
  9
$DIMEXO
 40
1.0
  9
$DIMDLI
 40
3.75
  9
$DIMRND
 40
0.0
  9
$DIMDLE
 40
0.0
  9
$DIMEXE
 40
1.0
  9
$DIMTP
 40
0.0
  9
$DIMTM
 40
0.0
  9
$DIMTXT
 40
3.5
  9
$DIMCEN
 40
2.5
  9
$DIMTSZ
 40
0.0
  9
$DIMTOL
 70
     0
  9
$DIMLIM
 70
     0
  9
$DIMTIH
 70
     1
  9
$DIMTOH
 70
     1
  9
$DIMSE1
 70
     0
  9
$DIMSE2
 70
     0
  9
$DIMTAD
 70
     1
  9
$DIMZIN
 70
     0
  9
$DIMBLK
  1

  9
$DIMASO
 70
     1
  9
$DIMSHO
 70
     1
  9
$DIMPOST
  1

  9
$DIMAPOST
  1

  9
$DIMALT
 70
     0
  9
$DIMALTD
 70
     3
  9
$DIMALTF
 40
0.0393700787401575
  9
$DIMLFAC
 40
1.0
  9
$DIMTOFL
 70
     1
  9
$DIMTVP
 40
0.0
  9
$DIMTIX
 70
     0
  9
$DIMSOXD
 70
     0
  9
$DIMSAH
 70
     0
  9
$DIMBLK1
  1

  9
$DIMBLK2
  1

  9
$DIMSTYLE
  2
ISO-25
  9
$DIMCLRD
 70
     0
  9
$DIMCLRE
 70
     0
  9
$DIMCLRT
 70
     0
  9
$DIMTFAC
 40
1.0
  9
$DIMGAP
 40
1.524
  9
$DIMJUST
 70
     0
  9
$DIMSD1
 70
     0
  9
$DIMSD2
 70
     0
  9
$DIMTOLJ
 70
     0
  9
$DIMTZIN
 70
     0
  9
$DIMALTZ
 70
     0
  9
$DIMALTTZ
 70
     0
  9
$DIMUPT
 70
     0
  9
$DIMDEC
 70
     2
  9
$DIMTDEC
 70
     2
  9
$DIMALTU
 70
     2
  9
$DIMALTTD
 70
     3
  9
$DIMTXSTY
  7
Standard
  9
$DIMAUNIT
 70
     0
  9
$DIMADEC
 70
     2
  9
$DIMALTRND
 40
0.0
  9
$DIMAZIN
 70
     0
  9
$DIMDSEP
 70
    44
  9
$DIMATFIT
 70
     3
  9
$DIMFRAC
 70
     0
  9
$DIMLDRBLK
  1

  9
$DIMLUNIT
 70
     2
  9
$DIMLWD
 70
    -2
  9
$DIMLWE
 70
    -2
  9
$DIMTMOVE
 70
     0
  9
$LUNITS
 70
     2
  9
$LUPREC
 70
     2
  9
$SKETCHINC
 40
1.0
  9
$FILLETRAD
 40
10.0
  9
$AUNITS
 70
     0
  9
$AUPREC
 70
     2
  9
$MENU
  1
.
  9
$ELEVATION
 40
0.0
  9
$PELEVATION
 40
0.0
  9
$THICKNESS
 40
0.0
  9
$LIMCHECK
 70
     0
  9
$CHAMFERA
 40
0.0
  9
$CHAMFERB
 40
0.0
  9
$CHAMFERC
 40
0.0
  9
$CHAMFERD
 40
0.0
  9
$SKPOLY
 70
     0
  9
$TDCREATE
 40
2458250.511371829
  9
$TDUCREATE
 40
2458250.136371829
  9
$TDUPDATE
 40
2459699.694977812
  9
$TDUUPDATE
 40
2459699.319977812
  9
$TDINDWG
 40
0.0039116088
  9
$TDUSRTIMER
 40
0.0019438657
  9
$USRTIMER
 70
     1
  9
$ANGBASE
 50
0.0
  9
$ANGDIR
 70
     0
  9
$PDMODE
 70
     0
  9
$PDSIZE
 40
-1.0
  9
$PLINEWID
 40
0.0
  9
$SPLFRAME
 70
     0
  9
$SPLINETYPE
 70
     6
  9
$SPLINESEGS
 70
     8
  9
$HANDSEED
  5
167
  9
$SURFTAB1
 70
     6
  9
$SURFTAB2
 70
     6
  9
$SURFTYPE
 70
     6
  9
$SURFU
 70
     6
  9
$SURFV
 70
     6
  9
$UCSBASE
  2

  9
$UCSNAME
  2

  9
$UCSORG
 10
0.0
 20
0.0
 30
0.0
  9
$UCSXDIR
 10
1.0
 20
0.0
 30
0.0
  9
$UCSYDIR
 10
0.0
 20
1.0
 30
0.0
  9
$UCSORTHOREF
  2

  9
$UCSORTHOVIEW
 70
     0
  9
$UCSORGTOP
 10
0.0
 20
0.0
 30
0.0
  9
$UCSORGBOTTOM
 10
0.0
 20
0.0
 30
0.0
  9
$UCSORGLEFT
 10
0.0
 20
0.0
 30
0.0
  9
$UCSORGRIGHT
 10
0.0
 20
0.0
 30
0.0
  9
$UCSORGFRONT
 10
0.0
 20
0.0
 30
0.0
  9
$UCSORGBACK
 10
0.0
 20
0.0
 30
0.0
  9
$PUCSBASE
  2

  9
$PUCSNAME
  2

  9
$PUCSORG
 10
0.0
 20
0.0
 30
0.0
  9
$PUCSXDIR
 10
1.0
 20
0.0
 30
0.0
  9
$PUCSYDIR
 10
0.0
 20
1.0
 30
0.0
  9
$PUCSORTHOREF
  2

  9
$PUCSORTHOVIEW
 70
     0
  9
$PUCSORGTOP
 10
0.0
 20
0.0
 30
0.0
  9
$PUCSORGBOTTOM
 10
0.0
 20
0.0
 30
0.0
  9
$PUCSORGLEFT
 10
0.0
 20
0.0
 30
0.0
  9
$PUCSORGRIGHT
 10
0.0
 20
0.0
 30
0.0
  9
$PUCSORGFRONT
 10
0.0
 20
0.0
 30
0.0
  9
$PUCSORGBACK
 10
0.0
 20
0.0
 30
0.0
  9
$USERI1
 70
     0
  9
$USERI2
 70
     0
  9
$USERI3
 70
     0
  9
$USERI4
 70
     0
  9
$USERI5
 70
     0
  9
$USERR1
 40
0.0
  9
$USERR2
 40
0.0
  9
$USERR3
 40
0.0
  9
$USERR4
 40
0.0
  9
$USERR5
 40
0.0
  9
$WORLDVIEW
 70
     1
  9
$SHADEDGE
 70
     3
  9
$SHADEDIF
 70
    70
  9
$TILEMODE
 70
     1
  9
$MAXACTVP
 70
    64
  9
$PINSBASE
 10
0.0
 20
0.0
 30
0.0
  9
$PLIMCHECK
 70
     0
  9
$PEXTMIN
 10
1.000000000000000E+20
 20
1.000000000000000E+20
 30
1.000000000000000E+20
  9
$PEXTMAX
 10
-1.000000000000000E+20
 20
-1.000000000000000E+20
 30
-1.000000000000000E+20
  9
$PLIMMIN
 10
0.0
 20
0.0
  9
$PLIMMAX
 10
0.0
 20
0.0
  9
$UNITMODE
 70
     0
  9
$VISRETAIN
 70
     1
  9
$PLINEGEN
 70
     0
  9
$PSLTSCALE
 70
     1
  9
$TREEDEPTH
 70
  3020
  9
$CMLSTYLE
  2
Standard
  9
$CMLJUST
 70
     0
  9
$CMLSCALE
 40
20.0
  9
$PROXYGRAPHICS
 70
     1
  9
$MEASUREMENT
 70
     1
  9
$CELWEIGHT
370
    -1
  9
$ENDCAPS
280
     0
  9
$JOINSTYLE
280
     0
  9
$LWDISPLAY
290
     1
  9
$INSUNITS
 70
     4
  9
$HYPERLINKBASE
  1

  9
$STYLESHEET
  1

  9
$XEDIT
290
     1
  9
$CEPSNTYPE
380
     0
  9
$PSTYLEMODE
290
     1
  9
$FINGERPRINTGUID
  2
{851A72E7-98F9-4034-9F52-BECD9E52F164}
  9
$VERSIONGUID
  2
{FAEB1C32-E019-11D5-929B-00C0DF256EC4}
  9
$EXTNAMES
290
     1
  9
$PSVPSCALE
 40
0.0
  9
$OLESTARTUP
290
     0
  0
ENDSEC
  0
SECTION
  2
CLASSES
  0
CLASS
  1
ACDBDICTIONARYWDFLT
  2
AcDbDictionaryWithDefault
  3
ObjectDBX Classes
 90
        0
280
     0
281
     0
  0
CLASS
  1
VISUALSTYLE
  2
AcDbVisualStyle
  3
ObjectDBX Classes
 90
     4095
280
     0
281
     0
  0
CLASS
  1
MATERIAL
  2
AcDbMaterial
  3
ObjectDBX Classes
 90
     1153
280
     0
281
     0
  0
CLASS
  1
SCALE
  2
AcDbScale
  3
ObjectDBX Classes
 90
     1153
280
     0
281
     0
  0
CLASS
  1
SUN
  2
AcDbSun
  3
SCENEOE
 90
     1153
280
     0
281
     0
  0
CLASS
  1
ACDBPLACEHOLDER
  2
AcDbPlaceHolder
  3
ObjectDBX Classes
 90
        0
280
     0
281
     0
  0
CLASS
  1
LAYOUT
  2
AcDbLayout
  3
ObjectDBX Classes
 90
        0
280
     0
281
     0
  0
CLASS
  1
TABLESTYLE
  2
AcDbTableStyle
  3
ObjectDBX Classes
 90
     4095
280
     0
281
     0
  0
CLASS
  1
MLEADERSTYLE
  2
AcDbMLeaderStyle
  3
ACDB_MLEADERSTYLE_CLASS
 90
     4095
280
     0
281
     0
  0
ENDSEC
  0
SECTION
  2
TABLES
  0
TABLE
  2
VPORT
  5
8
330
0
100
AcDbSymbolTable
 70
     1
  0
VPORT
  5
29
330
8
100
AcDbSymbolTableRecord
100
AcDbViewportTableRecord
  2
*Active
 70
     0
 10
0.0
 20
0.0
 11
1.0
 21
1.0
 12
12.85929771653025
 22
9.250885103109551
 13
0.0
 23
0.0
 14
10.0
 24
10.0
 15
10.0
 25
10.0
 16
0.0
 26
0.0
 36
1.0
 17
0.0
 27
0.0
 37
0.0
 40
70.20330325387998
 41
2.315548780487805
 42
50.0
 43
0.0
 44
0.0
 50
0.0
 51
0.0
 71
    16
 72
  2000
 73
     1
 74
     3
 75
     0
 76
     0
 77
     0
 78
     0
281
     0
 65
     1
110
0.0
120
0.0
130
0.0
111
1.0
121
0.0
131
0.0
112
0.0
122
1.0
132
0.0
 79
     0
146
0.0
  0
ENDTAB
  0
TABLE
  2
LTYPE
  5
5
330
0
100
AcDbSymbolTable
 70
     6
  0
LTYPE
  5
14
330
5
100
AcDbSymbolTableRecord
100
AcDbLinetypeTableRecord
  2
ByBlock
 70
     0
  3

 72
    65
 73
     0
 40
0.0
  0
LTYPE
  5
15
330
5
100
AcDbSymbolTableRecord
100
AcDbLinetypeTableRecord
  2
ByLayer
 70
     0
  3

 72
    65
 73
     0
 40
0.0
  0
LTYPE
  5
16
330
5
100
AcDbSymbolTableRecord
100
AcDbLinetypeTableRecord
  2
Continuous
 70
     0
  3
Solid line
 72
    65
 73
     0
 40
0.0
  0
LTYPE
  5
6A
330
5
100
AcDbSymbolTableRecord
100
AcDbLinetypeTableRecord
  2
HIDDEN
 70
     0
  3
Hidden __ __ __ __ __ __ __ __ __ __ __ __ __ __
 72
    65
 73
     2
 40
1.905
 49
1.27
 74
     0
 49
-0.635
 74
     0
  0
LTYPE
  5
6B
330
5
100
AcDbSymbolTableRecord
100
AcDbLinetypeTableRecord
  2
PHANTOM
 70
     0
  3
Phantom ______  __  __  ______  __  __  ______
 72
    65
 73
     6
 40
12.7
 49
6.35
 74
     0
 49
-1.27
 74
     0
 49
1.27
 74
     0
 49
-1.27
 74
     0
 49
1.27
 74
     0
 49
-1.27
 74
     0
  0
LTYPE
  5
6C
330
5
100
AcDbSymbolTableRecord
100
AcDbLinetypeTableRecord
  2
CENTER
 70
     0
  3
Center ____ _ ____ _ ____ _ ____ _ ____ _ ____
 72
    65
 73
     4
 40
10.16
 49
6.35
 74
     0
 49
-1.27
 74
     0
 49
1.27
 74
     0
 49
-1.27
 74
     0
  0
LTYPE
  5
6D
330
5
100
AcDbSymbolTableRecord
100
AcDbLinetypeTableRecord
  2
CENTERX2
 70
     0
  3
Center (2x) ________  __  ________  __  _____
 72
    65
 73
     4
 40
20.32
 49
12.7
 74
     0
 49
-2.54
 74
     0
 49
2.54
 74
     0
 49
-2.54
 74
     0
  0
LTYPE
  5
6E
330
5
100
AcDbSymbolTableRecord
100
AcDbLinetypeTableRecord
  2
DOT2
 70
     0
  3
Dot (.5x) ........................................
 72
    65
 73
     2
 40
0.635
 49
0.0
 74
     0
 49
-0.635
 74
     0
  0
ENDTAB
  0
TABLE
  2
LAYER
  5
2
330
0
100
AcDbSymbolTable
 70
    17
  0
LAYER
  5
10
330
2
100
AcDbSymbolTableRecord
100
AcDbLayerTableRecord
  2
0
 70
     0
 62
     7
  6
Continuous
370
    -3
390
F
  0
LAYER
  5
6F
330
2
100
AcDbSymbolTableRecord
100
AcDbLayerTableRecord
  2
FORMAT
 70
     0
 62
     2
  6
Continuous
370
    -3
390
F
  0
LAYER
  5
70
330
2
100
AcDbSymbolTableRecord
100
AcDbLayerTableRecord
  2
외형선
 70
     0
 62
   100
  6
Continuous
370
    30
390
F
  0
LAYER
  5
71
330
2
100
AcDbSymbolTableRecord
100
AcDbLayerTableRecord
  2
숨은선
 70
     0
 62
     2
  6
HIDDEN
370
    15
390
F
  0
LAYER
  5
72
330
2
100
AcDbSymbolTableRecord
100
AcDbLayerTableRecord
  2
중심선
 70
     0
 62
     1
  6
CENTERX2
370
    -3
390
F
  0
LAYER
  5
73
330
2
100
AcDbSymbolTableRecord
100
AcDbLayerTableRecord
  2
파단선
 70
     0
 62
     4
  6
Continuous
370
    -3
390
F
  0
LAYER
  5
74
330
2
100
AcDbSymbolTableRecord
100
AcDbLayerTableRecord
  2
해칭선
 70
     0
 62
     4
  6
Continuous
370
    -3
390
F
  0
LAYER
  5
75
330
2
100
AcDbSymbolTableRecord
100
AcDbLayerTableRecord
  2
가는실선
 70
     0
 62
     4
  6
Continuous
370
    -3
390
F
  0
LAYER
  5
76
330
2
100
AcDbSymbolTableRecord
100
AcDbLayerTableRecord
  2
치수_보조선
 70
     0
 62
     4
  6
Continuous
370
    -3
390
F
  0
LAYER
  5
77
330
2
100
AcDbSymbolTableRecord
100
AcDbLayerTableRecord
  2
치수문자_일반주서
 70
     0
 62
     7
  6
Continuous
370
    15
390
F
  0
LAYER
  5
78
330
2
100
AcDbSymbolTableRecord
100
AcDbLayerTableRecord
  2
개별주서
 70
     0
 62
   100
  6
Continuous
370
    30
390
F
  0
LAYER
  5
79
330
2
100
AcDbSymbolTableRecord
100
AcDbLayerTableRecord
  2
중간선
 70
     0
 62
     2
  6
Continuous
370
    15
390
F
  0
LAYER
  5
7A
330
2
100
AcDbSymbolTableRecord
100
AcDbLayerTableRecord
  2
윤곽선
 70
     0
 62
     3
  6
Continuous
370
    40
390
F
  0
LAYER
  5
7B
330
2
100
AcDbSymbolTableRecord
100
AcDbLayerTableRecord
  2
중심마크
 70
     0
 62
   100
  6
Continuous
370
    30
390
F
  0
LAYER
  5
7C
330
2
100
AcDbSymbolTableRecord
100
AcDbLayerTableRecord
  2
가상선
 70
     0
 62
     4
  6
PHANTOM
370
    -3
390
F
  0
LAYER
  5
7D
330
2
100
AcDbSymbolTableRecord
100
AcDbLayerTableRecord
  2
특수지정선
 70
     0
 62
     5
  6
CENTERX2
370
    60
390
F
  0
LAYER
  5
136
330
2
100
AcDbSymbolTableRecord
100
AcDbLayerTableRecord
  2
Defpoints
 70
     0
 62
     7
  6
Continuous
290
     0
370
    -3
390
F
  0
ENDTAB
  0
TABLE
  2
STYLE
  5
3
330
0
100
AcDbSymbolTable
 70
     2
  0
STYLE
  5
11
330
3
100
AcDbSymbolTableRecord
100
AcDbTextStyleTableRecord
  2
Standard
 70
     0
 40
0.0
 41
1.0
 50
0.0
 71
     0
 42
3.5
  3
txt
  4

  0
STYLE
  5
93
330
3
100
AcDbSymbolTableRecord
100
AcDbTextStyleTableRecord
  2
SLDTEXTSTYLE0
 70
     0
 40
0.0
 41
0.75
 50
0.0
 71
     0
 42
3.5
  3
TXT
  4

  0
ENDTAB
  0
TABLE
  2
VIEW
  5
6
330
0
100
AcDbSymbolTable
 70
     0
  0
ENDTAB
  0
TABLE
  2
UCS
  5
7
330
0
100
AcDbSymbolTable
 70
     0
  0
ENDTAB
  0
TABLE
  2
APPID
  5
9
330
0
100
AcDbSymbolTable
 70
     2
  0
APPID
  5
12
330
9
100
AcDbSymbolTableRecord
100
AcDbRegAppTableRecord
  2
ACAD
 70
     0
  0
APPID
  5
133
330
9
100
AcDbSymbolTableRecord
100
AcDbRegAppTableRecord
  2
PE_URL
 70
     0
  0
ENDTAB
  0
TABLE
  2
DIMSTYLE
  5
A
330
0
100
AcDbSymbolTable
 70
     3
100
AcDbDimStyleTable
  0
DIMSTYLE
105
27
330
A
100
AcDbSymbolTableRecord
100
AcDbDimStyleTableRecord
  2
ISO-25
 70
     0
 41
2.5
 42
0.625
 43
3.75
 44
1.25
 73
     0
 74
     0
 77
     1
 78
     8
140
2.5
141
2.5
143
0.03937007874016
147
0.625
171
     3
172
     1
178
     0
271
     2
272
     2
274
     3
278
    44
283
     0
284
     8
340
11
  0
DIMSTYLE
105
DA
102
{ACAD_REACTORS
330
D9
330
E4
102
}
330
A
100
AcDbSymbolTableRecord
100
AcDbDimStyleTableRecord
  2
SLDDIMSTYLE0
 70
     0
 41
3.302
 44
0.0
 45
0.000000001
 73
     0
 74
     0
 77
     1
 78
    12
 79
     3
140
3.5
147
0.875
173
     1
178
     0
271
     2
272
     2
276
     2
284
    12
340
93
  0
DIMSTYLE
105
EF
102
{ACAD_REACTORS
330
EE
330
FC
102
}
330
A
100
AcDbSymbolTableRecord
100
AcDbDimStyleTableRecord
  2
SLDDIMSTYLE1
 70
     0
 41
3.302
 44
0.0
 45
0.000000001
 73
     0
 74
     0
 77
     1
 78
    12
 79
     3
140
3.5
147
0.875
172
     1
173
     1
178
     0
271
     2
272
     2
276
     2
284
    12
289
     0
340
93
  0
ENDTAB
  0
TABLE
  2
BLOCK_RECORD
  5
1
330
0
100
AcDbSymbolTable
 70
     7
  0
BLOCK_RECORD
  5
1F
102
{ACAD_XDICTIONARY
360
164
102
}
330
1
100
AcDbSymbolTableRecord
100
AcDbBlockTableRecord
  2
*Model_Space
340
22
  0
BLOCK_RECORD
  5
1B
330
1
100
AcDbSymbolTableRecord
100
AcDbBlockTableRecord
  2
*Paper_Space
340
1E
  0
BLOCK_RECORD
  5
23
330
1
100
AcDbSymbolTableRecord
100
AcDbBlockTableRecord
  2
*Paper_Space0
340
26
  0
BLOCK_RECORD
  5
7E
330
1
100
AcDbSymbolTableRecord
100
AcDbBlockTableRecord
  2
블럭10
340
0
102
{BLKREFS
331
D2
102
}
  0
BLOCK_RECORD
  5
DB
330
1
100
AcDbSymbolTableRecord
100
AcDbBlockTableRecord
  2
_D
340
0
  0
BLOCK_RECORD
  5
E5
330
1
100
AcDbSymbolTableRecord
100
AcDbBlockTableRecord
  2
_D_1
340
0
  0
BLOCK_RECORD
  5
F0
330
1
100
AcDbSymbolTableRecord
100
AcDbBlockTableRecord
  2
_D_2
340
0
  0
BLOCK_RECORD
  5
FD
330
1
100
AcDbSymbolTableRecord
100
AcDbBlockTableRecord
  2
_D_3
340
0
  0
BLOCK_RECORD
  5
109
330
1
100
AcDbSymbolTableRecord
100
AcDbBlockTableRecord
  2
SW_DOWELSYMBOL_0
340
0
102
{BLKREFS
331
10F
102
}
  0
ENDTAB
  0
ENDSEC
  0
SECTION
  2
BLOCKS
  0
BLOCK
  5
20
330
1F
100
AcDbEntity
  8
0
100
AcDbBlockBegin
  2
*Model_Space
 70
     0
 10
0.0
 20
0.0
 30
0.0
  3
*Model_Space
  1

  0
ENDBLK
  5
21
330
1F
100
AcDbEntity
  8
0
100
AcDbBlockEnd
  0
BLOCK
  5
1C
330
1B
100
AcDbEntity
 67
     1
  8
0
100
AcDbBlockBegin
  2
*Paper_Space
 70
     0
 10
0.0
 20
0.0
 30
0.0
  3
*Paper_Space
  1

  0
ENDBLK
  5
1D
330
1B
100
AcDbEntity
 67
     1
  8
0
100
AcDbBlockEnd
  0
BLOCK
  5
24
330
23
100
AcDbEntity
  8
0
100
AcDbBlockBegin
  2
*Paper_Space0
 70
     0
 10
0.0
 20
0.0
 30
0.0
  3
*Paper_Space0
  1

  0
ENDBLK
  5
25
330
23
100
AcDbEntity
  8
0
100
AcDbBlockEnd
  0
BLOCK
  5
7F
330
7E
100
AcDbEntity
  8
0
100
AcDbBlockBegin
  2
블럭10
 70
     2
 10
0.0
 20
0.0
 30
0.0
  3
블럭10
  1

  0
ELLIPSE
  5
81
330
7E
100
AcDbEntity
  8
중심선
100
AcDbEllipse
 10
20.54032771741204
 20
12.0471743016438
 30
0.0
 11
6.600054785286829
 21
-1.261213355974178E-13
 31
0.0
210
0.0
220
0.0
230
1.0
 40
0.636358354079598
 41
0.9219305317359503
 42
6.513795318482858
  0
ELLIPSE
  5
82
330
7E
100
AcDbEntity
  8
중심선
100
AcDbEllipse
 10
20.54032771746488
 20
12.04717430159265
 30
0.0
 11
3.960054785062283
 21
1.540847449632565E-10
 31
0.0
210
0.0
220
0.0
230
1.0
 40
0.3939339440162632
 41
1.131841032648279
 42
5.62031148352944
  0
LINE
  5
83
330
7E
100
AcDbEntity
  8
중심선
100
AcDbLine
 10
2.268634060543552
 20
16.24717430164393
 30
0.0
 11
5.714909304380834
 21
16.24717430164393
 31
0.0
  0
LINE
  5
84
330
7E
100
AcDbEntity
  8
중심선
100
AcDbLine
 10
5.245725140726316
 20
7.84717430164391
 30
0.0
 11
8.692000384563599
 21
7.84717430164391
 31
0.0
  0
LINE
  5
85
330
7E
100
AcDbEntity
  8
중심선
100
AcDbLine
 10
15.74043728645272
 20
16.24717430164393
 30
0.0
 11
8.692000384563599
 21
7.84717430164391
 31
0.0
  0
LINE
  5
86
330
7E
100
AcDbEntity
  8
중심선
100
AcDbLine
 10
0.1404042013395286
 20
13.71084872107135
 30
0.0
 11
3.58671253028996
 21
13.71088815037384
 31
0.0
  0
LINE
  5
87
330
7E
100
AcDbEntity
  8
중심선
100
AcDbLine
 10
2.750260043222114
 20
10.84717430164391
 30
0.0
 11
6.196535287059397
 21
10.84717430164391
 31
0.0
  0
LINE
  5
88
330
7E
100
AcDbEntity
  8
중심선
100
AcDbLine
 10
12.29416204261559
 20
16.24717430164393
 30
0.0
 11
5.245725140726316
 21
7.84717430164391
 31
0.0
  0
LINE
  5
89
330
7E
100
AcDbEntity
  8
중심선
100
AcDbLine
 10
10.72767329541681
 20
16.24717430164393
 30
0.0
 11
6.196535287059397
 21
10.84717430164391
 31
0.0
  0
LINE
  5
8A
330
7E
100
AcDbEntity
  8
중심선
100
AcDbLine
 10
7.28139805157953
 20
16.24717430164393
 30
0.0
 11
2.750260043222114
 21
10.84717430164391
 31
0.0
  0
LINE
  5
8B
330
7E
100
AcDbEntity
  8
중심선
100
AcDbLine
 10
5.714909304380834
 20
16.24717430164393
 30
0.0
 11
3.58671253028996
 21
13.71088815037384
 31
0.0
  0
LINE
  5
8C
330
7E
100
AcDbEntity
  8
중심선
100
AcDbLine
 10
2.268634060543552
 20
16.24717430164393
 30
0.0
 11
0.1404042013395286
 21
13.71084872107135
 31
0.0
  0
LINE
  5
8D
330
7E
100
AcDbEntity
  8
중심선
100
AcDbLine
 10
7.28139805157953
 20
16.24717430164393
 30
0.0
 11
10.72767329541681
 21
16.24717430164393
 31
0.0
  0
LINE
  5
8E
330
7E
100
AcDbEntity
  8
중심선
100
AcDbLine
 10
12.29416204261559
 20
16.24717430164393
 30
0.0
 11
15.74043728645272
 21
16.24717430164393
 31
0.0
  0
LINE
  5
8F
330
7E
100
AcDbEntity
  8
중심선
100
AcDbLine
 10
19.22036997980202
 20
11.08717430171403
 30
0.0
 11
23.66174974927406
 21
11.08717430171406
 31
0.0
  0
LINE
  5
90
330
7E
100
AcDbEntity
  8
중심선
100
AcDbLine
 10
19.22039502424796
 20
13.00717430171391
 30
0.0
 11
19.22036997980202
 21
11.08717430171403
 31
0.0
  0
LINE
  5
91
330
7E
100
AcDbEntity
  8
중심선
100
AcDbLine
 10
19.22039502424796
 20
13.00717430171391
 30
0.0
 11
26.96566020931264
 21
13.00717430171391
 31
0.0
  0
LINE
  5
92
330
7E
100
AcDbEntity
  8
중심선
100
AcDbLine
 10
22.22332737316547
 20
13.45928029700563
 30
0.0
 11
24.52862924686651
 21
15.39360700705356
 31
0.0
  0
ATTDEF
  5
94
330
7E
100
AcDbEntity
  8
FORMAT
 62
     2
100
AcDbText
 10
-12.95993919485777
 20
2.075366912832191
 30
0.0
 40
4.233333333333333
  1
SEME35190E [ 2 FLUTE ]
 41
0.75
  7
SLDTEXTSTYLE0
 11
-12.95993919485777
 21
-0.0412997538344756
 31
0.0
100
AcDbAttributeDefinition
  3

  2
AUTOATTR0
 70
     0
 74
     1
  0
ENDBLK
  5
80
330
7E
100
AcDbEntity
  8
0
100
AcDbBlockEnd
  0
BLOCK
  5
DC
330
DB
100
AcDbEntity
  8
0
100
AcDbBlockBegin
  2
_D
 70
     0
 10
0.0
 20
0.0
 30
0.0
  3
_D
  1

  0
LINE
  5
DE
330
DB
100
AcDbEntity
  8
치수문자_일반주서
 62
     0
370
    -2
100
AcDbLine
 10
50.05112255737895
 20
9.554470744681629
 30
0.0
 11
50.05112255737895
 21
21.74260463325941
 31
0.0
  0
LINE
  5
DF
330
DB
100
AcDbEntity
  8
치수문자_일반주서
 62
     0
370
    -2
100
AcDbLine
 10
5.051122557378949
 20
9.527479449747766
 30
0.0
 11
5.05112255737895
 21
21.74260463325941
 31
0.0
  0
LINE
  5
E0
330
DB
100
AcDbEntity
  8
치수문자_일반주서
 62
     0
370
    -2
100
AcDbLine
 10
46.74912255737895
 20
21.74260463325941
 30
0.0
 11
8.35312255737895
 21
21.74260463325941
 31
0.0
  0
SOLID
  5
E1
330
DB
100
AcDbEntity
  8
치수문자_일반주서
 62
     0
100
AcDbTrace
 10
46.74912255737895
 20
21.19227129992607
 30
0.0
 11
46.74912255737895
 21
22.29293796659274
 31
0.0
 12
50.05112255737895
 22
21.74260463325941
 32
0.0
 13
50.05112255737895
 23
21.74260463325941
 33
0.0
  0
SOLID
  5
E2
330
DB
100
AcDbEntity
  8
치수문자_일반주서
 62
     0
100
AcDbTrace
 10
8.35312255737895
 20
22.29293796659274
 30
0.0
 11
8.35312255737895
 21
21.19227129992607
 31
0.0
 12
5.05112255737895
 22
21.74260463325941
 32
0.0
 13
5.05112255737895
 23
21.74260463325941
 33
0.0
  0
MTEXT
  5
E3
330
DB
100
AcDbEntity
  8
치수문자_일반주서
 62
     0
100
AcDbMText
 10
27.55112255737894
 20
26.11760463325941
 30
0.0
 40
3.5
 41
0.0
 71
     2
 72
     1
  1
\A1;45
  7
SLDTEXTSTYLE0
 73
     1
 44
1.0
  0
POINT
  5
13B
330
DB
100
AcDbEntity
  8
Defpoints
 62
     0
100
AcDbPoint
 10
50.05112255737895
 20
9.491970744681629
 30
0.0
  0
POINT
  5
13C
330
DB
100
AcDbEntity
  8
Defpoints
 62
     0
100
AcDbPoint
 10
5.051122557378949
 20
9.464979449747766
 30
0.0
  0
POINT
  5
13D
330
DB
100
AcDbEntity
  8
Defpoints
 62
     0
100
AcDbPoint
 10
5.051122557378949
 20
21.74260463325941
 30
0.0
  0
ENDBLK
  5
DD
330
DB
100
AcDbEntity
  8
0
100
AcDbBlockEnd
  0
BLOCK
  5
E6
330
E5
100
AcDbEntity
  8
0
100
AcDbBlockBegin
  2
_D_1
 70
     0
 10
0.0
 20
0.0
 30
0.0
  3
_D_1
  1

  0
LINE
  5
E8
330
E5
100
AcDbEntity
  8
치수문자_일반주서
 62
     0
370
    -2
100
AcDbLine
 10
50.05112255737895
 20
9.55447074468163
 30
0.0
 11
50.05112255737893
 21
29.43415911661227
 31
0.0
  0
LINE
  5
E9
330
E5
100
AcDbEntity
  8
치수문자_일반주서
 62
     0
370
    -2
100
AcDbLine
 10
-49.94887744262106
 20
9.062499999999995
 30
0.0
 11
-49.94887744262107
 21
29.43415911661227
 31
0.0
  0
LINE
  5
EA
330
E5
100
AcDbEntity
  8
치수문자_일반주서
 62
     0
370
    -2
100
AcDbLine
 10
46.74912255737893
 20
29.43415911661227
 30
0.0
 11
-46.64687744262107
 21
29.43415911661227
 31
0.0
  0
SOLID
  5
EB
330
E5
100
AcDbEntity
  8
치수문자_일반주서
 62
     0
100
AcDbTrace
 10
46.74912255737893
 20
28.88382578327893
 30
0.0
 11
46.74912255737893
 21
29.9844924499456
 31
0.0
 12
50.05112255737893
 22
29.43415911661227
 32
0.0
 13
50.05112255737893
 23
29.43415911661227
 33
0.0
  0
SOLID
  5
EC
330
E5
100
AcDbEntity
  8
치수문자_일반주서
 62
     0
100
AcDbTrace
 10
-46.64687744262107
 20
29.9844924499456
 30
0.0
 11
-46.64687744262107
 21
28.88382578327893
 31
0.0
 12
-49.94887744262107
 22
29.43415911661227
 32
0.0
 13
-49.94887744262107
 23
29.43415911661227
 33
0.0
  0
MTEXT
  5
ED
330
E5
100
AcDbEntity
  8
치수문자_일반주서
 62
     0
100
AcDbMText
 10
0.0511225573789567
 20
33.80915911661226
 30
0.0
 40
3.5
 41
0.0
 71
     2
 72
     1
  1
\A1;100
  7
SLDTEXTSTYLE0
 73
     1
 44
1.0
  0
POINT
  5
137
330
E5
100
AcDbEntity
  8
Defpoints
 62
     0
100
AcDbPoint
 10
50.05112255737895
 20
9.49197074468163
 30
0.0
  0
POINT
  5
138
330
E5
100
AcDbEntity
  8
Defpoints
 62
     0
100
AcDbPoint
 10
-49.94887744262106
 20
8.999999999999995
 30
0.0
  0
POINT
  5
139
330
E5
100
AcDbEntity
  8
Defpoints
 62
     0
100
AcDbPoint
 10
-49.94887744262106
 20
29.43415911661227
 30
0.0
  0
ENDBLK
  5
E7
330
E5
100
AcDbEntity
  8
0
100
AcDbBlockEnd
  0
BLOCK
  5
F1
330
F0
100
AcDbEntity
  8
0
100
AcDbBlockBegin
  2
_D_2
 70
     0
 10
0.0
 20
0.0
 30
0.0
  3
_D_2
  1

  0
LINE
  5
F3
330
F0
100
AcDbEntity
  8
치수문자_일반주서
 62
     0
370
    -2
100
AcDbLine
 10
50.11362255737895
 20
9.504422470178563
 30
0.0
 11
65.61731286962521
 21
9.50442247017862
 31
0.0
  0
LINE
  5
F4
330
F0
100
AcDbEntity
  8
치수문자_일반주서
 62
     0
370
    -2
100
AcDbLine
 10
50.11362255737895
 20
-9.491970744681616
 30
0.0
 11
65.61731286962528
 21
-9.49197074468156
 31
0.0
  0
LINE
  5
F5
330
F0
100
AcDbEntity
  8
치수문자_일반주서
 62
     0
370
    -2
100
AcDbLine
 10
65.61731286962522
 20
6.20242247017862
 30
0.0
 11
65.61731286962527
 21
-6.18997074468156
 31
0.0
  0
SOLID
  5
F6
330
F0
100
AcDbEntity
  8
치수문자_일반주서
 62
     0
100
AcDbTrace
 10
66.16764620295855
 20
6.202422470178622
 30
0.0
 11
65.0669795362919
 21
6.202422470178618
 31
0.0
 12
65.61731286962521
 22
9.50442247017862
 32
0.0
 13
65.61731286962521
 23
9.50442247017862
 33
0.0
  0
SOLID
  5
F7
330
F0
100
AcDbEntity
  8
치수문자_일반주서
 62
     0
100
AcDbTrace
 10
65.06697953629194
 20
-6.189970744681561
 30
0.0
 11
66.1676462029586
 21
-6.189970744681558
 31
0.0
 12
65.61731286962528
 22
-9.49197074468156
 32
0.0
 13
65.61731286962528
 23
-9.49197074468156
 33
0.0
  0
MTEXT
  5
F8
330
F0
100
AcDbEntity
  8
치수문자_일반주서
 62
     0
100
AcDbMText
 10
61.24231286962525
 20
-0.0000000000000099
 30
0.0
 40
3.5
 41
0.0
 71
     2
 72
     1
  1
\A1;%%c19
  7
SLDTEXTSTYLE0
 11
-3.740408654018958E-15
 21
1.0
 31
0.0
 73
     1
 44
1.0
  0
POINT
  5
F9
330
F0
100
AcDbEntity
  8
Defpoints
 62
     0
100
AcDbPoint
 10
50.05112255737895
 20
9.504422470178563
 30
0.0
  0
POINT
  5
FA
330
F0
100
AcDbEntity
  8
Defpoints
 62
     0
100
AcDbPoint
 10
50.05112255737895
 20
-9.491970744681616
 30
0.0
  0
POINT
  5
FB
330
F0
100
AcDbEntity
  8
Defpoints
 62
     0
100
AcDbPoint
 10
65.61731286962528
 20
-9.491970744681558
 30
0.0
  0
ENDBLK
  5
F2
330
F0
100
AcDbEntity
  8
0
100
AcDbBlockEnd
  0
BLOCK
  5
FE
330
FD
100
AcDbEntity
  8
0
100
AcDbBlockBegin
  2
_D_3
 70
     0
 10
0.0
 20
0.0
 30
0.0
  3
_D_3
  1

  0
LINE
  5
100
330
FD
100
AcDbEntity
  8
치수문자_일반주서
 62
     0
370
    -2
100
AcDbLine
 10
-49.01137744262106
 20
9.999999999999996
 30
0.0
 11
-61.36843688800963
 21
9.99999999999995
 31
0.0
  0
LINE
  5
101
330
FD
100
AcDbEntity
  8
치수문자_일반주서
 62
     0
370
    -2
100
AcDbLine
 10
-49.01137744262106
 20
-9.999999999999996
 30
0.0
 11
-61.36843688800956
 21
-10.00000000000004
 31
0.0
  0
LINE
  5
102
330
FD
100
AcDbEntity
  8
치수문자_일반주서
 62
     0
370
    -2
100
AcDbLine
 10
-61.36843688800962
 20
6.697999999999951
 30
0.0
 11
-61.36843688800958
 21
-6.698000000000043
 31
0.0
  0
SOLID
  5
103
330
FD
100
AcDbEntity
  8
치수문자_일반주서
 62
     0
100
AcDbTrace
 10
-60.81810355467628
 20
6.697999999999952
 30
0.0
 11
-61.91877022134295
 21
6.697999999999949
 31
0.0
 12
-61.36843688800963
 22
9.99999999999995
 32
0.0
 13
-61.36843688800963
 23
9.99999999999995
 33
0.0
  0
SOLID
  5
104
330
FD
100
AcDbEntity
  8
치수문자_일반주서
 62
     0
100
AcDbTrace
 10
-61.91877022134291
 20
-6.698000000000045
 30
0.0
 11
-60.81810355467624
 21
-6.698000000000041
 31
0.0
 12
-61.36843688800956
 22
-10.00000000000004
 32
0.0
 13
-61.36843688800956
 23
-10.00000000000004
 33
0.0
  0
MTEXT
  5
105
330
FD
100
AcDbEntity
  8
치수문자_일반주서
 62
     0
100
AcDbMText
 10
-65.7434368880096
 20
-0.0000000000000114
 30
0.0
 40
3.5
 41
0.0
 71
     2
 72
     1
  1
\A1;%%c20
  7
SLDTEXTSTYLE0
 11
-3.552713678800503E-15
 21
1.0
 31
0.0
 73
     1
 44
1.0
  0
POINT
  5
106
330
FD
100
AcDbEntity
  8
Defpoints
 62
     0
100
AcDbPoint
 10
-48.94887744262106
 20
9.999999999999996
 30
0.0
  0
POINT
  5
107
330
FD
100
AcDbEntity
  8
Defpoints
 62
     0
100
AcDbPoint
 10
-48.94887744262106
 20
-9.999999999999996
 30
0.0
  0
POINT
  5
108
330
FD
100
AcDbEntity
  8
Defpoints
 62
     0
100
AcDbPoint
 10
-61.3684368880096
 20
-10.00000000000004
 30
0.0
  0
ENDBLK
  5
FF
330
FD
100
AcDbEntity
  8
0
100
AcDbBlockEnd
  0
BLOCK
  5
10A
330
109
100
AcDbEntity
  8
0
100
AcDbBlockBegin
  2
SW_DOWELSYMBOL_0
 70
     0
 10
0.0
 20
0.0
 30
0.0
  3
SW_DOWELSYMBOL_0
  1

  0
CIRCLE
  5
10C
330
109
100
AcDbEntity
  8
외형선
 62
     0
100
AcDbCircle
 10
0.0
 20
0.0
 30
0.0
 40
3.000000000000004
  0
HATCH
  5
10D
330
109
100
AcDbEntity
  8
0
  6
Continuous
 62
     0
370
    30
100
AcDbHatch
 10
0.0
 20
0.0
 30
0.0
210
0.0
220
0.0
230
1.0
  2
SOLID
 70
     1
 71
     0
 91
        1
 92
        0
 93
        3
 72
     2
 10
0.0000000000000087
 20
-0.0000000000000035
 40
3.000000000000004
 50
0.0
 51
90.0
 73
     1
 72
     1
 10
0.0000000000000087
 20
3.000000000000001
 11
0.0000000000000087
 21
-0.0000000000000036
 72
     1
 10
0.0000000000000087
 20
-0.0000000000000035
 11
3.000000000000013
 21
-0.0000000000000035
 97
        0
 75
     0
 76
     1
 98
        1
 10
0.0
 20
0.0
  0
HATCH
  5
10E
330
109
100
AcDbEntity
  8
0
  6
Continuous
 62
     0
370
    30
100
AcDbHatch
 10
0.0
 20
0.0
 30
0.0
210
0.0
220
0.0
230
1.0
  2
SOLID
 70
     1
 71
     0
 91
        1
 92
        0
 93
        3
 72
     2
 10
0.0000000000000087
 20
-0.0000000000000035
 40
3.000000000000004
 50
180.0
 51
270.0000000000007
 73
     1
 72
     1
 10
0.0000000000000087
 20
-3.000000000000008
 11
0.0000000000000087
 21
-0.0000000000000036
 72
     1
 10
0.0000000000000087
 20
-0.0000000000000035
 11
-2.999999999999996
 21
-0.0000000000000035
 97
        0
 75
     0
 76
     1
 98
        1
 10
0.0
 20
0.0
  0
ENDBLK
  5
10B
330
109
100
AcDbEntity
  8
0
100
AcDbBlockEnd
  0
ENDSEC
  0
SECTION
  2
ENTITIES
  0
LINE
  5
95
330
1F
100
AcDbEntity
  8
0
  6
Continuous
 62
     4
370
    15
100
AcDbLine
 10
3.178281084148392
 20
10.0
 30
0.0
 11
-48.94887744262106
 21
9.999999999999996
 31
0.0
  0
LINE
  5
96
330
1F
100
AcDbEntity
  8
0
  6
Continuous
 62
     4
370
    15
100
AcDbLine
 10
-48.94887744262106
 20
-9.999999999999996
 30
0.0
 11
3.178281084148381
 21
-9.999999999999993
 31
0.0
  0
LINE
  5
97
330
1F
100
AcDbEntity
  8
0
  6
Continuous
 62
     4
370
    15
100
AcDbLine
 10
-48.94887744262106
 20
9.999999999999995
 30
0.0
 11
-49.94887744262106
 21
8.999999999999995
 31
0.0
  0
LINE
  5
98
330
1F
100
AcDbEntity
  8
0
  6
Continuous
 62
     4
370
    15
100
AcDbLine
 10
-49.94887744262106
 20
-8.999999999999995
 30
0.0
 11
-48.94887744262106
 21
-9.999999999999995
 31
0.0
  0
LINE
  5
9B
330
1F
100
AcDbEntity
  8
0
  6
Continuous
 62
     1
370
    15
100
AcDbLine
 10
20.15365819728174
 20
2.691552640013042
 30
0.0
 11
20.08171711272348
 21
2.731348663221887
 31
0.0
  0
SPLINE
  5
9C
330
1F
100
AcDbEntity
  8
0
  6
Continuous
 62
     1
370
    15
100
AcDbSpline
210
0.0
220
0.0
230
1.0
 70
     8
 71
     3
 72
     9
 73
     5
 74
     0
 42
0.000000001
 43
0.00000001
 40
0.0
 40
0.0
 40
0.0
 40
0.0
 40
0.5252794914677342
 40
0.9999999999999999
 40
0.9999999999999999
 40
0.9999999999999999
 40
0.9999999999999999
 10
25.43931520065242
 20
2.434374348809627
 30
0.0
 10
24.97775828184463
 20
2.654474838915601
 30
0.0
 10
24.09907002862897
 20
3.073490798383138
 30
0.0
 10
23.22033294760178
 20
3.533990132384789
 30
0.0
 10
22.8031784336304
 20
3.752598610400823
 30
0.0
  0
SPLINE
  5
9D
330
1F
100
AcDbEntity
  8
0
  6
Continuous
 62
     1
370
    15
100
AcDbSpline
210
0.0
220
0.0
230
1.0
 70
     8
 71
     3
 72
    21
 73
    17
 74
     0
 42
0.000000001
 43
0.00000001
 40
0.0
 40
0.0
 40
0.0
 40
0.0
 40
0.0830734935669748
 40
0.1670588056449125
 40
0.2536303604203473
 40
0.3316278614404918
 40
0.3995757357087845
 40
0.4633045717979342
 40
0.5285888761157665
 40
0.5973100496026127
 40
0.6777733649698738
 40
0.7467589709296081
 40
0.80097007777694
 40
0.8759851571193533
 40
0.9721231121236468
 40
1.0
 40
1.0
 40
1.0
 40
1.0
 10
22.29931635698469
 20
7.549076171120403
 30
0.0
 10
22.1031460134049
 20
7.538495197653516
 30
0.0
 10
21.70865215147324
 20
7.517217113465168
 30
0.0
 10
21.04485428926652
 20
7.488093621245773
 30
0.0
 10
20.3917409271296
 20
7.466383509162955
 30
0.0
 10
19.78063298472382
 20
7.448444969572789
 30
0.0
 10
19.2368879432828
 20
7.436111675513564
 30
0.0
 10
18.73402953076838
 20
7.427613703800221
 30
0.0
 10
18.2227308318011
 20
7.42174505448148
 30
0.0
 10
17.66835848306137
 20
7.418624265093985
 30
0.0
 10
17.1045639641882
 20
7.419075206042725
 30
0.0
 10
16.57846529492794
 20
7.422939479758734
 30
0.0
 10
16.06616499707778
 20
7.429390339642773
 30
0.0
 10
15.48372243824612
 20
7.44025145027592
 30
0.0
 10
14.9693450607749
 20
7.452514959932219
 30
0.0
 10
14.6488444184926
 20
7.463510673882888
 30
0.0
 10
14.57680013523047
 20
7.465982364188688
 30
0.0
  0
SPLINE
  5
9E
330
1F
100
AcDbEntity
  8
0
  6
Continuous
 62
     1
370
    15
100
AcDbSpline
210
0.0
220
0.0
230
1.0
 70
     8
 71
     3
 72
    37
 73
    33
 74
     0
 42
0.000000001
 43
0.00000001
 40
0.0
 40
0.0
 40
0.0
 40
0.0
 40
0.0527885284400252
 40
0.0993264402986029
 40
0.1411897815823955
 40
0.1778939667121999
 40
0.2110039750975213
 40
0.2478082268724955
 40
0.2905139291966146
 40
0.3286206760331978
 40
0.3604899616656335
 40
0.3978594156776331
 40
0.4413490133486135
 40
0.4913421926711042
 40
0.5231447165109442
 40
0.5454010344849064
 40
0.5639379621394407
 40
0.5885026927193737
 40
0.6192490852365883
 40
0.6524609022358772
 40
0.682105758389469
 40
0.7080932536856892
 40
0.7329528986026158
 40
0.7623377113884896
 40
0.7953490005808753
 40
0.8228655728237656
 40
0.8370631147609339
 40
0.8541941809187084
 40
0.8790280091204569
 40
0.9115471048468142
 40
0.9518862078491
 40
1.0
 40
1.0
 40
1.0
 40
1.0
 10
46.52181623009775
 20
6.497548865024984
 30
0.0
 10
46.24610825943374
 20
6.474340030368184
 30
0.0
 10
45.72733851727053
 20
6.430670487040074
 30
0.0
 10
44.92589044935894
 20
6.377494783129097
 30
0.0
 10
44.21091216031277
 20
6.337166264049185
 30
0.0
 10
43.56990890444962
 20
6.305988023942409
 30
0.0
 10
43.00837858317021
 20
6.286469222274579
 30
0.0
 10
42.40583231904658
 20
6.269032258883708
 30
0.0
 10
41.75097635443179
 20
6.256608398479742
 30
0.0
 10
41.12693635033913
 20
6.251312371768864
 30
0.0
 10
40.5319830354436
 20
6.25162417482098
 30
0.0
 10
39.90690402695553
 20
6.257546186050612
 30
0.0
 10
39.18121894188379
 20
6.271946681799616
 30
0.0
 10
38.48651767879427
 20
6.294042322009915
 30
0.0
 10
37.90976708877852
 20
6.318482647625093
 30
0.0
 10
37.50743066275493
 20
6.338303535084472
 30
0.0
 10
37.14477291775906
 20
6.358004911629049
 30
0.0
 10
36.7343107315909
 20
6.382507360528725
 30
0.0
 10
36.24181474748462
 20
6.415286937246549
 30
0.0
 10
35.72107429205578
 20
6.454084098469976
 30
0.0
 10
35.22812805509612
 20
6.49466185779827
 30
0.0
 10
34.7831201355817
 20
6.534427512567181
 30
0.0
 10
34.34090989568544
 20
6.576600758237622
 30
0.0
 10
33.85815384678085
 20
6.625637122148279
 30
0.0
 10
33.35986087127218
 20
6.679846887964266
 30
0.0
 10
32.94614260466849
 20
6.727744924973217
 30
0.0
 10
32.62211483826041
 20
6.766798095612581
 30
0.0
 10
32.31213813371783
 20
6.805270444608987
 30
0.0
 10
31.89955695140883
 20
6.858488051174001
 30
0.0
 10
31.35767319659216
 20
6.932043798939278
 30
0.0
 10
30.68527749171649
 20
7.027880914697461
 30
0.0
 10
30.19271568484661
 20
7.103916347521905
 30
0.0
 10
29.92478758191492
 20
7.145275683524233
 30
0.0
  0
SPLINE
  5
9F
330
1F
100
AcDbEntity
  8
0
  6
Continuous
 62
     1
370
    15
100
AcDbSpline
210
0.0
220
0.0
230
1.0
 70
     8
 71
     3
 72
    16
 73
    12
 74
     0
 42
0.000000001
 43
0.00000001
 40
0.0
 40
0.0
 40
0.0
 40
0.0
 40
0.1469478867673426
 40
0.2748841400026199
 40
0.3817874101889059
 40
0.4590889676204835
 40
0.538973711857171
 40
0.6633126730397786
 40
0.7994230444351514
 40
0.9120773551955251
 40
1.0
 40
1.0
 40
1.0
 40
1.0
 10
29.92478758191492
 20
-7.145275683524221
 30
0.0
 10
30.25867385009581
 20
-7.093582461042732
 30
0.0
 10
30.88324928092796
 20
-6.996883914922869
 30
0.0
 10
31.79811378247675
 20
-6.870453299182323
 30
0.0
 10
32.55622147200912
 20
-6.774111200010476
 30
0.0
 10
33.1878071875336
 20
-6.699146859242839
 30
0.0
 10
33.84355221380484
 20
-6.626634311334041
 30
0.0
 10
34.65335950228177
 20
-6.544860310737286
 30
0.0
 10
35.53517446124632
 20
-6.46780254480514
 30
0.0
 10
36.33245640338617
 20
-6.40796279998581
 30
0.0
 10
36.80761537263069
 20
-6.378847546726481
 30
0.0
 10
37.01590068218133
 20
-6.366084913733557
 30
0.0
  0
SPLINE
  5
A0
330
1F
100
AcDbEntity
  8
0
  6
Continuous
 62
     1
370
    15
100
AcDbSpline
210
0.0
220
0.0
230
1.0
 70
     8
 71
     3
 72
    29
 73
    25
 74
     0
 42
0.000000001
 43
0.00000001
 40
0.0
 40
0.0
 40
0.0
 40
0.0
 40
0.0562800561778723
 40
0.1049241075716489
 40
0.1464044260800408
 40
0.1780248500824245
 40
0.2054422379248983
 40
0.2429830575040393
 40
0.2880228483247879
 40
0.3247817246177337
 40
0.3516472860044086
 40
0.3834156558637359
 40
0.4226518786872054
 40
0.4751126823514563
 40
0.5396245235300049
 40
0.583353991731746
 40
0.6265597618748527
 40
0.6812546463471845
 40
0.7265904036611479
 40
0.7672817484498711
 40
0.8162225718599981
 40
0.8746475751287325
 40
0.9383864083805603
 40
1.0
 40
1.0
 40
1.0
 40
1.0
 10
7.993114319271801
 20
-7.906940426781497
 30
0.0
 10
8.250233158064677
 20
-7.881315722952659
 30
0.0
 10
8.729585286195771
 20
-7.833543041764647
 30
0.0
 10
9.440388541220209
 20
-7.770639624276538
 30
0.0
 10
10.02945306019325
 20
-7.722657972070161
 30
0.0
 10
10.51922607288445
 20
-7.68425715920458
 30
0.0
 10
10.97180255108187
 20
-7.651239897605676
 30
0.0
 10
11.49745244575728
 20
-7.61519095991074
 30
0.0
 10
12.06841716212881
 20
-7.57969604877221
 30
0.0
 10
12.58821355226891
 20
-7.550581887556667
 30
0.0
 10
13.04443894794089
 20
-7.527238470452982
 30
0.0
 10
13.51262196074488
 20
-7.505364182135152
 30
0.0
 10
14.10324178263391
 20
-7.481032592640854
 30
0.0
 10
14.85059685541837
 20
-7.45574378750925
 30
0.0
 10
15.61939856692391
 20
-7.436844981384009
 30
0.0
 10
16.3440632880984
 20
-7.425260505741535
 30
0.0
 10
17.02146869739908
 20
-7.419149080766392
 30
0.0
 10
17.70634609556434
 20
-7.418377682032542
 30
0.0
 10
18.38072217273333
 20
-7.423031317328493
 30
0.0
 10
19.02318651912162
 20
-7.431872565231451
 30
0.0
 10
19.72803010657767
 20
-7.446595762915179
 30
0.0
 10
20.55949433082873
 20
-7.471189424664353
 30
0.0
 10
21.46837388924622
 20
-7.504400366304606
 30
0.0
 10
22.02548397381984
 20
-7.534353512720455
 30
0.0
 10
22.29931635698469
 20
-7.549076171120394
 30
0.0
  0
LINE
  5
A1
330
1F
100
AcDbEntity
  8
0
  6
Continuous
 62
     4
370
    15
100
AcDbLine
 10
2.185097153594518
 20
10.0
 30
0.0
 11
2.185097153594518
 21
9.779509744782384
 31
0.0
1001
PE_URL
1000

  0
SPLINE
  5
A2
330
1F
100
AcDbEntity
  8
0
  6
Continuous
 62
     4
370
    15
100
AcDbSpline
210
0.0
220
0.0
230
1.0
 70
     8
 71
     3
 72
     8
 73
     4
 74
     0
 42
0.000000001
 43
0.00000001
 40
0.0
 40
0.0
 40
0.0
 40
0.0
 40
1.0
 40
1.0
 40
1.0
 40
1.0
 10
2.001005890880302
 20
9.802257895382969
 30
0.0
 10
2.06234285572614
 20
9.79488052065235
 30
0.0
 10
2.123708523519052
 20
9.787297624012583
 30
0.0
 10
2.185097153594515
 20
9.779509744782386
 30
0.0
1001
PE_URL
1000

  0
SPLINE
  5
A3
330
1F
100
AcDbEntity
  8
0
  6
Continuous
 62
     4
370
    15
100
AcDbSpline
210
0.0
220
0.0
230
1.0
 70
     8
 71
     3
 72
     8
 73
     4
 74
     0
 42
0.000000001
 43
0.00000001
 40
0.0
 40
0.0
 40
0.0
 40
0.0
 40
1.0
 40
1.0
 40
1.0
 40
1.0
 10
2.185097153594522
 20
-9.97876444031555
 30
0.0
 10
2.123667772938482
 20
-9.976333797686543
 30
0.0
 10
2.062261385062265
 20
-9.973695013231875
 30
0.0
 10
2.000883742064691
 20
-9.970848510188626
 30
0.0
1001
PE_URL
1000

  0
LINE
  5
A4
330
1F
100
AcDbEntity
  8
0
  6
Continuous
 62
     4
370
    15
100
AcDbLine
 10
2.185097153594518
 20
-9.97876444031555
 30
0.0
 11
2.185097153594518
 21
-9.999999999999993
 31
0.0
1001
PE_URL
1000

  0
LINE
  5
A5
330
1F
100
AcDbEntity
  8
0
  6
Continuous
 62
     4
370
    15
100
AcDbLine
 10
-48.94887744262106
 20
9.999999999999995
 30
0.0
 11
-48.94887744262106
 21
-10.00000000000001
 31
0.0
  0
LINE
  5
A6
330
1F
100
AcDbEntity
  8
0
  6
Continuous
 62
     4
370
    15
100
AcDbLine
 10
2.001005890880309
 20
-9.970835243188976
 30
0.0
 11
2.001005890880302
 21
9.802289997146461
 31
0.0
1001
PE_URL
1000

  0
LINE
  5
A7
330
1F
100
AcDbEntity
  8
0
  6
Continuous
 62
     4
370
    15
100
AcDbLine
 10
-49.94887744262106
 20
8.999999999999995
 30
0.0
 11
-49.94887744262106
 21
-8.999999999999979
 31
0.0
  0
SPLINE
  5
A8
330
1F
100
AcDbEntity
  8
0
  6
Continuous
 62
     4
370
    15
100
AcDbSpline
210
0.0
220
0.0
230
1.0
 70
     8
 71
     3
 72
    10
 73
     6
 74
     0
 42
0.000000001
 43
0.00000001
 40
0.0
 40
0.0
 40
0.0
 40
0.0
 40
0.5
 40
0.5
 40
1.0
 40
1.0
 40
1.0
 40
1.0
 10
5.051122557380485
 20
-8.072357721616555
 30
0.0
 10
4.542824741769762
 20
-8.0787391399026
 30
0.0
 10
4.037279214586117
 20
-8.073574781151194
 30
0.0
 10
3.019404212998062
 20
-8.040128193080111
 30
0.0
 10
2.509157232376903
 20
-8.011821327026425
 30
0.0
 10
2.000883742064691
 20
-7.972127998127647
 30
0.0
  0
SPLINE
  5
A9
330
1F
100
AcDbEntity
  8
0
  6
Continuous
 62
     4
370
    15
100
AcDbSpline
210
0.0
220
0.0
230
1.0
 70
     8
 71
     3
 72
    10
 73
     6
 74
     0
 42
0.000000001
 43
0.00000001
 40
0.0
 40
0.0
 40
0.0
 40
0.0
 40
0.5000000000000001
 40
0.5000000000000001
 40
1.0
 40
1.0
 40
1.0
 40
1.0
 10
5.051122557378952
 20
-3.007293552360036
 30
0.0
 10
4.542837665422842
 20
-2.79166672706438
 30
0.0
 10
4.037305027830606
 20
-2.572131731841769
 30
0.0
 10
3.019456039258422
 20
-2.125351550604686
 30
0.0
 10
2.509222048024009
 20
-1.898398211016317
 30
0.0
 10
2.000961280295223
 20
-1.669345662305988
 30
0.0
  0
SPLINE
  5
AA
330
1F
100
AcDbEntity
  8
0
  6
Continuous
 62
     1
370
    15
100
AcDbSpline
210
0.0
220
0.0
230
1.0
 70
    24
 71
     3
 72
    14
 73
    10
 74
     0
 42
0.000000001
 43
0.00000001
 40
0.0
 40
0.0
 40
0.0
 40
0.0
 40
0.2500000000000001
 40
0.2500000000000001
 40
0.5000000000000002
 40
0.5000000000000002
 40
0.7500000000000001
 40
0.7500000000000001
 40
1.0
 40
1.0
 40
1.0
 40
1.0
 10
5.051122557378949
 20
-3.007293552360034
 30
0.0
 10
5.051122557378949
 20
-3.642135971243984
 30
0.0
 10
5.051122557378949
 20
-4.253160075899103
 30
0.0
 10
5.051122557378949
 20
-5.377155958485617
 30
0.0
 10
5.051122557378949
 20
-5.889718960409781
 30
0.0
 10
5.051122557378949
 20
-6.774964417380509
 30
0.0
 10
5.051122557378949
 20
-7.147391240411698
 30
0.0
 10
5.051122557378949
 20
-7.730574754247292
 30
0.0
 10
5.051122557378949
 20
-7.941348527300169
 30
0.0
 10
5.051122557378949
 20
-8.072357721616575
 30
0.0
  0
SPLINE
  5
AB
330
1F
100
AcDbEntity
  8
0
  6
Continuous
 62
     4
370
    15
100
AcDbSpline
210
0.0
220
0.0
230
1.0
 70
     8
 71
     3
 72
    10
 73
     6
 74
     0
 42
0.000000001
 43
0.00000001
 40
0.0
 40
0.0
 40
0.0
 40
0.0
 40
0.5
 40
0.5
 40
1.0
 40
1.0
 40
1.0
 40
1.0
 10
5.051122557378949
 20
6.107235832660346
 30
0.0
 10
4.542840195063445
 20
6.188527843395075
 30
0.0
 10
4.037310080443688
 20
6.26094748502577
 30
0.0
 10
3.019466183587888
 20
6.387981458575362
 30
0.0
 10
2.509234734861222
 20
6.442471569668717
 30
0.0
 10
2.000976457419089
 20
6.487596156532006
 30
0.0
  0
SPLINE
  5
AC
330
1F
100
AcDbEntity
  8
0
  6
Continuous
 62
     1
370
    15
100
AcDbSpline
210
0.0
220
0.0
230
1.0
 70
    24
 71
     3
 72
    14
 73
    10
 74
     0
 42
0.000000001
 43
0.00000001
 40
0.0
 40
0.0
 40
0.0
 40
0.0
 40
0.25
 40
0.25
 40
0.5
 40
0.5
 40
0.75
 40
0.75
 40
1.0
 40
1.0
 40
1.0
 40
1.0
 10
5.051122557378949
 20
6.10723583266035
 30
0.0
 10
5.051122557378949
 20
5.617330534644674
 30
0.0
 10
5.051122557378949
 20
5.027820395294629
 30
0.0
 10
5.051122557378949
 20
3.679020274834846
 30
0.0
 10
5.051122557378949
 20
2.920055851464791
 30
0.0
 10
5.051122557378949
 20
1.300141197746588
 30
0.0
 10
5.051122557378949
 20
0.4400541256516916
 30
0.0
 10
5.051122557378949
 20
-1.29405595983099
 30
0.0
 10
5.051122557378949
 20
-2.167212226842859
 30
0.0
 10
5.051122557378949
 20
-3.007293552360033
 30
0.0
  0
SPLINE
  5
AD
330
1F
100
AcDbEntity
  8
0
  6
Continuous
 62
     4
370
    15
100
AcDbSpline
210
0.0
220
0.0
230
1.0
 70
     8
 71
     3
 72
     8
 73
     4
 74
     0
 42
0.000000001
 43
0.00000001
 40
0.0
 40
0.0
 40
0.0
 40
0.0
 40
1.0
 40
1.0
 40
1.0
 40
1.0
 10
2.185097153594518
 20
9.779509744782384
 30
0.0
 10
2.807986120075811
 20
9.552542389921143
 30
0.0
 10
3.429962126549708
 20
9.313509862015794
 30
0.0
 10
4.051122557378952
 20
9.061999009200806
 30
0.0
1001
PE_URL
1000

  0
SPLINE
  5
AE
330
1F
100
AcDbEntity
  8
0
  6
Continuous
 62
     4
370
    15
100
AcDbSpline
210
0.0
220
0.0
230
1.0
 70
     8
 71
     3
 72
     8
 73
     4
 74
     0
 42
0.000000001
 43
0.00000001
 40
0.0
 40
0.0
 40
0.0
 40
0.0
 40
1.0
 40
1.0
 40
1.0
 40
1.0
 10
4.051122557378949
 20
9.0619990092008
 30
0.0
 10
4.384759593307328
 20
9.004129577495133
 30
0.0
 10
4.717063525865611
 20
8.940747847442287
 30
0.0
 10
5.051122557378942
 20
8.871768764586644
 30
0.0
  0
SPLINE
  5
AF
330
1F
100
AcDbEntity
  8
0
  6
Continuous
 62
     4
370
    15
100
AcDbSpline
210
0.0
220
0.0
230
1.0
 70
    24
 71
     3
 72
    10
 73
     6
 74
     0
 42
0.000000001
 43
0.00000001
 40
0.0
 40
0.0
 40
0.0
 40
0.0
 40
0.5000000000000004
 40
0.5000000000000004
 40
1.0
 40
1.0
 40
1.0
 40
1.0
 10
5.051122557378949
 20
8.871768764586644
 30
0.0
 10
5.051122557378949
 20
8.482998751032559
 30
0.0
 10
5.051122557378949
 20
8.024357255599774
 30
0.0
 10
5.051122557378949
 20
7.066253170953116
 30
0.0
 10
5.051122557378949
 20
6.56953314028878
 30
0.0
 10
5.051122557378949
 20
6.10723583266035
 30
0.0
  0
LINE
  5
B0
330
1F
100
AcDbEntity
  8
0
  6
Continuous
 62
     4
370
    15
100
AcDbLine
 10
4.051122557378949
 20
9.497025907629533
 30
0.0
 11
4.051122557378949
 21
9.061999009200802
 31
0.0
1001
PE_URL
1000

  0
SPLINE
  5
B1
330
1F
100
AcDbEntity
  8
0
  6
Continuous
 62
     4
370
    15
100
AcDbSpline
210
0.0
220
0.0
230
1.0
 70
     8
 71
     3
 72
     8
 73
     4
 74
     0
 42
0.000000001
 43
0.00000001
 40
0.0
 40
0.0
 40
0.0
 40
0.0
 40
1.0
 40
1.0
 40
1.0
 40
1.0
 10
5.051122557380288
 20
9.464979449747698
 30
0.0
 10
4.717063525866506
 20
9.481526471531687
 30
0.0
 10
4.384759593307774
 20
9.492201773966187
 30
0.0
 10
4.051122557378949
 20
9.497025907629533
 30
0.0
1001
PE_URL
1000

  0
LINE
  5
B2
330
1F
100
AcDbEntity
  8
0
  6
Continuous
 62
     4
370
    15
100
AcDbLine
 10
5.051122557378945
 20
9.464979449747764
 30
0.0
 11
5.051122557378945
 21
8.871768764586644
 31
0.0
1001
PE_URL
1000

  0
LINE
  5
B3
330
1F
100
AcDbEntity
  8
0
  6
Continuous
 62
     4
370
    15
100
AcDbLine
 10
4.051122557378949
 20
9.49702590762953
 30
0.0
 11
3.552539537395172
 21
9.62574154675322
 31
0.0
1001
PE_URL
1000

  0
SPLINE
  5
B4
330
1F
100
AcDbEntity
  8
0
  6
Continuous
 62
     4
370
    15
100
AcDbSpline
210
0.0
220
0.0
230
1.0
 70
     8
 71
     3
 72
     8
 73
     4
 74
     0
 42
0.000000001
 43
0.00000001
 40
0.0
 40
0.0
 40
0.0
 40
0.0
 40
1.0
 40
1.0
 40
1.0
 40
1.0
 10
5.051122557380292
 20
-9.464979449747691
 30
0.0
 10
4.71706352586651
 20
-9.48152647153168
 30
0.0
 10
4.384759593307778
 20
-9.49220177396618
 30
0.0
 10
4.051122557378949
 20
-9.497025907629526
 30
0.0
  0
SPLINE
  5
B5
330
1F
100
AcDbEntity
  8
0
  6
Continuous
 62
     4
370
    15
100
AcDbSpline
210
0.0
220
0.0
230
1.0
 70
     8
 71
     3
 72
     8
 73
     4
 74
     0
 42
0.000000001
 43
0.00000001
 40
0.0
 40
0.0
 40
0.0
 40
0.0
 40
1.0
 40
1.0
 40
1.0
 40
1.0
 10
4.051122557378949
 20
-9.497025907629522
 30
0.0
 10
3.427028906976262
 20
-9.671423857974883
 30
0.0
 10
2.805025665314111
 20
-9.832434419410204
 30
0.0
 10
2.185097153594522
 20
-9.978764440315555
 30
0.0
1001
PE_URL
1000

  0
SPLINE
  5
B6
330
1F
100
AcDbEntity
  8
0
  6
Continuous
 62
     1
370
    15
100
AcDbSpline
210
0.0
220
0.0
230
1.0
 70
    24
 71
     3
 72
     8
 73
     4
 74
     0
 42
0.000000001
 43
0.00000001
 40
0.0
 40
0.0
 40
0.0
 40
0.0
 40
1.0
 40
1.0
 40
1.0
 40
1.0
 10
5.051122557379004
 20
-8.072357721616575
 30
0.0
 10
5.051122557379004
 20
-8.55023975109308
 30
0.0
 10
5.051122557379004
 20
-9.017491147424426
 30
0.0
 10
5.051122557379004
 20
-9.464979449734303
 30
0.0
  0
SPLINE
  5
B7
330
1F
100
AcDbEntity
  8
0
  6
Continuous
 62
     1
370
    15
100
AcDbSpline
210
0.0
220
0.0
230
1.0
 70
     8
 71
     3
 72
    60
 73
    56
 74
     0
 42
0.000000001
 43
0.00000001
 40
0.0
 40
0.0
 40
0.0
 40
0.0
 40
0.03125
 40
0.03125
 40
0.0624999999999999
 40
0.0624999999999999
 40
0.1249999999999998
 40
0.1249999999999998
 40
0.1874999999999997
 40
0.1874999999999997
 40
0.2499999999999997
 40
0.2499999999999997
 40
0.2812499999999997
 40
0.2812499999999997
 40
0.3124999999999997
 40
0.3124999999999997
 40
0.3437499999999997
 40
0.3437499999999997
 40
0.3749999999999997
 40
0.3749999999999997
 40
0.4062499999999997
 40
0.4062499999999997
 40
0.4374999999999997
 40
0.4374999999999997
 40
0.4687499999999997
 40
0.4687499999999997
 40
0.4999999999999997
 40
0.4999999999999997
 40
0.5312499999999996
 40
0.5312499999999996
 40
0.5624999999999996
 40
0.5624999999999996
 40
0.6249999999999996
 40
0.6249999999999996
 40
0.6562499999999996
 40
0.6562499999999996
 40
0.6874999999999997
 40
0.6874999999999997
 40
0.7187499999999998
 40
0.7187499999999998
 40
0.7499999999999998
 40
0.7499999999999998
 40
0.7812499999999998
 40
0.7812499999999998
 40
0.8124999999999999
 40
0.8124999999999999
 40
0.84375
 40
0.84375
 40
0.875
 40
0.875
 40
0.9062500000000001
 40
0.9062500000000001
 40
0.9375000000000002
 40
0.9375000000000002
 40
1.0
 40
1.0
 40
1.0
 40
1.0
 10
5.051122557378938
 20
8.871768764586648
 30
0.0
 10
5.519789861519734
 20
8.774994728400264
 30
0.0
 10
5.990117629074162
 20
8.667288734363618
 30
0.0
 10
6.928947328073659
 20
8.431157861203815
 30
0.0
 10
7.395659397746628
 20
8.302916376058883
 30
0.0
 10
8.799843259798308
 20
7.888047112719518
 30
0.0
 10
9.742004806015707
 20
7.570942522613712
 30
0.0
 10
11.61128876899419
 20
6.868040373731012
 30
0.0
 10
12.55589343449179
 20
6.480017753391083
 30
0.0
 10
14.42395150710828
 20
5.64774502667929
 30
0.0
 10
15.36737764756899
 20
5.20058218821335
 30
0.0
 10
16.77078999907954
 20
4.497035596974784
 30
0.0
 10
17.2379341859754
 20
4.256882491885023
 30
0.0
 10
18.17696404874659
 20
3.765979883759431
 30
0.0
 10
18.64723755397722
 20
3.515499921564056
 30
0.0
 10
19.58415692033398
 20
3.007243674194626
 30
0.0
 10
20.05036274472765
 20
2.749561501767777
 30
0.0
 10
20.9887637242366
 20
2.22703463108523
 30
0.0
 10
21.45914140656192
 20
1.962516959036052
 30
0.0
 10
22.39710257996249
 20
1.429870876685731
 30
0.0
 10
22.86311285921018
 20
1.16204887157528
 30
0.0
 10
23.80061420523554
 20
0.6231871182081146
 30
0.0
 10
24.27095955556576
 20
0.3523627574450436
 30
0.0
 10
25.20969220915082
 20
-0.1891103094723238
 30
0.0
 10
25.67624994841262
 20
-0.4594055677642293
 30
0.0
 10
26.61258177647044
 20
-0.9988409808837171
 30
0.0
 10
27.08275831704496
 20
-1.26805582483282
 30
0.0
 10
28.02199138115967
 20
-1.802525758635044
 30
0.0
 10
28.48983905985241
 20
-2.06755302526134
 30
0.0
 10
29.42473260939452
 20
-2.591795545392932
 30
0.0
 10
29.89460402598375
 20
-2.851533672525418
 30
0.0
 10
31.30379691016237
 20
-3.619290355004436
 30
0.0
 10
32.23685346771888
 20
-4.114819527401357
 30
0.0
 10
33.64598198116123
 20
-4.826179904208711
 30
0.0
 10
34.11596445999132
 20
-5.05774105836846
 30
0.0
 10
35.05134114173375
 20
-5.507264667619211
 30
0.0
 10
35.51870133634002
 20
-5.725557764604804
 30
0.0
 10
36.45780570035929
 20
-6.14834154051524
 30
0.0
 10
36.92805028385096
 20
-6.352588283377486
 30
0.0
 10
37.86478051250727
 20
-6.744594903755234
 30
0.0
 10
38.3310851260992
 20
-6.932358371183802
 30
0.0
 10
39.26960341736508
 20
-7.29134310099239
 30
0.0
 10
39.73997372538226
 20
-7.462297466216413
 30
0.0
 10
40.67778835772409
 20
-7.785272443242185
 30
0.0
 10
41.14378011278627
 20
-7.937162710387443
 30
0.0
 10
42.08144146811083
 20
-8.221886938197228
 30
0.0
 10
42.55180099870947
 20
-8.354549340111525
 30
0.0
 10
43.49042984888567
 20
-8.599001915644465
 30
0.0
 10
43.95685176836987
 20
-8.71066693205821
 30
0.0
 10
44.89338614936286
 20
-8.912859008066809
 30
0.0
 10
45.3635984110423
 20
-9.003356211794038
 30
0.0
 10
46.30277050938533
 20
-9.16210153597426
 30
0.0
 10
46.77036520312777
 20
-9.230295963612965
 30
0.0
 10
48.17307288049432
 20
-9.401028230067322
 30
0.0
 10
49.11764765066867
 20
-9.469754047512025
 30
0.0
 10
50.05112255737895
 20
-9.49197074468161
 30
0.0
  0
SPLINE
  5
B8
330
1F
100
AcDbEntity
  8
0
  6
Continuous
 62
     1
370
    15
100
AcDbSpline
210
0.0
220
0.0
230
1.0
 70
     8
 71
     3
 72
    15
 73
    11
 74
     0
 42
0.000000001
 43
0.00000001
 40
0.0
 40
0.0
 40
0.0
 40
0.0
 40
0.0200714609110891
 40
0.1603764740657454
 40
0.3006810931864486
 40
0.4409853307605841
 40
0.5812891992853242
 40
0.7208601337652947
 40
0.8604303888096395
 40
1.0
 40
1.0
 40
1.0
 40
1.0
 10
26.45535747798392
 20
-0.9046592633371506
 30
0.0
 10
26.31215244998355
 20
-0.8481275381905997
 30
0.0
 10
25.16790502519855
 20
-0.3964235594907406
 30
0.0
 10
23.02261890962507
 20
0.4819580647421259
 30
0.0
 10
20.01950169076879
 20
1.681616472776221
 30
0.0
 10
17.01639416943609
 20
2.828894728310619
 30
0.0
 10
14.01851986408976
 20
3.880408925254288
 30
0.0
 10
11.02589142130056
 20
4.798312249992311
 30
0.0
 10
8.038501130039688
 20
5.571227359163343
 30
0.0
 10
6.046913883691338
 20
5.928566616236645
 30
0.0
 10
5.051122557378956
 20
6.10723583266035
 30
0.0
  0
SPLINE
  5
B9
330
1F
100
AcDbEntity
  8
0
  6
Continuous
 62
     4
370
    15
100
AcDbSpline
210
0.0
220
0.0
230
1.0
 70
    24
 71
     3
 72
    10
 73
     6
 74
     0
 42
0.000000001
 43
0.00000001
 40
0.0
 40
0.0
 40
0.0
 40
0.0
 40
0.4999999999999996
 40
0.4999999999999996
 40
1.0
 40
1.0
 40
1.0
 40
1.0
 10
5.051122557378949
 20
8.871768764586642
 30
0.0
 10
5.051122557378949
 20
8.48299875103256
 30
0.0
 10
5.051122557378949
 20
8.024357255599776
 30
0.0
 10
5.051122557378949
 20
7.066253170953114
 30
0.0
 10
5.051122557378949
 20
6.56953314028878
 30
0.0
 10
5.051122557378949
 20
6.10723583266035
 30
0.0
  0
SPLINE
  5
BA
330
1F
100
AcDbEntity
  8
0
  6
Continuous
 62
     1
370
    15
100
AcDbSpline
210
0.0
220
0.0
230
1.0
 70
     8
 71
     3
 72
    60
 73
    56
 74
     0
 42
0.000000001
 43
0.00000001
 40
0.0
 40
0.0
 40
0.0
 40
0.0
 40
0.0624999999999998
 40
0.0624999999999998
 40
0.0937499999999996
 40
0.0937499999999996
 40
0.1249999999999995
 40
0.1249999999999995
 40
0.1562499999999994
 40
0.1562499999999994
 40
0.1874999999999993
 40
0.1874999999999993
 40
0.2187499999999992
 40
0.2187499999999992
 40
0.2499999999999991
 40
0.2499999999999991
 40
0.2812499999999989
 40
0.2812499999999989
 40
0.3124999999999988
 40
0.3124999999999988
 40
0.3437499999999987
 40
0.3437499999999987
 40
0.3749999999999986
 40
0.3749999999999986
 40
0.4374999999999984
 40
0.4374999999999984
 40
0.4687499999999985
 40
0.4687499999999985
 40
0.4999999999999986
 40
0.4999999999999986
 40
0.5312499999999987
 40
0.5312499999999987
 40
0.5624999999999987
 40
0.5624999999999987
 40
0.5937499999999988
 40
0.5937499999999988
 40
0.6249999999999988
 40
0.6249999999999988
 40
0.6562499999999989
 40
0.6562499999999989
 40
0.687499999999999
 40
0.687499999999999
 40
0.7187499999999991
 40
0.7187499999999991
 40
0.7499999999999992
 40
0.7499999999999992
 40
0.8124999999999994
 40
0.8124999999999994
 40
0.8749999999999996
 40
0.8749999999999996
 40
0.9374999999999998
 40
0.9374999999999998
 40
0.9687499999999999
 40
0.9687499999999999
 40
1.0
 40
1.0
 40
1.0
 40
1.0
 10
50.05112255737895
 20
-9.014938257703042
 30
0.0
 10
49.11764765066864
 20
-8.844441356434867
 30
0.0
 10
48.1730728804943
 20
-8.629186290678284
 30
0.0
 10
46.77036520312771
 20
-8.246074371133677
 30
0.0
 10
46.30277050938525
 20
-8.108194925221163
 30
0.0
 10
45.36359841104223
 20
-7.812620336408513
 30
0.0
 10
44.8933861493628
 20
-7.655048616092957
 30
0.0
 10
43.95685176836978
 20
-7.322113300151925
 30
0.0
 10
43.49042984888556
 20
-7.146769263399041
 30
0.0
 10
42.55180099870935
 20
-6.778387146849109
 30
0.0
 10
42.08144146811068
 20
-6.585562197983225
 30
0.0
 10
41.1437801127861
 20
-6.184771798611467
 30
0.0
 10
40.67778835772391
 20
-5.977023875564004
 30
0.0
 10
39.73997372538205
 20
-5.546635503180189
 30
0.0
 10
39.26960341736489
 20
-5.324189878026727
 30
0.0
 10
38.33108512609901
 20
-4.867220644525647
 30
0.0
 10
37.86478051250705
 20
-4.633019451510808
 30
0.0
 10
36.9280502838507
 20
-4.153244374656611
 30
0.0
 10
36.45780570035902
 20
-3.907681947502142
 30
0.0
 10
35.51870133633973
 20
-3.407869646484332
 30
0.0
 10
35.05134114173348
 20
-3.153898272048861
 30
0.0
 10
34.11596445999103
 20
-2.638800023158002
 30
0.0
 10
33.64598198116094
 20
-2.377303537846721
 30
0.0
 10
32.23685346771856
 20
-1.585222446715954
 30
0.0
 10
31.30379691016202
 20
-1.048065396273206
 30
0.0
 10
29.89460402598338
 20
-0.2367743184483861
 30
0.0
 10
29.42473260939415
 20
0.034301254669836
 30
0.0
 10
28.48983905985203
 20
0.574777671911735
 30
0.0
 10
28.02199138115925
 20
0.8447237214331176
 30
0.0
 10
27.08275831704452
 20
1.382578822844744
 30
0.0
 10
26.61258177647
 20
1.650252561662408
 30
0.0
 10
25.67624994841217
 20
2.180175159938092
 30
0.0
 10
25.20969220915037
 20
2.442507997964262
 30
0.0
 10
24.27095955556529
 20
2.961635884244527
 30
0.0
 10
23.80061420523506
 20
3.218081484772872
 30
0.0
 10
22.86311285920969
 20
3.721939051714802
 30
0.0
 10
22.39710257996198
 20
3.969162217352072
 30
0.0
 10
21.45914140656139
 20
4.454397063399174
 30
0.0
 10
20.98876372423606
 20
4.692116865542897
 30
0.0
 10
20.05036274472708
 20
5.155153993041721
 30
0.0
 10
19.58415692033343
 20
5.380193796315087
 30
0.0
 10
18.64723755397663
 20
5.817373993280768
 30
0.0
 10
18.176964048746
 20
6.029420832103915
 30
0.0
 10
17.23793418597479
 20
6.438075107362486
 30
0.0
 10
16.77078999907893
 20
6.634467525375304
 30
0.0
 10
15.36737764756836
 20
7.199047351203452
 30
0.0
 10
14.42395150710763
 20
7.543076809793519
 30
0.0
 10
12.5558934344911
 20
8.152381563180297
 30
0.0
 10
11.61128876899347
 20
8.419776233090964
 30
0.0
 10
9.742004806014965
 20
8.868369980767543
 30
0.0
 10
8.799843259797541
 20
9.051021499763243
 30
0.0
 10
7.395659397745844
 20
9.25714089610424
 30
0.0
 10
6.928947328072865
 20
9.314622313413429
 30
0.0
 10
5.990117629073347
 20
9.40698165870766
 30
0.0
 10
5.519789861518915
 20
9.441764845862055
 30
0.0
 10
5.051122557378119
 20
9.464979449747808
 30
0.0
  0
SPLINE
  5
BB
330
1F
100
AcDbEntity
  8
0
  6
Continuous
 62
     1
370
    15
100
AcDbSpline
210
0.0
220
0.0
230
1.0
 70
     8
 71
     3
 72
    16
 73
    12
 74
     0
 42
0.000000001
 43
0.00000001
 40
0.0
 40
0.0
 40
0.0
 40
0.0
 40
0.1218222725305965
 40
0.2436441335696098
 40
0.3654655934532835
 40
0.487286662528024
 40
0.609107351150139
 40
0.730927669685582
 40
0.8527476285096898
 40
0.974567238006924
 40
1.0
 40
1.0
 40
1.0
 40
1.0
 10
50.05112255737895
 20
-7.495236511498042
 30
0.0
 10
49.05005010874219
 20
-7.288362907099912
 30
0.0
 10
47.04790859289373
 20
-6.87461639708184
 30
0.0
 10
44.04470322451755
 20
-5.958915620469472
 30
0.0
 10
41.04150910260964
 20
-4.86319058574358
 30
0.0
 10
38.03832607223165
 20
-3.600986175692607
 30
0.0
 10
35.03515381229431
 20
-2.221004945945642
 30
0.0
 10
32.03199200360046
 20
-0.7648398164142174
 30
0.0
 10
29.02884048384453
 20
0.7089274028711039
 30
0.0
 10
26.81775037807962
 20
1.797865784829104
 30
0.0
 10
25.60771111640965
 20
2.349947301023793
 30
0.0
 10
25.39871862119298
 20
2.445300317481527
 30
0.0
  0
LINE
  5
BC
330
1F
100
AcDbEntity
  8
0
  6
Continuous
 62
     1
370
    15
100
AcDbLine
 10
50.05112255737895
 20
-9.014938257703044
 30
0.0
 11
50.05112255737895
 21
-7.495236511498042
 31
0.0
  0
LINE
  5
BD
330
1F
100
AcDbEntity
  8
0
  6
Continuous
 62
     1
370
    15
100
AcDbLine
 10
50.05112255737895
 20
-9.491970744681616
 30
0.0
 11
50.05112255737838
 21
-9.014938257703047
 31
0.0
  0
SPLINE
  5
BE
330
1F
100
AcDbEntity
  8
0
  6
Continuous
 62
     1
370
    15
100
AcDbSpline
210
0.0
220
0.0
230
1.0
 70
     8
 71
     3
 72
    12
 73
     8
 74
     0
 42
0.000000001
 43
0.00000001
 40
0.0
 40
0.0
 40
0.0
 40
0.0
 40
0.5
 40
0.5
 40
0.75
 40
0.75
 40
1.0
 40
1.0
 40
1.0
 40
1.0
 10
50.05112255737895
 20
-2.538807987281617
 30
0.0
 10
49.19283092503893
 20
-1.864049104029315
 30
0.0
 10
48.34672005950802
 20
-1.165795689208821
 30
0.0
 10
47.09588203480157
 20
-0.0830635887980082
 30
0.0
 10
46.68202963030782
 20
0.2838141224399647
 30
0.0
 10
45.86097407003933
 20
1.030394762439974
 30
0.0
 10
45.45235925906793
 20
1.41145418808718
 30
0.0
 10
45.05112255737895
 20
1.79637789357987
 30
0.0
  0
LINE
  5
BF
330
1F
100
AcDbEntity
  8
0
  6
Continuous
 62
     1
370
    15
100
AcDbLine
 10
45.05112255737895
 20
2.937719435296596
 30
0.0
 11
50.05112255737895
 21
0.0000000000000095
 31
0.0
  0
LINE
  5
C0
330
1F
100
AcDbEntity
  8
0
  6
Continuous
 62
     1
370
    15
100
AcDbLine
 10
50.05112255737895
 20
0.0000000000000095
 30
0.0
 11
50.05112255737895
 21
-2.538807987281617
 31
0.0
  0
SPLINE
  5
C1
330
1F
100
AcDbEntity
  8
0
  6
Continuous
 62
     1
370
    15
100
AcDbSpline
210
0.0
220
0.0
230
1.0
 70
     8
 71
     3
 72
    16
 73
    12
 74
     0
 42
0.000000001
 43
0.00000001
 40
0.0
 40
0.0
 40
0.0
 40
0.0
 40
0.1026857459018809
 40
0.2053997335034623
 40
0.308209181179514
 40
0.440183396025303
 40
0.5721572042381718
 40
0.7041306172193155
 40
0.8361036463799892
 40
0.968076303141224
 40
1.0
 40
1.0
 40
1.0
 40
1.0
 10
45.05112255737894
 20
2.273772367954915
 30
0.0
 10
44.2723608394575
 20
2.612706889699045
 30
0.0
 10
42.71462322048352
 20
3.290669150477563
 30
0.0
 10
40.37716878878782
 20
4.229384807223359
 30
0.0
 10
37.81710385195449
 20
5.166465688244717
 30
0.0
 10
35.03518299162005
 20
6.045817670770131
 30
0.0
 10
32.03201977013406
 20
6.792749408738763
 30
0.0
 10
29.02887467452586
 20
7.319498184555759
 30
0.0
 10
26.02573741931305
 20
7.582822653626405
 30
0.0
 10
23.78150126865917
 20
7.647956571636931
 30
0.0
 10
22.53831090957791
 20
7.54591488106392
 30
0.0
 10
22.29616255615526
 20
7.526039222302393
 30
0.0
  0
SPLINE
  5
C2
330
1F
100
AcDbEntity
  8
0
  6
Continuous
 62
     1
370
    15
100
AcDbSpline
210
0.0
220
0.0
230
1.0
 70
    24
 71
     3
 72
     8
 73
     4
 74
     0
 42
0.000000001
 43
0.00000001
 40
0.0
 40
0.0
 40
0.0
 40
0.0
 40
1.0
 40
1.0
 40
1.0
 40
1.0
 10
45.05112255737894
 20
1.796377893579789
 30
0.0
 10
45.05112255737894
 20
1.956852515054365
 30
0.0
 10
45.05112255737895
 20
2.116059716465649
 30
0.0
 10
45.05112255737895
 20
2.273772367954912
 30
0.0
  0
SPLINE
  5
C3
330
1F
100
AcDbEntity
  8
0
  6
Continuous
 62
     1
370
    15
100
AcDbSpline
210
0.0
220
0.0
230
1.0
 70
    24
 71
     3
 72
    10
 73
     6
 74
     0
 42
0.000000001
 43
0.00000001
 40
0.0
 40
0.0
 40
0.0
 40
0.0
 40
0.5
 40
0.5
 40
1.0
 40
1.0
 40
1.0
 40
1.0
 10
50.05112255737895
 20
-7.495236511498041
 30
0.0
 10
50.05112255737895
 20
-6.920668195536136
 30
0.0
 10
50.05112255737895
 20
-6.194679097111442
 30
0.0
 10
50.05112255737893
 20
-4.50682431193145
 30
0.0
 10
50.05112255737893
 20
-3.546420708987434
 30
0.0
 10
50.05112255737895
 20
-2.53880798728192
 30
0.0
  0
SPLINE
  5
C4
330
1F
100
AcDbEntity
  8
0
  6
Continuous
 62
     1
370
    15
100
AcDbSpline
210
0.0
220
0.0
230
1.0
 70
    24
 71
     3
 72
    10
 73
     6
 74
     0
 42
0.000000001
 43
0.00000001
 40
0.0
 40
0.0
 40
0.0
 40
0.0
 40
0.5
 40
0.5
 40
1.0
 40
1.0
 40
1.0
 40
1.0
 10
45.05112255737895
 20
2.273772367954911
 30
0.0
 10
45.05112255737894
 20
2.797713495818666
 30
0.0
 10
45.05112255737895
 20
3.296575618302775
 30
0.0
 10
45.05112255737894
 20
4.207145092472999
 30
0.0
 10
45.05112255737895
 20
4.618594015698935
 30
0.0
 10
45.05112255737895
 20
4.97070380830428
 30
0.0
  0
SPLINE
  5
C5
330
1F
100
AcDbEntity
  8
0
  6
Continuous
 62
     1
370
    15
100
AcDbSpline
210
0.0
220
0.0
230
1.0
 70
     8
 71
     3
 72
     9
 73
     5
 74
     0
 42
0.000000001
 43
0.00000001
 40
0.0
 40
0.0
 40
0.0
 40
0.0
 40
0.849941981817985
 40
1.0
 40
1.0
 40
1.0
 40
1.0
 10
50.05112255737895
 20
6.65000000000001
 30
0.0
 10
49.05005198537879
 20
6.643955816184764
 30
0.0
 10
47.87224150723424
 20
6.636844526303167
 30
0.0
 10
46.69443166963004
 20
6.501943069914999
 30
0.0
 10
46.51769185960388
 20
6.481700024719523
 30
0.0
  0
SPLINE
  5
C6
330
1F
100
AcDbEntity
  8
0
  6
Continuous
 62
     1
370
    15
100
AcDbSpline
210
0.0
220
0.0
230
1.0
 70
     8
 71
     3
 72
    10
 73
     6
 74
     0
 42
0.000000001
 43
0.00000001
 40
0.0
 40
0.0
 40
0.0
 40
0.0
 40
0.5
 40
0.5
 40
1.0
 40
1.0
 40
1.0
 40
1.0
 10
50.05112255737895
 20
6.65000000000001
 30
0.0
 10
49.20814394980538
 20
6.421432678044051
 30
0.0
 10
48.36949427227199
 20
6.168445901430628
 30
0.0
 10
46.70140348781538
 20
5.610609224443732
 30
0.0
 10
45.87281524546013
 20
5.306544053812206
 30
0.0
 10
45.05112255737895
 20
4.970703808304282
 30
0.0
  0
SPLINE
  5
C7
330
1F
100
AcDbEntity
  8
0
  6
Continuous
 62
     1
370
    15
100
AcDbSpline
210
0.0
220
0.0
230
1.0
 70
     8
 71
     3
 72
    16
 73
    12
 74
     0
 42
0.000000001
 43
0.00000001
 40
0.0
 40
0.0
 40
0.0
 40
0.0
 40
0.0364056416311338
 40
0.1570925144432199
 40
0.2777790467029671
 40
0.3984652488633694
 40
0.5191511313858324
 40
0.6398367047399084
 40
0.759891695853075
 40
0.8799461176675059
 40
1.0
 40
1.0
 40
1.0
 40
1.0
 10
29.93477928487619
 20
-7.118873547721302
 30
0.0
 10
29.63281004949541
 20
-7.173565660315797
 30
0.0
 10
28.32979479292879
 20
-7.409565387356274
 30
0.0
 10
26.0257375083339
 20
-7.584707601593524
 30
0.0
 10
23.02261021228006
 20
-7.625515340120112
 30
0.0
 10
20.01949210449171
 20
-7.395787478725791
 30
0.0
 10
17.01638373236237
 20
-6.924887640079071
 30
0.0
 10
14.01850920740738
 20
-6.224457452584892
 30
0.0
 10
11.0258837351484
 20
-5.318229333156166
 30
0.0
 10
8.038497121871803
 20
-4.245776005344867
 30
0.0
 10
6.046912587294279
 20
-3.42012041831976
 30
0.0
 10
5.051122557378956
 20
-3.007293552360037
 30
0.0
  0
SPLINE
  5
C8
330
1F
100
AcDbEntity
  8
0
  6
Continuous
 62
     4
370
    15
100
AcDbSpline
210
0.0
220
0.0
230
1.0
 70
    24
 71
     3
 72
    14
 73
    10
 74
     0
 42
0.000000001
 43
0.00000001
 40
0.0
 40
0.0
 40
0.0
 40
0.0
 40
0.25
 40
0.25
 40
0.5
 40
0.5
 40
0.75
 40
0.75
 40
1.0
 40
1.0
 40
1.0
 40
1.0
 10
5.051122557378949
 20
6.10723583266035
 30
0.0
 10
5.051122557378949
 20
5.617330534644674
 30
0.0
 10
5.051122557378949
 20
5.027820395294629
 30
0.0
 10
5.051122557378949
 20
3.679020274834846
 30
0.0
 10
5.051122557378949
 20
2.920055851464791
 30
0.0
 10
5.051122557378949
 20
1.300141197746588
 30
0.0
 10
5.051122557378949
 20
0.4400541256516916
 30
0.0
 10
5.051122557378949
 20
-1.29405595983099
 30
0.0
 10
5.051122557378949
 20
-2.167212226842859
 30
0.0
 10
5.051122557378949
 20
-3.007293552360033
 30
0.0
  0
LINE
  5
C9
330
1F
100
AcDbEntity
  8
0
  6
Continuous
 62
     1
370
    15
100
AcDbLine
 10
7.993524541321332
 20
-7.904948292982917
 30
0.0
 11
5.051122557378977
 21
-8.072357721616576
 31
0.0
  0
SPLINE
  5
CA
330
1F
100
AcDbEntity
  8
0
  6
Continuous
 62
     4
370
    15
100
AcDbSpline
210
0.0
220
0.0
230
1.0
 70
    24
 71
     3
 72
    14
 73
    10
 74
     0
 42
0.000000001
 43
0.00000001
 40
0.0
 40
0.0
 40
0.0
 40
0.0
 40
0.2500000000000001
 40
0.2500000000000001
 40
0.5000000000000002
 40
0.5000000000000002
 40
0.7500000000000001
 40
0.7500000000000001
 40
1.0
 40
1.0
 40
1.0
 40
1.0
 10
5.051122557378949
 20
-3.007293552360034
 30
0.0
 10
5.051122557378949
 20
-3.642135971243984
 30
0.0
 10
5.051122557378949
 20
-4.253160075899103
 30
0.0
 10
5.051122557378949
 20
-5.377155958485617
 30
0.0
 10
5.051122557378949
 20
-5.889718960409781
 30
0.0
 10
5.051122557378949
 20
-6.774964417380509
 30
0.0
 10
5.051122557378949
 20
-7.147391240411698
 30
0.0
 10
5.051122557378949
 20
-7.730574754247292
 30
0.0
 10
5.051122557378949
 20
-7.941348527300169
 30
0.0
 10
5.051122557378949
 20
-8.072357721616575
 30
0.0
  0
LINE
  5
CB
330
1F
100
AcDbEntity
  8
0
  6
Continuous
 62
     1
370
    15
100
AcDbLine
 10
50.05112255737895
 20
0.0000000000000095
 30
0.0
 11
50.05112255737895
 21
6.650000000000008
 31
0.0
  0
SPLINE
  5
CC
330
1F
100
AcDbEntity
  8
0
  6
Continuous
 62
     1
370
    15
100
AcDbSpline
210
0.0
220
0.0
230
1.0
 70
    24
 71
     3
 72
    10
 73
     6
 74
     0
 42
0.000000001
 43
0.00000001
 40
0.0
 40
0.0
 40
0.0
 40
0.0
 40
0.5
 40
0.5
 40
1.0
 40
1.0
 40
1.0
 40
1.0
 10
50.05112255737895
 20
6.650000000000008
 30
0.0
 10
50.05112255737895
 20
7.05310643966949
 30
0.0
 10
50.05112255737895
 20
7.521553454237622
 30
0.0
 10
50.05112255737893
 20
8.504354029128137
 30
0.0
 10
50.05112255737895
 20
9.016197640114
 30
0.0
 10
50.05112255737895
 20
9.49197074468163
 30
0.0
  0
SPLINE
  5
CD
330
1F
100
AcDbEntity
  8
0
  6
Continuous
 62
     1
370
    15
100
AcDbSpline
210
0.0
220
0.0
230
1.0
 70
     8
 71
     3
 72
    17
 73
    13
 74
     0
 42
0.000000001
 43
0.00000001
 40
0.0
 40
0.0
 40
0.0
 40
0.0
 40
0.0094337174232009
 40
0.1147134916086131
 40
0.2231831740693327
 40
0.3320575537394159
 40
0.4411356757164077
 40
0.5506231111346231
 40
0.6624106740243487
 40
0.7744193260746361
 40
0.8870964109650811
 40
0.9999999999999999
 40
0.9999999999999999
 40
0.9999999999999999
 40
0.9999999999999999
 10
36.97897001239054
 20
6.368319345003289
 30
0.0
 10
37.02008688257725
 20
6.387135020684156
 30
0.0
 10
37.52006579137241
 20
6.615932615259055
 30
0.0
 10
38.4916395553435
 20
6.995569027723381
 30
0.0
 10
39.89858168185938
 20
7.526071699387283
 30
0.0
 10
41.31994619176626
 20
7.999273894241444
 30
0.0
 10
42.74758302422567
 20
8.41480905829508
 30
0.0
 10
44.18640672441752
 20
8.770644620127037
 30
0.0
 10
45.63918931425202
 20
9.061377927619565
 30
0.0
 10
47.10500430866701
 20
9.282182109595093
 30
0.0
 10
48.57625337047897
 20
9.434903629500262
 30
0.0
 10
49.55917051475869
 20
9.472935643718586
 30
0.0
 10
50.05112255737851
 20
9.491970744681609
 30
0.0
  0
SPLINE
  5
CE
330
1F
100
AcDbEntity
  8
0
  6
Continuous
 62
     1
370
    15
100
AcDbSpline
210
0.0
220
0.0
230
1.0
 70
     8
 71
     3
 72
    11
 73
     7
 74
     0
 42
0.000000001
 43
0.00000001
 40
0.0
 40
0.0
 40
0.0
 40
0.0
 40
0.2203301400976834
 40
0.4801276426663568
 40
0.7400789777882792
 40
1.0
 40
1.0
 40
1.0
 40
1.0
 10
14.57655796069862
 20
-7.466062681238591
 30
0.0
 10
13.87704836920065
 20
-7.708212849125226
 30
0.0
 10
12.35272722530484
 20
-8.235889131757862
 30
0.0
 10
10.00303343858304
 20
-8.82622307606789
 30
0.0
 10
7.527172164553588
 20
-9.281126732557235
 30
0.0
 10
5.876440342608864
 20
-9.403697592986672
 30
0.0
 10
5.051122557378123
 20
-9.464979449747801
 30
0.0
  0
SPLINE
  5
CF
330
1F
100
AcDbEntity
  8
0
  6
Continuous
 62
     4
370
    15
100
AcDbSpline
210
0.0
220
0.0
230
1.0
 70
    24
 71
     3
 72
     8
 73
     4
 74
     0
 42
0.000000001
 43
0.00000001
 40
0.0
 40
0.0
 40
0.0
 40
0.0
 40
1.0
 40
1.0
 40
1.0
 40
1.0
 10
5.051122557379004
 20
-8.072357721616575
 30
0.0
 10
5.051122557379004
 20
-8.550239751093072
 30
0.0
 10
5.051122557379004
 20
-9.017491147424412
 30
0.0
 10
5.051122557379004
 20
-9.464979449734281
 30
0.0
  0
LINE
  5
D0
330
1F
100
AcDbEntity
  8
중심선
100
AcDbLine
 10
-52.94887744262105
 20
0.0
 30
0.0
 11
57.05112255737895
 21
0.0000000000000097
 31
0.0
  0
CIRCLE
  5
D1
330
1F
100
AcDbEntity
  8
외형선
100
AcDbCircle
 10
0.0
 20
0.0
 30
0.0
 40
3.000000000000004
  0
INSERT
  5
D2
330
1F
100
AcDbEntity
  8
0
  6
Continuous
 62
     7
100
AcDbBlockReference
 66
     1
  2
블럭10
 10
-28.88715088213266
 20
-52.04717430164393
 30
0.0
  0
ATTRIB
  5
D3
330
D2
100
AcDbEntity
  8
FORMAT
 62
     2
100
AcDbText
 10
-41.84709007699043
 20
-49.97180738881174
 30
0.0
 40
4.233333333333333
  1
SEME35190E [ 2 FLUTE ]
 41
0.75
  7
SLDTEXTSTYLE0
 11
-41.84709007699043
 21
-52.08847405547841
 31
0.0
100
AcDbAttribute
  2
AUTOATTR0
 70
     0
 74
     1
  0
SEQEND
  5
D4
330
D2
100
AcDbEntity
  8
0
  6
Continuous
 62
     7
  0
HATCH
  5
D5
330
1F
100
AcDbEntity
  8
중심선
100
AcDbHatch
 10
0.0
 20
0.0
 30
0.0
210
0.0
220
0.0
230
1.0
  2
SOLID
 70
     1
 71
     0
 91
        1
 92
        0
 93
        4
 72
     1
 10
-23.17224157775181
 20
-35.8
 11
-26.61851682158909
 21
-35.8
 72
     1
 10
-26.61851682158909
 20
-35.8
 11
-28.74674668079311
 21
-38.33632558057259
 72
     1
 10
-28.74674668079311
 20
-38.33632558057259
 11
-25.30043835184268
 21
-38.3362861512701
 72
     1
 10
-25.30043835184268
 20
-38.3362861512701
 11
-23.17224157775181
 21
-35.8
 97
        0
 75
     0
 76
     1
 98
        1
 10
-4.948877442621046
 20
0.0000000000000035
  0
HATCH
  5
D6
330
1F
100
AcDbEntity
  8
중심선
100
AcDbHatch
 10
0.0
 20
0.0
 30
0.0
210
0.0
220
0.0
230
1.0
  2
SOLID
 70
     1
 71
     0
 91
        1
 92
        0
 93
        4
 72
     1
 10
-18.15947758671586
 20
-35.8
 11
-21.60575283055314
 21
-35.8
 72
     1
 10
-21.60575283055314
 20
-35.8
 11
-26.13689083891052
 21
-41.20000000000002
 72
     1
 10
-26.13689083891052
 20
-41.20000000000002
 11
-22.69061559507324
 21
-41.20000000000002
 72
     1
 10
-22.69061559507324
 20
-41.20000000000002
 11
-18.15947758671586
 21
-35.8
 97
        0
 75
     0
 76
     1
 98
        1
 10
-4.948877442621046
 20
0.0000000000000035
  0
HATCH
  5
D7
330
1F
100
AcDbEntity
  8
중심선
100
AcDbHatch
 10
0.0
 20
0.0
 30
0.0
210
0.0
220
0.0
230
1.0
  2
SOLID
 70
     1
 71
     0
 91
        1
 92
        0
 93
        4
 72
     1
 10
-13.14671359567996
 20
-35.80000000000003
 11
-16.59298883951708
 21
-35.8
 72
     1
 10
-16.59298883951708
 20
-35.8
 11
-23.64142574140632
 21
-44.20000000000002
 72
     1
 10
-23.64142574140632
 20
-44.20000000000002
 11
-20.19515049756904
 21
-44.20000000000002
 72
     1
 10
-20.19515049756904
 20
-44.20000000000002
 11
-13.14671359567996
 21
-35.80000000000003
 97
        0
 75
     0
 76
     1
 98
        1
 10
-4.948877442621046
 20
0.0000000000000035
  0
HATCH
  5
D8
330
1F
100
AcDbEntity
  8
중심선
100
AcDbHatch
 10
0.0
 20
0.0
 30
0.0
210
0.0
220
0.0
230
1.0
  2
SOLID
 70
     1
 71
     0
 91
        1
 92
        0
 93
        6
 72
     3
 10
-8.346823164667759
 20
-40.00000000005127
 11
3.960054785062283
 21
1.540882976769353E-10
 40
0.3939339440162628
 50
17.09539180608436
 51
320.0019657685078
 73
     0
 72
     1
 10
-6.663823508967164
 20
-38.5878940046383
 11
-4.358521635266126
 21
-36.65356729459038
 72
     3
 10
-8.346823164720606
 20
-40.00000000000015
 11
6.600054785286829
 21
-1.278976924368180E-13
 40
0.636358354079598
 50
39.99873849337411
 51
368.4976242363724
 73
     1
 72
     1
 10
-1.921490672819997
 20
-39.03999999993002
 11
-9.666755857884684
 21
-39.03999999992999
 72
     1
 10
-9.666755857884684
 20
-39.03999999992999
 11
-9.666780902330618
 21
-40.95999999992991
 72
     1
 10
-9.666780902330618
 20
-40.95999999992991
 11
-5.225401132858582
 21
-40.95999999992988
 97
        0
 75
     0
 76
     1
 98
        1
 10
-4.948877442621046
 20
0.0000000000000035
  0
DIMENSION
  5
D9
330
1F
100
AcDbEntity
  8
치수문자_일반주서
100
AcDbDimension
  2
_D
 10
5.05112255737895
 20
21.74260463325941
 30
0.0
 11
27.55112255737894
 21
21.74260463325941
 31
0.0
 70
   160
  1
<>
 71
     2
 42
45.0
  3
SLDDIMSTYLE0
100
AcDbAlignedDimension
 13
50.05112255737895
 23
9.491970744681629
 33
0.0
 14
5.051122557378949
 24
9.464979449747766
 34
0.0
100
AcDbRotatedDimension
  0
DIMENSION
  5
E4
330
1F
100
AcDbEntity
  8
치수문자_일반주서
100
AcDbDimension
  2
_D_1
 10
-49.94887744262107
 20
29.43415911661227
 30
0.0
 11
0.0511225573789567
 21
29.43415911661227
 31
0.0
 70
   160
  1
<>
 71
     2
 42
100.0
  3
SLDDIMSTYLE0
100
AcDbAlignedDimension
 13
50.05112255737895
 23
9.49197074468163
 33
0.0
 14
-49.94887744262106
 24
8.999999999999995
 34
0.0
 50
0.0000000000000061
100
AcDbRotatedDimension
  0
DIMENSION
  5
EE
330
1F
100
AcDbEntity
  8
치수문자_일반주서
100
AcDbDimension
  2
_D_2
 10
65.61731286962528
 20
-9.49197074468156
 30
0.0
 11
65.61731286962525
 21
0.0000000000000064
 31
0.0
 70
   160
  1
%%c<>
 71
     2
 42
18.99639321486018
 52
-270.0
  3
SLDDIMSTYLE1
100
AcDbAlignedDimension
 13
50.05112255737895
 23
9.504422470178563
 33
0.0
 14
50.05112255737895
 24
-9.491970744681616
 34
0.0
 50
90.0000000000002
100
AcDbRotatedDimension
  0
DIMENSION
  5
FC
330
1F
100
AcDbEntity
  8
치수문자_일반주서
100
AcDbDimension
  2
_D_3
 10
-61.36843688800956
 20
-10.00000000000004
 30
0.0
 11
-61.3684368880096
 21
0.000000000000004
 31
0.0
 70
   160
  1
%%c<>
 71
     2
 42
19.99999999999999
 52
-270.0
  3
SLDDIMSTYLE1
100
AcDbAlignedDimension
 13
-48.94887744262106
 23
9.999999999999996
 33
0.0
 14
-48.94887744262106
 24
-9.999999999999996
 34
0.0
 50
90.0000000000002
100
AcDbRotatedDimension
  0
INSERT
  5
10F
330
1F
100
AcDbEntity
  8
외형선
100
AcDbBlockReference
  2
SW_DOWELSYMBOL_0
 10
0.0
 20
0.0
 30
0.0
  0
LINE
  5
162
330
1F
100
AcDbEntity
  8
0
  6
Continuous
 62
     4
370
    15
100
AcDbLine
 10
3.178281084148392
 20
10.0
 30
0.0
 11
3.552539537395171
 21
9.62574154675322
 31
0.0
1001
PE_URL
1000

  0
LINE
  5
163
330
1F
100
AcDbEntity
  8
0
  6
Continuous
 62
     4
370
    15
100
AcDbLine
 10
3.178281084148394
 20
-9.999999999999991
 30
0.0
 11
3.541811633361585
 21
-9.6364694507868
 31
0.0
1001
PE_URL
1000

  0
ENDSEC
  0
SECTION
  2
OBJECTS
  0
DICTIONARY
  5
C
330
0
100
AcDbDictionary
281
     1
  3
ACAD_GROUP
350
D
  3
ACAD_LAYOUT
350
1A
  3
ACAD_MLINESTYLE
350
17
  3
ACAD_PLOTSETTINGS
350
19
  3
ACAD_PLOTSTYLENAME
350
E
  3
ACAD_SCALELIST
350
47
  3
APPDATA
350
131
  3
DWGPROPS
350
166
  0
DICTIONARY
  5
164
330
1F
100
AcDbDictionary
280
     1
281
     1
  3
DIM_BOUNDING_BOXES_V1
360
165
  0
DICTIONARY
  5
D
102
{ACAD_REACTORS
330
C
102
}
330
C
100
AcDbDictionary
281
     1
  0
DICTIONARY
  5
1A
102
{ACAD_REACTORS
330
C
102
}
330
C
100
AcDbDictionary
281
     1
  3
Layout1
350
1E
  3
Layout2
350
26
  3
Model
350
22
  0
DICTIONARY
  5
17
102
{ACAD_REACTORS
330
C
102
}
330
C
100
AcDbDictionary
281
     1
  3
Standard
350
18
  0
DICTIONARY
  5
19
102
{ACAD_REACTORS
330
C
102
}
330
C
100
AcDbDictionary
281
     1
  0
ACDBDICTIONARYWDFLT
  5
E
102
{ACAD_REACTORS
330
C
102
}
330
C
100
AcDbDictionary
281
     1
  3
Normal
350
F
100
AcDbDictionaryWithDefault
340
F
  0
DICTIONARY
  5
47
102
{ACAD_REACTORS
330
C
102
}
330
C
100
AcDbDictionary
281
     1
  3
A0
350
48
  3
A1
350
49
  3
A2
350
4A
  3
A3
350
4B
  3
A4
350
4C
  3
A5
350
4D
  3
A6
350
4E
  3
A7
350
4F
  3
A8
350
50
  3
A9
350
51
  3
B0
350
52
  3
B1
350
53
  3
B2
350
54
  3
B3
350
55
  3
B4
350
56
  3
B5
350
57
  3
B6
350
58
  3
B7
350
59
  3
B8
350
5A
  3
B9
350
5B
  3
C0
350
5C
  3
C1
350
5D
  3
C2
350
5E
  3
C3
350
5F
  3
C4
350
60
  3
C5
350
61
  3
C6
350
62
  3
C7
350
63
  3
C8
350
64
  3
C9
350
65
  3
D0
350
66
  3
D1
350
67
  3
D2
350
68
  0
DICTIONARY
  5
131
102
{ACAD_REACTORS
330
C
102
}
330
C
100
AcDbDictionary
281
     1
  0
XRECORD
  5
166
102
{ACAD_REACTORS
330
C
102
}
330
C
100
AcDbXrecord
280
     1
  1
DWGPROPS COOKIE
  2

  3

  4

  6

  7

  8
12017152
  9

300
=
301
=
302
=
303
=
304
=
305
=
306
=
307
=
308
=
309
=
 40
0.0
 41
2458250.136371829
 42
2459699.319977812
  1

 90
        0
  0
DICTIONARY
  5
165
102
{ACAD_REACTORS
330
164
102
}
330
164
100
AcDbDictionary
281
     1
  0
LAYOUT
  5
1E
102
{ACAD_REACTORS
330
1A
102
}
330
1A
100
AcDbPlotSettings
  1

  2
none_device
  4

  6

 40
0.0
 41
0.0
 42
0.0
 43
0.0
 44
0.0
 45
0.0
 46
0.0
 47
0.0
 48
0.0
 49
0.0
140
0.0
141
0.0
142
1.0
143
1.0
 70
   688
 72
     1
 73
     0
 74
     5
  7

 75
    16
147
1.0
148
0.0
149
0.0
100
AcDbLayout
  1
Layout1
 70
     1
 71
     1
 10
0.0
 20
0.0
 11
420.0
 21
297.0
 12
0.0
 22
0.0
 32
0.0
 14
1.000000000000000E+20
 24
1.000000000000000E+20
 34
1.000000000000000E+20
 15
-1.000000000000000E+20
 25
-1.000000000000000E+20
 35
-1.000000000000000E+20
146
0.0
 13
0.0
 23
0.0
 33
0.0
 16
1.0
 26
0.0
 36
0.0
 17
0.0
 27
1.0
 37
0.0
 76
     0
330
1B
  0
LAYOUT
  5
26
102
{ACAD_REACTORS
330
1A
102
}
330
1A
100
AcDbPlotSettings
  1

  2
none_device
  4

  6

 40
0.0
 41
0.0
 42
0.0
 43
0.0
 44
0.0
 45
0.0
 46
0.0
 47
0.0
 48
0.0
 49
0.0
140
0.0
141
0.0
142
1.0
143
1.0
 70
   688
 72
     1
 73
     0
 74
     5
  7

 75
    16
147
1.0
148
0.0
149
0.0
100
AcDbLayout
  1
Layout2
 70
     1
 71
     2
 10
0.0
 20
0.0
 11
0.0
 21
0.0
 12
0.0
 22
0.0
 32
0.0
 14
0.0
 24
0.0
 34
0.0
 15
0.0
 25
0.0
 35
0.0
146
0.0
 13
0.0
 23
0.0
 33
0.0
 16
1.0
 26
0.0
 36
0.0
 17
0.0
 27
1.0
 37
0.0
 76
     0
330
23
  0
LAYOUT
  5
22
102
{ACAD_REACTORS
330
1A
102
}
330
1A
100
AcDbPlotSettings
  1

  2
none_device
  4
ANSI_A_(11.00_x_8.50_Inches)
  6

 40
6.35
 41
19.05
 42
6.35000508
 43
19.05000254
 44
279.4
 45
215.9
 46
122.3093956985059
 47
106.3976036437982
 48
0.0
 49
0.0
140
0.0
141
0.0
142
0.0821570819270314
143
1.0
 70
  1696
 72
     0
 73
     0
 74
     0
  7

 75
     0
147
0.0235690232323232
148
0.0
149
0.0
100
AcDbLayout
  1
Model
 70
     1
 71
     0
 10
0.0
 20
0.0
 11
420.0
 21
297.0
 12
0.0
 22
0.0
 32
0.0
 14
-65.74343688800961
 24
-49.97180738881174
 34
0.0
 15
66.16764620295858
 25
33.80915911661226
 35
0.0
146
0.0
 13
0.0
 23
0.0
 33
0.0
 16
1.0
 26
0.0
 36
0.0
 17
0.0
 27
1.0
 37
0.0
 76
     0
330
1F
331
29
  0
MLINESTYLE
  5
18
102
{ACAD_REACTORS
330
17
102
}
330
17
100
AcDbMlineStyle
  2
Standard
 70
     0
  3

 62
   256
 51
90.0
 52
90.0
 71
     2
 49
0.5
 62
   256
  6
BYLAYER
 49
-0.5
 62
   256
  6
BYLAYER
  0
ACDBPLACEHOLDER
  5
F
102
{ACAD_REACTORS
330
E
102
}
330
E
  0
SCALE
  5
48
102
{ACAD_REACTORS
330
47
102
}
330
47
100
AcDbScale
 70
     0
300
1:1
140
1.0
141
1.0
290
     1
  0
SCALE
  5
49
102
{ACAD_REACTORS
330
47
102
}
330
47
100
AcDbScale
 70
     0
300
1:2
140
1.0
141
2.0
290
     0
  0
SCALE
  5
4A
102
{ACAD_REACTORS
330
47
102
}
330
47
100
AcDbScale
 70
     0
300
1:4
140
1.0
141
4.0
290
     0
  0
SCALE
  5
4B
102
{ACAD_REACTORS
330
47
102
}
330
47
100
AcDbScale
 70
     0
300
1:5
140
1.0
141
5.0
290
     0
  0
SCALE
  5
4C
102
{ACAD_REACTORS
330
47
102
}
330
47
100
AcDbScale
 70
     0
300
1:8
140
1.0
141
8.0
290
     0
  0
SCALE
  5
4D
102
{ACAD_REACTORS
330
47
102
}
330
47
100
AcDbScale
 70
     0
300
1:10
140
1.0
141
10.0
290
     0
  0
SCALE
  5
4E
102
{ACAD_REACTORS
330
47
102
}
330
47
100
AcDbScale
 70
     0
300
1:16
140
1.0
141
16.0
290
     0
  0
SCALE
  5
4F
102
{ACAD_REACTORS
330
47
102
}
330
47
100
AcDbScale
 70
     0
300
1:20
140
1.0
141
20.0
290
     0
  0
SCALE
  5
50
102
{ACAD_REACTORS
330
47
102
}
330
47
100
AcDbScale
 70
     0
300
1:30
140
1.0
141
30.0
290
     0
  0
SCALE
  5
51
102
{ACAD_REACTORS
330
47
102
}
330
47
100
AcDbScale
 70
     0
300
1:40
140
1.0
141
40.0
290
     0
  0
SCALE
  5
52
102
{ACAD_REACTORS
330
47
102
}
330
47
100
AcDbScale
 70
     0
300
1:50
140
1.0
141
50.0
290
     0
  0
SCALE
  5
53
102
{ACAD_REACTORS
330
47
102
}
330
47
100
AcDbScale
 70
     0
300
1:100
140
1.0
141
100.0
290
     0
  0
SCALE
  5
54
102
{ACAD_REACTORS
330
47
102
}
330
47
100
AcDbScale
 70
     0
300
2:1
140
2.0
141
1.0
290
     0
  0
SCALE
  5
55
102
{ACAD_REACTORS
330
47
102
}
330
47
100
AcDbScale
 70
     0
300
4:1
140
4.0
141
1.0
290
     0
  0
SCALE
  5
56
102
{ACAD_REACTORS
330
47
102
}
330
47
100
AcDbScale
 70
     0
300
8:1
140
8.0
141
1.0
290
     0
  0
SCALE
  5
57
102
{ACAD_REACTORS
330
47
102
}
330
47
100
AcDbScale
 70
     0
300
10:1
140
10.0
141
1.0
290
     0
  0
SCALE
  5
58
102
{ACAD_REACTORS
330
47
102
}
330
47
100
AcDbScale
 70
     0
300
100:1
140
100.0
141
1.0
290
     0
  0
SCALE
  5
59
102
{ACAD_REACTORS
330
47
102
}
330
47
100
AcDbScale
 70
     0
300
1/128" = 1'-0"
140
0.0078125
141
12.0
290
     0
  0
SCALE
  5
5A
102
{ACAD_REACTORS
330
47
102
}
330
47
100
AcDbScale
 70
     0
300
1/64" = 1'-0"
140
0.015625
141
12.0
290
     0
  0
SCALE
  5
5B
102
{ACAD_REACTORS
330
47
102
}
330
47
100
AcDbScale
 70
     0
300
1/32" = 1'-0"
140
0.03125
141
12.0
290
     0
  0
SCALE
  5
5C
102
{ACAD_REACTORS
330
47
102
}
330
47
100
AcDbScale
 70
     0
300
1/16" = 1'-0"
140
0.0625
141
12.0
290
     0
  0
SCALE
  5
5D
102
{ACAD_REACTORS
330
47
102
}
330
47
100
AcDbScale
 70
     0
300
3/32" = 1'-0"
140
0.09375
141
12.0
290
     0
  0
SCALE
  5
5E
102
{ACAD_REACTORS
330
47
102
}
330
47
100
AcDbScale
 70
     0
300
1/8" = 1'-0"
140
0.125
141
12.0
290
     0
  0
SCALE
  5
5F
102
{ACAD_REACTORS
330
47
102
}
330
47
100
AcDbScale
 70
     0
300
3/16" = 1'-0"
140
0.1875
141
12.0
290
     0
  0
SCALE
  5
60
102
{ACAD_REACTORS
330
47
102
}
330
47
100
AcDbScale
 70
     0
300
1/4" = 1'-0"
140
0.25
141
12.0
290
     0
  0
SCALE
  5
61
102
{ACAD_REACTORS
330
47
102
}
330
47
100
AcDbScale
 70
     0
300
3/8" = 1'-0"
140
0.375
141
12.0
290
     0
  0
SCALE
  5
62
102
{ACAD_REACTORS
330
47
102
}
330
47
100
AcDbScale
 70
     0
300
1/2" = 1'-0"
140
0.5
141
12.0
290
     0
  0
SCALE
  5
63
102
{ACAD_REACTORS
330
47
102
}
330
47
100
AcDbScale
 70
     0
300
3/4" = 1'-0"
140
0.75
141
12.0
290
     0
  0
SCALE
  5
64
102
{ACAD_REACTORS
330
47
102
}
330
47
100
AcDbScale
 70
     0
300
1" = 1'-0"
140
1.0
141
12.0
290
     0
  0
SCALE
  5
65
102
{ACAD_REACTORS
330
47
102
}
330
47
100
AcDbScale
 70
     0
300
1-1/2" = 1'-0"
140
1.5
141
12.0
290
     0
  0
SCALE
  5
66
102
{ACAD_REACTORS
330
47
102
}
330
47
100
AcDbScale
 70
     0
300
3" = 1'-0"
140
3.0
141
12.0
290
     0
  0
SCALE
  5
67
102
{ACAD_REACTORS
330
47
102
}
330
47
100
AcDbScale
 70
     0
300
6" = 1'-0"
140
6.0
141
12.0
290
     0
  0
SCALE
  5
68
102
{ACAD_REACTORS
330
47
102
}
330
47
100
AcDbScale
 70
     0
300
1'-0" = 1'-0"
140
12.0
141
12.0
290
     0
  0
ENDSEC
  0
EOF
