  0
SECTION
  2
HEADER
  9
$ACADVER
  1
AC1015
  9
$ACADMAINTVER
 70
     6
  9
$DWGCODEPAGE
  3
ANSI_949
  9
$INSBASE
 10
0.0
 20
0.0
 30
0.0
  9
$EXTMIN
 10
-51.13558875405104
 20
-49.97180738881174
 30
0.0
  9
$EXTMAX
 10
30.53638414090222
 20
23.61341044024267
 30
0.0
  9
$LIMMIN
 10
0.0
 20
0.0
  9
$LIMMAX
 10
420.0
 20
297.0
  9
$ORTHOMODE
 70
     0
  9
$REGENMODE
 70
     1
  9
$FILLMODE
 70
     1
  9
$QTEXTMODE
 70
     0
  9
$MIRRTEXT
 70
     1
  9
$LTSCALE
 40
1.0
  9
$ATTMODE
 70
     1
  9
$TEXTSIZE
 40
3.5
  9
$TRACEWID
 40
1.0
  9
$TEXTSTYLE
  7
Standard
  9
$CLAYER
  8
0
  9
$CELTYPE
  6
ByLayer
  9
$CECOLOR
 62
   256
  9
$CELTSCALE
 40
1.0
  9
$DISPSILH
 70
     0
  9
$DIMSCALE
 40
1.0
  9
$DIMASZ
 40
3.302
  9
$DIMEXO
 40
1.0
  9
$DIMDLI
 40
3.75
  9
$DIMRND
 40
0.0
  9
$DIMDLE
 40
0.0
  9
$DIMEXE
 40
1.0
  9
$DIMTP
 40
0.0
  9
$DIMTM
 40
0.0
  9
$DIMTXT
 40
3.5
  9
$DIMCEN
 40
2.5
  9
$DIMTSZ
 40
0.0
  9
$DIMTOL
 70
     0
  9
$DIMLIM
 70
     0
  9
$DIMTIH
 70
     1
  9
$DIMTOH
 70
     1
  9
$DIMSE1
 70
     0
  9
$DIMSE2
 70
     0
  9
$DIMTAD
 70
     1
  9
$DIMZIN
 70
     0
  9
$DIMBLK
  1

  9
$DIMASO
 70
     1
  9
$DIMSHO
 70
     1
  9
$DIMPOST
  1

  9
$DIMAPOST
  1

  9
$DIMALT
 70
     0
  9
$DIMALTD
 70
     3
  9
$DIMALTF
 40
0.0393700787401575
  9
$DIMLFAC
 40
1.0
  9
$DIMTOFL
 70
     1
  9
$DIMTVP
 40
0.0
  9
$DIMTIX
 70
     0
  9
$DIMSOXD
 70
     0
  9
$DIMSAH
 70
     0
  9
$DIMBLK1
  1

  9
$DIMBLK2
  1

  9
$DIMSTYLE
  2
ISO-25
  9
$DIMCLRD
 70
     0
  9
$DIMCLRE
 70
     0
  9
$DIMCLRT
 70
     0
  9
$DIMTFAC
 40
1.0
  9
$DIMGAP
 40
1.524
  9
$DIMJUST
 70
     0
  9
$DIMSD1
 70
     0
  9
$DIMSD2
 70
     0
  9
$DIMTOLJ
 70
     0
  9
$DIMTZIN
 70
     0
  9
$DIMALTZ
 70
     0
  9
$DIMALTTZ
 70
     0
  9
$DIMUPT
 70
     0
  9
$DIMDEC
 70
     2
  9
$DIMTDEC
 70
     2
  9
$DIMALTU
 70
     2
  9
$DIMALTTD
 70
     3
  9
$DIMTXSTY
  7
Standard
  9
$DIMAUNIT
 70
     0
  9
$DIMADEC
 70
     2
  9
$DIMALTRND
 40
0.0
  9
$DIMAZIN
 70
     0
  9
$DIMDSEP
 70
    44
  9
$DIMATFIT
 70
     3
  9
$DIMFRAC
 70
     0
  9
$DIMLDRBLK
  1

  9
$DIMLUNIT
 70
     2
  9
$DIMLWD
 70
    -2
  9
$DIMLWE
 70
    -2
  9
$DIMTMOVE
 70
     0
  9
$LUNITS
 70
     2
  9
$LUPREC
 70
     2
  9
$SKETCHINC
 40
1.0
  9
$FILLETRAD
 40
10.0
  9
$AUNITS
 70
     0
  9
$AUPREC
 70
     2
  9
$MENU
  1
.
  9
$ELEVATION
 40
0.0
  9
$PELEVATION
 40
0.0
  9
$THICKNESS
 40
0.0
  9
$LIMCHECK
 70
     0
  9
$CHAMFERA
 40
0.0
  9
$CHAMFERB
 40
0.0
  9
$CHAMFERC
 40
0.0
  9
$CHAMFERD
 40
0.0
  9
$SKPOLY
 70
     0
  9
$TDCREATE
 40
2458250.437950752
  9
$TDUCREATE
 40
2458250.062950752
  9
$TDUPDATE
 40
2458264.669249491
  9
$TDUUPDATE
 40
2458264.294249491
  9
$TDINDWG
 40
0.0017799653
  9
$TDUSRTIMER
 40
0.0002072222
  9
$USRTIMER
 70
     1
  9
$ANGBASE
 50
0.0
  9
$ANGDIR
 70
     0
  9
$PDMODE
 70
     0
  9
$PDSIZE
 40
-1.0
  9
$PLINEWID
 40
0.0
  9
$SPLFRAME
 70
     0
  9
$SPLINETYPE
 70
     6
  9
$SPLINESEGS
 70
     8
  9
$HANDSEED
  5
165
  9
$SURFTAB1
 70
     6
  9
$SURFTAB2
 70
     6
  9
$SURFTYPE
 70
     6
  9
$SURFU
 70
     6
  9
$SURFV
 70
     6
  9
$UCSBASE
  2

  9
$UCSNAME
  2

  9
$UCSORG
 10
0.0
 20
0.0
 30
0.0
  9
$UCSXDIR
 10
1.0
 20
0.0
 30
0.0
  9
$UCSYDIR
 10
0.0
 20
1.0
 30
0.0
  9
$UCSORTHOREF
  2

  9
$UCSORTHOVIEW
 70
     0
  9
$UCSORGTOP
 10
0.0
 20
0.0
 30
0.0
  9
$UCSORGBOTTOM
 10
0.0
 20
0.0
 30
0.0
  9
$UCSORGLEFT
 10
0.0
 20
0.0
 30
0.0
  9
$UCSORGRIGHT
 10
0.0
 20
0.0
 30
0.0
  9
$UCSORGFRONT
 10
0.0
 20
0.0
 30
0.0
  9
$UCSORGBACK
 10
0.0
 20
0.0
 30
0.0
  9
$PUCSBASE
  2

  9
$PUCSNAME
  2

  9
$PUCSORG
 10
0.0
 20
0.0
 30
0.0
  9
$PUCSXDIR
 10
1.0
 20
0.0
 30
0.0
  9
$PUCSYDIR
 10
0.0
 20
1.0
 30
0.0
  9
$PUCSORTHOREF
  2

  9
$PUCSORTHOVIEW
 70
     0
  9
$PUCSORGTOP
 10
0.0
 20
0.0
 30
0.0
  9
$PUCSORGBOTTOM
 10
0.0
 20
0.0
 30
0.0
  9
$PUCSORGLEFT
 10
0.0
 20
0.0
 30
0.0
  9
$PUCSORGRIGHT
 10
0.0
 20
0.0
 30
0.0
  9
$PUCSORGFRONT
 10
0.0
 20
0.0
 30
0.0
  9
$PUCSORGBACK
 10
0.0
 20
0.0
 30
0.0
  9
$USERI1
 70
     0
  9
$USERI2
 70
     0
  9
$USERI3
 70
     0
  9
$USERI4
 70
     0
  9
$USERI5
 70
     0
  9
$USERR1
 40
0.0
  9
$USERR2
 40
0.0
  9
$USERR3
 40
0.0
  9
$USERR4
 40
0.0
  9
$USERR5
 40
0.0
  9
$WORLDVIEW
 70
     1
  9
$SHADEDGE
 70
     3
  9
$SHADEDIF
 70
    70
  9
$TILEMODE
 70
     1
  9
$MAXACTVP
 70
    64
  9
$PINSBASE
 10
0.0
 20
0.0
 30
0.0
  9
$PLIMCHECK
 70
     0
  9
$PEXTMIN
 10
1.000000000000000E+20
 20
1.000000000000000E+20
 30
1.000000000000000E+20
  9
$PEXTMAX
 10
-1.000000000000000E+20
 20
-1.000000000000000E+20
 30
-1.000000000000000E+20
  9
$PLIMMIN
 10
0.0
 20
0.0
  9
$PLIMMAX
 10
0.0
 20
0.0
  9
$UNITMODE
 70
     0
  9
$VISRETAIN
 70
     1
  9
$PLINEGEN
 70
     0
  9
$PSLTSCALE
 70
     1
  9
$TREEDEPTH
 70
  3020
  9
$CMLSTYLE
  2
Standard
  9
$CMLJUST
 70
     0
  9
$CMLSCALE
 40
20.0
  9
$PROXYGRAPHICS
 70
     1
  9
$MEASUREMENT
 70
     1
  9
$CELWEIGHT
370
    -1
  9
$ENDCAPS
280
     0
  9
$JOINSTYLE
280
     0
  9
$LWDISPLAY
290
     1
  9
$INSUNITS
 70
     4
  9
$HYPERLINKBASE
  1

  9
$STYLESHEET
  1

  9
$XEDIT
290
     1
  9
$CEPSNTYPE
380
     0
  9
$PSTYLEMODE
290
     1
  9
$FINGERPRINTGUID
  2
{3EBD6C1E-9561-46D2-9994-166CFC62ED1A}
  9
$VERSIONGUID
  2
{FAEB1C32-E019-11D5-929B-00C0DF256EC4}
  9
$EXTNAMES
290
     1
  9
$PSVPSCALE
 40
0.0
  9
$OLESTARTUP
290
     0
  0
ENDSEC
  0
SECTION
  2
CLASSES
  0
CLASS
  1
ACDBDICTIONARYWDFLT
  2
AcDbDictionaryWithDefault
  3
ObjectDBX Classes
 90
        0
280
     0
281
     0
  0
CLASS
  1
VISUALSTYLE
  2
AcDbVisualStyle
  3
ObjectDBX Classes
 90
     4095
280
     0
281
     0
  0
CLASS
  1
MATERIAL
  2
AcDbMaterial
  3
ObjectDBX Classes
 90
     1153
280
     0
281
     0
  0
CLASS
  1
SCALE
  2
AcDbScale
  3
ObjectDBX Classes
 90
     1153
280
     0
281
     0
  0
CLASS
  1
TABLESTYLE
  2
AcDbTableStyle
  3
ObjectDBX Classes
 90
     4095
280
     0
281
     0
  0
CLASS
  1
MLEADERSTYLE
  2
AcDbMLeaderStyle
  3
ACDB_MLEADERSTYLE_CLASS
 90
     4095
280
     0
281
     0
  0
CLASS
  1
SUN
  2
AcDbSun
  3
SCENEOE
 90
     1153
280
     0
281
     0
  0
CLASS
  1
ACDBPLACEHOLDER
  2
AcDbPlaceHolder
  3
ObjectDBX Classes
 90
        0
280
     0
281
     0
  0
CLASS
  1
LAYOUT
  2
AcDbLayout
  3
ObjectDBX Classes
 90
        0
280
     0
281
     0
  0
ENDSEC
  0
SECTION
  2
TABLES
  0
TABLE
  2
VPORT
  5
8
330
0
100
AcDbSymbolTable
 70
     1
  0
VPORT
  5
29
330
8
100
AcDbSymbolTableRecord
100
AcDbViewportTableRecord
  2
*Active
 70
     0
 10
0.0
 20
0.0
 11
1.0
 21
1.0
 12
0.9642445179146435
 22
5.911280610448143
 13
0.0
 23
0.0
 14
10.0
 24
10.0
 15
10.0
 25
10.0
 16
0.0
 26
0.0
 36
1.0
 17
0.0
 27
0.0
 37
0.0
 40
49.50685786717012
 41
2.223011363636364
 42
50.0
 43
0.0
 44
0.0
 50
0.0
 51
0.0
 71
    16
 72
  2000
 73
     1
 74
     3
 75
     0
 76
     0
 77
     0
 78
     0
281
     0
 65
     1
110
0.0
120
0.0
130
0.0
111
1.0
121
0.0
131
0.0
112
0.0
122
1.0
132
0.0
 79
     0
146
0.0
  0
ENDTAB
  0
TABLE
  2
LTYPE
  5
5
330
0
100
AcDbSymbolTable
 70
     6
  0
LTYPE
  5
14
330
5
100
AcDbSymbolTableRecord
100
AcDbLinetypeTableRecord
  2
ByBlock
 70
     0
  3

 72
    65
 73
     0
 40
0.0
  0
LTYPE
  5
15
330
5
100
AcDbSymbolTableRecord
100
AcDbLinetypeTableRecord
  2
ByLayer
 70
     0
  3

 72
    65
 73
     0
 40
0.0
  0
LTYPE
  5
16
330
5
100
AcDbSymbolTableRecord
100
AcDbLinetypeTableRecord
  2
Continuous
 70
     0
  3
Solid line
 72
    65
 73
     0
 40
0.0
  0
LTYPE
  5
6E
330
5
100
AcDbSymbolTableRecord
100
AcDbLinetypeTableRecord
  2
HIDDEN
 70
     0
  3
Hidden __ __ __ __ __ __ __ __ __ __ __ __ __ __
 72
    65
 73
     2
 40
1.905
 49
1.27
 74
     0
 49
-0.635
 74
     0
  0
LTYPE
  5
6F
330
5
100
AcDbSymbolTableRecord
100
AcDbLinetypeTableRecord
  2
PHANTOM
 70
     0
  3
Phantom ______  __  __  ______  __  __  ______
 72
    65
 73
     6
 40
12.7
 49
6.35
 74
     0
 49
-1.27
 74
     0
 49
1.27
 74
     0
 49
-1.27
 74
     0
 49
1.27
 74
     0
 49
-1.27
 74
     0
  0
LTYPE
  5
70
330
5
100
AcDbSymbolTableRecord
100
AcDbLinetypeTableRecord
  2
CENTER
 70
     0
  3
Center ____ _ ____ _ ____ _ ____ _ ____ _ ____
 72
    65
 73
     4
 40
10.16
 49
6.35
 74
     0
 49
-1.27
 74
     0
 49
1.27
 74
     0
 49
-1.27
 74
     0
  0
LTYPE
  5
71
330
5
100
AcDbSymbolTableRecord
100
AcDbLinetypeTableRecord
  2
CENTERX2
 70
     0
  3
Center (2x) ________  __  ________  __  _____
 72
    65
 73
     4
 40
20.32
 49
12.7
 74
     0
 49
-2.54
 74
     0
 49
2.54
 74
     0
 49
-2.54
 74
     0
  0
LTYPE
  5
72
330
5
100
AcDbSymbolTableRecord
100
AcDbLinetypeTableRecord
  2
DOT2
 70
     0
  3
Dot (.5x) ........................................
 72
    65
 73
     2
 40
0.635
 49
0.0
 74
     0
 49
-0.635
 74
     0
  0
ENDTAB
  0
TABLE
  2
LAYER
  5
2
330
0
100
AcDbSymbolTable
 70
    17
  0
LAYER
  5
10
330
2
100
AcDbSymbolTableRecord
100
AcDbLayerTableRecord
  2
0
 70
     0
 62
     7
  6
Continuous
370
    -3
390
F
  0
LAYER
  5
73
330
2
100
AcDbSymbolTableRecord
100
AcDbLayerTableRecord
  2
FORMAT
 70
     0
 62
     2
  6
Continuous
370
    -3
390
F
  0
LAYER
  5
74
330
2
100
AcDbSymbolTableRecord
100
AcDbLayerTableRecord
  2
외형선
 70
     0
 62
   100
  6
Continuous
370
    35
390
F
  0
LAYER
  5
75
330
2
100
AcDbSymbolTableRecord
100
AcDbLayerTableRecord
  2
숨은선
 70
     0
 62
     2
  6
HIDDEN
370
    25
390
F
  0
LAYER
  5
76
330
2
100
AcDbSymbolTableRecord
100
AcDbLayerTableRecord
  2
중심선
 70
     0
 62
     1
  6
CENTERX2
370
    -3
390
F
  0
LAYER
  5
77
330
2
100
AcDbSymbolTableRecord
100
AcDbLayerTableRecord
  2
파단선
 70
     0
 62
     4
  6
Continuous
370
    -3
390
F
  0
LAYER
  5
78
330
2
100
AcDbSymbolTableRecord
100
AcDbLayerTableRecord
  2
해칭선
 70
     0
 62
   100
  6
Continuous
370
    -3
390
F
  0
LAYER
  5
79
330
2
100
AcDbSymbolTableRecord
100
AcDbLayerTableRecord
  2
가는실선
 70
     0
 62
     4
  6
Continuous
370
    -3
390
F
  0
LAYER
  5
7A
330
2
100
AcDbSymbolTableRecord
100
AcDbLayerTableRecord
  2
치수_보조선
 70
     0
 62
     4
  6
Continuous
370
    -3
390
F
  0
LAYER
  5
7B
330
2
100
AcDbSymbolTableRecord
100
AcDbLayerTableRecord
  2
치수문자_일반주서
 70
     0
 62
     7
  6
Continuous
370
    25
390
F
  0
LAYER
  5
7C
330
2
100
AcDbSymbolTableRecord
100
AcDbLayerTableRecord
  2
개별주서
 70
     0
 62
   100
  6
Continuous
370
    35
390
F
  0
LAYER
  5
7D
330
2
100
AcDbSymbolTableRecord
100
AcDbLayerTableRecord
  2
중간선
 70
     0
 62
     2
  6
Continuous
370
    25
390
F
  0
LAYER
  5
7E
330
2
100
AcDbSymbolTableRecord
100
AcDbLayerTableRecord
  2
윤곽선
 70
     0
 62
     3
  6
Continuous
370
    50
390
F
  0
LAYER
  5
7F
330
2
100
AcDbSymbolTableRecord
100
AcDbLayerTableRecord
  2
중심마크
 70
     0
 62
   100
  6
Continuous
370
    35
390
F
  0
LAYER
  5
80
330
2
100
AcDbSymbolTableRecord
100
AcDbLayerTableRecord
  2
가상선
 70
     0
 62
     4
  6
PHANTOM
370
    -3
390
F
  0
LAYER
  5
81
330
2
100
AcDbSymbolTableRecord
100
AcDbLayerTableRecord
  2
특수지정선
 70
     0
 62
     5
  6
CENTERX2
370
    70
390
F
  0
LAYER
  5
137
330
2
100
AcDbSymbolTableRecord
100
AcDbLayerTableRecord
  2
Defpoints
 70
     0
 62
     7
  6
Continuous
290
     0
370
    -3
390
F
  0
ENDTAB
  0
TABLE
  2
STYLE
  5
3
330
0
100
AcDbSymbolTable
 70
     2
  0
STYLE
  5
11
330
3
100
AcDbSymbolTableRecord
100
AcDbTextStyleTableRecord
  2
Standard
 70
     0
 40
0.0
 41
1.0
 50
0.0
 71
     0
 42
3.5
  3
txt
  4

  0
STYLE
  5
97
330
3
100
AcDbSymbolTableRecord
100
AcDbTextStyleTableRecord
  2
SLDTEXTSTYLE0
 70
     0
 40
0.0
 41
0.75
 50
0.0
 71
     0
 42
3.5
  3
TXT
  4

  0
ENDTAB
  0
TABLE
  2
VIEW
  5
6
330
0
100
AcDbSymbolTable
 70
     0
  0
ENDTAB
  0
TABLE
  2
UCS
  5
7
330
0
100
AcDbSymbolTable
 70
     0
  0
ENDTAB
  0
TABLE
  2
APPID
  5
9
330
0
100
AcDbSymbolTable
 70
     2
  0
APPID
  5
12
330
9
100
AcDbSymbolTableRecord
100
AcDbRegAppTableRecord
  2
ACAD
 70
     0
  0
APPID
  5
13B
330
9
100
AcDbSymbolTableRecord
100
AcDbRegAppTableRecord
  2
PE_URL
 70
     0
  0
ENDTAB
  0
TABLE
  2
DIMSTYLE
  5
A
330
0
100
AcDbSymbolTable
 70
     4
100
AcDbDimStyleTable
  0
DIMSTYLE
105
27
330
A
100
AcDbSymbolTableRecord
100
AcDbDimStyleTableRecord
  2
ISO-25
 70
     0
 41
2.5
 42
0.625
 43
3.75
 44
1.25
 73
     0
 74
     0
 77
     1
 78
     8
140
2.5
141
2.5
143
0.03937007874016
147
0.625
171
     3
172
     1
178
     0
271
     2
272
     2
274
     3
278
    44
283
     0
284
     8
340
11
  0
DIMSTYLE
105
DC
102
{ACAD_REACTORS
330
DB
102
}
330
A
100
AcDbSymbolTableRecord
100
AcDbDimStyleTableRecord
  2
SLDDIMSTYLE0
 70
     0
 41
3.302
 44
0.0
 45
0.000000001
 73
     0
 74
     0
 77
     1
 78
    12
 79
     3
140
3.5
147
0.875
172
     1
173
     1
178
     0
271
     1
272
     1
276
     2
284
    12
289
     0
340
97
  0
DIMSTYLE
105
EA
102
{ACAD_REACTORS
330
E9
102
}
330
A
100
AcDbSymbolTableRecord
100
AcDbDimStyleTableRecord
  2
SLDDIMSTYLE1
 70
     0
 41
3.302
 44
0.0
 45
0.000000001
 73
     0
 74
     0
 77
     1
 78
    12
 79
     3
140
3.5
147
0.875
173
     1
178
     0
271
     2
272
     2
276
     2
284
    12
340
97
  0
DIMSTYLE
105
F5
102
{ACAD_REACTORS
330
F4
330
101
102
}
330
A
100
AcDbSymbolTableRecord
100
AcDbDimStyleTableRecord
  2
SLDDIMSTYLE2
 70
     0
 41
3.302
 44
0.0
 45
0.000000001
 73
     0
 74
     0
 77
     1
 78
    12
 79
     3
140
3.5
147
0.875
172
     1
173
     1
178
     0
271
     2
272
     2
276
     2
284
    12
289
     0
340
97
  0
ENDTAB
  0
TABLE
  2
BLOCK_RECORD
  5
1
330
0
100
AcDbSymbolTable
 70
     7
  0
BLOCK_RECORD
  5
1F
330
1
100
AcDbSymbolTableRecord
100
AcDbBlockTableRecord
  2
*Model_Space
340
22
  0
BLOCK_RECORD
  5
1B
330
1
100
AcDbSymbolTableRecord
100
AcDbBlockTableRecord
  2
*Paper_Space
340
1E
  0
BLOCK_RECORD
  5
23
330
1
100
AcDbSymbolTableRecord
100
AcDbBlockTableRecord
  2
*Paper_Space0
340
26
  0
BLOCK_RECORD
  5
82
330
1
100
AcDbSymbolTableRecord
100
AcDbBlockTableRecord
  2
블럭10
340
0
102
{BLKREFS
331
D4
102
}
  0
BLOCK_RECORD
  5
DD
330
1
100
AcDbSymbolTableRecord
100
AcDbBlockTableRecord
  2
_D
340
0
  0
BLOCK_RECORD
  5
EB
330
1
100
AcDbSymbolTableRecord
100
AcDbBlockTableRecord
  2
_D_1
340
0
  0
BLOCK_RECORD
  5
F6
330
1
100
AcDbSymbolTableRecord
100
AcDbBlockTableRecord
  2
_D_2
340
0
  0
BLOCK_RECORD
  5
102
330
1
100
AcDbSymbolTableRecord
100
AcDbBlockTableRecord
  2
_D_3
340
0
  0
BLOCK_RECORD
  5
10E
330
1
100
AcDbSymbolTableRecord
100
AcDbBlockTableRecord
  2
SW_DOWELSYMBOL_0
340
0
102
{BLKREFS
331
114
102
}
  0
ENDTAB
  0
ENDSEC
  0
SECTION
  2
BLOCKS
  0
BLOCK
  5
20
330
1F
100
AcDbEntity
  8
0
100
AcDbBlockBegin
  2
*Model_Space
 70
     0
 10
0.0
 20
0.0
 30
0.0
  3
*Model_Space
  1

  0
ENDBLK
  5
21
330
1F
100
AcDbEntity
  8
0
100
AcDbBlockEnd
  0
BLOCK
  5
1C
330
1B
100
AcDbEntity
 67
     1
  8
0
100
AcDbBlockBegin
  2
*Paper_Space
 70
     0
 10
0.0
 20
0.0
 30
0.0
  3
*Paper_Space
  1

  0
ENDBLK
  5
1D
330
1B
100
AcDbEntity
 67
     1
  8
0
100
AcDbBlockEnd
  0
BLOCK
  5
24
330
23
100
AcDbEntity
  8
0
100
AcDbBlockBegin
  2
*Paper_Space0
 70
     0
 10
0.0
 20
0.0
 30
0.0
  3
*Paper_Space0
  1

  0
ENDBLK
  5
25
330
23
100
AcDbEntity
  8
0
100
AcDbBlockEnd
  0
BLOCK
  5
83
330
82
100
AcDbEntity
  8
0
100
AcDbBlockBegin
  2
블럭10
 70
     2
 10
0.0
 20
0.0
 30
0.0
  3
블럭10
  1

  0
ELLIPSE
  5
85
330
82
100
AcDbEntity
  8
중심선
100
AcDbEllipse
 10
20.54032771741204
 20
12.0471743016438
 30
0.0
 11
6.600054785286829
 21
-1.261213355974178E-13
 31
0.0
210
0.0
220
0.0
230
1.0
 40
0.636358354079598
 41
0.9219305317359503
 42
6.513795318482858
  0
ELLIPSE
  5
86
330
82
100
AcDbEntity
  8
중심선
100
AcDbEllipse
 10
20.54032771746488
 20
12.04717430159265
 30
0.0
 11
3.960054785062283
 21
1.540847449632565E-10
 31
0.0
210
0.0
220
0.0
230
1.0
 40
0.3939339440162632
 41
1.131841032648279
 42
5.62031148352944
  0
LINE
  5
87
330
82
100
AcDbEntity
  8
중심선
100
AcDbLine
 10
2.268634060543552
 20
16.24717430164393
 30
0.0
 11
5.714909304380834
 21
16.24717430164393
 31
0.0
  0
LINE
  5
88
330
82
100
AcDbEntity
  8
중심선
100
AcDbLine
 10
5.245725140726316
 20
7.84717430164391
 30
0.0
 11
8.692000384563599
 21
7.84717430164391
 31
0.0
  0
LINE
  5
89
330
82
100
AcDbEntity
  8
중심선
100
AcDbLine
 10
15.74043728645272
 20
16.24717430164393
 30
0.0
 11
8.692000384563599
 21
7.84717430164391
 31
0.0
  0
LINE
  5
8A
330
82
100
AcDbEntity
  8
중심선
100
AcDbLine
 10
0.1404042013395286
 20
13.71084872107135
 30
0.0
 11
3.58671253028996
 21
13.71088815037384
 31
0.0
  0
LINE
  5
8B
330
82
100
AcDbEntity
  8
중심선
100
AcDbLine
 10
2.750260043222114
 20
10.84717430164391
 30
0.0
 11
6.196535287059397
 21
10.84717430164391
 31
0.0
  0
LINE
  5
8C
330
82
100
AcDbEntity
  8
중심선
100
AcDbLine
 10
12.29416204261559
 20
16.24717430164393
 30
0.0
 11
5.245725140726316
 21
7.84717430164391
 31
0.0
  0
LINE
  5
8D
330
82
100
AcDbEntity
  8
중심선
100
AcDbLine
 10
10.72767329541681
 20
16.24717430164393
 30
0.0
 11
6.196535287059397
 21
10.84717430164391
 31
0.0
  0
LINE
  5
8E
330
82
100
AcDbEntity
  8
중심선
100
AcDbLine
 10
7.28139805157953
 20
16.24717430164393
 30
0.0
 11
2.750260043222114
 21
10.84717430164391
 31
0.0
  0
LINE
  5
8F
330
82
100
AcDbEntity
  8
중심선
100
AcDbLine
 10
5.714909304380834
 20
16.24717430164393
 30
0.0
 11
3.58671253028996
 21
13.71088815037384
 31
0.0
  0
LINE
  5
90
330
82
100
AcDbEntity
  8
중심선
100
AcDbLine
 10
2.268634060543552
 20
16.24717430164393
 30
0.0
 11
0.1404042013395286
 21
13.71084872107135
 31
0.0
  0
LINE
  5
91
330
82
100
AcDbEntity
  8
중심선
100
AcDbLine
 10
7.28139805157953
 20
16.24717430164393
 30
0.0
 11
10.72767329541681
 21
16.24717430164393
 31
0.0
  0
LINE
  5
92
330
82
100
AcDbEntity
  8
중심선
100
AcDbLine
 10
12.29416204261559
 20
16.24717430164393
 30
0.0
 11
15.74043728645272
 21
16.24717430164393
 31
0.0
  0
LINE
  5
93
330
82
100
AcDbEntity
  8
중심선
100
AcDbLine
 10
19.22036997980202
 20
11.08717430171403
 30
0.0
 11
23.66174974927406
 21
11.08717430171406
 31
0.0
  0
LINE
  5
94
330
82
100
AcDbEntity
  8
중심선
100
AcDbLine
 10
19.22039502424796
 20
13.00717430171391
 30
0.0
 11
19.22036997980202
 21
11.08717430171403
 31
0.0
  0
LINE
  5
95
330
82
100
AcDbEntity
  8
중심선
100
AcDbLine
 10
19.22039502424796
 20
13.00717430171391
 30
0.0
 11
26.96566020931264
 21
13.00717430171391
 31
0.0
  0
LINE
  5
96
330
82
100
AcDbEntity
  8
중심선
100
AcDbLine
 10
22.22332737316547
 20
13.45928029700563
 30
0.0
 11
24.52862924686651
 21
15.39360700705356
 31
0.0
  0
ATTDEF
  5
98
330
82
100
AcDbEntity
  8
FORMAT
 62
     2
100
AcDbText
 10
-12.95993919485777
 20
2.075366912832191
 30
0.0
 40
4.233333333333333
  1
SEME36040E [ 4 FLUTE ]
 41
0.75
  7
SLDTEXTSTYLE0
 11
-12.95993919485777
 21
-0.0412997538344756
 31
0.0
100
AcDbAttributeDefinition
  3

  2
AUTOATTR0
 70
     0
 74
     1
  0
ENDBLK
  5
84
330
82
100
AcDbEntity
  8
0
100
AcDbBlockEnd
  0
BLOCK
  5
DE
330
DD
100
AcDbEntity
  8
0
100
AcDbBlockBegin
  2
_D
 70
     0
 10
0.0
 20
0.0
 30
0.0
  3
_D
  1

  0
LINE
  5
E0
330
DD
100
AcDbEntity
  8
치수문자_일반주서
 62
     0
370
    -2
100
AcDbLine
 10
16.79455080756887
 20
-1.999999999999999
 30
0.0
 11
29.98605080756888
 21
-1.999999999999948
 31
0.0
  0
LINE
  5
E1
330
DD
100
AcDbEntity
  8
치수문자_일반주서
 62
     0
370
    -2
100
AcDbLine
 10
16.79455080756887
 20
2.000000000000004
 30
0.0
 11
29.98605080756887
 21
2.000000000000053
 31
0.0
  0
LINE
  5
E2
330
DD
100
AcDbEntity
  8
치수문자_일반주서
 62
     0
370
    -2
100
AcDbLine
 10
29.98605080756887
 20
2.000000000000053
 30
0.0
 11
29.98605080756882
 21
16.47900000000005
 31
0.0
  0
LINE
  5
E3
330
DD
100
AcDbEntity
  8
치수문자_일반주서
 62
     0
370
    -2
100
AcDbLine
 10
29.98605080756888
 20
-1.999999999999948
 30
0.0
 11
29.98605080756887
 21
2.000000000000053
 31
0.0
  0
LINE
  5
E4
330
DD
100
AcDbEntity
  8
치수문자_일반주서
 62
     0
370
    -2
100
AcDbLine
 10
29.98605080756889
 20
-5.301999999999948
 30
0.0
 11
29.9860508075689
 21
-8.603999999999948
 31
0.0
  0
LINE
  5
E5
330
DD
100
AcDbEntity
  8
치수문자_일반주서
 62
     0
370
    -2
100
AcDbLine
 10
29.98605080756886
 20
5.302000000000053
 30
0.0
 11
29.98605080756885
 21
8.604000000000052
 31
0.0
  0
SOLID
  5
E6
330
DD
100
AcDbEntity
  8
치수문자_일반주서
 62
     0
100
AcDbTrace
 10
30.53638414090223
 20
-5.301999999999946
 30
0.0
 11
29.43571747423556
 21
-5.30199999999995
 31
0.0
 12
29.98605080756888
 22
-1.999999999999948
 32
0.0
 13
29.98605080756888
 23
-1.999999999999948
 33
0.0
  0
SOLID
  5
E7
330
DD
100
AcDbEntity
  8
치수문자_일반주서
 62
     0
100
AcDbTrace
 10
29.43571747423552
 20
5.302000000000051
 30
0.0
 11
30.53638414090219
 21
5.302000000000055
 31
0.0
 12
29.98605080756887
 22
2.000000000000053
 32
0.0
 13
29.98605080756887
 23
2.000000000000053
 33
0.0
  0
MTEXT
  5
E8
330
DD
100
AcDbEntity
  8
치수문자_일반주서
 62
     0
100
AcDbMText
 10
25.61105080756883
 20
13.41650000000004
 30
0.0
 40
3.5
 41
0.0
 71
     2
 72
     1
  1
\A1;%%c4
  7
SLDTEXTSTYLE0
 11
-3.552713678800499E-15
 21
1.0
 31
0.0
 73
     1
 44
1.0
  0
POINT
  5
138
330
DD
100
AcDbEntity
  8
Defpoints
 62
     0
100
AcDbPoint
 10
16.73205080756887
 20
-1.999999999999999
 30
0.0
  0
POINT
  5
139
330
DD
100
AcDbEntity
  8
Defpoints
 62
     0
100
AcDbPoint
 10
16.73205080756887
 20
2.000000000000003
 30
0.0
  0
POINT
  5
13A
330
DD
100
AcDbEntity
  8
Defpoints
 62
     0
100
AcDbPoint
 10
29.98605080756887
 20
2.000000000000053
 30
0.0
  0
ENDBLK
  5
DF
330
DD
100
AcDbEntity
  8
0
100
AcDbBlockEnd
  0
BLOCK
  5
EC
330
EB
100
AcDbEntity
  8
0
100
AcDbBlockBegin
  2
_D_1
 70
     0
 10
0.0
 20
0.0
 30
0.0
  3
_D_1
  1

  0
LINE
  5
EE
330
EB
100
AcDbEntity
  8
치수문자_일반주서
 62
     0
370
    -2
100
AcDbLine
 10
-33.26794919243114
 20
2.562499999999997
 30
0.0
 11
-33.26794919243114
 21
19.23841044024267
 31
0.0
  0
LINE
  5
EF
330
EB
100
AcDbEntity
  8
치수문자_일반주서
 62
     0
370
    -2
100
AcDbLine
 10
16.73205080756887
 20
-0.4374999999999976
 30
0.0
 11
16.73205080756887
 21
19.23841044024267
 31
0.0
  0
LINE
  5
F0
330
EB
100
AcDbEntity
  8
치수문자_일반주서
 62
     0
370
    -2
100
AcDbLine
 10
-29.96594919243114
 20
19.23841044024267
 30
0.0
 11
13.43005080756887
 21
19.23841044024267
 31
0.0
  0
SOLID
  5
F1
330
EB
100
AcDbEntity
  8
치수문자_일반주서
 62
     0
100
AcDbTrace
 10
-29.96594919243114
 20
19.78874377357601
 30
0.0
 11
-29.96594919243114
 21
18.68807710690934
 31
0.0
 12
-33.26794919243114
 22
19.23841044024267
 32
0.0
 13
-33.26794919243114
 23
19.23841044024267
 33
0.0
  0
SOLID
  5
F2
330
EB
100
AcDbEntity
  8
치수문자_일반주서
 62
     0
100
AcDbTrace
 10
13.43005080756887
 20
18.68807710690934
 30
0.0
 11
13.43005080756887
 21
19.78874377357601
 31
0.0
 12
16.73205080756887
 22
19.23841044024267
 32
0.0
 13
16.73205080756887
 23
19.23841044024267
 33
0.0
  0
MTEXT
  5
F3
330
EB
100
AcDbEntity
  8
치수문자_일반주서
 62
     0
100
AcDbMText
 10
-8.267949192431137
 20
23.61341044024267
 30
0.0
 40
3.5
 41
0.0
 71
     2
 72
     1
  1
\A1;50
  7
SLDTEXTSTYLE0
 73
     1
 44
1.0
  0
POINT
  5
13D
330
EB
100
AcDbEntity
  8
Defpoints
 62
     0
100
AcDbPoint
 10
-33.26794919243114
 20
2.499999999999997
 30
0.0
  0
POINT
  5
13E
330
EB
100
AcDbEntity
  8
Defpoints
 62
     0
100
AcDbPoint
 10
16.73205080756887
 20
-0.4999999999999976
 30
0.0
  0
POINT
  5
13F
330
EB
100
AcDbEntity
  8
Defpoints
 62
     0
100
AcDbPoint
 10
16.73205080756887
 20
19.23841044024267
 30
0.0
  0
ENDBLK
  5
ED
330
EB
100
AcDbEntity
  8
0
100
AcDbBlockEnd
  0
BLOCK
  5
F7
330
F6
100
AcDbEntity
  8
0
100
AcDbBlockBegin
  2
_D_2
 70
     0
 10
0.0
 20
0.0
 30
0.0
  3
_D_2
  1

  0
LINE
  5
F9
330
F6
100
AcDbEntity
  8
치수문자_일반주서
 62
     0
370
    -2
100
AcDbLine
 10
16.73205080756887
 20
2.012831396710524
 30
0.0
 11
16.73205080756887
 21
11.0845781009103
 31
0.0
  0
LINE
  5
FA
330
F6
100
AcDbEntity
  8
치수문자_일반주서
 62
     0
370
    -2
100
AcDbLine
 10
6.732050807568867
 20
2.061522523967344
 30
0.0
 11
6.732050807568867
 21
11.0845781009103
 31
0.0
  0
LINE
  5
FB
330
F6
100
AcDbEntity
  8
치수문자_일반주서
 62
     0
370
    -2
100
AcDbLine
 10
13.43005080756887
 20
11.0845781009103
 30
0.0
 11
10.03405080756887
 21
11.0845781009103
 31
0.0
  0
SOLID
  5
FC
330
F6
100
AcDbEntity
  8
치수문자_일반주서
 62
     0
100
AcDbTrace
 10
13.43005080756887
 20
10.53424476757696
 30
0.0
 11
13.43005080756887
 21
11.63491143424363
 31
0.0
 12
16.73205080756887
 22
11.0845781009103
 32
0.0
 13
16.73205080756887
 23
11.0845781009103
 33
0.0
  0
SOLID
  5
FD
330
F6
100
AcDbEntity
  8
치수문자_일반주서
 62
     0
100
AcDbTrace
 10
10.03405080756887
 20
11.63491143424363
 30
0.0
 11
10.03405080756887
 21
10.53424476757696
 31
0.0
 12
6.732050807568867
 22
11.0845781009103
 32
0.0
 13
6.732050807568867
 23
11.0845781009103
 33
0.0
  0
MTEXT
  5
FE
330
F6
100
AcDbEntity
  8
치수문자_일반주서
 62
     0
100
AcDbMText
 10
11.73205080756887
 20
15.4595781009103
 30
0.0
 40
3.5
 41
0.0
 71
     2
 72
     1
  1
\A1;10
  7
SLDTEXTSTYLE0
 73
     1
 44
1.0
  0
POINT
  5
FF
330
F6
100
AcDbEntity
  8
Defpoints
 62
     0
100
AcDbPoint
 10
16.73205080756887
 20
1.950331396710524
 30
0.0
  0
POINT
  5
100
330
F6
100
AcDbEntity
  8
Defpoints
 62
     0
100
AcDbPoint
 10
6.732050807568867
 20
1.999022523967344
 30
0.0
  0
POINT
  5
140
330
F6
100
AcDbEntity
  8
Defpoints
 62
     0
100
AcDbPoint
 10
6.732050807568867
 20
11.0845781009103
 30
0.0
  0
ENDBLK
  5
F8
330
F6
100
AcDbEntity
  8
0
100
AcDbBlockEnd
  0
BLOCK
  5
103
330
102
100
AcDbEntity
  8
0
100
AcDbBlockBegin
  2
_D_3
 70
     0
 10
0.0
 20
0.0
 30
0.0
  3
_D_3
  1

  0
LINE
  5
105
330
102
100
AcDbEntity
  8
치수문자_일반주서
 62
     0
370
    -2
100
AcDbLine
 10
-32.83044919243114
 20
3.000000000000004
 30
0.0
 11
-46.76058875405104
 21
2.999999999999952
 31
0.0
  0
LINE
  5
106
330
102
100
AcDbEntity
  8
치수문자_일반주서
 62
     0
370
    -2
100
AcDbLine
 10
-32.83044919243114
 20
-3.000000000000001
 30
0.0
 11
-46.76058875405102
 21
-3.000000000000053
 31
0.0
  0
LINE
  5
107
330
102
100
AcDbEntity
  8
치수문자_일반주서
 62
     0
370
    -2
100
AcDbLine
 10
-46.76058875405103
 20
-0.3020000000000476
 30
0.0
 11
-46.76058875405104
 21
0.3019999999999463
 31
0.0
  0
SOLID
  5
108
330
102
100
AcDbEntity
  8
치수문자_일반주서
 62
     0
100
AcDbTrace
 10
-46.21025542071769
 20
-0.3020000000000456
 30
0.0
 11
-47.31092208738436
 21
-0.3020000000000495
 31
0.0
 12
-46.76058875405104
 22
2.999999999999952
 32
0.0
 13
-46.76058875405104
 23
2.999999999999952
 33
0.0
  0
SOLID
  5
109
330
102
100
AcDbEntity
  8
치수문자_일반주서
 62
     0
100
AcDbTrace
 10
-47.31092208738437
 20
0.3019999999999444
 30
0.0
 11
-46.2102554207177
 21
0.3019999999999483
 31
0.0
 12
-46.76058875405102
 22
-3.000000000000053
 32
0.0
 13
-46.76058875405102
 23
-3.000000000000053
 33
0.0
  0
MTEXT
  5
10A
330
102
100
AcDbEntity
  8
치수문자_일반주서
 62
     0
100
AcDbMText
 10
-51.13558875405103
 20
-1.089695848804631
 30
0.0
 40
3.5
 41
0.0
 71
     2
 72
     1
  1
\A1;%%c6
  7
SLDTEXTSTYLE0
 11
-3.552713678800498E-15
 21
1.0
 31
0.0
 73
     1
 44
1.0
  0
POINT
  5
10B
330
102
100
AcDbEntity
  8
Defpoints
 62
     0
100
AcDbPoint
 10
-32.76794919243114
 20
3.000000000000004
 30
0.0
  0
POINT
  5
10C
330
102
100
AcDbEntity
  8
Defpoints
 62
     0
100
AcDbPoint
 10
-32.76794919243114
 20
-3.000000000000001
 30
0.0
  0
POINT
  5
10D
330
102
100
AcDbEntity
  8
Defpoints
 62
     0
100
AcDbPoint
 10
-46.76058875405103
 20
-3.000000000000053
 30
0.0
  0
ENDBLK
  5
104
330
102
100
AcDbEntity
  8
0
100
AcDbBlockEnd
  0
BLOCK
  5
10F
330
10E
100
AcDbEntity
  8
0
100
AcDbBlockBegin
  2
SW_DOWELSYMBOL_0
 70
     0
 10
0.0
 20
0.0
 30
0.0
  3
SW_DOWELSYMBOL_0
  1

  0
CIRCLE
  5
111
330
10E
100
AcDbEntity
  8
해칭선
 62
     0
100
AcDbCircle
 10
0.0
 20
0.0
 30
0.0
 40
3.000000000000001
  0
HATCH
  5
112
330
10E
100
AcDbEntity
  8
0
  6
Continuous
 62
     0
370
    18
100
AcDbHatch
 10
0.0
 20
0.0
 30
0.0
210
0.0
220
0.0
230
1.0
  2
SOLID
 70
     1
 71
     0
 91
        1
 92
        0
 93
        3
 72
     2
 10
0.0
 20
0.0
 40
3.000000000000001
 50
0.0
 51
90.0
 73
     1
 72
     1
 10
0.0
 20
3.000000000000002
 11
0.0
 21
0.0
 72
     1
 10
0.0
 20
0.0
 11
3.000000000000001
 21
0.0
 97
        0
 75
     0
 76
     1
 98
        1
 10
0.0
 20
0.0
  0
HATCH
  5
113
330
10E
100
AcDbEntity
  8
0
  6
Continuous
 62
     0
370
    18
100
AcDbHatch
 10
0.0
 20
0.0
 30
0.0
210
0.0
220
0.0
230
1.0
  2
SOLID
 70
     1
 71
     0
 91
        1
 92
        0
 93
        3
 72
     2
 10
0.0
 20
0.0
 40
3.000000000000001
 50
180.0
 51
270.0000000000007
 73
     1
 72
     1
 10
0.0
 20
-3.000000000000001
 11
0.0
 21
0.0
 72
     1
 10
0.0
 20
0.0
 11
-3.000000000000001
 21
0.0
 97
        0
 75
     0
 76
     1
 98
        1
 10
0.0
 20
0.0
  0
ENDBLK
  5
110
330
10E
100
AcDbEntity
  8
0
100
AcDbBlockEnd
  0
ENDSEC
  0
SECTION
  2
ENTITIES
  0
LINE
  5
99
330
1F
100
AcDbEntity
  8
0
  6
Continuous
 62
     4
370
    25
100
AcDbLine
 10
2.0
 20
3.0
 30
0.0
 11
-32.76794919243114
 21
2.999999999999999
 31
0.0
  0
LINE
  5
9A
330
1F
100
AcDbEntity
  8
0
  6
Continuous
 62
     4
370
    25
100
AcDbLine
 10
-32.76794919243114
 20
-3.0
 30
0.0
 11
2.0
 21
-2.999999999999998
 31
0.0
  0
LINE
  5
9B
330
1F
100
AcDbEntity
  8
0
  6
Continuous
 62
     4
370
    25
100
AcDbLine
 10
2.0
 20
-2.999999999999999
 30
0.0
 11
5.732050807568867
 21
-1.999999999999998
 31
0.0
  0
LINE
  5
9C
330
1F
100
AcDbEntity
  8
0
  6
Continuous
 62
     4
370
    25
100
AcDbLine
 10
5.732050807568867
 20
2.000000000000002
 30
0.0
 11
2.0
 21
3.000000000000001
 31
0.0
  0
LINE
  5
9D
330
1F
100
AcDbEntity
  8
0
  6
Continuous
 62
     4
370
    25
100
AcDbLine
 10
-32.76794919243114
 20
2.999999999999997
 30
0.0
 11
-33.26794919243114
 21
2.499999999999997
 31
0.0
  0
LINE
  5
9E
330
1F
100
AcDbEntity
  8
0
  6
Continuous
 62
     4
370
    25
100
AcDbLine
 10
-33.26794919243114
 20
-2.499999999999999
 30
0.0
 11
-32.76794919243114
 21
-2.999999999999998
 31
0.0
  0
LINE
  5
9F
330
1F
100
AcDbEntity
  8
0
  6
Continuous
 62
     4
370
    25
100
AcDbLine
 10
6.623546994884198
 20
2.000000000000002
 30
0.0
 11
5.732050807568867
 21
2.000000000000002
 31
0.0
  0
LINE
  5
A0
330
1F
100
AcDbEntity
  8
0
  6
Continuous
 62
     4
370
    25
100
AcDbLine
 10
5.732050807568867
 20
-1.999999999999998
 30
0.0
 11
6.623546994884175
 21
-1.999999999999998
 31
0.0
  0
LINE
  5
A2
330
1F
100
AcDbEntity
  8
0
  6
Continuous
 62
     1
370
    25
100
AcDbLine
 10
16.4415600888823
 20
-0.277682218887482
 30
0.0
 11
16.42400908031857
 21
-0.2675488472145801
 31
0.0
1001
PE_URL
1000

  0
SPLINE
  5
A3
330
1F
100
AcDbEntity
  8
0
  6
Continuous
 62
     1
370
    25
100
AcDbSpline
210
0.0
220
0.0
230
1.0
 70
     8
 71
     3
 72
     9
 73
     5
 74
     0
 42
0.000000001
 43
0.00000001
 40
0.0
 40
0.0
 40
0.0
 40
0.0
 40
0.5327414037386085
 40
1.0
 40
1.0
 40
1.0
 40
1.0
 10
16.73205080756887
 20
-0.4452906759675199
 30
0.0
 10
16.68115454314988
 20
-0.4159518277659685
 30
0.0
 10
16.58561801442915
 20
-0.3608803653347384
 30
0.0
 10
16.48743632654269
 20
-0.3041772411143405
 30
0.0
 10
16.4415600888823
 20
-0.277682218887482
 30
0.0
1001
PE_URL
1000

  0
LINE
  5
A4
330
1F
100
AcDbEntity
  8
0
  6
Continuous
 62
     1
370
    25
100
AcDbLine
 10
11.4870352485726
 20
0.3300139361242882
 30
0.0
 11
11.5664100712529
 21
0.285981611177591
 31
0.0
1001
PE_URL
1000

  0
LINE
  5
A5
330
1F
100
AcDbEntity
  8
0
  6
Continuous
 62
     1
370
    25
100
AcDbLine
 10
11.08197612229877
 20
-0.3227174511239102
 30
0.0
 11
11.01461706147975
 21
-0.2858227666239641
 31
0.0
1001
PE_URL
1000

  0
LINE
  5
A6
330
1F
100
AcDbEntity
  8
0
  6
Continuous
 62
     1
370
    25
100
AcDbLine
 10
15.95728211231572
 20
-1.999999999999999
 30
0.0
 11
16.73205080756887
 21
-1.999999999999999
 31
0.0
1001
PE_URL
1000

  0
LINE
  5
A7
330
1F
100
AcDbEntity
  8
0
  6
Continuous
 62
     1
370
    25
100
AcDbLine
 10
12.06416424509097
 20
2.000000000000003
 30
0.0
 11
10.51752364321442
 21
2.000000000000003
 31
0.0
1001
PE_URL
1000

  0
LINE
  5
A8
330
1F
100
AcDbEntity
  8
0
  6
Continuous
 62
     1
370
    25
100
AcDbLine
 10
10.5175236432144
 20
-1.999999999999999
 30
0.0
 11
12.06416424509098
 21
-1.999999999999999
 31
0.0
1001
PE_URL
1000

  0
LINE
  5
A9
330
1F
100
AcDbEntity
  8
0
  6
Continuous
 62
     1
370
    25
100
AcDbLine
 10
16.73205080756887
 20
2.000000000000003
 30
0.0
 11
15.95728211231574
 21
2.000000000000003
 31
0.0
1001
PE_URL
1000

  0
LINE
  5
AA
330
1F
100
AcDbEntity
  8
0
  6
Continuous
 62
     4
370
    25
100
AcDbLine
 10
2.0
 20
3.000000000000002
 30
0.0
 11
2.0
 21
-3.000000000000001
 31
0.0
  0
LINE
  5
AB
330
1F
100
AcDbEntity
  8
0
  6
Continuous
 62
     4
370
    25
100
AcDbLine
 10
-32.76794919243114
 20
2.999999999999997
 30
0.0
 11
-32.76794919243114
 21
-3.0
 31
0.0
  0
LINE
  5
AC
330
1F
100
AcDbEntity
  8
0
  6
Continuous
 62
     4
370
    25
100
AcDbLine
 10
5.732050807568867
 20
2.000000000000002
 30
0.0
 11
5.732050807568867
 21
1.961045605638333
 31
0.0
  0
SPLINE
  5
AD
330
1F
100
AcDbEntity
  8
0
  6
Continuous
 62
     4
370
    25
100
AcDbSpline
210
0.0
220
0.0
230
1.0
 70
     8
 71
     3
 72
    12
 73
     8
 74
     0
 42
0.000000001
 43
0.00000001
 40
0.0
 40
0.0
 40
0.0
 40
0.0
 40
0.2500000000000002
 40
0.2500000000000002
 40
0.5000000000000003
 40
0.5000000000000003
 40
1.0
 40
1.0
 40
1.0
 40
1.0
 10
5.23198333689741
 20
1.984511182421547
 30
0.0
 10
5.23198333689741
 20
2.007465971340572
 30
0.0
 10
5.246168720079091
 20
2.023867717607809
 30
0.0
 10
5.300767835469569
 20
2.041410149475366
 30
0.0
 10
5.341015937587275
 20
2.04269281096688
 30
0.0
 10
5.488210221606002
 20
2.028735490710583
 30
0.0
 10
5.61607094013192
 20
1.99817393418773
 30
0.0
 10
5.732050807568867
 20
1.961045605638332
 30
0.0
  0
LINE
  5
AE
330
1F
100
AcDbEntity
  8
0
  6
Continuous
 62
     4
370
    25
100
AcDbLine
 10
5.23198333689741
 20
1.984511182421548
 30
0.0
 11
5.23198333689741
 21
1.027056743920898
 31
0.0
  0
SPLINE
  5
AF
330
1F
100
AcDbEntity
  8
0
  6
Continuous
 62
     4
370
    25
100
AcDbSpline
210
0.0
220
0.0
230
1.0
 70
     8
 71
     3
 72
    10
 73
     6
 74
     0
 42
0.000000001
 43
0.00000001
 40
0.0
 40
0.0
 40
0.0
 40
0.0
 40
0.5
 40
0.5
 40
1.0
 40
1.0
 40
1.0
 40
1.0
 10
5.426961173107943
 20
0.6959584674889894
 30
0.0
 10
5.367912467597223
 20
0.7333777976352633
 30
0.0
 10
5.318272921691242
 20
0.7846435258521988
 30
0.0
 10
5.250094479976085
 20
0.9007796305286457
 30
0.0
 10
5.231983336897403
 20
0.9656643123768506
 30
0.0
 10
5.23198333689741
 20
1.027056743920898
 30
0.0
  0
SPLINE
  5
B0
330
1F
100
AcDbEntity
  8
0
  6
Continuous
 62
     4
370
    25
100
AcDbSpline
210
0.0
220
0.0
230
1.0
 70
     8
 71
     3
 72
     8
 73
     4
 74
     0
 42
0.000000001
 43
0.00000001
 40
0.0
 40
0.0
 40
0.0
 40
0.0
 40
1.0
 40
1.0
 40
1.0
 40
1.0
 10
5.732050807568867
 20
0.5090531107153217
 30
0.0
 10
5.629516439386381
 20
0.5696588751506413
 30
0.0
 10
5.52786196958773
 20
0.6320173500192128
 30
0.0
 10
5.426961173107936
 20
0.6959584674889864
 30
0.0
  0
SPLINE
  5
B1
330
1F
100
AcDbEntity
  8
0
  6
Continuous
 62
     4
370
    25
100
AcDbSpline
210
0.0
220
0.0
230
1.0
 70
     8
 71
     3
 72
    12
 73
     8
 74
     0
 42
0.000000001
 43
0.00000001
 40
0.0
 40
0.0
 40
0.0
 40
0.0
 40
0.25
 40
0.25
 40
0.5
 40
0.5
 40
1.0
 40
1.0
 40
1.0
 40
1.0
 10
5.23198333689741
 20
-0.7846273660076206
 30
0.0
 10
5.23198333689741
 20
-0.7265691879813779
 30
0.0
 10
5.246168720079091
 20
-0.6668335419301841
 30
0.0
 10
5.300767835469569
 20
-0.5578867567044972
 30
0.0
 10
5.341015937587275
 20
-0.508733538728932
 30
0.0
 10
5.488210221606002
 20
-0.393841062359473
 30
0.0
 10
5.61607094013192
 20
-0.3656806280812326
 30
0.0
 10
5.732050807568867
 20
-0.3928105556201467
 30
0.0
  0
LINE
  5
B2
330
1F
100
AcDbEntity
  8
0
  6
Continuous
 62
     4
370
    25
100
AcDbLine
 10
5.23198333689741
 20
-0.7846273660076208
 30
0.0
 11
5.23198333689741
 21
-1.870582578078505
 31
0.0
  0
SPLINE
  5
B3
330
1F
100
AcDbEntity
  8
0
  6
Continuous
 62
     4
370
    25
100
AcDbSpline
210
0.0
220
0.0
230
1.0
 70
     8
 71
     3
 72
    10
 73
     6
 74
     0
 42
0.000000001
 43
0.00000001
 40
0.0
 40
0.0
 40
0.0
 40
0.0
 40
0.5
 40
0.5
 40
1.0
 40
1.0
 40
1.0
 40
1.0
 10
5.426961173107943
 20
-1.961968072353906
 30
0.0
 10
5.367910210213213
 20
-1.965482655172966
 30
0.0
 10
5.318269844380256
 20
-1.960517026820734
 30
0.0
 10
5.250097479999423
 20
-1.930118396005087
 30
0.0
 10
5.231983336897399
 20
-1.904291885138995
 30
0.0
 10
5.23198333689741
 20
-1.870582578078506
 30
0.0
  0
SPLINE
  5
B4
330
1F
100
AcDbEntity
  8
0
  6
Continuous
 62
     4
370
    25
100
AcDbSpline
210
0.0
220
0.0
230
1.0
 70
     8
 71
     3
 72
     8
 73
     4
 74
     0
 42
0.000000001
 43
0.00000001
 40
0.0
 40
0.0
 40
0.0
 40
0.0
 40
1.0
 40
1.0
 40
1.0
 40
1.0
 10
5.732050807568867
 20
-1.934131570103511
 30
0.0
 10
5.629516439386381
 20
-1.94659010692761
 30
0.0
 10
5.52786196958773
 20
-1.955962679920746
 30
0.0
 10
5.42696117310794
 20
-1.961968072353883
 30
0.0
  0
LINE
  5
B5
330
1F
100
AcDbEntity
  8
0
  6
Continuous
 62
     4
370
    25
100
AcDbLine
 10
-33.26794919243114
 20
2.499999999999997
 30
0.0
 11
-33.26794919243114
 21
-2.499999999999999
 31
0.0
  0
SPLINE
  5
B6
330
1F
100
AcDbEntity
  8
0
  6
Continuous
 62
     4
370
    25
100
AcDbSpline
210
0.0
220
0.0
230
1.0
 70
     8
 71
     3
 72
    10
 73
     6
 74
     0
 42
0.000000001
 43
0.00000001
 40
0.0
 40
0.0
 40
0.0
 40
0.0
 40
0.4999999999999999
 40
0.4999999999999999
 40
1.0
 40
1.0
 40
1.0
 40
1.0
 10
6.732050807568867
 20
-0.0625215859334012
 30
0.0
 10
6.565589160882442
 20
0.0336002309104856
 30
0.0
 10
6.397360884136233
 20
0.1302783806232493
 30
0.0
 10
6.062607028205279
 20
0.3217333075760379
 30
0.0
 10
5.897808613941224
 20
0.4161825296646176
 30
0.0
 10
5.732050807568895
 20
0.509053110715251
 30
0.0
  0
SPLINE
  5
B7
330
1F
100
AcDbEntity
  8
0
  6
Continuous
 62
     4
370
    25
100
AcDbSpline
210
0.0
220
0.0
230
1.0
 70
     8
 71
     3
 72
     8
 73
     4
 74
     0
 42
0.000000001
 43
0.00000001
 40
0.0
 40
0.0
 40
0.0
 40
0.0
 40
1.0
 40
1.0
 40
1.0
 40
1.0
 10
6.732050807568867
 20
1.775904609468851
 30
0.0
 10
6.432533564666017
 20
1.855491015854595
 30
0.0
 10
6.128028748716353
 20
1.915258838675675
 30
0.0
 10
5.831557602919255
 20
1.952586319475729
 30
0.0
  0
SPLINE
  5
B8
330
1F
100
AcDbEntity
  8
0
  6
Continuous
 62
     4
370
    25
100
AcDbSpline
210
0.0
220
0.0
230
1.0
 70
     8
 71
     3
 72
     8
 73
     4
 74
     0
 42
0.000000001
 43
0.00000001
 40
0.0
 40
0.0
 40
0.0
 40
0.0
 40
1.0
 40
1.0
 40
1.0
 40
1.0
 10
5.732050807568867
 20
-0.3928105556201439
 30
0.0
 10
5.767089941700712
 20
-0.4017509361979509
 30
0.0
 10
5.800260317396956
 20
-0.4151315091009785
 30
0.0
 10
5.831557602919266
 20
-0.4329049144976592
 30
0.0
  0
SPLINE
  5
B9
330
1F
100
AcDbEntity
  8
0
  6
Continuous
 62
     4
370
    25
100
AcDbSpline
210
0.0
220
0.0
230
1.0
 70
     8
 71
     3
 72
     8
 73
     4
 74
     0
 42
0.000000001
 43
0.00000001
 40
0.0
 40
0.0
 40
0.0
 40
0.0
 40
1.0
 40
1.0
 40
1.0
 40
1.0
 10
5.732050807568867
 20
1.961045605638334
 30
0.0
 10
5.767089941700712
 20
1.959254787590999
 30
0.0
 10
5.800260317396952
 20
1.956526833893376
 30
0.0
 10
5.831557602919262
 20
1.952586319475736
 30
0.0
  0
LINE
  5
BA
330
1F
100
AcDbEntity
  8
0
  6
Continuous
 62
     4
370
    25
100
AcDbLine
 10
6.732050807568867
 20
-0.0625215859334012
 30
0.0
 11
6.732050807568867
 21
-0.9198710877439882
 31
0.0
  0
SPLINE
  5
BB
330
1F
100
AcDbEntity
  8
0
  6
Continuous
 62
     4
370
    25
100
AcDbSpline
210
0.0
220
0.0
230
1.0
 70
     8
 71
     3
 72
     8
 73
     4
 74
     0
 42
0.000000001
 43
0.00000001
 40
0.0
 40
0.0
 40
0.0
 40
0.0
 40
1.0
 40
1.0
 40
1.0
 40
1.0
 10
6.732050807568867
 20
-0.9198710877439822
 30
0.0
 10
6.432533564666017
 20
-0.7662214428810897
 30
0.0
 10
6.128028748716356
 20
-0.601267818012522
 30
0.0
 10
5.831557602919259
 20
-0.4329049144976556
 30
0.0
  0
SPLINE
  5
BC
330
1F
100
AcDbEntity
  8
0
  6
Continuous
 62
     4
370
    25
100
AcDbSpline
210
0.0
220
0.0
230
1.0
 70
     8
 71
     3
 72
    10
 73
     6
 74
     0
 42
0.000000001
 43
0.00000001
 40
0.0
 40
0.0
 40
0.0
 40
0.0
 40
0.5
 40
0.5
 40
1.0
 40
1.0
 40
1.0
 40
1.0
 10
6.732050807568867
 20
-1.999022523957762
 30
0.0
 10
6.565589160882435
 20
-2.002028837473421
 30
0.0
 10
6.397360884136226
 20
-1.998076530654417
 30
0.0
 10
6.062607028205261
 20
-1.976302091686894
 30
0.0
 10
5.897808613941199
 20
-1.958574611573702
 30
0.0
 10
5.732050807568867
 20
-1.934131570103033
 30
0.0
  0
LINE
  5
BD
330
1F
100
AcDbEntity
  8
0
  6
Continuous
 62
     4
370
    25
100
AcDbLine
 10
6.732050807568867
 20
1.999022523957766
 30
0.0
 11
6.623546994884198
 21
1.995925306224897
 31
0.0
  0
LINE
  5
BE
330
1F
100
AcDbEntity
  8
0
  6
Continuous
 62
     4
370
    25
100
AcDbLine
 10
6.732050807568865
 20
1.999022523957766
 30
0.0
 11
6.732050807568867
 21
1.775904609468866
 31
0.0
  0
SPLINE
  5
BF
330
1F
100
AcDbEntity
  8
0
  6
Continuous
 62
     1
370
    25
100
AcDbSpline
210
0.0
220
0.0
230
1.0
 70
     8
 71
     3
 72
    38
 73
    34
 74
     0
 42
0.000000001
 43
0.00000001
 40
0.0
 40
0.0
 40
0.0
 40
0.0
 40
0.0624999999999998
 40
0.0624999999999998
 40
0.1249999999999997
 40
0.1249999999999997
 40
0.1874999999999996
 40
0.1874999999999996
 40
0.2499999999999994
 40
0.2499999999999994
 40
0.3124999999999992
 40
0.3124999999999992
 40
0.3749999999999993
 40
0.3749999999999993
 40
0.4374999999999994
 40
0.4374999999999994
 40
0.4999999999999994
 40
0.4999999999999994
 40
0.5624999999999996
 40
0.5624999999999996
 40
0.6249999999999996
 40
0.6249999999999996
 40
0.6874999999999997
 40
0.6874999999999997
 40
0.7499999999999997
 40
0.7499999999999997
 40
0.8124999999999998
 40
0.8124999999999998
 40
0.8749999999999999
 40
0.8749999999999999
 40
0.9374999999999999
 40
0.9374999999999999
 40
1.0
 40
1.0
 40
1.0
 40
1.0
 10
16.73205080756887
 20
-1.950331396710042
 30
0.0
 10
16.52625599665294
 20
-1.92379791918307
 30
0.0
 10
16.31604488357072
 20
-1.886492632100099
 30
0.0
 10
15.89691595395209
 20
-1.79177327549132
 30
0.0
 10
15.69082379121341
 20
-1.734685510891257
 30
0.0
 10
15.27534812258546
 20
-1.60214147591493
 30
0.0
 10
15.0644836079669
 20
-1.526429983513605
 30
0.0
 10
14.64673069601523
 20
-1.359710670667588
 30
0.0
 10
14.44188265538018
 20
-1.269088862922572
 30
0.0
 10
14.02385721247408
 20
-1.07388506477502
 30
0.0
 10
13.81304144311964
 20
-0.9695859229709863
 30
0.0
 10
13.39802554645542
 20
-0.7527330560944602
 30
0.0
 10
13.1915333055997
 20
-0.6398274387294278
 30
0.0
 10
12.77232205608827
 20
-0.4071598900643725
 30
0.0
 10
12.56285231667078
 20
-0.2879900026839777
 30
0.0
 10
12.15064555507462
 20
-0.0491183338127332
 30
0.0
 10
11.94030211857824
 20
0.0720471923338102
 30
0.0
 10
11.5212819806085
 20
0.3119693491637932
 30
0.0
 10
11.31553459076603
 20
0.4301668092139186
 30
0.0
 10
10.89962485657198
 20
0.6614778043806729
 30
0.0
 10
10.68872510481695
 20
0.7746915083560929
 30
0.0
 10
10.27127090633756
 20
0.9907114169717536
 30
0.0
 10
10.06636730063284
 20
1.093296022094054
 30
0.0
 10
9.648095566483654
 20
1.286898425133977
 30
0.0
 10
9.437342040033592
 20
1.377416339285534
 30
0.0
 10
9.022811525989312
 20
1.541623270229914
 30
0.0
 10
8.81586398526223
 20
1.615797975521981
 30
0.0
 10
8.396596904954578
 20
1.746400856179128
 30
0.0
 10
8.187813937187698
 20
1.802410349024081
 30
0.0
 10
7.775015064339352
 20
1.894055403184495
 30
0.0
 10
7.564552700604312
 20
1.930128070938397
 30
0.0
 10
7.145667803129261
 20
1.980726366417766
 30
0.0
 10
6.940209808996941
 20
1.995263152163366
 30
0.0
 10
6.732050807569471
 20
1.999022523957757
 30
0.0
  0
SPLINE
  5
C0
330
1F
100
AcDbEntity
  8
0
  6
Continuous
 62
     1
370
    25
100
AcDbSpline
210
0.0
220
0.0
230
1.0
 70
     8
 71
     3
 72
    17
 73
    13
 74
     0
 42
0.000000001
 43
0.00000001
 40
0.0
 40
0.0
 40
0.0
 40
0.0
 40
0.0678068676046763
 40
0.1660864510297597
 40
0.26407774720792
 40
0.3620853202336226
 40
0.4603996985146181
 40
0.5684090880475009
 40
0.6762582608031676
 40
0.7840625857302312
 40
0.8919381914486642
 40
1.0
 40
1.0
 40
1.0
 40
1.0
 10
8.577898939413952
 20
1.685093448705536
 30
0.0
 10
8.762214623843253
 20
1.741282752354647
 30
0.0
 10
9.213678302632516
 20
1.878913089200806
 30
0.0
 10
9.931792778035053
 20
1.986871733895183
 30
0.0
 10
10.73122380565743
 20
2.014599929109864
 30
0.0
 10
11.53079114432806
 20
1.931664555131252
 30
0.0
 10
12.35840415008299
 20
1.741329727524188
 30
0.0
 10
13.21249620666052
 20
1.440329360019192
 30
0.0
 10
14.09208608915616
 20
1.037338958009544
 30
0.0
 10
14.97125763272818
 20
0.568368166673759
 30
0.0
 10
15.8510869829898
 20
0.0606804842182379
 30
0.0
 10
16.43822743563788
 20
-0.2749787545793054
 30
0.0
 10
16.73205080756887
 20
-0.442953093459334
 30
0.0
1001
PE_URL
1000

  0
LINE
  5
C1
330
1F
100
AcDbEntity
  8
0
  6
Continuous
 62
     1
370
    25
100
AcDbLine
 10
16.73205080756887
 20
-0.5000000000000028
 30
0.0
 11
16.73205080756887
 21
-0.4449334395932892
 31
0.0
1001
PE_URL
1000

  0
SPLINE
  5
C2
330
1F
100
AcDbEntity
  8
0
  6
Continuous
 62
     1
370
    25
100
AcDbSpline
210
0.0
220
0.0
230
1.0
 70
    24
 71
     3
 72
    12
 73
     8
 74
     0
 42
0.000000001
 43
0.00000001
 40
0.0
 40
0.0
 40
0.0
 40
0.0
 40
0.25
 40
0.25
 40
0.5
 40
0.5
 40
1.0
 40
1.0
 40
1.0
 40
1.0
 10
16.73205080756887
 20
-0.5000000000000026
 30
0.0
 10
16.70272378227621
 20
-0.5205350041831881
 30
0.0
 10
16.65967197027496
 20
-0.5506802074800603
 30
0.0
 10
16.54496027032935
 20
-0.6310022045028217
 30
0.0
 10
16.47454100370157
 20
-0.6803103058307769
 30
0.0
 10
16.23951662439411
 20
-0.8448761478849282
 30
0.0
 10
16.05516950957547
 20
-0.973957387328169
 30
0.0
 10
15.88112755632612
 20
-1.095822874958106
 30
0.0
1001
PE_URL
1000

  0
SPLINE
  5
C3
330
1F
100
AcDbEntity
  8
0
  6
Continuous
 62
     1
370
    25
100
AcDbSpline
210
0.0
220
0.0
230
1.0
 70
     8
 71
     3
 72
     8
 73
     4
 74
     0
 42
0.000000001
 43
0.00000001
 40
0.0
 40
0.0
 40
0.0
 40
0.0
 40
1.0
 40
1.0
 40
1.0
 40
1.0
 10
16.73205080756887
 20
-1.718789664692073
 30
0.0
 10
16.43159910321511
 20
-1.547826766026001
 30
0.0
 10
16.15144192325821
 20
-1.332566820248712
 30
0.0
 10
15.8811275563261
 20
-1.095822874958108
 30
0.0
1001
PE_URL
1000

  0
LINE
  5
C4
330
1F
100
AcDbEntity
  8
0
  6
Continuous
 62
     1
370
    25
100
AcDbLine
 10
16.73205080756887
 20
-1.950331396710521
 30
0.0
 11
16.73205080756887
 21
-1.718789664692073
 31
0.0
1001
PE_URL
1000

  0
SPLINE
  5
C5
330
1F
100
AcDbEntity
  8
0
  6
Continuous
 62
     1
370
    25
100
AcDbSpline
210
0.0
220
0.0
230
1.0
 70
     8
 71
     3
 72
    16
 73
    12
 74
     0
 42
0.000000001
 43
0.00000001
 40
0.0
 40
0.0
 40
0.0
 40
0.0
 40
0.0647072670661245
 40
0.1748197154118798
 40
0.2847031296307182
 40
0.3947023110877226
 40
0.5159602429371404
 40
0.6371088248558814
 40
0.7580785599657073
 40
0.8789988665077142
 40
1.0
 40
1.0
 40
1.0
 40
1.0
 10
14.00153597458256
 20
-1.684358499700866
 30
0.0
 10
13.84467777036361
 20
-1.733629916652216
 30
0.0
 10
13.42089373705631
 20
-1.866746573867437
 30
0.0
 10
12.73097661167368
 20
-1.97795988797814
 30
0.0
 10
11.93176714170497
 20
-2.01705975664495
 30
0.0
 10
11.10535899157628
 20
-1.942473941577907
 30
0.0
 10
10.25089838257484
 20
-1.751121401606832
 30
0.0
 10
9.370213002847844
 20
-1.440887633193351
 30
0.0
 10
8.49061948705646
 20
-1.038092575787422
 30
0.0
 10
7.611472652596542
 20
-0.5689557511681578
 30
0.0
 10
7.025256708299588
 20
-0.2313705705453258
 30
0.0
 10
6.732050807569467
 20
-0.0625215859337493
 30
0.0
  0
SPLINE
  5
C6
330
1F
100
AcDbEntity
  8
0
  6
Continuous
 62
     1
370
    25
100
AcDbSpline
210
0.0
220
0.0
230
1.0
 70
     8
 71
     3
 72
    19
 73
    15
 74
     0
 42
0.000000001
 43
0.00000001
 40
0.0
 40
0.0
 40
0.0
 40
0.0
 40
0.0866413677718133
 40
0.1732362789221013
 40
0.2600560690537397
 40
0.3469182357393139
 40
0.4335256063215381
 40
0.5201473628239615
 40
0.6070402821487788
 40
0.7025019158904809
 40
0.7978219456904145
 40
0.8931023377606403
 40
0.9884457297314112
 40
0.9999999999999999
 40
0.9999999999999999
 40
0.9999999999999999
 40
0.9999999999999999
 10
6.732050807568867
 20
1.775904609468852
 30
0.0
 10
6.998440996981604
 20
1.69598779152926
 30
0.0
 10
7.531078538862956
 20
1.536197006605225
 30
0.0
 10
8.330360734184534
 20
1.189112338814155
 30
0.0
 10
9.13098342359618
 20
0.786180647393091
 30
0.0
 10
9.931782071334158
 20
0.339973620015141
 30
0.0
 10
10.73122665137829
 20
-0.1247300922389547
 30
0.0
 10
11.53079045312105
 20
-0.5828918710404911
 30
0.0
 10
12.35840407798713
 20
-1.023415231874498
 30
0.0
 10
13.21249738946231
 20
-1.418073071961256
 30
0.0
 10
14.0920814773759
 20
-1.737282162023461
 30
0.0
 10
14.97127489693101
 20
-1.932180070435731
 30
0.0
 10
15.5928964005511
 20
-2.015879421054712
 30
0.0
 10
15.92173848793917
 20
-1.995370795549951
 30
0.0
 10
15.95728211231573
 20
-1.993154075399526
 30
0.0
  0
LINE
  5
C7
330
1F
100
AcDbEntity
  8
0
  6
Continuous
 62
     1
370
    25
100
AcDbLine
 10
16.73205080756887
 20
-1.999999999999998
 30
0.0
 11
16.73205080756887
 21
-1.950331396710521
 31
0.0
1001
PE_URL
1000

  0
SPLINE
  5
C8
330
1F
100
AcDbEntity
  8
0
  6
Continuous
 62
     1
370
    25
100
AcDbSpline
210
0.0
220
0.0
230
1.0
 70
     8
 71
     3
 72
    13
 73
     9
 74
     0
 42
0.000000001
 43
0.00000001
 40
0.0
 40
0.0
 40
0.0
 40
0.0
 40
0.171623982145282
 40
0.3427722144182301
 40
0.5139805713678872
 40
0.6857330806330104
 40
0.8572047029628573
 40
1.0
 40
1.0
 40
1.0
 40
1.0
 10
16.73205080756887
 20
0.4429530934593
 30
0.0
 10
16.46490138415347
 20
0.5908523684303599
 30
0.0
 10
15.93134308827887
 20
0.886240934521119
 30
0.0
 10
15.1319563416197
 20
1.276687539482436
 30
0.0
 10
14.33233636866485
 20
1.601671894035885
 30
0.0
 10
13.53133347032572
 20
1.837502367651158
 30
0.0
 10
12.77505342542678
 20
1.979217408301015
 30
0.0
 10
12.28626011743231
 20
1.988461097727052
 30
0.0
 10
12.06416424509097
 20
1.992661206920757
 30
0.0
1001
PE_URL
1000

  0
LINE
  5
C9
330
1F
100
AcDbEntity
  8
0
  6
Continuous
 62
     1
370
    25
100
AcDbLine
 10
16.73205080756887
 20
-0.4429530934593348
 30
0.0
 11
16.73205080756887
 21
0.4429530934593384
 31
0.0
1001
PE_URL
1000

  0
SPLINE
  5
CA
330
1F
100
AcDbEntity
  8
0
  6
Continuous
 62
     1
370
    25
100
AcDbSpline
210
0.0
220
0.0
230
1.0
 70
     8
 71
     3
 72
    12
 73
     8
 74
     0
 42
0.000000001
 43
0.00000001
 40
0.0
 40
0.0
 40
0.0
 40
0.0
 40
0.2111359028320171
 40
0.4221585957623378
 40
0.6337292951239563
 40
0.8454032616915783
 40
1.0
 40
1.0
 40
1.0
 40
1.0
 10
6.732050807568867
 20
-0.9198710877439826
 30
0.0
 10
6.998440881249514
 20
-1.051733195606935
 30
0.0
 10
7.531078191728739
 20
-1.315386707600938
 30
0.0
 10
8.33036212335427
 20
-1.629470690099565
 30
0.0
 10
9.130978197930116
 20
-1.856383726928341
 30
0.0
 10
9.860523462955381
 20
-1.984933840549666
 30
0.0
 10
10.32252185098275
 20
-1.988199503587138
 30
0.0
 10
10.5175236432144
 20
-1.989577885333988
 30
0.0
  0
SPLINE
  5
CB
330
1F
100
AcDbEntity
  8
0
  6
Continuous
 62
     1
370
    25
100
AcDbSpline
210
0.0
220
0.0
230
1.0
 70
     8
 71
     3
 72
    11
 73
     7
 74
     0
 42
0.000000001
 43
0.00000001
 40
0.0
 40
0.0
 40
0.0
 40
0.0
 40
0.0332074268883957
 40
0.3551443539814688
 40
0.6772941474780901
 40
1.0
 40
1.0
 40
1.0
 40
1.0
 10
14.00153597458256
 20
1.68435849970087
 30
0.0
 10
14.03175708290212
 20
1.695270564232823
 30
0.0
 10
14.35496357604077
 20
1.811972111806156
 30
0.0
 10
14.9712484899873
 20
1.931942444176584
 30
0.0
 10
15.85108927390906
 20
2.02801757552001
 30
0.0
 10
16.43822819971649
 20
1.976241671767662
 30
0.0
 10
16.73205080756887
 20
1.950331396710516
 30
0.0
1001
PE_URL
1000

  0
SPLINE
  5
CC
330
1F
100
AcDbEntity
  8
0
  6
Continuous
 62
     1
370
    25
100
AcDbSpline
210
0.0
220
0.0
230
1.0
 70
     8
 71
     3
 72
    11
 73
     7
 74
     0
 42
0.000000001
 43
0.00000001
 40
0.0
 40
0.0
 40
0.0
 40
0.0
 40
0.2504801725733273
 40
0.5017203261843014
 40
0.742085472497561
 40
1.0
 40
1.0
 40
1.0
 40
1.0
 10
16.73205080756887
 20
1.428017363720413
 30
0.0
 10
16.69952729646484
 20
1.339761614543687
 30
0.0
 10
16.63438159478263
 20
1.162982339722549
 30
0.0
 10
16.45322539828749
 20
0.9726191297913472
 30
0.0
 10
16.23379832995797
 20
0.8571765388424174
 30
0.0
 10
16.07677600819383
 20
0.8476472320813292
 30
0.0
 10
15.99549968878267
 20
0.8427147678852861
 30
0.0
1001
PE_URL
1000

  0
LINE
  5
CD
330
1F
100
AcDbEntity
  8
0
  6
Continuous
 62
     1
370
    25
100
AcDbLine
 10
16.73205080756887
 20
1.428017363720413
 30
0.0
 11
16.73205080756887
 21
1.950331396710524
 31
0.0
1001
PE_URL
1000

  0
SPLINE
  5
CE
330
1F
100
AcDbEntity
  8
0
  6
Continuous
 62
     1
370
    25
100
AcDbSpline
210
0.0
220
0.0
230
1.0
 70
     8
 71
     3
 72
    10
 73
     6
 74
     0
 42
0.000000001
 43
0.00000001
 40
0.0
 40
0.0
 40
0.0
 40
0.0
 40
0.0473403284842085
 40
0.5235110204806188
 40
1.0
 40
1.0
 40
1.0
 40
1.0
 10
8.577898939413927
 20
-1.685093448705532
 30
0.0
 10
8.548770667418651
 20
-1.695599149950739
 30
0.0
 10
8.226656903417815
 20
-1.811776002875982
 30
0.0
 10
7.611481943708134
 20
-1.939822312553435
 30
0.0
 10
7.025259806026532
 20
-1.979284725304728
 30
0.0
 10
6.732050807569471
 20
-1.999022523957753
 30
0.0
  0
LINE
  5
CF
330
1F
100
AcDbEntity
  8
0
  6
Continuous
 62
     1
370
    25
100
AcDbLine
 10
16.73205080756887
 20
0.4436031597791981
 30
0.0
 11
16.73205080756887
 21
1.428017363720413
 31
0.0
1001
PE_URL
1000

  0
LINE
  5
D0
330
1F
100
AcDbEntity
  8
0
  6
Continuous
 62
     1
370
    25
100
AcDbLine
 10
16.73205080756887
 20
-0.4999999999999976
 30
0.0
 11
16.73205080756887
 21
-1.718789664692072
 31
0.0
1001
PE_URL
1000

  0
LINE
  5
D1
330
1F
100
AcDbEntity
  8
0
  6
Continuous
 62
     1
370
    25
100
AcDbLine
 10
16.73205080756887
 20
1.950331396710524
 30
0.0
 11
16.73205080756887
 21
2.000000000000004
 31
0.0
1001
PE_URL
1000

  0
LINE
  5
D2
330
1F
100
AcDbEntity
  8
중심선
100
AcDbLine
 10
-36.26794919243114
 20
-0.0000000000000026
 30
0.0
 11
19.73205080756887
 21
0.0000000000000043
 31
0.0
  0
CIRCLE
  5
D3
330
1F
100
AcDbEntity
  8
해칭선
100
AcDbCircle
 10
0.0
 20
0.0
 30
0.0
 40
3.000000000000001
  0
INSERT
  5
D4
330
1F
100
AcDbEntity
  8
0
  6
Continuous
 62
     7
100
AcDbBlockReference
 66
     1
  2
블럭10
 10
-22.20822212455633
 20
-52.04717430164393
 30
0.0
  0
ATTRIB
  5
D5
330
D4
100
AcDbEntity
  8
FORMAT
 62
     2
100
AcDbText
 10
-35.1681613194141
 20
-49.97180738881174
 30
0.0
 40
4.233333333333333
  1
SEME36040E [ 4 FLUTE ]
 41
0.75
  7
SLDTEXTSTYLE0
 11
-35.1681613194141
 21
-52.08847405547841
 31
0.0
100
AcDbAttribute
  2
AUTOATTR0
 70
     0
 74
     1
  0
SEQEND
  5
D6
330
D4
100
AcDbEntity
  8
0
  6
Continuous
 62
     7
  0
HATCH
  5
D7
330
1F
100
AcDbEntity
  8
중심선
100
AcDbHatch
 10
0.0
 20
0.0
 30
0.0
210
0.0
220
0.0
230
1.0
  2
SOLID
 70
     1
 71
     0
 91
        1
 92
        0
 93
        4
 72
     1
 10
-16.49331282017548
 20
-35.8
 11
-19.93958806401276
 21
-35.8
 72
     1
 10
-19.93958806401276
 20
-35.8
 11
-22.06781792321679
 21
-38.33632558057259
 72
     1
 10
-22.06781792321679
 20
-38.33632558057259
 11
-18.62150959426635
 21
-38.3362861512701
 72
     1
 10
-18.62150959426635
 20
-38.3362861512701
 11
-16.49331282017548
 21
-35.8
 97
        0
 75
     0
 76
     1
 98
        1
 10
-4.767899101582583
 20
0.0000000000000013
  0
HATCH
  5
D8
330
1F
100
AcDbEntity
  8
중심선
100
AcDbHatch
 10
0.0
 20
0.0
 30
0.0
210
0.0
220
0.0
230
1.0
  2
SOLID
 70
     1
 71
     0
 91
        1
 92
        0
 93
        4
 72
     1
 10
-11.48054882913947
 20
-35.8
 11
-14.92682407297681
 21
-35.80000000000003
 72
     1
 10
-14.92682407297681
 20
-35.80000000000003
 11
-19.4579620813342
 21
-41.20000000000002
 72
     1
 10
-19.4579620813342
 20
-41.20000000000002
 11
-16.01168683749692
 21
-41.20000000000002
 72
     1
 10
-16.01168683749692
 20
-41.20000000000002
 11
-11.48054882913947
 21
-35.8
 97
        0
 75
     0
 76
     1
 98
        1
 10
-4.767899101582583
 20
0.0000000000000013
  0
HATCH
  5
D9
330
1F
100
AcDbEntity
  8
중심선
100
AcDbHatch
 10
0.0
 20
0.0
 30
0.0
210
0.0
220
0.0
230
1.0
  2
SOLID
 70
     1
 71
     0
 91
        1
 92
        0
 93
        4
 72
     1
 10
-6.467784838103606
 20
-35.8
 11
-9.914060081940693
 21
-35.8
 72
     1
 10
-9.914060081940693
 20
-35.8
 11
-16.96249698383
 21
-44.20000000000002
 72
     1
 10
-16.96249698383
 20
-44.20000000000002
 11
-13.51622173999272
 21
-44.20000000000002
 72
     1
 10
-13.51622173999272
 20
-44.20000000000002
 11
-6.467784838103605
 21
-35.8
 97
        0
 75
     0
 76
     1
 98
        1
 10
-4.767899101582583
 20
0.0000000000000013
  0
HATCH
  5
DA
330
1F
100
AcDbEntity
  8
중심선
100
AcDbHatch
 10
0.0
 20
0.0
 30
0.0
210
0.0
220
0.0
230
1.0
  2
SOLID
 70
     1
 71
     0
 91
        1
 92
        0
 93
        6
 72
     3
 10
-1.667894407091435
 20
-40.00000000005127
 11
3.960054785062284
 21
1.540882976769353E-10
 40
0.3939339440162627
 50
17.09539180608436
 51
320.0019657685082
 73
     0
 72
     1
 10
0.0151052486091334
 20
-38.58789400463833
 11
2.320407122310199
 21
-36.65356729459038
 72
     3
 10
-1.667894407144281
 20
-40.00000000000015
 11
6.600054785286829
 21
-1.278976924368180E-13
 40
0.6363583540795982
 50
39.99873849337412
 51
368.4976242363724
 73
     1
 72
     1
 10
4.757438084756328
 20
-39.03999999993002
 11
-2.987827100308359
 21
-39.03999999993002
 72
     1
 10
-2.987827100308359
 20
-39.03999999993002
 11
-2.987852144754292
 21
-40.95999999992991
 72
     1
 10
-2.987852144754292
 20
-40.95999999992991
 11
1.453527624717744
 21
-40.95999999992988
 97
        0
 75
     0
 76
     1
 98
        1
 10
-4.767899101582583
 20
0.0000000000000013
  0
DIMENSION
  5
DB
330
1F
100
AcDbEntity
  8
치수문자_일반주서
100
AcDbDimension
  2
_D
 10
29.98605080756887
 20
2.000000000000053
 30
0.0
 11
29.98605080756883
 21
13.41650000000005
 31
0.0
 70
   160
  1
%%c<>
 71
     2
 42
4.000000000000002
 52
-270.0
  3
SLDDIMSTYLE0
100
AcDbAlignedDimension
 13
16.73205080756887
 23
-1.999999999999999
 33
0.0
 14
16.73205080756887
 24
2.000000000000003
 34
0.0
 50
90.0000000000002
100
AcDbRotatedDimension
  0
DIMENSION
  5
E9
330
1F
100
AcDbEntity
  8
치수문자_일반주서
100
AcDbDimension
  2
_D_1
 10
16.73205080756887
 20
19.23841044024267
 30
0.0
 11
-8.267949192431137
 21
19.23841044024267
 31
0.0
 70
   160
  1
<>
 71
     2
 42
50.00000000000001
  3
SLDDIMSTYLE1
100
AcDbAlignedDimension
 13
-33.26794919243114
 23
2.499999999999997
 33
0.0
 14
16.73205080756887
 24
-0.4999999999999976
 34
0.0
100
AcDbRotatedDimension
  0
DIMENSION
  5
F4
330
1F
100
AcDbEntity
  8
치수문자_일반주서
100
AcDbDimension
  2
_D_2
 10
6.732050807568867
 20
11.0845781009103
 30
0.0
 11
11.73205080756887
 21
11.0845781009103
 31
0.0
 70
   160
  1
<>
 71
     2
 42
10.0
  3
SLDDIMSTYLE2
100
AcDbAlignedDimension
 13
16.73205080756887
 23
1.950331396710524
 33
0.0
 14
6.732050807568867
 24
1.999022523967344
 34
0.0
100
AcDbRotatedDimension
  0
DIMENSION
  5
101
330
1F
100
AcDbEntity
  8
치수문자_일반주서
100
AcDbDimension
  2
_D_3
 10
-46.76058875405102
 20
-3.000000000000053
 30
0.0
 11
-46.76058875405103
 21
-1.089695848804616
 31
0.0
 70
   160
  1
%%c<>
 71
     2
 42
6.000000000000005
 52
-270.0
  3
SLDDIMSTYLE2
100
AcDbAlignedDimension
 13
-32.76794919243114
 23
3.000000000000004
 33
0.0
 14
-32.76794919243114
 24
-3.000000000000001
 34
0.0
 50
90.0000000000002
100
AcDbRotatedDimension
  0
INSERT
  5
114
330
1F
100
AcDbEntity
  8
해칭선
100
AcDbBlockReference
  2
SW_DOWELSYMBOL_0
 10
0.0
 20
0.0
 30
0.0
  0
ENDSEC
  0
SECTION
  2
OBJECTS
  0
DICTIONARY
  5
C
330
0
100
AcDbDictionary
281
     1
  3
ACAD_GROUP
350
D
  3
ACAD_LAYOUT
350
1A
  3
ACAD_MLINESTYLE
350
17
  3
ACAD_PLOTSETTINGS
350
19
  3
ACAD_PLOTSTYLENAME
350
E
  3
ACAD_SCALELIST
350
47
  3
APPDATA
350
136
  3
DWGPROPS
350
164
  0
DICTIONARY
  5
D
102
{ACAD_REACTORS
330
C
102
}
330
C
100
AcDbDictionary
281
     1
  0
DICTIONARY
  5
1A
102
{ACAD_REACTORS
330
C
102
}
330
C
100
AcDbDictionary
281
     1
  3
Layout1
350
1E
  3
Layout2
350
26
  3
Model
350
22
  0
DICTIONARY
  5
17
102
{ACAD_REACTORS
330
C
102
}
330
C
100
AcDbDictionary
281
     1
  3
Standard
350
18
  0
DICTIONARY
  5
19
102
{ACAD_REACTORS
330
C
102
}
330
C
100
AcDbDictionary
281
     1
  0
ACDBDICTIONARYWDFLT
  5
E
102
{ACAD_REACTORS
330
C
102
}
330
C
100
AcDbDictionary
281
     1
  3
Normal
350
F
100
AcDbDictionaryWithDefault
340
F
  0
DICTIONARY
  5
47
102
{ACAD_REACTORS
330
C
102
}
330
C
100
AcDbDictionary
281
     1
  3
A0
350
48
  3
A1
350
49
  3
A2
350
4A
  3
A3
350
4B
  3
A4
350
4C
  3
A5
350
4D
  3
A6
350
4E
  3
A7
350
4F
  3
A8
350
50
  3
A9
350
51
  3
B0
350
52
  3
B1
350
53
  3
B2
350
54
  3
B3
350
55
  3
B4
350
56
  3
B5
350
57
  3
B6
350
58
  3
B7
350
59
  3
B8
350
5A
  3
B9
350
5B
  3
C0
350
5C
  3
C1
350
5D
  3
C2
350
5E
  3
C3
350
5F
  3
C4
350
60
  3
C5
350
61
  3
C6
350
62
  3
C7
350
63
  3
C8
350
64
  3
C9
350
65
  3
D0
350
66
  3
D1
350
67
  3
D2
350
68
  0
DICTIONARY
  5
136
102
{ACAD_REACTORS
330
C
102
}
330
C
100
AcDbDictionary
281
     1
  0
XRECORD
  5
164
102
{ACAD_REACTORS
330
C
102
}
330
C
100
AcDbXrecord
280
     1
  1
DWGPROPS COOKIE
  2

  3

  4

  6

  7

  8
12011908
  9

300
=
301
=
302
=
303
=
304
=
305
=
306
=
307
=
308
=
309
=
 40
0.0
 41
2458250.062950752
 42
2458264.294249491
  1

 90
        0
  0
LAYOUT
  5
1E
102
{ACAD_REACTORS
330
1A
102
}
330
1A
100
AcDbPlotSettings
  1

  2
none_device
  4

  6

 40
0.0
 41
0.0
 42
0.0
 43
0.0
 44
0.0
 45
0.0
 46
0.0
 47
0.0
 48
0.0
 49
0.0
140
0.0
141
0.0
142
1.0
143
1.0
 70
   688
 72
     1
 73
     0
 74
     5
  7

 75
    16
147
1.0
148
0.0
149
0.0
100
AcDbLayout
  1
Layout1
 70
     1
 71
     1
 10
0.0
 20
0.0
 11
420.0
 21
297.0
 12
0.0
 22
0.0
 32
0.0
 14
1.000000000000000E+20
 24
1.000000000000000E+20
 34
1.000000000000000E+20
 15
-1.000000000000000E+20
 25
-1.000000000000000E+20
 35
-1.000000000000000E+20
146
0.0
 13
0.0
 23
0.0
 33
0.0
 16
1.0
 26
0.0
 36
0.0
 17
0.0
 27
1.0
 37
0.0
 76
     0
330
1B
  0
LAYOUT
  5
26
102
{ACAD_REACTORS
330
1A
102
}
330
1A
100
AcDbPlotSettings
  1

  2
none_device
  4

  6

 40
0.0
 41
0.0
 42
0.0
 43
0.0
 44
0.0
 45
0.0
 46
0.0
 47
0.0
 48
0.0
 49
0.0
140
0.0
141
0.0
142
1.0
143
1.0
 70
   688
 72
     1
 73
     0
 74
     5
  7

 75
    16
147
1.0
148
0.0
149
0.0
100
AcDbLayout
  1
Layout2
 70
     1
 71
     2
 10
0.0
 20
0.0
 11
0.0
 21
0.0
 12
0.0
 22
0.0
 32
0.0
 14
0.0
 24
0.0
 34
0.0
 15
0.0
 25
0.0
 35
0.0
146
0.0
 13
0.0
 23
0.0
 33
0.0
 16
1.0
 26
0.0
 36
0.0
 17
0.0
 27
1.0
 37
0.0
 76
     0
330
23
  0
LAYOUT
  5
22
102
{ACAD_REACTORS
330
1A
102
}
330
1A
100
AcDbPlotSettings
  1

  2
none_device
  4
ANSI_A_(11.00_x_8.50_Inches)
  6

 40
6.35
 41
19.05
 42
6.35000508
 43
19.05000254
 44
279.4
 45
215.9
 46
149.219922009968
 47
127.5999824328494
 48
0.0
 49
0.0
140
0.0
141
0.0
142
0.1130047133720686
143
1.0
 70
  1696
 72
     0
 73
     0
 74
     0
  7

 75
     0
147
0.0235690232323232
148
0.0
149
0.0
100
AcDbLayout
  1
Model
 70
     1
 71
     0
 10
0.0
 20
0.0
 11
420.0
 21
297.0
 12
0.0
 22
0.0
 32
0.0
 14
-51.13558875405104
 24
-49.97180738881174
 34
0.0
 15
30.53638414090222
 25
23.61341044024267
 35
0.0
146
0.0
 13
0.0
 23
0.0
 33
0.0
 16
1.0
 26
0.0
 36
0.0
 17
0.0
 27
1.0
 37
0.0
 76
     0
330
1F
331
29
  0
MLINESTYLE
  5
18
102
{ACAD_REACTORS
330
17
102
}
330
17
100
AcDbMlineStyle
  2
Standard
 70
     0
  3

 62
   256
 51
90.0
 52
90.0
 71
     2
 49
0.5
 62
   256
  6
BYLAYER
 49
-0.5
 62
   256
  6
BYLAYER
  0
ACDBPLACEHOLDER
  5
F
102
{ACAD_REACTORS
330
E
102
}
330
E
  0
SCALE
  5
48
102
{ACAD_REACTORS
330
47
102
}
330
47
100
AcDbScale
 70
     0
300
1:1
140
1.0
141
1.0
290
     1
  0
SCALE
  5
49
102
{ACAD_REACTORS
330
47
102
}
330
47
100
AcDbScale
 70
     0
300
1:2
140
1.0
141
2.0
290
     0
  0
SCALE
  5
4A
102
{ACAD_REACTORS
330
47
102
}
330
47
100
AcDbScale
 70
     0
300
1:4
140
1.0
141
4.0
290
     0
  0
SCALE
  5
4B
102
{ACAD_REACTORS
330
47
102
}
330
47
100
AcDbScale
 70
     0
300
1:5
140
1.0
141
5.0
290
     0
  0
SCALE
  5
4C
102
{ACAD_REACTORS
330
47
102
}
330
47
100
AcDbScale
 70
     0
300
1:8
140
1.0
141
8.0
290
     0
  0
SCALE
  5
4D
102
{ACAD_REACTORS
330
47
102
}
330
47
100
AcDbScale
 70
     0
300
1:10
140
1.0
141
10.0
290
     0
  0
SCALE
  5
4E
102
{ACAD_REACTORS
330
47
102
}
330
47
100
AcDbScale
 70
     0
300
1:16
140
1.0
141
16.0
290
     0
  0
SCALE
  5
4F
102
{ACAD_REACTORS
330
47
102
}
330
47
100
AcDbScale
 70
     0
300
1:20
140
1.0
141
20.0
290
     0
  0
SCALE
  5
50
102
{ACAD_REACTORS
330
47
102
}
330
47
100
AcDbScale
 70
     0
300
1:30
140
1.0
141
30.0
290
     0
  0
SCALE
  5
51
102
{ACAD_REACTORS
330
47
102
}
330
47
100
AcDbScale
 70
     0
300
1:40
140
1.0
141
40.0
290
     0
  0
SCALE
  5
52
102
{ACAD_REACTORS
330
47
102
}
330
47
100
AcDbScale
 70
     0
300
1:50
140
1.0
141
50.0
290
     0
  0
SCALE
  5
53
102
{ACAD_REACTORS
330
47
102
}
330
47
100
AcDbScale
 70
     0
300
1:100
140
1.0
141
100.0
290
     0
  0
SCALE
  5
54
102
{ACAD_REACTORS
330
47
102
}
330
47
100
AcDbScale
 70
     0
300
2:1
140
2.0
141
1.0
290
     0
  0
SCALE
  5
55
102
{ACAD_REACTORS
330
47
102
}
330
47
100
AcDbScale
 70
     0
300
4:1
140
4.0
141
1.0
290
     0
  0
SCALE
  5
56
102
{ACAD_REACTORS
330
47
102
}
330
47
100
AcDbScale
 70
     0
300
8:1
140
8.0
141
1.0
290
     0
  0
SCALE
  5
57
102
{ACAD_REACTORS
330
47
102
}
330
47
100
AcDbScale
 70
     0
300
10:1
140
10.0
141
1.0
290
     0
  0
SCALE
  5
58
102
{ACAD_REACTORS
330
47
102
}
330
47
100
AcDbScale
 70
     0
300
100:1
140
100.0
141
1.0
290
     0
  0
SCALE
  5
59
102
{ACAD_REACTORS
330
47
102
}
330
47
100
AcDbScale
 70
     0
300
1/128" = 1'-0"
140
0.0078125
141
12.0
290
     0
  0
SCALE
  5
5A
102
{ACAD_REACTORS
330
47
102
}
330
47
100
AcDbScale
 70
     0
300
1/64" = 1'-0"
140
0.015625
141
12.0
290
     0
  0
SCALE
  5
5B
102
{ACAD_REACTORS
330
47
102
}
330
47
100
AcDbScale
 70
     0
300
1/32" = 1'-0"
140
0.03125
141
12.0
290
     0
  0
SCALE
  5
5C
102
{ACAD_REACTORS
330
47
102
}
330
47
100
AcDbScale
 70
     0
300
1/16" = 1'-0"
140
0.0625
141
12.0
290
     0
  0
SCALE
  5
5D
102
{ACAD_REACTORS
330
47
102
}
330
47
100
AcDbScale
 70
     0
300
3/32" = 1'-0"
140
0.09375
141
12.0
290
     0
  0
SCALE
  5
5E
102
{ACAD_REACTORS
330
47
102
}
330
47
100
AcDbScale
 70
     0
300
1/8" = 1'-0"
140
0.125
141
12.0
290
     0
  0
SCALE
  5
5F
102
{ACAD_REACTORS
330
47
102
}
330
47
100
AcDbScale
 70
     0
300
3/16" = 1'-0"
140
0.1875
141
12.0
290
     0
  0
SCALE
  5
60
102
{ACAD_REACTORS
330
47
102
}
330
47
100
AcDbScale
 70
     0
300
1/4" = 1'-0"
140
0.25
141
12.0
290
     0
  0
SCALE
  5
61
102
{ACAD_REACTORS
330
47
102
}
330
47
100
AcDbScale
 70
     0
300
3/8" = 1'-0"
140
0.375
141
12.0
290
     0
  0
SCALE
  5
62
102
{ACAD_REACTORS
330
47
102
}
330
47
100
AcDbScale
 70
     0
300
1/2" = 1'-0"
140
0.5
141
12.0
290
     0
  0
SCALE
  5
63
102
{ACAD_REACTORS
330
47
102
}
330
47
100
AcDbScale
 70
     0
300
3/4" = 1'-0"
140
0.75
141
12.0
290
     0
  0
SCALE
  5
64
102
{ACAD_REACTORS
330
47
102
}
330
47
100
AcDbScale
 70
     0
300
1" = 1'-0"
140
1.0
141
12.0
290
     0
  0
SCALE
  5
65
102
{ACAD_REACTORS
330
47
102
}
330
47
100
AcDbScale
 70
     0
300
1-1/2" = 1'-0"
140
1.5
141
12.0
290
     0
  0
SCALE
  5
66
102
{ACAD_REACTORS
330
47
102
}
330
47
100
AcDbScale
 70
     0
300
3" = 1'-0"
140
3.0
141
12.0
290
     0
  0
SCALE
  5
67
102
{ACAD_REACTORS
330
47
102
}
330
47
100
AcDbScale
 70
     0
300
6" = 1'-0"
140
6.0
141
12.0
290
     0
  0
SCALE
  5
68
102
{ACAD_REACTORS
330
47
102
}
330
47
100
AcDbScale
 70
     0
300
1'-0" = 1'-0"
140
12.0
141
12.0
290
     0
  0
ENDSEC
  0
EOF
