  0
SECTION
  2
HEADER
  9
$ACADVER
  1
AC1015
  9
$ACADMAINTVER
 70
     6
  9
$DWGCODEPAGE
  3
ANSI_949
  9
$INSBASE
 10
0.0
 20
0.0
 30
0.0
  9
$EXTMIN
 10
-76.13558875405104
 20
-49.97180738881174
 30
0.0
  9
$EXTMAX
 10
55.28238414090222
 20
26.70336952549911
 30
0.0
  9
$LIMMIN
 10
0.0
 20
0.0
  9
$LIMMAX
 10
420.0
 20
297.0
  9
$ORTHOMODE
 70
     1
  9
$REGENMODE
 70
     1
  9
$FILLMODE
 70
     1
  9
$QTEXTMODE
 70
     0
  9
$MIRRTEXT
 70
     1
  9
$LTSCALE
 40
1.0
  9
$ATTMODE
 70
     1
  9
$TEXTSIZE
 40
3.5
  9
$TRACEWID
 40
1.0
  9
$TEXTSTYLE
  7
Standard
  9
$CLAYER
  8
0
  9
$CELTYPE
  6
ByLayer
  9
$CECOLOR
 62
   256
  9
$CELTSCALE
 40
1.0
  9
$DISPSILH
 70
     0
  9
$DIMSCALE
 40
1.0
  9
$DIMASZ
 40
3.302
  9
$DIMEXO
 40
1.0
  9
$DIMDLI
 40
3.75
  9
$DIMRND
 40
0.0
  9
$DIMDLE
 40
0.0
  9
$DIMEXE
 40
1.0
  9
$DIMTP
 40
0.0
  9
$DIMTM
 40
0.0
  9
$DIMTXT
 40
3.5
  9
$DIMCEN
 40
2.5
  9
$DIMTSZ
 40
0.0
  9
$DIMTOL
 70
     0
  9
$DIMLIM
 70
     0
  9
$DIMTIH
 70
     1
  9
$DIMTOH
 70
     1
  9
$DIMSE1
 70
     0
  9
$DIMSE2
 70
     0
  9
$DIMTAD
 70
     1
  9
$DIMZIN
 70
     0
  9
$DIMBLK
  1

  9
$DIMASO
 70
     1
  9
$DIMSHO
 70
     1
  9
$DIMPOST
  1

  9
$DIMAPOST
  1

  9
$DIMALT
 70
     0
  9
$DIMALTD
 70
     3
  9
$DIMALTF
 40
0.0393700787401575
  9
$DIMLFAC
 40
1.0
  9
$DIMTOFL
 70
     1
  9
$DIMTVP
 40
0.0
  9
$DIMTIX
 70
     0
  9
$DIMSOXD
 70
     0
  9
$DIMSAH
 70
     0
  9
$DIMBLK1
  1

  9
$DIMBLK2
  1

  9
$DIMSTYLE
  2
ISO-25
  9
$DIMCLRD
 70
     0
  9
$DIMCLRE
 70
     0
  9
$DIMCLRT
 70
     0
  9
$DIMTFAC
 40
1.0
  9
$DIMGAP
 40
1.524
  9
$DIMJUST
 70
     0
  9
$DIMSD1
 70
     0
  9
$DIMSD2
 70
     0
  9
$DIMTOLJ
 70
     0
  9
$DIMTZIN
 70
     0
  9
$DIMALTZ
 70
     0
  9
$DIMALTTZ
 70
     0
  9
$DIMUPT
 70
     0
  9
$DIMDEC
 70
     2
  9
$DIMTDEC
 70
     2
  9
$DIMALTU
 70
     2
  9
$DIMALTTD
 70
     3
  9
$DIMTXSTY
  7
Standard
  9
$DIMAUNIT
 70
     0
  9
$DIMADEC
 70
     2
  9
$DIMALTRND
 40
0.0
  9
$DIMAZIN
 70
     0
  9
$DIMDSEP
 70
    44
  9
$DIMATFIT
 70
     3
  9
$DIMFRAC
 70
     0
  9
$DIMLDRBLK
  1

  9
$DIMLUNIT
 70
     2
  9
$DIMLWD
 70
    -2
  9
$DIMLWE
 70
    -2
  9
$DIMTMOVE
 70
     0
  9
$LUNITS
 70
     2
  9
$LUPREC
 70
     2
  9
$SKETCHINC
 40
1.0
  9
$FILLETRAD
 40
10.0
  9
$AUNITS
 70
     0
  9
$AUPREC
 70
     2
  9
$MENU
  1
.
  9
$ELEVATION
 40
0.0
  9
$PELEVATION
 40
0.0
  9
$THICKNESS
 40
0.0
  9
$LIMCHECK
 70
     0
  9
$CHAMFERA
 40
0.0
  9
$CHAMFERB
 40
0.0
  9
$CHAMFERC
 40
0.0
  9
$CHAMFERD
 40
0.0
  9
$SKPOLY
 70
     0
  9
$TDCREATE
 40
2458250.557152315
  9
$TDUCREATE
 40
2458250.182152315
  9
$TDUPDATE
 40
2459702.728499687
  9
$TDUUPDATE
 40
2459702.353499687
  9
$TDINDWG
 40
0.0012172917
  9
$TDUSRTIMER
 40
0.0003230671
  9
$USRTIMER
 70
     1
  9
$ANGBASE
 50
0.0
  9
$ANGDIR
 70
     0
  9
$PDMODE
 70
     0
  9
$PDSIZE
 40
-1.0
  9
$PLINEWID
 40
0.0
  9
$SPLFRAME
 70
     0
  9
$SPLINETYPE
 70
     6
  9
$SPLINESEGS
 70
     8
  9
$HANDSEED
  5
165
  9
$SURFTAB1
 70
     6
  9
$SURFTAB2
 70
     6
  9
$SURFTYPE
 70
     6
  9
$SURFU
 70
     6
  9
$SURFV
 70
     6
  9
$UCSBASE
  2

  9
$UCSNAME
  2

  9
$UCSORG
 10
0.0
 20
0.0
 30
0.0
  9
$UCSXDIR
 10
1.0
 20
0.0
 30
0.0
  9
$UCSYDIR
 10
0.0
 20
1.0
 30
0.0
  9
$UCSORTHOREF
  2

  9
$UCSORTHOVIEW
 70
     0
  9
$UCSORGTOP
 10
0.0
 20
0.0
 30
0.0
  9
$UCSORGBOTTOM
 10
0.0
 20
0.0
 30
0.0
  9
$UCSORGLEFT
 10
0.0
 20
0.0
 30
0.0
  9
$UCSORGRIGHT
 10
0.0
 20
0.0
 30
0.0
  9
$UCSORGFRONT
 10
0.0
 20
0.0
 30
0.0
  9
$UCSORGBACK
 10
0.0
 20
0.0
 30
0.0
  9
$PUCSBASE
  2

  9
$PUCSNAME
  2

  9
$PUCSORG
 10
0.0
 20
0.0
 30
0.0
  9
$PUCSXDIR
 10
1.0
 20
0.0
 30
0.0
  9
$PUCSYDIR
 10
0.0
 20
1.0
 30
0.0
  9
$PUCSORTHOREF
  2

  9
$PUCSORTHOVIEW
 70
     0
  9
$PUCSORGTOP
 10
0.0
 20
0.0
 30
0.0
  9
$PUCSORGBOTTOM
 10
0.0
 20
0.0
 30
0.0
  9
$PUCSORGLEFT
 10
0.0
 20
0.0
 30
0.0
  9
$PUCSORGRIGHT
 10
0.0
 20
0.0
 30
0.0
  9
$PUCSORGFRONT
 10
0.0
 20
0.0
 30
0.0
  9
$PUCSORGBACK
 10
0.0
 20
0.0
 30
0.0
  9
$USERI1
 70
     0
  9
$USERI2
 70
     0
  9
$USERI3
 70
     0
  9
$USERI4
 70
     0
  9
$USERI5
 70
     0
  9
$USERR1
 40
0.0
  9
$USERR2
 40
0.0
  9
$USERR3
 40
0.0
  9
$USERR4
 40
0.0
  9
$USERR5
 40
0.0
  9
$WORLDVIEW
 70
     1
  9
$SHADEDGE
 70
     3
  9
$SHADEDIF
 70
    70
  9
$TILEMODE
 70
     1
  9
$MAXACTVP
 70
    64
  9
$PINSBASE
 10
0.0
 20
0.0
 30
0.0
  9
$PLIMCHECK
 70
     0
  9
$PEXTMIN
 10
1.000000000000000E+20
 20
1.000000000000000E+20
 30
1.000000000000000E+20
  9
$PEXTMAX
 10
-1.000000000000000E+20
 20
-1.000000000000000E+20
 30
-1.000000000000000E+20
  9
$PLIMMIN
 10
0.0
 20
0.0
  9
$PLIMMAX
 10
0.0
 20
0.0
  9
$UNITMODE
 70
     0
  9
$VISRETAIN
 70
     1
  9
$PLINEGEN
 70
     0
  9
$PSLTSCALE
 70
     1
  9
$TREEDEPTH
 70
  3020
  9
$CMLSTYLE
  2
Standard
  9
$CMLJUST
 70
     0
  9
$CMLSCALE
 40
20.0
  9
$PROXYGRAPHICS
 70
     1
  9
$MEASUREMENT
 70
     1
  9
$CELWEIGHT
370
    -1
  9
$ENDCAPS
280
     0
  9
$JOINSTYLE
280
     0
  9
$LWDISPLAY
290
     1
  9
$INSUNITS
 70
     4
  9
$HYPERLINKBASE
  1

  9
$STYLESHEET
  1

  9
$XEDIT
290
     1
  9
$CEPSNTYPE
380
     0
  9
$PSTYLEMODE
290
     1
  9
$FINGERPRINTGUID
  2
{E7EF4C3A-6204-44E2-9F62-B1089624DE43}
  9
$VERSIONGUID
  2
{FAEB1C32-E019-11D5-929B-00C0DF256EC4}
  9
$EXTNAMES
290
     1
  9
$PSVPSCALE
 40
0.0
  9
$OLESTARTUP
290
     0
  0
ENDSEC
  0
SECTION
  2
CLASSES
  0
CLASS
  1
ACDBDICTIONARYWDFLT
  2
AcDbDictionaryWithDefault
  3
ObjectDBX Classes
 90
        0
280
     0
281
     0
  0
CLASS
  1
VISUALSTYLE
  2
AcDbVisualStyle
  3
ObjectDBX Classes
 90
     4095
280
     0
281
     0
  0
CLASS
  1
MATERIAL
  2
AcDbMaterial
  3
ObjectDBX Classes
 90
     1153
280
     0
281
     0
  0
CLASS
  1
SCALE
  2
AcDbScale
  3
ObjectDBX Classes
 90
     1153
280
     0
281
     0
  0
CLASS
  1
TABLESTYLE
  2
AcDbTableStyle
  3
ObjectDBX Classes
 90
     4095
280
     0
281
     0
  0
CLASS
  1
MLEADERSTYLE
  2
AcDbMLeaderStyle
  3
ACDB_MLEADERSTYLE_CLASS
 90
     4095
280
     0
281
     0
  0
CLASS
  1
SUN
  2
AcDbSun
  3
SCENEOE
 90
     1153
280
     0
281
     0
  0
CLASS
  1
ACDBPLACEHOLDER
  2
AcDbPlaceHolder
  3
ObjectDBX Classes
 90
        0
280
     0
281
     0
  0
CLASS
  1
LAYOUT
  2
AcDbLayout
  3
ObjectDBX Classes
 90
        0
280
     0
281
     0
  0
ENDSEC
  0
SECTION
  2
TABLES
  0
TABLE
  2
VPORT
  5
8
330
0
100
AcDbSymbolTable
 70
     1
  0
VPORT
  5
29
330
8
100
AcDbSymbolTableRecord
100
AcDbViewportTableRecord
  2
*Active
 70
     0
 10
0.0
 20
0.0
 11
1.0
 21
1.0
 12
-10.89923085365916
 22
15.76837310120692
 13
0.0
 23
0.0
 14
10.0
 24
10.0
 15
10.0
 25
10.0
 16
0.0
 26
0.0
 36
1.0
 17
0.0
 27
0.0
 37
0.0
 40
91.75426263163823
 41
1.531481481481481
 42
50.0
 43
0.0
 44
0.0
 50
0.0
 51
0.0
 71
    16
 72
  2000
 73
     1
 74
     3
 75
     0
 76
     0
 77
     0
 78
     0
281
     0
 65
     1
110
0.0
120
0.0
130
0.0
111
1.0
121
0.0
131
0.0
112
0.0
122
1.0
132
0.0
 79
     0
146
0.0
  0
ENDTAB
  0
TABLE
  2
LTYPE
  5
5
330
0
100
AcDbSymbolTable
 70
     6
  0
LTYPE
  5
14
330
5
100
AcDbSymbolTableRecord
100
AcDbLinetypeTableRecord
  2
ByBlock
 70
     0
  3

 72
    65
 73
     0
 40
0.0
  0
LTYPE
  5
15
330
5
100
AcDbSymbolTableRecord
100
AcDbLinetypeTableRecord
  2
ByLayer
 70
     0
  3

 72
    65
 73
     0
 40
0.0
  0
LTYPE
  5
16
330
5
100
AcDbSymbolTableRecord
100
AcDbLinetypeTableRecord
  2
Continuous
 70
     0
  3
Solid line
 72
    65
 73
     0
 40
0.0
  0
LTYPE
  5
6E
330
5
100
AcDbSymbolTableRecord
100
AcDbLinetypeTableRecord
  2
HIDDEN
 70
     0
  3
Hidden __ __ __ __ __ __ __ __ __ __ __ __ __ __
 72
    65
 73
     2
 40
1.905
 49
1.27
 74
     0
 49
-0.635
 74
     0
  0
LTYPE
  5
6F
330
5
100
AcDbSymbolTableRecord
100
AcDbLinetypeTableRecord
  2
PHANTOM
 70
     0
  3
Phantom ______  __  __  ______  __  __  ______
 72
    65
 73
     6
 40
12.7
 49
6.35
 74
     0
 49
-1.27
 74
     0
 49
1.27
 74
     0
 49
-1.27
 74
     0
 49
1.27
 74
     0
 49
-1.27
 74
     0
  0
LTYPE
  5
70
330
5
100
AcDbSymbolTableRecord
100
AcDbLinetypeTableRecord
  2
CENTER
 70
     0
  3
Center ____ _ ____ _ ____ _ ____ _ ____ _ ____
 72
    65
 73
     4
 40
10.16
 49
6.35
 74
     0
 49
-1.27
 74
     0
 49
1.27
 74
     0
 49
-1.27
 74
     0
  0
LTYPE
  5
71
330
5
100
AcDbSymbolTableRecord
100
AcDbLinetypeTableRecord
  2
CENTERX2
 70
     0
  3
Center (2x) ________  __  ________  __  _____
 72
    65
 73
     4
 40
20.32
 49
12.7
 74
     0
 49
-2.54
 74
     0
 49
2.54
 74
     0
 49
-2.54
 74
     0
  0
LTYPE
  5
72
330
5
100
AcDbSymbolTableRecord
100
AcDbLinetypeTableRecord
  2
DOT2
 70
     0
  3
Dot (.5x) ........................................
 72
    65
 73
     2
 40
0.635
 49
0.0
 74
     0
 49
-0.635
 74
     0
  0
ENDTAB
  0
TABLE
  2
LAYER
  5
2
330
0
100
AcDbSymbolTable
 70
    17
  0
LAYER
  5
10
330
2
100
AcDbSymbolTableRecord
100
AcDbLayerTableRecord
  2
0
 70
     0
 62
     7
  6
Continuous
370
    -3
390
F
  0
LAYER
  5
73
330
2
100
AcDbSymbolTableRecord
100
AcDbLayerTableRecord
  2
FORMAT
 70
     0
 62
     2
  6
Continuous
370
    -3
390
F
  0
LAYER
  5
74
330
2
100
AcDbSymbolTableRecord
100
AcDbLayerTableRecord
  2
외형선
 70
     0
 62
   100
  6
Continuous
370
    35
390
F
  0
LAYER
  5
75
330
2
100
AcDbSymbolTableRecord
100
AcDbLayerTableRecord
  2
숨은선
 70
     0
 62
     2
  6
HIDDEN
370
    25
390
F
  0
LAYER
  5
76
330
2
100
AcDbSymbolTableRecord
100
AcDbLayerTableRecord
  2
중심선
 70
     0
 62
     1
  6
CENTERX2
370
    -3
390
F
  0
LAYER
  5
77
330
2
100
AcDbSymbolTableRecord
100
AcDbLayerTableRecord
  2
파단선
 70
     0
 62
     4
  6
Continuous
370
    -3
390
F
  0
LAYER
  5
78
330
2
100
AcDbSymbolTableRecord
100
AcDbLayerTableRecord
  2
해칭선
 70
     0
 62
   100
  6
Continuous
370
    -3
390
F
  0
LAYER
  5
79
330
2
100
AcDbSymbolTableRecord
100
AcDbLayerTableRecord
  2
가는실선
 70
     0
 62
     4
  6
Continuous
370
    -3
390
F
  0
LAYER
  5
7A
330
2
100
AcDbSymbolTableRecord
100
AcDbLayerTableRecord
  2
치수_보조선
 70
     0
 62
     4
  6
Continuous
370
    -3
390
F
  0
LAYER
  5
7B
330
2
100
AcDbSymbolTableRecord
100
AcDbLayerTableRecord
  2
치수문자_일반주서
 70
     0
 62
     7
  6
Continuous
370
    25
390
F
  0
LAYER
  5
7C
330
2
100
AcDbSymbolTableRecord
100
AcDbLayerTableRecord
  2
개별주서
 70
     0
 62
   100
  6
Continuous
370
    35
390
F
  0
LAYER
  5
7D
330
2
100
AcDbSymbolTableRecord
100
AcDbLayerTableRecord
  2
중간선
 70
     0
 62
     2
  6
Continuous
370
    25
390
F
  0
LAYER
  5
7E
330
2
100
AcDbSymbolTableRecord
100
AcDbLayerTableRecord
  2
윤곽선
 70
     0
 62
     3
  6
Continuous
370
    50
390
F
  0
LAYER
  5
7F
330
2
100
AcDbSymbolTableRecord
100
AcDbLayerTableRecord
  2
중심마크
 70
     0
 62
   100
  6
Continuous
370
    35
390
F
  0
LAYER
  5
80
330
2
100
AcDbSymbolTableRecord
100
AcDbLayerTableRecord
  2
가상선
 70
     0
 62
     4
  6
PHANTOM
370
    -3
390
F
  0
LAYER
  5
81
330
2
100
AcDbSymbolTableRecord
100
AcDbLayerTableRecord
  2
특수지정선
 70
     0
 62
     5
  6
CENTERX2
370
    70
390
F
  0
LAYER
  5
136
330
2
100
AcDbSymbolTableRecord
100
AcDbLayerTableRecord
  2
Defpoints
 70
     0
 62
     7
  6
Continuous
290
     0
370
    -3
390
F
  0
ENDTAB
  0
TABLE
  2
STYLE
  5
3
330
0
100
AcDbSymbolTable
 70
     2
  0
STYLE
  5
11
330
3
100
AcDbSymbolTableRecord
100
AcDbTextStyleTableRecord
  2
Standard
 70
     0
 40
0.0
 41
1.0
 50
0.0
 71
     0
 42
3.5
  3
txt
  4

  0
STYLE
  5
97
330
3
100
AcDbSymbolTableRecord
100
AcDbTextStyleTableRecord
  2
SLDTEXTSTYLE0
 70
     0
 40
0.0
 41
0.75
 50
0.0
 71
     0
 42
3.5
  3
TXT
  4

  0
ENDTAB
  0
TABLE
  2
VIEW
  5
6
330
0
100
AcDbSymbolTable
 70
     0
  0
ENDTAB
  0
TABLE
  2
UCS
  5
7
330
0
100
AcDbSymbolTable
 70
     0
  0
ENDTAB
  0
TABLE
  2
APPID
  5
9
330
0
100
AcDbSymbolTable
 70
     2
  0
APPID
  5
12
330
9
100
AcDbSymbolTableRecord
100
AcDbRegAppTableRecord
  2
ACAD
 70
     0
  0
APPID
  5
134
330
9
100
AcDbSymbolTableRecord
100
AcDbRegAppTableRecord
  2
PE_URL
 70
     0
  0
ENDTAB
  0
TABLE
  2
DIMSTYLE
  5
A
330
0
100
AcDbSymbolTable
 70
     4
100
AcDbDimStyleTable
  0
DIMSTYLE
105
27
330
A
100
AcDbSymbolTableRecord
100
AcDbDimStyleTableRecord
  2
ISO-25
 70
     0
 41
2.5
 42
0.625
 43
3.75
 44
1.25
 73
     0
 74
     0
 77
     1
 78
     8
140
2.5
141
2.5
143
0.03937007874016
147
0.625
171
     3
172
     1
178
     0
271
     2
272
     2
274
     3
278
    44
283
     0
284
     8
340
11
  0
DIMSTYLE
105
DB
102
{ACAD_REACTORS
330
DA
102
}
330
A
100
AcDbSymbolTableRecord
100
AcDbDimStyleTableRecord
  2
SLDDIMSTYLE0
 70
     0
 41
3.302
 44
0.0
 45
0.000000001
 73
     0
 74
     0
 77
     1
 78
    12
 79
     3
140
3.5
147
0.875
172
     1
173
     1
178
     0
271
     1
272
     1
276
     2
284
    12
289
     0
340
97
  0
DIMSTYLE
105
E9
102
{ACAD_REACTORS
330
E8
330
101
102
}
330
A
100
AcDbSymbolTableRecord
100
AcDbDimStyleTableRecord
  2
SLDDIMSTYLE1
 70
     0
 41
3.302
 44
0.0
 45
0.000000001
 73
     0
 74
     0
 77
     1
 78
    12
 79
     3
140
3.5
147
0.875
173
     1
178
     0
271
     2
272
     2
276
     2
284
    12
340
97
  0
DIMSTYLE
105
F4
102
{ACAD_REACTORS
330
F3
102
}
330
A
100
AcDbSymbolTableRecord
100
AcDbDimStyleTableRecord
  2
SLDDIMSTYLE2
 70
     0
 41
3.302
 44
0.0
 45
0.000000001
 73
     0
 74
     0
 77
     1
 78
    12
 79
     3
140
3.5
147
0.875
172
     1
173
     1
178
     0
271
     2
272
     2
276
     2
284
    12
289
     0
340
97
  0
ENDTAB
  0
TABLE
  2
BLOCK_RECORD
  5
1
330
0
100
AcDbSymbolTable
 70
     7
  0
BLOCK_RECORD
  5
1F
102
{ACAD_XDICTIONARY
360
162
102
}
330
1
100
AcDbSymbolTableRecord
100
AcDbBlockTableRecord
  2
*Model_Space
340
22
  0
BLOCK_RECORD
  5
1B
330
1
100
AcDbSymbolTableRecord
100
AcDbBlockTableRecord
  2
*Paper_Space
340
1E
  0
BLOCK_RECORD
  5
23
330
1
100
AcDbSymbolTableRecord
100
AcDbBlockTableRecord
  2
*Paper_Space0
340
26
  0
BLOCK_RECORD
  5
82
330
1
100
AcDbSymbolTableRecord
100
AcDbBlockTableRecord
  2
블럭10
340
0
102
{BLKREFS
331
D3
102
}
  0
BLOCK_RECORD
  5
DC
330
1
100
AcDbSymbolTableRecord
100
AcDbBlockTableRecord
  2
_D
340
0
  0
BLOCK_RECORD
  5
EA
330
1
100
AcDbSymbolTableRecord
100
AcDbBlockTableRecord
  2
_D_1
340
0
  0
BLOCK_RECORD
  5
F5
330
1
100
AcDbSymbolTableRecord
100
AcDbBlockTableRecord
  2
_D_2
340
0
  0
BLOCK_RECORD
  5
102
330
1
100
AcDbSymbolTableRecord
100
AcDbBlockTableRecord
  2
_D_3
340
0
  0
BLOCK_RECORD
  5
10B
330
1
100
AcDbSymbolTableRecord
100
AcDbBlockTableRecord
  2
SW_DOWELSYMBOL_0
340
0
102
{BLKREFS
331
111
102
}
  0
ENDTAB
  0
ENDSEC
  0
SECTION
  2
BLOCKS
  0
BLOCK
  5
20
330
1F
100
AcDbEntity
  8
0
100
AcDbBlockBegin
  2
*Model_Space
 70
     0
 10
0.0
 20
0.0
 30
0.0
  3
*Model_Space
  1

  0
ENDBLK
  5
21
330
1F
100
AcDbEntity
  8
0
100
AcDbBlockEnd
  0
BLOCK
  5
1C
330
1B
100
AcDbEntity
 67
     1
  8
0
100
AcDbBlockBegin
  2
*Paper_Space
 70
     0
 10
0.0
 20
0.0
 30
0.0
  3
*Paper_Space
  1

  0
ENDBLK
  5
1D
330
1B
100
AcDbEntity
 67
     1
  8
0
100
AcDbBlockEnd
  0
BLOCK
  5
24
330
23
100
AcDbEntity
  8
0
100
AcDbBlockBegin
  2
*Paper_Space0
 70
     0
 10
0.0
 20
0.0
 30
0.0
  3
*Paper_Space0
  1

  0
ENDBLK
  5
25
330
23
100
AcDbEntity
  8
0
100
AcDbBlockEnd
  0
BLOCK
  5
83
330
82
100
AcDbEntity
  8
0
100
AcDbBlockBegin
  2
블럭10
 70
     2
 10
0.0
 20
0.0
 30
0.0
  3
블럭10
  1

  0
ELLIPSE
  5
85
330
82
100
AcDbEntity
  8
중심선
100
AcDbEllipse
 10
20.54032771741204
 20
12.0471743016438
 30
0.0
 11
6.600054785286829
 21
-1.261213355974178E-13
 31
0.0
210
0.0
220
0.0
230
1.0
 40
0.636358354079598
 41
0.9219305317359503
 42
6.513795318482858
  0
ELLIPSE
  5
86
330
82
100
AcDbEntity
  8
중심선
100
AcDbEllipse
 10
20.54032771746488
 20
12.04717430159265
 30
0.0
 11
3.960054785062283
 21
1.540847449632565E-10
 31
0.0
210
0.0
220
0.0
230
1.0
 40
0.3939339440162632
 41
1.131841032648279
 42
5.62031148352944
  0
LINE
  5
87
330
82
100
AcDbEntity
  8
중심선
100
AcDbLine
 10
2.268634060543552
 20
16.24717430164393
 30
0.0
 11
5.714909304380834
 21
16.24717430164393
 31
0.0
  0
LINE
  5
88
330
82
100
AcDbEntity
  8
중심선
100
AcDbLine
 10
5.245725140726316
 20
7.84717430164391
 30
0.0
 11
8.692000384563599
 21
7.84717430164391
 31
0.0
  0
LINE
  5
89
330
82
100
AcDbEntity
  8
중심선
100
AcDbLine
 10
15.74043728645272
 20
16.24717430164393
 30
0.0
 11
8.692000384563599
 21
7.84717430164391
 31
0.0
  0
LINE
  5
8A
330
82
100
AcDbEntity
  8
중심선
100
AcDbLine
 10
0.1404042013395286
 20
13.71084872107135
 30
0.0
 11
3.58671253028996
 21
13.71088815037384
 31
0.0
  0
LINE
  5
8B
330
82
100
AcDbEntity
  8
중심선
100
AcDbLine
 10
2.750260043222114
 20
10.84717430164391
 30
0.0
 11
6.196535287059397
 21
10.84717430164391
 31
0.0
  0
LINE
  5
8C
330
82
100
AcDbEntity
  8
중심선
100
AcDbLine
 10
12.29416204261559
 20
16.24717430164393
 30
0.0
 11
5.245725140726316
 21
7.84717430164391
 31
0.0
  0
LINE
  5
8D
330
82
100
AcDbEntity
  8
중심선
100
AcDbLine
 10
10.72767329541681
 20
16.24717430164393
 30
0.0
 11
6.196535287059397
 21
10.84717430164391
 31
0.0
  0
LINE
  5
8E
330
82
100
AcDbEntity
  8
중심선
100
AcDbLine
 10
7.28139805157953
 20
16.24717430164393
 30
0.0
 11
2.750260043222114
 21
10.84717430164391
 31
0.0
  0
LINE
  5
8F
330
82
100
AcDbEntity
  8
중심선
100
AcDbLine
 10
5.714909304380834
 20
16.24717430164393
 30
0.0
 11
3.58671253028996
 21
13.71088815037384
 31
0.0
  0
LINE
  5
90
330
82
100
AcDbEntity
  8
중심선
100
AcDbLine
 10
2.268634060543552
 20
16.24717430164393
 30
0.0
 11
0.1404042013395286
 21
13.71084872107135
 31
0.0
  0
LINE
  5
91
330
82
100
AcDbEntity
  8
중심선
100
AcDbLine
 10
7.28139805157953
 20
16.24717430164393
 30
0.0
 11
10.72767329541681
 21
16.24717430164393
 31
0.0
  0
LINE
  5
92
330
82
100
AcDbEntity
  8
중심선
100
AcDbLine
 10
12.29416204261559
 20
16.24717430164393
 30
0.0
 11
15.74043728645272
 21
16.24717430164393
 31
0.0
  0
LINE
  5
93
330
82
100
AcDbEntity
  8
중심선
100
AcDbLine
 10
19.22036997980202
 20
11.08717430171403
 30
0.0
 11
23.66174974927406
 21
11.08717430171406
 31
0.0
  0
LINE
  5
94
330
82
100
AcDbEntity
  8
중심선
100
AcDbLine
 10
19.22039502424796
 20
13.00717430171391
 30
0.0
 11
19.22036997980202
 21
11.08717430171403
 31
0.0
  0
LINE
  5
95
330
82
100
AcDbEntity
  8
중심선
100
AcDbLine
 10
19.22039502424796
 20
13.00717430171391
 30
0.0
 11
26.96566020931264
 21
13.00717430171391
 31
0.0
  0
LINE
  5
96
330
82
100
AcDbEntity
  8
중심선
100
AcDbLine
 10
22.22332737316547
 20
13.45928029700563
 30
0.0
 11
24.52862924686651
 21
15.39360700705356
 31
0.0
  0
ATTDEF
  5
98
330
82
100
AcDbEntity
  8
FORMAT
 62
     2
100
AcDbText
 10
-12.95993919485777
 20
2.075366912832191
 30
0.0
 40
4.233333333333333
  1
SEME36140E [ 4 FLUTE ]
 41
0.75
  7
SLDTEXTSTYLE0
 11
-12.95993919485777
 21
-0.0412997538344756
 31
0.0
100
AcDbAttributeDefinition
  3

  2
AUTOATTR0
 70
     0
 74
     1
  0
ENDBLK
  5
84
330
82
100
AcDbEntity
  8
0
100
AcDbBlockEnd
  0
BLOCK
  5
DD
330
DC
100
AcDbEntity
  8
0
100
AcDbBlockBegin
  2
_D
 70
     0
 10
0.0
 20
0.0
 30
0.0
  3
_D
  1

  0
LINE
  5
DF
330
DC
100
AcDbEntity
  8
치수문자_일반주서
 62
     0
370
    -2
100
AcDbLine
 10
41.79455080756892
 20
-7.0
 30
0.0
 11
54.73205080756892
 21
-6.999999999999953
 31
0.0
  0
LINE
  5
E0
330
DC
100
AcDbEntity
  8
치수문자_일반주서
 62
     0
370
    -2
100
AcDbLine
 10
41.79455080756892
 20
7.0
 30
0.0
 11
54.73205080756887
 21
7.000000000000047
 31
0.0
  0
LINE
  5
E1
330
DC
100
AcDbEntity
  8
치수문자_일반주서
 62
     0
370
    -2
100
AcDbLine
 10
54.7320508075689
 20
-3.697999999999953
 30
0.0
 11
54.73205080756888
 21
3.698000000000047
 31
0.0
  0
SOLID
  5
E2
330
DC
100
AcDbEntity
  8
치수문자_일반주서
 62
     0
100
AcDbTrace
 10
54.18171747423557
 20
-3.697999999999955
 30
0.0
 11
55.28238414090224
 21
-3.697999999999952
 31
0.0
 12
54.73205080756892
 22
-6.999999999999953
 32
0.0
 13
54.73205080756892
 23
-6.999999999999953
 33
0.0
  0
SOLID
  5
E3
330
DC
100
AcDbEntity
  8
치수문자_일반주서
 62
     0
100
AcDbTrace
 10
55.28238414090222
 20
3.698000000000049
 30
0.0
 11
54.18171747423555
 21
3.698000000000046
 31
0.0
 12
54.73205080756887
 22
7.000000000000047
 32
0.0
 13
54.73205080756887
 23
7.000000000000047
 33
0.0
  0
MTEXT
  5
E4
330
DC
100
AcDbEntity
  8
치수문자_일반주서
 62
     0
100
AcDbMText
 10
50.3570508075689
 20
-0.0000000000000112
 30
0.0
 40
3.5
 41
0.0
 71
     2
 72
     1
  1
\A1;%%c14
  7
SLDTEXTSTYLE0
 11
-3.552713678800501E-15
 21
1.0
 31
0.0
 73
     1
 44
1.0
  0
POINT
  5
E5
330
DC
100
AcDbEntity
  8
Defpoints
 62
     0
100
AcDbPoint
 10
41.73205080756892
 20
-7.0
 30
0.0
  0
POINT
  5
E6
330
DC
100
AcDbEntity
  8
Defpoints
 62
     0
100
AcDbPoint
 10
41.73205080756892
 20
7.0
 30
0.0
  0
POINT
  5
E7
330
DC
100
AcDbEntity
  8
Defpoints
 62
     0
100
AcDbPoint
 10
54.7320508075689
 20
7.000000000000049
 30
0.0
  0
ENDBLK
  5
DE
330
DC
100
AcDbEntity
  8
0
100
AcDbBlockEnd
  0
BLOCK
  5
EB
330
EA
100
AcDbEntity
  8
0
100
AcDbBlockBegin
  2
_D_1
 70
     0
 10
0.0
 20
0.0
 30
0.0
  3
_D_1
  1

  0
LINE
  5
ED
330
EA
100
AcDbEntity
  8
치수문자_일반주서
 62
     0
370
    -2
100
AcDbLine
 10
-58.26794919243113
 20
7.562499999999993
 30
0.0
 11
-58.26794919243112
 21
22.32836952549911
 31
0.0
  0
LINE
  5
EE
330
EA
100
AcDbEntity
  8
치수문자_일반주서
 62
     0
370
    -2
100
AcDbLine
 10
41.73205080756888
 20
-0.4374999999999974
 30
0.0
 11
41.7320508075689
 21
22.32836952549911
 31
0.0
  0
LINE
  5
EF
330
EA
100
AcDbEntity
  8
치수문자_일반주서
 62
     0
370
    -2
100
AcDbLine
 10
-54.96594919243112
 20
22.32836952549911
 30
0.0
 11
38.4300508075689
 21
22.32836952549911
 31
0.0
  0
SOLID
  5
F0
330
EA
100
AcDbEntity
  8
치수문자_일반주서
 62
     0
100
AcDbTrace
 10
-54.96594919243112
 20
22.87870285883244
 30
0.0
 11
-54.96594919243112
 21
21.77803619216578
 31
0.0
 12
-58.26794919243112
 22
22.32836952549911
 32
0.0
 13
-58.26794919243112
 23
22.32836952549911
 33
0.0
  0
SOLID
  5
F1
330
EA
100
AcDbEntity
  8
치수문자_일반주서
 62
     0
100
AcDbTrace
 10
38.4300508075689
 20
21.77803619216578
 30
0.0
 11
38.4300508075689
 21
22.87870285883244
 31
0.0
 12
41.7320508075689
 22
22.32836952549911
 32
0.0
 13
41.7320508075689
 23
22.32836952549911
 33
0.0
  0
MTEXT
  5
F2
330
EA
100
AcDbEntity
  8
치수문자_일반주서
 62
     0
100
AcDbMText
 10
-8.267949192431123
 20
26.70336952549911
 30
0.0
 40
3.5
 41
0.0
 71
     2
 72
     1
  1
\A1;100
  7
SLDTEXTSTYLE0
 73
     1
 44
1.0
  0
POINT
  5
137
330
EA
100
AcDbEntity
  8
Defpoints
 62
     0
100
AcDbPoint
 10
-58.26794919243113
 20
7.499999999999993
 30
0.0
  0
POINT
  5
138
330
EA
100
AcDbEntity
  8
Defpoints
 62
     0
100
AcDbPoint
 10
41.73205080756888
 20
-0.4999999999999974
 30
0.0
  0
POINT
  5
139
330
EA
100
AcDbEntity
  8
Defpoints
 62
     0
100
AcDbPoint
 10
41.73205080756888
 20
22.32836952549911
 30
0.0
  0
ENDBLK
  5
EC
330
EA
100
AcDbEntity
  8
0
100
AcDbBlockEnd
  0
BLOCK
  5
F6
330
F5
100
AcDbEntity
  8
0
100
AcDbBlockBegin
  2
_D_2
 70
     0
 10
0.0
 20
0.0
 30
0.0
  3
_D_2
  1

  0
LINE
  5
F8
330
F5
100
AcDbEntity
  8
치수문자_일반주서
 62
     0
370
    -2
100
AcDbLine
 10
-57.83044919243113
 20
8.000000000000007
 30
0.0
 11
-71.76058875405106
 21
7.999999999999952
 31
0.0
  0
LINE
  5
F9
330
F5
100
AcDbEntity
  8
치수문자_일반주서
 62
     0
370
    -2
100
AcDbLine
 10
-57.83044919243113
 20
-8.000000000000007
 30
0.0
 11
-71.760588754051
 21
-8.000000000000062
 31
0.0
  0
LINE
  5
FA
330
F5
100
AcDbEntity
  8
치수문자_일반주서
 62
     0
370
    -2
100
AcDbLine
 10
-71.76058875405104
 20
4.697999999999952
 30
0.0
 11
-71.76058875405101
 21
-4.698000000000063
 31
0.0
  0
SOLID
  5
FB
330
F5
100
AcDbEntity
  8
치수문자_일반주서
 62
     0
100
AcDbTrace
 10
-71.21025542071771
 20
4.697999999999954
 30
0.0
 11
-72.31092208738437
 21
4.697999999999951
 31
0.0
 12
-71.76058875405106
 22
7.999999999999952
 32
0.0
 13
-71.76058875405106
 23
7.999999999999952
 33
0.0
  0
SOLID
  5
FC
330
F5
100
AcDbEntity
  8
치수문자_일반주서
 62
     0
100
AcDbTrace
 10
-72.31092208738434
 20
-4.698000000000064
 30
0.0
 11
-71.21025542071769
 21
-4.698000000000061
 31
0.0
 12
-71.760588754051
 22
-8.000000000000062
 32
0.0
 13
-71.760588754051
 23
-8.000000000000062
 33
0.0
  0
MTEXT
  5
FD
330
F5
100
AcDbEntity
  8
치수문자_일반주서
 62
     0
100
AcDbMText
 10
-76.13558875405103
 20
-0.0000000000000705
 30
0.0
 40
3.5
 41
0.0
 71
     2
 72
     1
  1
\A1;%%c16
  7
SLDTEXTSTYLE0
 11
-3.552713678800499E-15
 21
1.0
 31
0.0
 73
     1
 44
1.0
  0
POINT
  5
FE
330
F5
100
AcDbEntity
  8
Defpoints
 62
     0
100
AcDbPoint
 10
-57.76794919243113
 20
8.000000000000007
 30
0.0
  0
POINT
  5
FF
330
F5
100
AcDbEntity
  8
Defpoints
 62
     0
100
AcDbPoint
 10
-57.76794919243113
 20
-8.000000000000007
 30
0.0
  0
POINT
  5
100
330
F5
100
AcDbEntity
  8
Defpoints
 62
     0
100
AcDbPoint
 10
-71.760588754051
 20
-8.000000000000059
 30
0.0
  0
ENDBLK
  5
F7
330
F5
100
AcDbEntity
  8
0
100
AcDbBlockEnd
  0
BLOCK
  5
103
330
102
100
AcDbEntity
  8
0
100
AcDbBlockBegin
  2
_D_3
 70
     0
 10
0.0
 20
0.0
 30
0.0
  3
_D_3
  1

  0
LINE
  5
105
330
102
100
AcDbEntity
  8
치수문자_일반주서
 62
     0
370
    -2
100
AcDbLine
 10
41.73205080756888
 20
7.044620021884477
 30
0.0
 11
41.73205080756888
 21
10.26844139523111
 31
0.0
  0
LINE
  5
106
330
102
100
AcDbEntity
  8
치수문자_일반주서
 62
     0
370
    -2
100
AcDbLine
 10
6.732050807568871
 20
7.059008282085064
 30
0.0
 11
6.732050807568871
 21
10.26844139523111
 31
0.0
  0
LINE
  5
107
330
102
100
AcDbEntity
  8
치수문자_일반주서
 62
     0
370
    -2
100
AcDbLine
 10
38.43005080756888
 20
10.26844139523111
 30
0.0
 11
10.03405080756887
 21
10.26844139523111
 31
0.0
  0
SOLID
  5
108
330
102
100
AcDbEntity
  8
치수문자_일반주서
 62
     0
100
AcDbTrace
 10
38.43005080756888
 20
9.718108061897775
 30
0.0
 11
38.43005080756888
 21
10.81877472856444
 31
0.0
 12
41.73205080756888
 22
10.26844139523111
 32
0.0
 13
41.73205080756888
 23
10.26844139523111
 33
0.0
  0
SOLID
  5
109
330
102
100
AcDbEntity
  8
치수문자_일반주서
 62
     0
100
AcDbTrace
 10
10.03405080756887
 20
10.81877472856444
 30
0.0
 11
10.03405080756887
 21
9.718108061897775
 31
0.0
 12
6.732050807568871
 22
10.26844139523111
 32
0.0
 13
6.732050807568871
 23
10.26844139523111
 33
0.0
  0
MTEXT
  5
10A
330
102
100
AcDbEntity
  8
치수문자_일반주서
 62
     0
100
AcDbMText
 10
24.23205080756888
 20
14.64344139523111
 30
0.0
 40
3.5
 41
0.0
 71
     2
 72
     1
  1
\A1;35
  7
SLDTEXTSTYLE0
 73
     1
 44
1.0
  0
POINT
  5
13A
330
102
100
AcDbEntity
  8
Defpoints
 62
     0
100
AcDbPoint
 10
41.73205080756888
 20
6.982120021884477
 30
0.0
  0
POINT
  5
13B
330
102
100
AcDbEntity
  8
Defpoints
 62
     0
100
AcDbPoint
 10
6.732050807568871
 20
6.996508282085064
 30
0.0
  0
POINT
  5
13C
330
102
100
AcDbEntity
  8
Defpoints
 62
     0
100
AcDbPoint
 10
6.732050807568871
 20
10.2684413952311
 30
0.0
  0
ENDBLK
  5
104
330
102
100
AcDbEntity
  8
0
100
AcDbBlockEnd
  0
BLOCK
  5
10C
330
10B
100
AcDbEntity
  8
0
100
AcDbBlockBegin
  2
SW_DOWELSYMBOL_0
 70
     0
 10
0.0
 20
0.0
 30
0.0
  3
SW_DOWELSYMBOL_0
  1

  0
CIRCLE
  5
10E
330
10B
100
AcDbEntity
  8
해칭선
 62
     0
100
AcDbCircle
 10
0.0
 20
0.0
 30
0.0
 40
3.000000000000001
  0
HATCH
  5
10F
330
10B
100
AcDbEntity
  8
0
  6
Continuous
 62
     0
370
    18
100
AcDbHatch
 10
0.0
 20
0.0
 30
0.0
210
0.0
220
0.0
230
1.0
  2
SOLID
 70
     1
 71
     0
 91
        1
 92
        0
 93
        3
 72
     2
 10
-0.0000000000000087
 20
-0.0000000000000035
 40
3.000000000000001
 50
0.0
 51
90.0
 73
     1
 72
     1
 10
-0.0000000000000087
 20
2.999999999999998
 11
-0.0000000000000087
 21
-0.0000000000000036
 72
     1
 10
-0.0000000000000087
 20
-0.0000000000000035
 11
2.999999999999993
 21
-0.0000000000000035
 97
        0
 75
     0
 76
     1
 98
        1
 10
0.0
 20
0.0
  0
HATCH
  5
110
330
10B
100
AcDbEntity
  8
0
  6
Continuous
 62
     0
370
    18
100
AcDbHatch
 10
0.0
 20
0.0
 30
0.0
210
0.0
220
0.0
230
1.0
  2
SOLID
 70
     1
 71
     0
 91
        1
 92
        0
 93
        3
 72
     2
 10
-0.0000000000000087
 20
-0.0000000000000035
 40
3.000000000000001
 50
180.0
 51
270.0000000000007
 73
     1
 72
     1
 10
-0.0000000000000087
 20
-3.000000000000005
 11
-0.0000000000000087
 21
-0.0000000000000036
 72
     1
 10
-0.0000000000000087
 20
-0.0000000000000035
 11
-3.00000000000001
 21
-0.0000000000000035
 97
        0
 75
     0
 76
     1
 98
        1
 10
0.0
 20
0.0
  0
ENDBLK
  5
10D
330
10B
100
AcDbEntity
  8
0
100
AcDbBlockEnd
  0
ENDSEC
  0
SECTION
  2
ENTITIES
  0
LINE
  5
99
330
1F
100
AcDbEntity
  8
0
  6
Continuous
 62
     4
370
    25
100
AcDbLine
 10
4.732050807568874
 20
8.0
 30
0.0
 11
-57.76794919243113
 21
7.999999999999996
 31
0.0
  0
LINE
  5
9A
330
1F
100
AcDbEntity
  8
0
  6
Continuous
 62
     4
370
    25
100
AcDbLine
 10
-57.76794919243113
 20
-8.000000000000004
 30
0.0
 11
4.732050807568875
 21
-8.0
 31
0.0
  0
LINE
  5
9D
330
1F
100
AcDbEntity
  8
0
  6
Continuous
 62
     4
370
    25
100
AcDbLine
 10
-57.76794919243113
 20
7.999999999999995
 30
0.0
 11
-58.26794919243113
 21
7.499999999999993
 31
0.0
  0
LINE
  5
9E
330
1F
100
AcDbEntity
  8
0
  6
Continuous
 62
     4
370
    25
100
AcDbLine
 10
-58.26794919243113
 20
-7.500000000000002
 30
0.0
 11
-57.76794919243113
 21
-8.000000000000002
 31
0.0
  0
LINE
  5
9F
330
1F
100
AcDbEntity
  8
0
  6
Continuous
 62
     4
370
    25
100
AcDbLine
 10
6.349555593873143
 20
7.000000000000001
 30
0.0
 11
5.732050807568873
 21
7.000000000000001
 31
0.0
  0
LINE
  5
A0
330
1F
100
AcDbEntity
  8
0
  6
Continuous
 62
     4
370
    25
100
AcDbLine
 10
5.732050807568873
 20
-6.999999999999999
 30
0.0
 11
6.34955559387306
 21
-6.999999999999999
 31
0.0
  0
LINE
  5
A1
330
1F
100
AcDbEntity
  8
0
  6
Continuous
 62
     1
370
    25
100
AcDbLine
 10
39.02472521492538
 20
-7.000000000000003
 30
0.0
 11
41.73205080756888
 21
-7.000000000000003
 31
0.0
1001
PE_URL
1000

  0
LINE
  5
A2
330
1F
100
AcDbEntity
  8
0
  6
Continuous
 62
     1
370
    25
100
AcDbLine
 10
25.39461866813557
 20
7.000000000000003
 30
0.0
 11
19.97812836269748
 21
7.000000000000003
 31
0.0
1001
PE_URL
1000

  0
LINE
  5
A3
330
1F
100
AcDbEntity
  8
0
  6
Continuous
 62
     1
370
    25
100
AcDbLine
 10
19.97812836269742
 20
-7.000000000000003
 30
0.0
 11
25.39461866813557
 21
-7.000000000000003
 31
0.0
1001
PE_URL
1000

  0
LINE
  5
A4
330
1F
100
AcDbEntity
  8
0
  6
Continuous
 62
     1
370
    25
100
AcDbLine
 10
41.73205080756888
 20
7.000000000000003
 30
0.0
 11
39.02472521492538
 21
7.000000000000003
 31
0.0
1001
PE_URL
1000

  0
LINE
  5
A5
330
1F
100
AcDbEntity
  8
0
  6
Continuous
 62
     4
370
    25
100
AcDbLine
 10
4.732050807568876
 20
8.000000000000014
 30
0.0
 11
4.732050807568876
 21
-7.999999999999993
 31
0.0
  0
LINE
  5
A6
330
1F
100
AcDbEntity
  8
0
  6
Continuous
 62
     4
370
    25
100
AcDbLine
 10
-57.76794919243113
 20
7.999999999999995
 30
0.0
 11
-57.76794919243113
 21
-8.000000000000002
 31
0.0
  0
LINE
  5
A7
330
1F
100
AcDbEntity
  8
0
  6
Continuous
 62
     4
370
    25
100
AcDbLine
 10
5.732050807568873
 20
7.000000000000001
 30
0.0
 11
5.732050807568873
 21
5.975126303021345
 31
0.0
  0
SPLINE
  5
A8
330
1F
100
AcDbEntity
  8
0
  6
Continuous
 62
     4
370
    25
100
AcDbSpline
210
0.0
220
0.0
230
1.0
 70
     8
 71
     3
 72
    12
 73
     8
 74
     0
 42
0.000000001
 43
0.00000001
 40
0.0
 40
0.0
 40
0.0
 40
0.0
 40
0.2500000000000004
 40
0.2500000000000004
 40
0.5000000000000009
 40
0.5000000000000009
 40
1.0
 40
1.0
 40
1.0
 40
1.0
 10
5.232176365318438
 20
5.455659956103919
 30
0.0
 10
5.232176365318431
 20
5.522798228787179
 30
0.0
 10
5.242292373611958
 20
5.584935578381327
 30
0.0
 10
5.284414264403356
 20
5.699058035774216
 30
0.0
 10
5.316981352306431
 20
5.751190191047867
 30
0.0
 10
5.444799090206951
 20
5.884094287240797
 30
0.0
 10
5.573069442296122
 20
5.944746343130127
 30
0.0
 10
5.732050807568891
 20
5.975126303021331
 30
0.0
  0
LINE
  5
A9
330
1F
100
AcDbEntity
  8
0
  6
Continuous
 62
     4
370
    25
100
AcDbLine
 10
5.232176365318441
 20
5.455659956103919
 30
0.0
 11
5.232176365318441
 21
1.465991381885641
 31
0.0
  0
SPLINE
  5
AA
330
1F
100
AcDbEntity
  8
0
  6
Continuous
 62
     4
370
    25
100
AcDbSpline
210
0.0
220
0.0
230
1.0
 70
     8
 71
     3
 72
    14
 73
    10
 74
     0
 42
0.000000001
 43
0.00000001
 40
0.0
 40
0.0
 40
0.0
 40
0.0
 40
0.2499999999999999
 40
0.2499999999999999
 40
0.4999999999999998
 40
0.4999999999999998
 40
0.7499999999999999
 40
0.7499999999999999
 40
1.0
 40
1.0
 40
1.0
 40
1.0
 10
5.732050807568873
 20
0.3833116972625139
 30
0.0
 10
5.652581697789758
 20
0.4484246172742529
 30
0.0
 10
5.581680994653443
 20
0.5217080371054864
 30
0.0
 10
5.45660145980135
 20
0.6844698541391547
 30
0.0
 10
5.402524489392736
 20
0.7745887054335725
 30
0.0
 10
5.317195611559729
 20
0.961655446459689
 30
0.0
 10
5.284766825457009
 20
1.060848494199436
 30
0.0
 10
5.24229262436894
 20
1.262533110746068
 30
0.0
 10
5.232176365304218
 20
1.364004249238086
 30
0.0
 10
5.232176365303898
 20
1.465991381882228
 30
0.0
  0
LINE
  5
AB
330
1F
100
AcDbEntity
  8
0
  6
Continuous
 62
     4
370
    25
100
AcDbLine
 10
5.732050807568873
 20
0.3833116972625139
 30
0.0
 11
5.732050807568873
 21
-3.646623871876966
 31
0.0
  0
SPLINE
  5
AC
330
1F
100
AcDbEntity
  8
0
  6
Continuous
 62
     4
370
    25
100
AcDbSpline
210
0.0
220
0.0
230
1.0
 70
     8
 71
     3
 72
    12
 73
     8
 74
     0
 42
0.000000001
 43
0.00000001
 40
0.0
 40
0.0
 40
0.0
 40
0.0
 40
0.2499999999999998
 40
0.2499999999999998
 40
0.4999999999999996
 40
0.4999999999999996
 40
1.0
 40
1.0
 40
1.0
 40
1.0
 10
5.232176365318441
 20
-4.596617013188975
 30
0.0
 10
5.232176365318431
 20
-4.516931543473079
 30
0.0
 10
5.242292373611962
 20
-4.435435649190174
 30
0.0
 10
5.284414264403363
 20
-4.269014647474978
 30
0.0
 10
5.316981352306431
 20
-4.183520376349687
 30
0.0
 10
5.444799090206951
 20
-3.936418344859435
 30
0.0
 10
5.573069442296122
 20
-3.778174756569344
 30
0.0
 10
5.732050807568891
 20
-3.646623871876976
 30
0.0
  0
LINE
  5
AD
330
1F
100
AcDbEntity
  8
0
  6
Continuous
 62
     4
370
    25
100
AcDbLine
 10
5.232176365318441
 20
-4.596617013188975
 30
0.0
 11
5.232176365318441
 21
-6.981689107287066
 31
0.0
  0
SPLINE
  5
AE
330
1F
100
AcDbEntity
  8
0
  6
Continuous
 62
     4
370
    25
100
AcDbSpline
210
0.0
220
0.0
230
1.0
 70
     8
 71
     3
 72
    14
 73
    10
 74
     0
 42
0.000000001
 43
0.00000001
 40
0.0
 40
0.0
 40
0.0
 40
0.0
 40
0.2499999999999999
 40
0.2499999999999999
 40
0.4999999999999998
 40
0.4999999999999998
 40
0.7499999999999999
 40
0.7499999999999999
 40
1.0
 40
1.0
 40
1.0
 40
1.0
 10
5.732050807568873
 20
-6.9894972739634
 30
0.0
 10
5.652581697789758
 20
-7.007252090622189
 30
0.0
 10
5.581680994653443
 20
-7.021393276660537
 30
0.0
 10
5.456601459801353
 20
-7.041070747538147
 30
0.0
 10
5.402524489392736
 20
-7.046458311146536
 30
0.0
 10
5.317195611559729
 20
-7.04644838077297
 30
0.0
 10
5.284766825457009
 20
-7.041101561598665
 30
0.0
 10
5.242292624368943
 20
-7.019309893632924
 30
0.0
 10
5.23217636530422
 20
-7.00310401924515
 30
0.0
 10
5.232176365303898
 20
-6.981689107291763
 30
0.0
  0
LINE
  5
AF
330
1F
100
AcDbEntity
  8
0
  6
Continuous
 62
     4
370
    25
100
AcDbLine
 10
5.732050807568873
 20
-6.9894972739634
 30
0.0
 11
5.732050807568873
 21
-6.999999999999999
 31
0.0
  0
LINE
  5
B0
330
1F
100
AcDbEntity
  8
0
  6
Continuous
 62
     4
370
    25
100
AcDbLine
 10
-58.26794919243113
 20
7.499999999999993
 30
0.0
 11
-58.26794919243113
 21
-7.500000000000002
 31
0.0
  0
SPLINE
  5
B1
330
1F
100
AcDbEntity
  8
0
  6
Continuous
 62
     4
370
    25
100
AcDbSpline
210
0.0
220
0.0
230
1.0
 70
     8
 71
     3
 72
    10
 73
     6
 74
     0
 42
0.000000001
 43
0.00000001
 40
0.0
 40
0.0
 40
0.0
 40
0.0
 40
0.5
 40
0.5
 40
1.0
 40
1.0
 40
1.0
 40
1.0
 10
5.732050807568873
 20
5.975126303021346
 30
0.0
 10
5.870150112071677
 20
6.036391876214301
 30
0.0
 10
6.02850017809012
 20
6.080042467615899
 30
0.0
 10
6.370715214903058
 20
6.134784047491074
 30
0.0
 10
6.551141985853528
 20
6.145354813172156
 30
0.0
 10
6.732050807568875
 20
6.139098615708414
 30
0.0
  0
SPLINE
  5
B2
330
1F
100
AcDbEntity
  8
0
  6
Continuous
 62
     4
370
    25
100
AcDbSpline
210
0.0
220
0.0
230
1.0
 70
    24
 71
     3
 72
    14
 73
    10
 74
     0
 42
0.000000001
 43
0.00000001
 40
0.0
 40
0.0
 40
0.0
 40
0.0
 40
0.25
 40
0.25
 40
0.5
 40
0.5
 40
0.75
 40
0.75
 40
1.0
 40
1.0
 40
1.0
 40
1.0
 10
6.732050807568875
 20
6.139098615708445
 30
0.0
 10
6.732050807568871
 20
5.851324470164385
 30
0.0
 10
6.732050807568875
 20
5.556463528228871
 30
0.0
 10
6.732050807568871
 20
4.952475755499727
 30
0.0
 10
6.732050807568875
 20
4.640286917498566
 30
0.0
 10
6.732050807568875
 20
4.025862299006434
 30
0.0
 10
6.732050807568875
 20
3.721466357392396
 30
0.0
 10
6.732050807568875
 20
3.118632606034438
 30
0.0
 10
6.732050807568875
 20
2.821432642941823
 30
0.0
 10
6.732050807568875
 20
2.539055458564847
 30
0.0
  0
SPLINE
  5
B3
330
1F
100
AcDbEntity
  8
0
  6
Continuous
 62
     4
370
    25
100
AcDbSpline
210
0.0
220
0.0
230
1.0
 70
     8
 71
     3
 72
     8
 73
     4
 74
     0
 42
0.000000001
 43
0.00000001
 40
0.0
 40
0.0
 40
0.0
 40
0.0
 40
1.0
 40
1.0
 40
1.0
 40
1.0
 10
5.936668930317744
 20
0.238954823018665
 30
0.0
 10
5.864089989292436
 20
0.2809069348370372
 30
0.0
 10
5.795885539844051
 20
0.3290338253660851
 30
0.0
 10
5.732050807568909
 20
0.3833116972625739
 30
0.0
  0
SPLINE
  5
B4
330
1F
100
AcDbEntity
  8
0
  6
Continuous
 62
     4
370
    25
100
AcDbSpline
210
0.0
220
0.0
230
1.0
 70
     8
 71
     3
 72
     8
 73
     4
 74
     0
 42
0.000000001
 43
0.00000001
 40
0.0
 40
0.0
 40
0.0
 40
0.0
 40
1.0
 40
1.0
 40
1.0
 40
1.0
 10
6.732050807568875
 20
-0.2210698050731087
 30
0.0
 10
6.46612042602167
 20
-0.0676225242583642
 30
0.0
 10
6.201876423712953
 20
0.085659469561983
 30
0.0
 10
5.936668930317744
 20
0.2389548230186652
 30
0.0
  0
LINE
  5
B5
330
1F
100
AcDbEntity
  8
0
  6
Continuous
 62
     4
370
    25
100
AcDbLine
 10
6.732050807568875
 20
-0.2210698050731087
 30
0.0
 11
6.732050807568875
 21
-3.36325262009964
 31
0.0
  0
SPLINE
  5
B6
330
1F
100
AcDbEntity
  8
0
  6
Continuous
 62
     4
370
    25
100
AcDbSpline
210
0.0
220
0.0
230
1.0
 70
     8
 71
     3
 72
    10
 73
     6
 74
     0
 42
0.000000001
 43
0.00000001
 40
0.0
 40
0.0
 40
0.0
 40
0.0
 40
0.5
 40
0.5
 40
1.0
 40
1.0
 40
1.0
 40
1.0
 10
5.732050807568873
 20
-3.646623871876968
 30
0.0
 10
5.870150112071681
 20
-3.546237994222281
 30
0.0
 10
6.02850017809012
 20
-3.469325760645302
 30
0.0
 10
6.370715214903058
 20
-3.371581577262954
 30
0.0
 10
6.551141985853528
 20
-3.351832897132788
 30
0.0
 10
6.732050807568875
 20
-3.363252620099696
 30
0.0
  0
SPLINE
  5
B7
330
1F
100
AcDbEntity
  8
0
  6
Continuous
 62
     4
370
    25
100
AcDbSpline
210
0.0
220
0.0
230
1.0
 70
     8
 71
     3
 72
     8
 73
     4
 74
     0
 42
0.000000001
 43
0.00000001
 40
0.0
 40
0.0
 40
0.0
 40
0.0
 40
1.0
 40
1.0
 40
1.0
 40
1.0
 10
5.936668930317744
 20
-6.99592028203268
 30
0.0
 10
5.864089989292436
 20
-6.994487352689479
 30
0.0
 10
5.795885539844051
 20
-6.992473931995431
 30
0.0
 10
5.732050807568909
 20
-6.989497273963396
 30
0.0
  0
LINE
  5
B8
330
1F
100
AcDbEntity
  8
0
  6
Continuous
 62
     4
370
    25
100
AcDbLine
 10
6.732050807568879
 20
6.996508282085071
 30
0.0
 11
6.349555593873143
 21
6.999421349461916
 31
0.0
  0
LINE
  5
B9
330
1F
100
AcDbEntity
  8
0
  6
Continuous
 62
     4
370
    25
100
AcDbLine
 10
6.732050807568875
 20
6.996508282085071
 30
0.0
 11
6.732050807568871
 21
6.139098615708445
 31
0.0
  0
SPLINE
  5
BA
330
1F
100
AcDbEntity
  8
0
  6
Continuous
 62
     4
370
    25
100
AcDbSpline
210
0.0
220
0.0
230
1.0
 70
     8
 71
     3
 72
     8
 73
     4
 74
     0
 42
0.000000001
 43
0.00000001
 40
0.0
 40
0.0
 40
0.0
 40
0.0
 40
1.0
 40
1.0
 40
1.0
 40
1.0
 10
6.732050807568875
 20
-6.996508282085069
 30
0.0
 10
6.46612042602167
 20
-7.001356780663365
 30
0.0
 10
6.201876423712953
 20
-7.001156285671672
 30
0.0
 10
5.936668930317744
 20
-6.995920282032682
 30
0.0
  0
SPLINE
  5
BB
330
1F
100
AcDbEntity
  8
0
  6
Continuous
 62
     1
370
    25
100
AcDbSpline
210
0.0
220
0.0
230
1.0
 70
     8
 71
     3
 72
    23
 73
    19
 74
     0
 42
0.000000001
 43
0.00000001
 40
0.0
 40
0.0
 40
0.0
 40
0.0
 40
0.0663814968815869
 40
0.1327896530161592
 40
0.1991633933284543
 40
0.2655109236778009
 40
0.3318486390127355
 40
0.3970076039841449
 40
0.4621961725939369
 40
0.5274233224575612
 40
0.5926164162666951
 40
0.6591096641918919
 40
0.7255927811389117
 40
0.7920816348185475
 40
0.8585920646977094
 40
0.9251390831733397
 40
0.9916765371441006
 40
1.0
 40
1.0
 40
1.0
 40
1.0
 10
6.732050807568871
 20
6.214633091140024
 30
0.0
 10
7.446604022489039
 20
6.0060428975015
 30
0.0
 10
8.875997421678104
 20
5.588778739008021
 30
0.0
 10
11.02021463534113
 20
4.737228115817043
 30
0.0
 10
13.16368091097852
 20
3.751655066151889
 30
0.0
 10
15.30624490487182
 20
2.645579578153454
 30
0.0
 10
17.43567992302403
 20
1.465205226246526
 30
0.0
 10
19.55262104699572
 20
0.2470447962533736
 30
0.0
 10
21.65779361305653
 20
-0.9712992126100235
 30
0.0
 10
23.7637623544512
 20
-2.159943122633183
 30
0.0
 10
25.88336741632207
 20
-3.29182416031836
 30
0.0
 10
28.01637287471372
 20
-4.329990274321063
 30
0.0
 10
30.16324554569979
 20
-5.239945045488984
 30
0.0
 10
32.31035029279463
 20
-5.984386864568515
 30
0.0
 10
34.45825657670277
 20
-6.547428273187712
 30
0.0
 10
36.60702040800955
 20
-6.883696308867194
 30
0.0
 10
38.12933998886763
 20
-7.026791885747979
 30
0.0
 10
38.93513260511988
 20
-6.991878133392182
 30
0.0
 10
39.02472521492538
 20
-6.987996223669298
 30
0.0
  0
LINE
  5
BC
330
1F
100
AcDbEntity
  8
0
  6
Continuous
 62
     4
370
    25
100
AcDbLine
 10
6.732050807568871
 20
6.214633091140077
 30
0.0
 11
6.732050807568871
 21
6.996508282085064
 31
0.0
  0
SPLINE
  5
BD
330
1F
100
AcDbEntity
  8
0
  6
Continuous
 62
     1
370
    25
100
AcDbSpline
210
0.0
220
0.0
230
1.0
 70
     8
 71
     3
 72
    58
 73
    54
 74
     0
 42
0.000000001
 43
0.00000001
 40
0.0
 40
0.0
 40
0.0
 40
0.0
 40
0.0625000000000007
 40
0.0625000000000007
 40
0.093750000000001
 40
0.093750000000001
 40
0.1250000000000013
 40
0.1250000000000013
 40
0.1562500000000012
 40
0.1562500000000012
 40
0.1875000000000011
 40
0.1875000000000011
 40
0.2500000000000011
 40
0.2500000000000011
 40
0.2812500000000012
 40
0.2812500000000012
 40
0.3125000000000012
 40
0.3125000000000012
 40
0.3437500000000013
 40
0.3437500000000013
 40
0.3750000000000013
 40
0.3750000000000013
 40
0.4375000000000014
 40
0.4375000000000014
 40
0.5000000000000014
 40
0.5000000000000014
 40
0.5312500000000013
 40
0.5312500000000013
 40
0.5625000000000012
 40
0.5625000000000012
 40
0.5937500000000011
 40
0.5937500000000011
 40
0.625000000000001
 40
0.625000000000001
 40
0.6875000000000009
 40
0.6875000000000009
 40
0.7187500000000008
 40
0.7187500000000008
 40
0.7500000000000007
 40
0.7500000000000007
 40
0.7812500000000006
 40
0.7812500000000006
 40
0.8125000000000004
 40
0.8125000000000004
 40
0.8437500000000004
 40
0.8437500000000004
 40
0.8750000000000004
 40
0.8750000000000004
 40
0.9375000000000003
 40
0.9375000000000003
 40
0.9687500000000002
 40
0.9687500000000002
 40
1.0
 40
1.0
 40
1.0
 40
1.0
 10
41.73205080756888
 20
-6.826159888485146
 30
0.0
 10
41.00690635997442
 20
-6.733095561581755
 30
0.0
 10
40.27143383292967
 20
-6.602396693329228
 30
0.0
 10
39.17943205657468
 20
-6.354431665996958
 30
0.0
 10
38.8171755477605
 20
-6.263205352845164
 30
0.0
 10
38.08707462443017
 20
-6.063545150744514
 30
0.0
 10
37.72094648106849
 20
-5.955233759638846
 30
0.0
 10
36.99100061088368
 20
-5.722972964108735
 30
0.0
 10
36.62889239149329
 20
-5.599239775051672
 30
0.0
 10
35.90063711134391
 20
-5.336503486667582
 30
0.0
 10
35.53471636007536
 20
-5.197495202964039
 30
0.0
 10
34.43826085759797
 20
-4.760012247649673
 30
0.0
 10
33.71383053027603
 20
-4.441812748716953
 30
0.0
 10
32.61722513470554
 20
-3.929578727252704
 30
0.0
 10
32.25141017824176
 20
-3.753209190690604
 30
0.0
 10
31.523673728352
 20
-3.391417303512333
 30
0.0
 10
31.16123691975019
 20
-3.205927826956931
 30
0.0
 10
30.43099168466269
 20
-2.825841955955177
 30
0.0
 10
30.06486896496295
 20
-2.631523414838322
 30
0.0
 10
29.3350888816971
 20
-2.236709963659246
 30
0.0
 10
28.97309693411135
 20
-2.03653098765137
 30
0.0
 10
27.88034884632873
 20
-1.427300895889498
 30
0.0
 10
27.14635503590171
 20
-1.010136747247568
 30
0.0
 10
25.69467888240343
 20
-0.1724750871096404
 30
0.0
 10
24.9591264216872
 20
0.251428563248292
 30
0.0
 10
23.86793478659215
 20
0.8794991651304918
 30
0.0
 10
23.50528567665944
 20
1.087743524135077
 30
0.0
 10
22.77490687829236
 20
1.501683165695328
 30
0.0
 10
22.40879500564814
 20
1.707065041053777
 30
0.0
 10
21.67919143493479
 20
2.112152510538825
 30
0.0
 10
21.31728373584535
 20
2.311576360243601
 30
0.0
 10
20.58855222841468
 20
2.704523442754698
 30
0.0
 10
20.22254733569201
 20
2.897883928882266
 30
0.0
 10
19.12630643025322
 20
3.465057018780543
 30
0.0
 10
18.40176898064184
 20
3.825334404839794
 30
0.0
 10
17.30507842541832
 20
4.333375075835514
 30
0.0
 10
16.93939089619135
 20
4.497071107136541
 30
0.0
 10
16.21221577796537
 20
4.811231896577775
 30
0.0
 10
15.84932237554353
 20
4.961919746241975
 30
0.0
 10
15.11882076893718
 20
5.250065974996898
 30
0.0
 10
14.75272516620543
 20
5.387301993444517
 30
0.0
 10
14.02330882501403
 20
5.646447477647741
 30
0.0
 10
13.66145334699007
 20
5.768218319613926
 30
0.0
 10
12.93249973151931
 20
5.996395931944065
 30
0.0
 10
12.56646089344408
 20
6.102654724972695
 30
0.0
 10
11.8357213230198
 20
6.298176454860107
 30
0.0
 10
11.47215779515506
 20
6.387356115532284
 30
0.0
 10
10.38242343205576
 20
6.628577981416068
 30
0.0
 10
9.646835070708294
 20
6.754768926753078
 30
0.0
 10
8.556517248170353
 20
6.887508484710399
 30
0.0
 10
8.193347574049628
 20
6.922489665119458
 30
0.0
 10
7.462733920279844
 20
6.973695196786941
 30
0.0
 10
7.096660009512616
 20
6.989860650522965
 30
0.0
 10
6.732050807568971
 20
6.996508282083412
 30
0.0
  0
LINE
  5
BE
330
1F
100
AcDbEntity
  8
0
  6
Continuous
 62
     1
370
    25
100
AcDbLine
 10
41.73205080756888
 20
-7.000000000000006
 30
0.0
 11
41.73205080756888
 21
-6.826159888486828
 31
0.0
1001
PE_URL
1000

  0
SPLINE
  5
BF
330
1F
100
AcDbEntity
  8
0
  6
Continuous
 62
     1
370
    25
100
AcDbSpline
210
0.0
220
0.0
230
1.0
 70
     8
 71
     3
 72
    19
 73
    15
 74
     0
 42
0.000000001
 43
0.00000001
 40
0.0
 40
0.0
 40
0.0
 40
0.0
 40
0.0559466732268323
 40
0.1406558993862892
 40
0.225406140816229
 40
0.3101694578075105
 40
0.3948878641964344
 40
0.4813103899853322
 40
0.5677246095782058
 40
0.654143638976122
 40
0.740580576333245
 40
0.8270484534347617
 40
0.9135411299664588
 40
1.0
 40
1.0
 40
1.0
 40
1.0
 10
32.18125324561894
 20
-5.909523596573773
 30
0.0
 10
31.70668769758111
 20
-6.055989579629538
 30
0.0
 10
30.51357932979001
 20
-6.42422067163172
 30
0.0
 10
28.6015511937885
 20
-6.787673712027494
 30
0.0
 10
26.44481106806023
 20
-7.011913830140262
 30
0.0
 10
24.28786978892756
 20
-7.007389446116423
 30
0.0
 10
22.11710985543697
 20
-6.78237321298078
 30
0.0
 10
19.93237186156976
 20
-6.336231300720157
 30
0.0
 10
17.73327257499534
 20
-5.679269766265318
 30
0.0
 10
15.53402070927713
 20
-4.835802439045332
 30
0.0
 10
13.33422358885284
 20
-3.833543006844441
 30
0.0
 10
11.13364533818295
 20
-2.705176984080429
 30
0.0
 10
8.93265248710926
 20
-1.488781820181675
 30
0.0
 10
7.465489106236978
 20
-0.6435854071497673
 30
0.0
 10
6.732050807568978
 20
-0.2210698050728769
 30
0.0
  0
SPLINE
  5
C0
330
1F
100
AcDbEntity
  8
0
  6
Continuous
 62
     1
370
    25
100
AcDbSpline
210
0.0
220
0.0
230
1.0
 70
     8
 71
     3
 72
    21
 73
    17
 74
     0
 42
0.000000001
 43
0.00000001
 40
0.0
 40
0.0
 40
0.0
 40
0.0
 40
0.000360233172588
 40
0.0775689830139775
 40
0.1547663111040456
 40
0.2305919251082441
 40
0.3064519889238863
 40
0.3823569498194953
 40
0.4582222796183945
 40
0.5356006012856237
 40
0.6129671335138853
 40
0.6903403415890266
 40
0.7677386579294336
 40
0.8451795524905656
 40
0.9226093168188175
 40
1.0
 40
1.0
 40
1.0
 40
1.0
 10
13.15394241494912
 20
5.919080911655878
 30
0.0
 10
13.15727461739038
 20
5.92024505412133
 30
0.0
 10
13.87479752820026
 20
6.17091976705724
 30
0.0
 10
15.30622766825302
 20
6.506576947156449
 30
0.0
 10
17.43568444985389
 20
6.885219455781765
 30
0.0
 10
19.55261984293691
 20
7.029964476287044
 30
0.0
 10
21.65779393489755
 20
6.968132055956377
 30
0.0
 10
23.763762272222
 20
6.695404560135242
 30
0.0
 10
25.88336742410412
 20
6.218463372519708
 30
0.0
 10
28.01637292894777
 20
5.54668334560454
 30
0.0
 10
30.16324532131947
 20
4.696888991032428
 30
0.0
 10
32.31035113629085
 20
3.700125301437985
 30
0.0
 10
34.4582534252889
 20
2.587191560210904
 30
0.0
 10
36.60703217602893
 20
1.394212874694326
 30
0.0
 10
38.75563416069814
 20
0.1550377368977778
 30
0.0
 10
40.18764733987727
 20
-0.6685075796920719
 30
0.0
 10
40.9034731887489
 20
-1.080176294689604
 30
0.0
  0
SPLINE
  5
C1
330
1F
100
AcDbEntity
  8
0
  6
Continuous
 62
     1
370
    25
100
AcDbSpline
210
0.0
220
0.0
230
1.0
 70
     8
 71
     3
 72
    10
 73
     6
 74
     0
 42
0.000000001
 43
0.00000001
 40
0.0
 40
0.0
 40
0.0
 40
0.0
 40
0.5
 40
0.5
 40
1.0
 40
1.0
 40
1.0
 40
1.0
 10
41.73205080756888
 20
-5.171500304077866
 30
0.0
 10
41.15080274008425
 20
-4.844748980112357
 30
0.0
 10
40.5862900653371
 20
-4.480207734126558
 30
0.0
 10
39.48334541782405
 20
-3.692232827165305
 30
0.0
 10
38.94492920608726
 20
-3.268763576462857
 30
0.0
 10
38.4172504829184
 20
-2.821048174980274
 30
0.0
1001
PE_URL
1000

  0
LINE
  5
C2
330
1F
100
AcDbEntity
  8
0
  6
Continuous
 62
     1
370
    25
100
AcDbLine
 10
41.73205080756888
 20
-6.826159888486828
 30
0.0
 11
41.73205080756888
 21
-5.171500304077864
 31
0.0
1001
PE_URL
1000

  0
SPLINE
  5
C3
330
1F
100
AcDbEntity
  8
0
  6
Continuous
 62
     1
370
    25
100
AcDbSpline
210
0.0
220
0.0
230
1.0
 70
    24
 71
     3
 72
    16
 73
    12
 74
     0
 42
0.000000001
 43
0.00000001
 40
0.0
 40
0.0
 40
0.0
 40
0.0
 40
0.1409185302649901
 40
0.2965397642014349
 40
0.4002907760916254
 40
0.5039730675131473
 40
0.607993721050926
 40
0.7120326655936655
 40
0.811478909400761
 40
0.9109831850587682
 40
0.9999999999999999
 40
0.9999999999999999
 40
0.9999999999999999
 40
0.9999999999999999
 10
40.89884614108332
 20
-1.083416188344716
 30
0.0
 10
40.89159377574148
 20
-1.088494349226923
 30
0.0
 10
40.87633237112475
 20
-1.099180499783239
 30
0.0
 10
40.72701425721084
 20
-1.203734168737013
 30
0.0
 10
40.50610748430945
 20
-1.358414756364132
 30
0.0
 10
40.25335746824281
 20
-1.535392222896623
 30
0.0
 10
39.93960563442167
 20
-1.755083622065295
 30
0.0
 10
39.58238820355444
 20
-2.005209959938441
 30
0.0
 10
39.19430380683126
 20
-2.276949579985568
 30
0.0
 10
38.80468907772982
 20
-2.549760750299954
 30
0.0
 10
38.54151657056597
 20
-2.734036123665612
 30
0.0
 10
38.41725048291839
 20
-2.821048174980274
 30
0.0
1001
PE_URL
1000

  0
SPLINE
  5
C4
330
1F
100
AcDbEntity
  8
0
  6
Continuous
 62
     1
370
    25
100
AcDbSpline
210
0.0
220
0.0
230
1.0
 70
     8
 71
     3
 72
    15
 73
    11
 74
     0
 42
0.000000001
 43
0.00000001
 40
0.0
 40
0.0
 40
0.0
 40
0.0
 40
0.1344218853754457
 40
0.2687867272156812
 40
0.4031156417570255
 40
0.5374298820424156
 40
0.6717507570862135
 40
0.8037031422412324
 40
0.9357194172818445
 40
1.0
 40
1.0
 40
1.0
 40
1.0
 10
41.73205080756888
 20
1.550335827107544
 30
0.0
 10
40.99993479243994
 20
1.957443087459427
 30
0.0
 10
39.5360134443717
 20
2.771484847326851
 30
0.0
 10
37.34073712302989
 20
3.888522338303095
 30
0.0
 10
35.14614484319097
 20
4.882165358240204
 30
0.0
 10
32.95185032507541
 20
5.714354630270025
 30
0.0
 10
30.77045388184898
 20
6.359434292551642
 30
0.0
 10
28.60155599187276
 20
6.78506973711393
 30
0.0
 10
26.81381518113648
 20
6.994916665100501
 30
0.0
 10
25.74471336044779
 20
6.977923355399585
 30
0.0
 10
25.39461866813557
 20
6.972358621137626
 30
0.0
1001
PE_URL
1000

  0
LINE
  5
C5
330
1F
100
AcDbEntity
  8
0
  6
Continuous
 62
     1
370
    25
100
AcDbLine
 10
41.73205080756888
 20
-0.5000000000000218
 30
0.0
 11
41.73205080756888
 21
1.55033582710768
 31
0.0
1001
PE_URL
1000

  0
LINE
  5
C6
330
1F
100
AcDbEntity
  8
0
  6
Continuous
 62
     1
370
    25
100
AcDbLine
 10
41.73205080756888
 20
-0.5000000000000223
 30
0.0
 11
40.90347318874891
 21
-1.080176294689615
 31
0.0
1001
PE_URL
1000

  0
SPLINE
  5
C7
330
1F
100
AcDbEntity
  8
0
  6
Continuous
 62
     1
370
    25
100
AcDbSpline
210
0.0
220
0.0
230
1.0
 70
     8
 71
     3
 72
    14
 73
    10
 74
     0
 42
0.000000001
 43
0.00000001
 40
0.0
 40
0.0
 40
0.0
 40
0.0
 40
0.1618298770125674
 40
0.3237247459857648
 40
0.4855357134420024
 40
0.6472827842511362
 40
0.809005927269398
 40
0.9678554227304484
 40
0.9999999999999999
 40
0.9999999999999999
 40
0.9999999999999999
 40
0.9999999999999999
 10
6.732050807568875
 20
-3.221542416686067
 30
0.0
 10
7.446604047251883
 20
-3.578032184638873
 30
0.0
 10
8.875997495976588
 20
-4.291154889218847
 30
0.0
 10
11.02021433807216
 20
-5.199936349944077
 30
0.0
 10
13.16368202489141
 20
-5.952869513151035
 30
0.0
 10
15.30624074828423
 20
-6.523247001144651
 30
0.0
 10
17.4356953171874
 20
-6.870028951744423
 30
0.0
 10
18.99286977254399
 20
-7.019697098928825
 30
0.0
 10
19.83619543946043
 20
-6.988286779160768
 30
0.0
 10
19.97812836269742
 20
-6.983000377146246
 30
0.0
  0
SPLINE
  5
C8
330
1F
100
AcDbEntity
  8
0
  6
Continuous
 62
     1
370
    25
100
AcDbSpline
210
0.0
220
0.0
230
1.0
 70
     8
 71
     3
 72
    12
 73
     8
 74
     0
 42
0.000000001
 43
0.00000001
 40
0.0
 40
0.0
 40
0.0
 40
0.0
 40
0.0147780543735157
 40
0.2610307312782566
 40
0.5074188762568155
 40
0.753771608970988
 40
1.0
 40
1.0
 40
1.0
 40
1.0
 10
32.18125324561894
 20
5.909523596573776
 30
0.0
 10
32.22421445005062
 20
5.924458682553624
 30
0.0
 10
32.98305552113871
 20
6.188263126392266
 30
0.0
 10
34.45825952119144
 20
6.532075451704062
 30
0.0
 10
36.60703055031107
 20
6.897988469064784
 30
0.0
 10
38.75563456686398
 20
7.043870139574889
 30
0.0
 10
40.1876474752431
 20
6.958720473256417
 30
0.0
 10
40.90347318874892
 20
6.91615638721323
 30
0.0
1001
PE_URL
1000

  0
SPLINE
  5
C9
330
1F
100
AcDbEntity
  8
0
  6
Continuous
 62
     1
370
    25
100
AcDbSpline
210
0.0
220
0.0
230
1.0
 70
     8
 71
     3
 72
    20
 73
    16
 74
     0
 42
0.000000001
 43
0.00000001
 40
0.0
 40
0.0
 40
0.0
 40
0.0
 40
0.25
 40
0.25
 40
0.375
 40
0.375
 40
0.5
 40
0.5
 40
0.625
 40
0.625
 40
0.75
 40
0.75
 40
0.875
 40
0.875
 40
1.0
 40
1.0
 40
1.0
 40
1.0
 10
40.90347318874892
 20
6.916156387213238
 30
0.0
 10
40.90746696771716
 20
6.477914081147642
 30
0.0
 10
40.86681454200551
 20
6.048876774370247
 30
0.0
 10
40.71631469419168
 20
5.423777985945899
 30
0.0
 10
40.65001303898443
 20
5.217055618836855
 30
0.0
 10
40.48754243112724
 20
4.829499225385049
 30
0.0
 10
40.39115670265262
 20
4.6466087713188
 30
0.0
 10
40.16474667134392
 20
4.305001980548565
 30
0.0
 10
40.03720730539909
 20
4.150564906622089
 30
0.0
 10
39.75935472793215
 20
3.879607694045399
 30
0.0
 10
39.60648507008148
 20
3.760964557577485
 30
0.0
 10
39.28565142029382
 20
3.565588174131647
 30
0.0
 10
39.11876541720187
 20
3.488825159167523
 30
0.0
 10
38.77328396207967
 20
3.373174463829237
 30
0.0
 10
38.59498145771222
 20
3.334792535070938
 30
0.0
 10
38.41725048291842
 20
3.314800324650463
 30
0.0
1001
PE_URL
1000

  0
SPLINE
  5
CA
330
1F
100
AcDbEntity
  8
0
  6
Continuous
 62
     1
370
    25
100
AcDbSpline
210
0.0
220
0.0
230
1.0
 70
     8
 71
     3
 72
    10
 73
     6
 74
     0
 42
0.000000001
 43
0.00000001
 40
0.0
 40
0.0
 40
0.0
 40
0.0
 40
0.2601528970032636
 40
0.5212370264193069
 40
1.0
 40
1.0
 40
1.0
 40
1.0
 10
41.73205080756888
 20
1.700287060049836
 30
0.0
 10
41.44803473942451
 20
1.85128607323707
 30
0.0
 10
40.87898595111516
 20
2.153824609354067
 30
0.0
 10
39.81225556700778
 20
2.685715211213298
 30
0.0
 10
39.05667041354562
 20
3.025562172280413
 30
0.0
 10
38.56772317917823
 20
3.245480775710522
 30
0.0
1001
PE_URL
1000

  0
LINE
  5
CB
330
1F
100
AcDbEntity
  8
0
  6
Continuous
 62
     1
370
    25
100
AcDbLine
 10
41.73205080756888
 20
1.555925092519521
 30
0.0
 11
41.73205080756888
 21
1.700287060049836
 31
0.0
1001
PE_URL
1000

  0
SPLINE
  5
CC
330
1F
100
AcDbEntity
  8
0
  6
Continuous
 62
     1
370
    25
100
AcDbSpline
210
0.0
220
0.0
230
1.0
 70
     8
 71
     3
 72
    10
 73
     6
 74
     0
 42
0.000000001
 43
0.00000001
 40
0.0
 40
0.0
 40
0.0
 40
0.0
 40
0.314572423322836
 40
0.6573532012506034
 40
1.0
 40
1.0
 40
1.0
 40
1.0
 10
13.15394241494903
 20
-5.919080911655873
 30
0.0
 10
12.48058071814126
 20
-6.112361062352178
 30
0.0
 10
11.0734755996425
 20
-6.51625319140897
 30
0.0
 10
8.93265023397328
 20
-6.886979999713451
 30
0.0
 10
7.465488355289532
 20
-6.960003612554016
 30
0.0
 10
6.732050807568978
 20
-6.99650828208341
 30
0.0
  0
LINE
  5
CD
330
1F
100
AcDbEntity
  8
0
  6
Continuous
 62
     1
370
    25
100
AcDbLine
 10
41.73205080756888
 20
-0.4999999999999974
 30
0.0
 11
41.73205080756888
 21
-5.171500304077861
 31
0.0
1001
PE_URL
1000

  0
ELLIPSE
  5
CE
330
1F
100
AcDbEntity
  8
0
  6
Continuous
 62
     1
370
    25
100
AcDbEllipse
 10
42.44612481093993
 20
0.0000000000000004
 30
0.0
 11
9.997036047194776
 21
0.0
 31
0.0
210
0.0
220
0.0
230
1.0
 40
0.7002075382097118
 41
1.642285776680417
 42
1.725726287459305
1001
PE_URL
1000

  0
LINE
  5
CF
330
1F
100
AcDbEntity
  8
0
  6
Continuous
 62
     1
370
    25
100
AcDbLine
 10
41.73205080756888
 20
1.700287060049836
 30
0.0
 11
41.73205080756888
 21
6.982120021884477
 31
0.0
1001
PE_URL
1000

  0
LINE
  5
D0
330
1F
100
AcDbEntity
  8
0
  6
Continuous
 62
     1
370
    25
100
AcDbLine
 10
41.73205080756888
 20
6.982120021884477
 30
0.0
 11
41.73205080756888
 21
7.000000000000006
 31
0.0
1001
PE_URL
1000

  0
LINE
  5
D1
330
1F
100
AcDbEntity
  8
중심선
100
AcDbLine
 10
-61.26794919243113
 20
-0.0000000000000043
 30
0.0
 11
44.73205080756889
 21
0.0000000000000086
 31
0.0
  0
CIRCLE
  5
D2
330
1F
100
AcDbEntity
  8
해칭선
100
AcDbCircle
 10
0.0
 20
0.0
 30
0.0
 40
3.000000000000001
  0
INSERT
  5
D3
330
1F
100
AcDbEntity
  8
0
  6
Continuous
 62
     7
100
AcDbBlockReference
 66
     1
  2
블럭10
 10
-22.20822212455632
 20
-52.04717430164393
 30
0.0
  0
ATTRIB
  5
D4
330
D3
100
AcDbEntity
  8
FORMAT
 62
     2
100
AcDbText
 10
-35.16816131941409
 20
-49.97180738881174
 30
0.0
 40
4.233333333333333
  1
SEME36140E [ 4 FLUTE ]
 41
0.75
  7
SLDTEXTSTYLE0
 11
-35.16816131941409
 21
-52.08847405547841
 31
0.0
100
AcDbAttribute
  2
AUTOATTR0
 70
     0
 74
     1
  0
SEQEND
  5
D5
330
D3
100
AcDbEntity
  8
0
  6
Continuous
 62
     7
  0
HATCH
  5
D6
330
1F
100
AcDbEntity
  8
중심선
100
AcDbHatch
 10
0.0
 20
0.0
 30
0.0
210
0.0
220
0.0
230
1.0
  2
SOLID
 70
     1
 71
     0
 91
        1
 92
        0
 93
        4
 72
     1
 10
-16.49331282017548
 20
-35.8
 11
-19.93958806401276
 21
-35.8
 72
     1
 10
-19.93958806401276
 20
-35.8
 11
-22.06781792321678
 21
-38.33632558057259
 72
     1
 10
-22.06781792321678
 20
-38.33632558057259
 11
-18.62150959426635
 21
-38.3362861512701
 72
     1
 10
-18.62150959426635
 20
-38.3362861512701
 11
-16.49331282017548
 21
-35.8
 97
        0
 75
     0
 76
     1
 98
        1
 10
-4.767823634681543
 20
0.0
  0
HATCH
  5
D7
330
1F
100
AcDbEntity
  8
중심선
100
AcDbHatch
 10
0.0
 20
0.0
 30
0.0
210
0.0
220
0.0
230
1.0
  2
SOLID
 70
     1
 71
     0
 91
        1
 92
        0
 93
        4
 72
     1
 10
-11.48054882913947
 20
-35.8
 11
-14.9268240729768
 21
-35.80000000000003
 72
     1
 10
-14.9268240729768
 20
-35.80000000000003
 11
-19.45796208133419
 21
-41.20000000000002
 72
     1
 10
-19.45796208133419
 20
-41.20000000000002
 11
-16.01168683749691
 21
-41.20000000000002
 72
     1
 10
-16.01168683749691
 20
-41.20000000000002
 11
-11.48054882913947
 21
-35.8
 97
        0
 75
     0
 76
     1
 98
        1
 10
-4.767823634681543
 20
0.0
  0
HATCH
  5
D8
330
1F
100
AcDbEntity
  8
중심선
100
AcDbHatch
 10
0.0
 20
0.0
 30
0.0
210
0.0
220
0.0
230
1.0
  2
SOLID
 70
     1
 71
     0
 91
        1
 92
        0
 93
        4
 72
     1
 10
-6.4677848381036
 20
-35.8
 11
-9.914060081940688
 21
-35.8
 72
     1
 10
-9.914060081940688
 20
-35.8
 11
-16.96249698382999
 21
-44.20000000000002
 72
     1
 10
-16.96249698382999
 20
-44.20000000000002
 11
-13.51622173999271
 21
-44.20000000000002
 72
     1
 10
-13.51622173999271
 20
-44.20000000000002
 11
-6.4677848381036
 21
-35.8
 97
        0
 75
     0
 76
     1
 98
        1
 10
-4.767823634681543
 20
0.0
  0
HATCH
  5
D9
330
1F
100
AcDbEntity
  8
중심선
100
AcDbHatch
 10
0.0
 20
0.0
 30
0.0
210
0.0
220
0.0
230
1.0
  2
SOLID
 70
     1
 71
     0
 91
        1
 92
        0
 93
        6
 72
     3
 10
-1.667894407091428
 20
-40.00000000005127
 11
3.960054785062284
 21
1.540882976769353E-10
 40
0.3939339440162627
 50
17.09539180608438
 51
320.0019657685082
 73
     0
 72
     1
 10
0.0151052486091396
 20
-38.58789400463833
 11
2.320407122310205
 21
-36.65356729459038
 72
     3
 10
-1.667894407144275
 20
-40.00000000000015
 11
6.600054785286829
 21
-1.278976924368180E-13
 40
0.636358354079598
 50
39.99873849337411
 51
368.4976242363724
 73
     1
 72
     1
 10
4.757438084756334
 20
-39.03999999993002
 11
-2.987827100308352
 21
-39.03999999993002
 72
     1
 10
-2.987827100308352
 20
-39.03999999993002
 11
-2.987852144754286
 21
-40.95999999992991
 72
     1
 10
-2.987852144754286
 20
-40.95999999992991
 11
1.453527624717752
 21
-40.95999999992988
 97
        0
 75
     0
 76
     1
 98
        1
 10
-4.767823634681543
 20
0.0
  0
DIMENSION
  5
DA
330
1F
100
AcDbEntity
  8
치수문자_일반주서
100
AcDbDimension
  2
_D
 10
54.73205080756887
 20
7.000000000000047
 30
0.0
 11
54.7320508075689
 21
0.0000000000000043
 31
0.0
 70
   160
  1
%%c<>
 71
     2
 42
14.0
 52
-270.0
  3
SLDDIMSTYLE0
100
AcDbAlignedDimension
 13
41.73205080756892
 23
-7.0
 33
0.0
 14
41.73205080756892
 24
7.0
 34
0.0
 50
90.0000000000002
100
AcDbRotatedDimension
  0
DIMENSION
  5
E8
330
1F
100
AcDbEntity
  8
치수문자_일반주서
100
AcDbDimension
  2
_D_1
 10
41.7320508075689
 20
22.32836952549911
 30
0.0
 11
-8.267949192431123
 21
22.32836952549911
 31
0.0
 70
   160
  1
<>
 71
     2
 42
100.0
  3
SLDDIMSTYLE1
100
AcDbAlignedDimension
 13
-58.26794919243113
 23
7.499999999999993
 33
0.0
 14
41.73205080756888
 24
-0.4999999999999974
 34
0.0
 50
-0.0000000000000041
100
AcDbRotatedDimension
  0
DIMENSION
  5
F3
330
1F
100
AcDbEntity
  8
치수문자_일반주서
100
AcDbDimension
  2
_D_2
 10
-71.760588754051
 20
-8.000000000000062
 30
0.0
 11
-71.76058875405103
 21
-0.0000000000000551
 31
0.0
 70
   160
  1
%%c<>
 71
     2
 42
16.00000000000001
 52
-270.0
  3
SLDDIMSTYLE2
100
AcDbAlignedDimension
 13
-57.76794919243113
 23
8.000000000000007
 33
0.0
 14
-57.76794919243113
 24
-8.000000000000007
 34
0.0
 50
90.0000000000002
100
AcDbRotatedDimension
  0
DIMENSION
  5
101
330
1F
100
AcDbEntity
  8
치수문자_일반주서
100
AcDbDimension
  2
_D_3
 10
6.732050807568871
 20
10.26844139523111
 30
0.0
 11
24.23205080756888
 21
10.26844139523111
 31
0.0
 70
   160
  1
<>
 71
     2
 42
35.00000000000001
  3
SLDDIMSTYLE1
100
AcDbAlignedDimension
 13
41.73205080756888
 23
6.982120021884477
 33
0.0
 14
6.732050807568871
 24
6.996508282085064
 34
0.0
 50
0.0000000000000174
100
AcDbRotatedDimension
  0
INSERT
  5
111
330
1F
100
AcDbEntity
  8
해칭선
100
AcDbBlockReference
  2
SW_DOWELSYMBOL_0
 10
0.0
 20
0.0
 30
0.0
  0
LINE
  5
160
330
1F
100
AcDbEntity
  8
0
  6
Continuous
 62
     4
370
    25
100
AcDbLine
 10
5.732050807568873
 20
7.000000000000001
 30
0.0
 11
4.732050807568874
 21
8.0
 31
0.0
1001
PE_URL
1000

  0
LINE
  5
161
330
1F
100
AcDbEntity
  8
0
  6
Continuous
 62
     4
370
    25
100
AcDbLine
 10
5.732050807568875
 20
-6.999999999999993
 30
0.0
 11
4.732050807568876
 21
-7.999999999999993
 31
0.0
1001
PE_URL
1000

  0
ENDSEC
  0
SECTION
  2
OBJECTS
  0
DICTIONARY
  5
C
330
0
100
AcDbDictionary
281
     1
  3
ACAD_GROUP
350
D
  3
ACAD_LAYOUT
350
1A
  3
ACAD_MLINESTYLE
350
17
  3
ACAD_PLOTSETTINGS
350
19
  3
ACAD_PLOTSTYLENAME
350
E
  3
ACAD_SCALELIST
350
47
  3
APPDATA
350
133
  3
DWGPROPS
350
164
  0
DICTIONARY
  5
162
330
1F
100
AcDbDictionary
280
     1
281
     1
  3
DIM_BOUNDING_BOXES_V1
360
163
  0
DICTIONARY
  5
D
102
{ACAD_REACTORS
330
C
102
}
330
C
100
AcDbDictionary
281
     1
  0
DICTIONARY
  5
1A
102
{ACAD_REACTORS
330
C
102
}
330
C
100
AcDbDictionary
281
     1
  3
Layout1
350
1E
  3
Layout2
350
26
  3
Model
350
22
  0
DICTIONARY
  5
17
102
{ACAD_REACTORS
330
C
102
}
330
C
100
AcDbDictionary
281
     1
  3
Standard
350
18
  0
DICTIONARY
  5
19
102
{ACAD_REACTORS
330
C
102
}
330
C
100
AcDbDictionary
281
     1
  0
ACDBDICTIONARYWDFLT
  5
E
102
{ACAD_REACTORS
330
C
102
}
330
C
100
AcDbDictionary
281
     1
  3
Normal
350
F
100
AcDbDictionaryWithDefault
340
F
  0
DICTIONARY
  5
47
102
{ACAD_REACTORS
330
C
102
}
330
C
100
AcDbDictionary
281
     1
  3
A0
350
48
  3
A1
350
49
  3
A2
350
4A
  3
A3
350
4B
  3
A4
350
4C
  3
A5
350
4D
  3
A6
350
4E
  3
A7
350
4F
  3
A8
350
50
  3
A9
350
51
  3
B0
350
52
  3
B1
350
53
  3
B2
350
54
  3
B3
350
55
  3
B4
350
56
  3
B5
350
57
  3
B6
350
58
  3
B7
350
59
  3
B8
350
5A
  3
B9
350
5B
  3
C0
350
5C
  3
C1
350
5D
  3
C2
350
5E
  3
C3
350
5F
  3
C4
350
60
  3
C5
350
61
  3
C6
350
62
  3
C7
350
63
  3
C8
350
64
  3
C9
350
65
  3
D0
350
66
  3
D1
350
67
  3
D2
350
68
  0
DICTIONARY
  5
133
102
{ACAD_REACTORS
330
C
102
}
330
C
100
AcDbDictionary
281
     1
  0
XRECORD
  5
164
102
{ACAD_REACTORS
330
C
102
}
330
C
100
AcDbXrecord
280
     1
  1
DWGPROPS COOKIE
  2

  3

  4

  6

  7

  8
12016016
  9

300
=
301
=
302
=
303
=
304
=
305
=
306
=
307
=
308
=
309
=
 40
0.0
 41
2458250.182152315
 42
2459702.353499687
  1

 90
        0
  0
DICTIONARY
  5
163
102
{ACAD_REACTORS
330
162
102
}
330
162
100
AcDbDictionary
281
     1
  0
LAYOUT
  5
1E
102
{ACAD_REACTORS
330
1A
102
}
330
1A
100
AcDbPlotSettings
  1

  2
none_device
  4

  6

 40
0.0
 41
0.0
 42
0.0
 43
0.0
 44
0.0
 45
0.0
 46
0.0
 47
0.0
 48
0.0
 49
0.0
140
0.0
141
0.0
142
1.0
143
1.0
 70
   688
 72
     1
 73
     0
 74
     5
  7

 75
    16
147
1.0
148
0.0
149
0.0
100
AcDbLayout
  1
Layout1
 70
     1
 71
     1
 10
0.0
 20
0.0
 11
420.0
 21
297.0
 12
0.0
 22
0.0
 32
0.0
 14
1.000000000000000E+20
 24
1.000000000000000E+20
 34
1.000000000000000E+20
 15
-1.000000000000000E+20
 25
-1.000000000000000E+20
 35
-1.000000000000000E+20
146
0.0
 13
0.0
 23
0.0
 33
0.0
 16
1.0
 26
0.0
 36
0.0
 17
0.0
 27
1.0
 37
0.0
 76
     0
330
1B
  0
LAYOUT
  5
26
102
{ACAD_REACTORS
330
1A
102
}
330
1A
100
AcDbPlotSettings
  1

  2
none_device
  4

  6

 40
0.0
 41
0.0
 42
0.0
 43
0.0
 44
0.0
 45
0.0
 46
0.0
 47
0.0
 48
0.0
 49
0.0
140
0.0
141
0.0
142
1.0
143
1.0
 70
   688
 72
     1
 73
     0
 74
     5
  7

 75
    16
147
1.0
148
0.0
149
0.0
100
AcDbLayout
  1
Layout2
 70
     1
 71
     2
 10
0.0
 20
0.0
 11
0.0
 21
0.0
 12
0.0
 22
0.0
 32
0.0
 14
0.0
 24
0.0
 34
0.0
 15
0.0
 25
0.0
 35
0.0
146
0.0
 13
0.0
 23
0.0
 33
0.0
 16
1.0
 26
0.0
 36
0.0
 17
0.0
 27
1.0
 37
0.0
 76
     0
330
23
  0
LAYOUT
  5
22
102
{ACAD_REACTORS
330
1A
102
}
330
1A
100
AcDbPlotSettings
  1

  2
none_device
  4
ANSI_A_(11.00_x_8.50_Inches)
  6

 40
6.35
 41
19.05
 42
6.35000508
 43
19.05000254
 44
279.4
 45
215.9
 46
144.9310462957418
 47
113.90477019248
 48
0.0
 49
0.0
140
0.0
141
0.0
142
0.082463860320991
143
1.0
 70
  1696
 72
     0
 73
     0
 74
     0
  7

 75
     0
147
0.0235690232323232
148
0.0
149
0.0
100
AcDbLayout
  1
Model
 70
     1
 71
     0
 10
0.0
 20
0.0
 11
420.0
 21
297.0
 12
0.0
 22
0.0
 32
0.0
 14
-76.13558875405104
 24
-49.97180738881174
 34
0.0
 15
55.28238414090222
 25
26.70336952549911
 35
0.0
146
0.0
 13
0.0
 23
0.0
 33
0.0
 16
1.0
 26
0.0
 36
0.0
 17
0.0
 27
1.0
 37
0.0
 76
     0
330
1F
331
29
  0
MLINESTYLE
  5
18
102
{ACAD_REACTORS
330
17
102
}
330
17
100
AcDbMlineStyle
  2
Standard
 70
     0
  3

 62
   256
 51
90.0
 52
90.0
 71
     2
 49
0.5
 62
   256
  6
BYLAYER
 49
-0.5
 62
   256
  6
BYLAYER
  0
ACDBPLACEHOLDER
  5
F
102
{ACAD_REACTORS
330
E
102
}
330
E
  0
SCALE
  5
48
102
{ACAD_REACTORS
330
47
102
}
330
47
100
AcDbScale
 70
     0
300
1:1
140
1.0
141
1.0
290
     1
  0
SCALE
  5
49
102
{ACAD_REACTORS
330
47
102
}
330
47
100
AcDbScale
 70
     0
300
1:2
140
1.0
141
2.0
290
     0
  0
SCALE
  5
4A
102
{ACAD_REACTORS
330
47
102
}
330
47
100
AcDbScale
 70
     0
300
1:4
140
1.0
141
4.0
290
     0
  0
SCALE
  5
4B
102
{ACAD_REACTORS
330
47
102
}
330
47
100
AcDbScale
 70
     0
300
1:5
140
1.0
141
5.0
290
     0
  0
SCALE
  5
4C
102
{ACAD_REACTORS
330
47
102
}
330
47
100
AcDbScale
 70
     0
300
1:8
140
1.0
141
8.0
290
     0
  0
SCALE
  5
4D
102
{ACAD_REACTORS
330
47
102
}
330
47
100
AcDbScale
 70
     0
300
1:10
140
1.0
141
10.0
290
     0
  0
SCALE
  5
4E
102
{ACAD_REACTORS
330
47
102
}
330
47
100
AcDbScale
 70
     0
300
1:16
140
1.0
141
16.0
290
     0
  0
SCALE
  5
4F
102
{ACAD_REACTORS
330
47
102
}
330
47
100
AcDbScale
 70
     0
300
1:20
140
1.0
141
20.0
290
     0
  0
SCALE
  5
50
102
{ACAD_REACTORS
330
47
102
}
330
47
100
AcDbScale
 70
     0
300
1:30
140
1.0
141
30.0
290
     0
  0
SCALE
  5
51
102
{ACAD_REACTORS
330
47
102
}
330
47
100
AcDbScale
 70
     0
300
1:40
140
1.0
141
40.0
290
     0
  0
SCALE
  5
52
102
{ACAD_REACTORS
330
47
102
}
330
47
100
AcDbScale
 70
     0
300
1:50
140
1.0
141
50.0
290
     0
  0
SCALE
  5
53
102
{ACAD_REACTORS
330
47
102
}
330
47
100
AcDbScale
 70
     0
300
1:100
140
1.0
141
100.0
290
     0
  0
SCALE
  5
54
102
{ACAD_REACTORS
330
47
102
}
330
47
100
AcDbScale
 70
     0
300
2:1
140
2.0
141
1.0
290
     0
  0
SCALE
  5
55
102
{ACAD_REACTORS
330
47
102
}
330
47
100
AcDbScale
 70
     0
300
4:1
140
4.0
141
1.0
290
     0
  0
SCALE
  5
56
102
{ACAD_REACTORS
330
47
102
}
330
47
100
AcDbScale
 70
     0
300
8:1
140
8.0
141
1.0
290
     0
  0
SCALE
  5
57
102
{ACAD_REACTORS
330
47
102
}
330
47
100
AcDbScale
 70
     0
300
10:1
140
10.0
141
1.0
290
     0
  0
SCALE
  5
58
102
{ACAD_REACTORS
330
47
102
}
330
47
100
AcDbScale
 70
     0
300
100:1
140
100.0
141
1.0
290
     0
  0
SCALE
  5
59
102
{ACAD_REACTORS
330
47
102
}
330
47
100
AcDbScale
 70
     0
300
1/128" = 1'-0"
140
0.0078125
141
12.0
290
     0
  0
SCALE
  5
5A
102
{ACAD_REACTORS
330
47
102
}
330
47
100
AcDbScale
 70
     0
300
1/64" = 1'-0"
140
0.015625
141
12.0
290
     0
  0
SCALE
  5
5B
102
{ACAD_REACTORS
330
47
102
}
330
47
100
AcDbScale
 70
     0
300
1/32" = 1'-0"
140
0.03125
141
12.0
290
     0
  0
SCALE
  5
5C
102
{ACAD_REACTORS
330
47
102
}
330
47
100
AcDbScale
 70
     0
300
1/16" = 1'-0"
140
0.0625
141
12.0
290
     0
  0
SCALE
  5
5D
102
{ACAD_REACTORS
330
47
102
}
330
47
100
AcDbScale
 70
     0
300
3/32" = 1'-0"
140
0.09375
141
12.0
290
     0
  0
SCALE
  5
5E
102
{ACAD_REACTORS
330
47
102
}
330
47
100
AcDbScale
 70
     0
300
1/8" = 1'-0"
140
0.125
141
12.0
290
     0
  0
SCALE
  5
5F
102
{ACAD_REACTORS
330
47
102
}
330
47
100
AcDbScale
 70
     0
300
3/16" = 1'-0"
140
0.1875
141
12.0
290
     0
  0
SCALE
  5
60
102
{ACAD_REACTORS
330
47
102
}
330
47
100
AcDbScale
 70
     0
300
1/4" = 1'-0"
140
0.25
141
12.0
290
     0
  0
SCALE
  5
61
102
{ACAD_REACTORS
330
47
102
}
330
47
100
AcDbScale
 70
     0
300
3/8" = 1'-0"
140
0.375
141
12.0
290
     0
  0
SCALE
  5
62
102
{ACAD_REACTORS
330
47
102
}
330
47
100
AcDbScale
 70
     0
300
1/2" = 1'-0"
140
0.5
141
12.0
290
     0
  0
SCALE
  5
63
102
{ACAD_REACTORS
330
47
102
}
330
47
100
AcDbScale
 70
     0
300
3/4" = 1'-0"
140
0.75
141
12.0
290
     0
  0
SCALE
  5
64
102
{ACAD_REACTORS
330
47
102
}
330
47
100
AcDbScale
 70
     0
300
1" = 1'-0"
140
1.0
141
12.0
290
     0
  0
SCALE
  5
65
102
{ACAD_REACTORS
330
47
102
}
330
47
100
AcDbScale
 70
     0
300
1-1/2" = 1'-0"
140
1.5
141
12.0
290
     0
  0
SCALE
  5
66
102
{ACAD_REACTORS
330
47
102
}
330
47
100
AcDbScale
 70
     0
300
3" = 1'-0"
140
3.0
141
12.0
290
     0
  0
SCALE
  5
67
102
{ACAD_REACTORS
330
47
102
}
330
47
100
AcDbScale
 70
     0
300
6" = 1'-0"
140
6.0
141
12.0
290
     0
  0
SCALE
  5
68
102
{ACAD_REACTORS
330
47
102
}
330
47
100
AcDbScale
 70
     0
300
1'-0" = 1'-0"
140
12.0
141
12.0
290
     0
  0
ENDSEC
  0
EOF
