  0
SECTION
  2
HEADER
  9
$ACADVER
  1
AC1015
  9
$ACADMAINTVER
 70
     6
  9
$DWGCODEPAGE
  3
ANSI_949
  9
$INSBASE
 10
0.0
 20
0.0
 30
0.0
  9
$EXTMIN
 10
-63.59263956161989
 20
-49.97180738881174
 30
0.0
  9
$EXTMAX
 10
68.70033333333338
 20
28.70336952549911
 30
0.0
  9
$LIMMIN
 10
0.0
 20
0.0
  9
$LIMMAX
 10
420.0
 20
297.0
  9
$ORTHOMODE
 70
     1
  9
$REGENMODE
 70
     1
  9
$FILLMODE
 70
     1
  9
$QTEXTMODE
 70
     0
  9
$MIRRTEXT
 70
     1
  9
$LTSCALE
 40
1.0
  9
$ATTMODE
 70
     1
  9
$TEXTSIZE
 40
3.5
  9
$TRACEWID
 40
1.0
  9
$TEXTSTYLE
  7
Standard
  9
$CLAYER
  8
0
  9
$CELTYPE
  6
ByLayer
  9
$CECOLOR
 62
   256
  9
$CELTSCALE
 40
1.0
  9
$DISPSILH
 70
     0
  9
$DIMSCALE
 40
1.0
  9
$DIMASZ
 40
3.302
  9
$DIMEXO
 40
1.0
  9
$DIMDLI
 40
3.75
  9
$DIMRND
 40
0.0
  9
$DIMDLE
 40
0.0
  9
$DIMEXE
 40
1.0
  9
$DIMTP
 40
0.0
  9
$DIMTM
 40
0.0
  9
$DIMTXT
 40
3.5
  9
$DIMCEN
 40
2.5
  9
$DIMTSZ
 40
0.0
  9
$DIMTOL
 70
     0
  9
$DIMLIM
 70
     0
  9
$DIMTIH
 70
     1
  9
$DIMTOH
 70
     1
  9
$DIMSE1
 70
     0
  9
$DIMSE2
 70
     0
  9
$DIMTAD
 70
     1
  9
$DIMZIN
 70
     0
  9
$DIMBLK
  1

  9
$DIMASO
 70
     1
  9
$DIMSHO
 70
     1
  9
$DIMPOST
  1

  9
$DIMAPOST
  1

  9
$DIMALT
 70
     0
  9
$DIMALTD
 70
     3
  9
$DIMALTF
 40
0.0393700787401575
  9
$DIMLFAC
 40
1.0
  9
$DIMTOFL
 70
     1
  9
$DIMTVP
 40
0.0
  9
$DIMTIX
 70
     0
  9
$DIMSOXD
 70
     0
  9
$DIMSAH
 70
     0
  9
$DIMBLK1
  1

  9
$DIMBLK2
  1

  9
$DIMSTYLE
  2
ISO-25
  9
$DIMCLRD
 70
     0
  9
$DIMCLRE
 70
     0
  9
$DIMCLRT
 70
     0
  9
$DIMTFAC
 40
1.0
  9
$DIMGAP
 40
1.524
  9
$DIMJUST
 70
     0
  9
$DIMSD1
 70
     0
  9
$DIMSD2
 70
     0
  9
$DIMTOLJ
 70
     0
  9
$DIMTZIN
 70
     0
  9
$DIMALTZ
 70
     0
  9
$DIMALTTZ
 70
     0
  9
$DIMUPT
 70
     0
  9
$DIMDEC
 70
     2
  9
$DIMTDEC
 70
     2
  9
$DIMALTU
 70
     2
  9
$DIMALTTD
 70
     3
  9
$DIMTXSTY
  7
Standard
  9
$DIMAUNIT
 70
     0
  9
$DIMADEC
 70
     2
  9
$DIMALTRND
 40
0.0
  9
$DIMAZIN
 70
     0
  9
$DIMDSEP
 70
    44
  9
$DIMATFIT
 70
     3
  9
$DIMFRAC
 70
     0
  9
$DIMLDRBLK
  1

  9
$DIMLUNIT
 70
     2
  9
$DIMLWD
 70
    -2
  9
$DIMLWE
 70
    -2
  9
$DIMTMOVE
 70
     0
  9
$LUNITS
 70
     2
  9
$LUPREC
 70
     2
  9
$SKETCHINC
 40
1.0
  9
$FILLETRAD
 40
10.0
  9
$AUNITS
 70
     0
  9
$AUPREC
 70
     2
  9
$MENU
  1
.
  9
$ELEVATION
 40
0.0
  9
$PELEVATION
 40
0.0
  9
$THICKNESS
 40
0.0
  9
$LIMCHECK
 70
     0
  9
$CHAMFERA
 40
0.0
  9
$CHAMFERB
 40
0.0
  9
$CHAMFERC
 40
0.0
  9
$CHAMFERD
 40
0.0
  9
$SKPOLY
 70
     0
  9
$TDCREATE
 40
2458250.55789169
  9
$TDUCREATE
 40
2458250.18289169
  9
$TDUPDATE
 40
2459702.734861597
  9
$TDUUPDATE
 40
2459702.359861597
  9
$TDINDWG
 40
0.0031456366
  9
$TDUSRTIMER
 40
0.0015443171
  9
$USRTIMER
 70
     1
  9
$ANGBASE
 50
0.0
  9
$ANGDIR
 70
     0
  9
$PDMODE
 70
     0
  9
$PDSIZE
 40
-1.0
  9
$PLINEWID
 40
0.0
  9
$SPLFRAME
 70
     0
  9
$SPLINETYPE
 70
     6
  9
$SPLINESEGS
 70
     8
  9
$HANDSEED
  5
179
  9
$SURFTAB1
 70
     6
  9
$SURFTAB2
 70
     6
  9
$SURFTYPE
 70
     6
  9
$SURFU
 70
     6
  9
$SURFV
 70
     6
  9
$UCSBASE
  2

  9
$UCSNAME
  2

  9
$UCSORG
 10
0.0
 20
0.0
 30
0.0
  9
$UCSXDIR
 10
1.0
 20
0.0
 30
0.0
  9
$UCSYDIR
 10
0.0
 20
1.0
 30
0.0
  9
$UCSORTHOREF
  2

  9
$UCSORTHOVIEW
 70
     0
  9
$UCSORGTOP
 10
0.0
 20
0.0
 30
0.0
  9
$UCSORGBOTTOM
 10
0.0
 20
0.0
 30
0.0
  9
$UCSORGLEFT
 10
0.0
 20
0.0
 30
0.0
  9
$UCSORGRIGHT
 10
0.0
 20
0.0
 30
0.0
  9
$UCSORGFRONT
 10
0.0
 20
0.0
 30
0.0
  9
$UCSORGBACK
 10
0.0
 20
0.0
 30
0.0
  9
$PUCSBASE
  2

  9
$PUCSNAME
  2

  9
$PUCSORG
 10
0.0
 20
0.0
 30
0.0
  9
$PUCSXDIR
 10
1.0
 20
0.0
 30
0.0
  9
$PUCSYDIR
 10
0.0
 20
1.0
 30
0.0
  9
$PUCSORTHOREF
  2

  9
$PUCSORTHOVIEW
 70
     0
  9
$PUCSORGTOP
 10
0.0
 20
0.0
 30
0.0
  9
$PUCSORGBOTTOM
 10
0.0
 20
0.0
 30
0.0
  9
$PUCSORGLEFT
 10
0.0
 20
0.0
 30
0.0
  9
$PUCSORGRIGHT
 10
0.0
 20
0.0
 30
0.0
  9
$PUCSORGFRONT
 10
0.0
 20
0.0
 30
0.0
  9
$PUCSORGBACK
 10
0.0
 20
0.0
 30
0.0
  9
$USERI1
 70
     0
  9
$USERI2
 70
     0
  9
$USERI3
 70
     0
  9
$USERI4
 70
     0
  9
$USERI5
 70
     0
  9
$USERR1
 40
0.0
  9
$USERR2
 40
0.0
  9
$USERR3
 40
0.0
  9
$USERR4
 40
0.0
  9
$USERR5
 40
0.0
  9
$WORLDVIEW
 70
     1
  9
$SHADEDGE
 70
     3
  9
$SHADEDIF
 70
    70
  9
$TILEMODE
 70
     1
  9
$MAXACTVP
 70
    64
  9
$PINSBASE
 10
0.0
 20
0.0
 30
0.0
  9
$PLIMCHECK
 70
     0
  9
$PEXTMIN
 10
1.000000000000000E+20
 20
1.000000000000000E+20
 30
1.000000000000000E+20
  9
$PEXTMAX
 10
-1.000000000000000E+20
 20
-1.000000000000000E+20
 30
-1.000000000000000E+20
  9
$PLIMMIN
 10
0.0
 20
0.0
  9
$PLIMMAX
 10
0.0
 20
0.0
  9
$UNITMODE
 70
     0
  9
$VISRETAIN
 70
     1
  9
$PLINEGEN
 70
     0
  9
$PSLTSCALE
 70
     1
  9
$TREEDEPTH
 70
  3020
  9
$CMLSTYLE
  2
Standard
  9
$CMLJUST
 70
     0
  9
$CMLSCALE
 40
20.0
  9
$PROXYGRAPHICS
 70
     1
  9
$MEASUREMENT
 70
     1
  9
$CELWEIGHT
370
    -1
  9
$ENDCAPS
280
     0
  9
$JOINSTYLE
280
     0
  9
$LWDISPLAY
290
     1
  9
$INSUNITS
 70
     4
  9
$HYPERLINKBASE
  1

  9
$STYLESHEET
  1

  9
$XEDIT
290
     1
  9
$CEPSNTYPE
380
     0
  9
$PSTYLEMODE
290
     1
  9
$FINGERPRINTGUID
  2
{2ED5D224-E09A-419F-9D1A-E2AE784B25BF}
  9
$VERSIONGUID
  2
{FAEB1C32-E019-11D5-929B-00C0DF256EC4}
  9
$EXTNAMES
290
     1
  9
$PSVPSCALE
 40
0.0
  9
$OLESTARTUP
290
     0
  0
ENDSEC
  0
SECTION
  2
CLASSES
  0
CLASS
  1
ACDBDICTIONARYWDFLT
  2
AcDbDictionaryWithDefault
  3
ObjectDBX Classes
 90
        0
280
     0
281
     0
  0
CLASS
  1
VISUALSTYLE
  2
AcDbVisualStyle
  3
ObjectDBX Classes
 90
     4095
280
     0
281
     0
  0
CLASS
  1
MATERIAL
  2
AcDbMaterial
  3
ObjectDBX Classes
 90
     1153
280
     0
281
     0
  0
CLASS
  1
SCALE
  2
AcDbScale
  3
ObjectDBX Classes
 90
     1153
280
     0
281
     0
  0
CLASS
  1
TABLESTYLE
  2
AcDbTableStyle
  3
ObjectDBX Classes
 90
     4095
280
     0
281
     0
  0
CLASS
  1
MLEADERSTYLE
  2
AcDbMLeaderStyle
  3
ACDB_MLEADERSTYLE_CLASS
 90
     4095
280
     0
281
     0
  0
CLASS
  1
SUN
  2
AcDbSun
  3
SCENEOE
 90
     1153
280
     0
281
     0
  0
CLASS
  1
ACDBPLACEHOLDER
  2
AcDbPlaceHolder
  3
ObjectDBX Classes
 90
        0
280
     0
281
     0
  0
CLASS
  1
LAYOUT
  2
AcDbLayout
  3
ObjectDBX Classes
 90
        0
280
     0
281
     0
  0
CLASS
  1
SORTENTSTABLE
  2
AcDbSortentsTable
  3
ObjectDBX Classes
 90
        0
280
     0
281
     0
  0
CLASS
  1
DIMASSOC
  2
AcDbDimAssoc
  3
"AcDbDimAssoc|Product Desc:     AcDim ARX App For Dimension|Company:          Autodesk, Inc.|WEB Address:      www.autodesk.com"
 90
        0
280
     0
281
     0
  0
CLASS
  1
BREAKDATA
  2
AcDbBreakData
  3
ObjectDBX Classes
 90
     1024
280
     0
281
     0
  0
ENDSEC
  0
SECTION
  2
TABLES
  0
TABLE
  2
VPORT
  5
8
330
0
100
AcDbSymbolTable
 70
     1
  0
VPORT
  5
29
330
8
100
AcDbSymbolTableRecord
100
AcDbViewportTableRecord
  2
*Active
 70
     0
 10
0.0
 20
0.0
 11
1.0
 21
1.0
 12
-1.244620634518604
 22
-3.036084717396067
 13
0.0
 23
0.0
 14
10.0
 24
10.0
 15
10.0
 25
10.0
 16
0.0
 26
0.0
 36
1.0
 17
0.0
 27
0.0
 37
0.0
 40
24.66231984253204
 41
1.531481481481481
 42
50.0
 43
0.0
 44
0.0
 50
0.0
 51
0.0
 71
    16
 72
  2000
 73
     1
 74
     3
 75
     0
 76
     0
 77
     0
 78
     0
281
     0
 65
     1
110
0.0
120
0.0
130
0.0
111
1.0
121
0.0
131
0.0
112
0.0
122
1.0
132
0.0
 79
     0
146
0.0
  0
ENDTAB
  0
TABLE
  2
LTYPE
  5
5
330
0
100
AcDbSymbolTable
 70
     6
  0
LTYPE
  5
14
330
5
100
AcDbSymbolTableRecord
100
AcDbLinetypeTableRecord
  2
ByBlock
 70
     0
  3

 72
    65
 73
     0
 40
0.0
  0
LTYPE
  5
15
330
5
100
AcDbSymbolTableRecord
100
AcDbLinetypeTableRecord
  2
ByLayer
 70
     0
  3

 72
    65
 73
     0
 40
0.0
  0
LTYPE
  5
16
330
5
100
AcDbSymbolTableRecord
100
AcDbLinetypeTableRecord
  2
Continuous
 70
     0
  3
Solid line
 72
    65
 73
     0
 40
0.0
  0
LTYPE
  5
6E
330
5
100
AcDbSymbolTableRecord
100
AcDbLinetypeTableRecord
  2
HIDDEN
 70
     0
  3
Hidden __ __ __ __ __ __ __ __ __ __ __ __ __ __
 72
    65
 73
     2
 40
1.905
 49
1.27
 74
     0
 49
-0.635
 74
     0
  0
LTYPE
  5
6F
330
5
100
AcDbSymbolTableRecord
100
AcDbLinetypeTableRecord
  2
PHANTOM
 70
     0
  3
Phantom ______  __  __  ______  __  __  ______
 72
    65
 73
     6
 40
12.7
 49
6.35
 74
     0
 49
-1.27
 74
     0
 49
1.27
 74
     0
 49
-1.27
 74
     0
 49
1.27
 74
     0
 49
-1.27
 74
     0
  0
LTYPE
  5
70
330
5
100
AcDbSymbolTableRecord
100
AcDbLinetypeTableRecord
  2
CENTER
 70
     0
  3
Center ____ _ ____ _ ____ _ ____ _ ____ _ ____
 72
    65
 73
     4
 40
10.16
 49
6.35
 74
     0
 49
-1.27
 74
     0
 49
1.27
 74
     0
 49
-1.27
 74
     0
  0
LTYPE
  5
71
330
5
100
AcDbSymbolTableRecord
100
AcDbLinetypeTableRecord
  2
CENTERX2
 70
     0
  3
Center (2x) ________  __  ________  __  _____
 72
    65
 73
     4
 40
20.32
 49
12.7
 74
     0
 49
-2.54
 74
     0
 49
2.54
 74
     0
 49
-2.54
 74
     0
  0
LTYPE
  5
72
330
5
100
AcDbSymbolTableRecord
100
AcDbLinetypeTableRecord
  2
DOT2
 70
     0
  3
Dot (.5x) ........................................
 72
    65
 73
     2
 40
0.635
 49
0.0
 74
     0
 49
-0.635
 74
     0
  0
ENDTAB
  0
TABLE
  2
LAYER
  5
2
330
0
100
AcDbSymbolTable
 70
    17
  0
LAYER
  5
10
330
2
100
AcDbSymbolTableRecord
100
AcDbLayerTableRecord
  2
0
 70
     0
 62
     7
  6
Continuous
370
    -3
390
F
  0
LAYER
  5
73
330
2
100
AcDbSymbolTableRecord
100
AcDbLayerTableRecord
  2
FORMAT
 70
     0
 62
     2
  6
Continuous
370
    -3
390
F
  0
LAYER
  5
74
330
2
100
AcDbSymbolTableRecord
100
AcDbLayerTableRecord
  2
외형선
 70
     0
 62
   100
  6
Continuous
370
    35
390
F
  0
LAYER
  5
75
330
2
100
AcDbSymbolTableRecord
100
AcDbLayerTableRecord
  2
숨은선
 70
     0
 62
     2
  6
HIDDEN
370
    25
390
F
  0
LAYER
  5
76
330
2
100
AcDbSymbolTableRecord
100
AcDbLayerTableRecord
  2
중심선
 70
     0
 62
     1
  6
CENTERX2
370
    -3
390
F
  0
LAYER
  5
77
330
2
100
AcDbSymbolTableRecord
100
AcDbLayerTableRecord
  2
파단선
 70
     0
 62
     4
  6
Continuous
370
    -3
390
F
  0
LAYER
  5
78
330
2
100
AcDbSymbolTableRecord
100
AcDbLayerTableRecord
  2
해칭선
 70
     0
 62
   100
  6
Continuous
370
    -3
390
F
  0
LAYER
  5
79
330
2
100
AcDbSymbolTableRecord
100
AcDbLayerTableRecord
  2
가는실선
 70
     0
 62
     4
  6
Continuous
370
    -3
390
F
  0
LAYER
  5
7A
330
2
100
AcDbSymbolTableRecord
100
AcDbLayerTableRecord
  2
치수_보조선
 70
     0
 62
     4
  6
Continuous
370
    -3
390
F
  0
LAYER
  5
7B
330
2
100
AcDbSymbolTableRecord
100
AcDbLayerTableRecord
  2
치수문자_일반주서
 70
     0
 62
     7
  6
Continuous
370
    25
390
F
  0
LAYER
  5
7C
330
2
100
AcDbSymbolTableRecord
100
AcDbLayerTableRecord
  2
개별주서
 70
     0
 62
   100
  6
Continuous
370
    35
390
F
  0
LAYER
  5
7D
330
2
100
AcDbSymbolTableRecord
100
AcDbLayerTableRecord
  2
중간선
 70
     0
 62
     2
  6
Continuous
370
    25
390
F
  0
LAYER
  5
7E
330
2
100
AcDbSymbolTableRecord
100
AcDbLayerTableRecord
  2
윤곽선
 70
     0
 62
     3
  6
Continuous
370
    50
390
F
  0
LAYER
  5
7F
330
2
100
AcDbSymbolTableRecord
100
AcDbLayerTableRecord
  2
중심마크
 70
     0
 62
   100
  6
Continuous
370
    35
390
F
  0
LAYER
  5
80
330
2
100
AcDbSymbolTableRecord
100
AcDbLayerTableRecord
  2
가상선
 70
     0
 62
     4
  6
PHANTOM
370
    -3
390
F
  0
LAYER
  5
81
330
2
100
AcDbSymbolTableRecord
100
AcDbLayerTableRecord
  2
특수지정선
 70
     0
 62
     5
  6
CENTERX2
370
    70
390
F
  0
LAYER
  5
12A
330
2
100
AcDbSymbolTableRecord
100
AcDbLayerTableRecord
  2
Defpoints
 70
     0
 62
     7
  6
Continuous
290
     0
370
    -3
390
F
  0
ENDTAB
  0
TABLE
  2
STYLE
  5
3
330
0
100
AcDbSymbolTable
 70
     2
  0
STYLE
  5
11
330
3
100
AcDbSymbolTableRecord
100
AcDbTextStyleTableRecord
  2
Standard
 70
     0
 40
0.0
 41
1.0
 50
0.0
 71
     0
 42
3.5
  3
txt
  4

  0
STYLE
  5
97
330
3
100
AcDbSymbolTableRecord
100
AcDbTextStyleTableRecord
  2
SLDTEXTSTYLE0
 70
     0
 40
0.0
 41
0.75
 50
0.0
 71
     0
 42
3.5
  3
TXT
  4

  0
ENDTAB
  0
TABLE
  2
VIEW
  5
6
330
0
100
AcDbSymbolTable
 70
     0
  0
ENDTAB
  0
TABLE
  2
UCS
  5
7
330
0
100
AcDbSymbolTable
 70
     0
  0
ENDTAB
  0
TABLE
  2
APPID
  5
9
330
0
100
AcDbSymbolTable
 70
     3
  0
APPID
  5
12
330
9
100
AcDbSymbolTableRecord
100
AcDbRegAppTableRecord
  2
ACAD
 70
     0
  0
APPID
  5
12B
330
9
100
AcDbSymbolTableRecord
100
AcDbRegAppTableRecord
  2
PE_URL
 70
     0
  0
APPID
  5
176
330
9
100
AcDbSymbolTableRecord
100
AcDbRegAppTableRecord
  2
ENABLE_CUSTOM_SPLIT
 70
     0
  0
ENDTAB
  0
TABLE
  2
DIMSTYLE
  5
A
330
0
100
AcDbSymbolTable
 70
     4
100
AcDbDimStyleTable
  0
DIMSTYLE
105
27
330
A
100
AcDbSymbolTableRecord
100
AcDbDimStyleTableRecord
  2
ISO-25
 70
     0
 41
2.5
 42
0.625
 43
3.75
 44
1.25
 73
     0
 74
     0
 77
     1
 78
     8
140
2.5
141
2.5
143
0.03937007874016
147
0.625
171
     3
172
     1
178
     0
271
     2
272
     2
274
     3
278
    44
283
     0
284
     8
340
11
  0
DIMSTYLE
105
D1
102
{ACAD_REACTORS
330
D0
102
}
330
A
100
AcDbSymbolTableRecord
100
AcDbDimStyleTableRecord
  2
SLDDIMSTYLE0
 70
     0
 41
3.302
 44
0.0
 45
0.000000001
 73
     0
 74
     0
 77
     1
 78
    12
 79
     3
140
3.5
147
0.875
172
     1
173
     1
178
     0
271
     1
272
     1
276
     2
284
    12
289
     0
340
97
  0
DIMSTYLE
105
DF
102
{ACAD_REACTORS
330
DE
330
F7
330
165
102
}
330
A
100
AcDbSymbolTableRecord
100
AcDbDimStyleTableRecord
  2
SLDDIMSTYLE1
 70
     0
 41
3.302
 44
0.0
 45
0.000000001
 73
     0
 74
     0
 77
     1
 78
    12
 79
     3
140
3.5
147
0.875
173
     1
178
     0
271
     2
272
     2
276
     2
284
    12
340
97
  0
DIMSTYLE
105
EA
102
{ACAD_REACTORS
330
E9
102
}
330
A
100
AcDbSymbolTableRecord
100
AcDbDimStyleTableRecord
  2
SLDDIMSTYLE2
 70
     0
 41
3.302
 44
0.0
 45
0.000000001
 73
     0
 74
     0
 77
     1
 78
    12
 79
     3
140
3.5
147
0.875
172
     1
173
     1
178
     0
271
     2
272
     2
276
     2
284
    12
289
     0
340
97
  0
ENDTAB
  0
TABLE
  2
BLOCK_RECORD
  5
1
330
0
100
AcDbSymbolTable
 70
     8
  0
BLOCK_RECORD
  5
1F
102
{ACAD_XDICTIONARY
360
162
102
}
330
1
100
AcDbSymbolTableRecord
100
AcDbBlockTableRecord
  2
*Model_Space
340
22
  0
BLOCK_RECORD
  5
1B
330
1
100
AcDbSymbolTableRecord
100
AcDbBlockTableRecord
  2
*Paper_Space
340
1E
  0
BLOCK_RECORD
  5
23
330
1
100
AcDbSymbolTableRecord
100
AcDbBlockTableRecord
  2
*Paper_Space0
340
26
  0
BLOCK_RECORD
  5
82
330
1
100
AcDbSymbolTableRecord
100
AcDbBlockTableRecord
  2
블럭10
340
0
102
{BLKREFS
331
C9
102
}
  0
BLOCK_RECORD
  5
D2
330
1
100
AcDbSymbolTableRecord
100
AcDbBlockTableRecord
  2
_D
340
0
  0
BLOCK_RECORD
  5
E0
330
1
100
AcDbSymbolTableRecord
100
AcDbBlockTableRecord
  2
_D_1
340
0
  0
BLOCK_RECORD
  5
EB
330
1
100
AcDbSymbolTableRecord
100
AcDbBlockTableRecord
  2
_D_2
340
0
  0
BLOCK_RECORD
  5
F8
330
1
100
AcDbSymbolTableRecord
100
AcDbBlockTableRecord
  2
_D_3
340
0
  0
BLOCK_RECORD
  5
101
330
1
100
AcDbSymbolTableRecord
100
AcDbBlockTableRecord
  2
SW_DOWELSYMBOL_0
340
0
102
{BLKREFS
331
107
102
}
  0
BLOCK_RECORD
  5
168
330
1
100
AcDbSymbolTableRecord
100
AcDbBlockTableRecord
  2
*D7
340
0
  0
ENDTAB
  0
ENDSEC
  0
SECTION
  2
BLOCKS
  0
BLOCK
  5
20
330
1F
100
AcDbEntity
  8
0
100
AcDbBlockBegin
  2
*Model_Space
 70
     0
 10
0.0
 20
0.0
 30
0.0
  3
*Model_Space
  1

  0
ENDBLK
  5
21
330
1F
100
AcDbEntity
  8
0
100
AcDbBlockEnd
  0
BLOCK
  5
1C
330
1B
100
AcDbEntity
 67
     1
  8
0
100
AcDbBlockBegin
  2
*Paper_Space
 70
     0
 10
0.0
 20
0.0
 30
0.0
  3
*Paper_Space
  1

  0
ENDBLK
  5
1D
330
1B
100
AcDbEntity
 67
     1
  8
0
100
AcDbBlockEnd
  0
BLOCK
  5
24
330
23
100
AcDbEntity
  8
0
100
AcDbBlockBegin
  2
*Paper_Space0
 70
     0
 10
0.0
 20
0.0
 30
0.0
  3
*Paper_Space0
  1

  0
ENDBLK
  5
25
330
23
100
AcDbEntity
  8
0
100
AcDbBlockEnd
  0
BLOCK
  5
83
330
82
100
AcDbEntity
  8
0
100
AcDbBlockBegin
  2
블럭10
 70
     2
 10
0.0
 20
0.0
 30
0.0
  3
블럭10
  1

  0
ELLIPSE
  5
85
330
82
100
AcDbEntity
  8
중심선
100
AcDbEllipse
 10
20.54032771741204
 20
12.0471743016438
 30
0.0
 11
6.600054785286829
 21
-1.261213355974178E-13
 31
0.0
210
0.0
220
0.0
230
1.0
 40
0.636358354079598
 41
0.9219305317359503
 42
6.513795318482858
  0
ELLIPSE
  5
86
330
82
100
AcDbEntity
  8
중심선
100
AcDbEllipse
 10
20.54032771746488
 20
12.04717430159265
 30
0.0
 11
3.960054785062283
 21
1.540847449632565E-10
 31
0.0
210
0.0
220
0.0
230
1.0
 40
0.3939339440162632
 41
1.131841032648279
 42
5.62031148352944
  0
LINE
  5
87
330
82
100
AcDbEntity
  8
중심선
100
AcDbLine
 10
2.268634060543552
 20
16.24717430164393
 30
0.0
 11
5.714909304380834
 21
16.24717430164393
 31
0.0
  0
LINE
  5
88
330
82
100
AcDbEntity
  8
중심선
100
AcDbLine
 10
5.245725140726316
 20
7.84717430164391
 30
0.0
 11
8.692000384563599
 21
7.84717430164391
 31
0.0
  0
LINE
  5
89
330
82
100
AcDbEntity
  8
중심선
100
AcDbLine
 10
15.74043728645272
 20
16.24717430164393
 30
0.0
 11
8.692000384563599
 21
7.84717430164391
 31
0.0
  0
LINE
  5
8A
330
82
100
AcDbEntity
  8
중심선
100
AcDbLine
 10
0.1404042013395286
 20
13.71084872107135
 30
0.0
 11
3.58671253028996
 21
13.71088815037384
 31
0.0
  0
LINE
  5
8B
330
82
100
AcDbEntity
  8
중심선
100
AcDbLine
 10
2.750260043222114
 20
10.84717430164391
 30
0.0
 11
6.196535287059397
 21
10.84717430164391
 31
0.0
  0
LINE
  5
8C
330
82
100
AcDbEntity
  8
중심선
100
AcDbLine
 10
12.29416204261559
 20
16.24717430164393
 30
0.0
 11
5.245725140726316
 21
7.84717430164391
 31
0.0
  0
LINE
  5
8D
330
82
100
AcDbEntity
  8
중심선
100
AcDbLine
 10
10.72767329541681
 20
16.24717430164393
 30
0.0
 11
6.196535287059397
 21
10.84717430164391
 31
0.0
  0
LINE
  5
8E
330
82
100
AcDbEntity
  8
중심선
100
AcDbLine
 10
7.28139805157953
 20
16.24717430164393
 30
0.0
 11
2.750260043222114
 21
10.84717430164391
 31
0.0
  0
LINE
  5
8F
330
82
100
AcDbEntity
  8
중심선
100
AcDbLine
 10
5.714909304380834
 20
16.24717430164393
 30
0.0
 11
3.58671253028996
 21
13.71088815037384
 31
0.0
  0
LINE
  5
90
330
82
100
AcDbEntity
  8
중심선
100
AcDbLine
 10
2.268634060543552
 20
16.24717430164393
 30
0.0
 11
0.1404042013395286
 21
13.71084872107135
 31
0.0
  0
LINE
  5
91
330
82
100
AcDbEntity
  8
중심선
100
AcDbLine
 10
7.28139805157953
 20
16.24717430164393
 30
0.0
 11
10.72767329541681
 21
16.24717430164393
 31
0.0
  0
LINE
  5
92
330
82
100
AcDbEntity
  8
중심선
100
AcDbLine
 10
12.29416204261559
 20
16.24717430164393
 30
0.0
 11
15.74043728645272
 21
16.24717430164393
 31
0.0
  0
LINE
  5
93
330
82
100
AcDbEntity
  8
중심선
100
AcDbLine
 10
19.22036997980202
 20
11.08717430171403
 30
0.0
 11
23.66174974927406
 21
11.08717430171406
 31
0.0
  0
LINE
  5
94
330
82
100
AcDbEntity
  8
중심선
100
AcDbLine
 10
19.22039502424796
 20
13.00717430171391
 30
0.0
 11
19.22036997980202
 21
11.08717430171403
 31
0.0
  0
LINE
  5
95
330
82
100
AcDbEntity
  8
중심선
100
AcDbLine
 10
19.22039502424796
 20
13.00717430171391
 30
0.0
 11
26.96566020931264
 21
13.00717430171391
 31
0.0
  0
LINE
  5
96
330
82
100
AcDbEntity
  8
중심선
100
AcDbLine
 10
22.22332737316547
 20
13.45928029700563
 30
0.0
 11
24.52862924686651
 21
15.39360700705356
 31
0.0
  0
ATTDEF
  5
98
330
82
100
AcDbEntity
  8
FORMAT
 62
     2
100
AcDbText
 10
-12.95993919485777
 20
2.075366912832191
 30
0.0
 40
4.233333333333333
  1
SEME36200E [ 4 FLUTE ]
 41
0.75
  7
SLDTEXTSTYLE0
 11
-12.95993919485777
 21
-0.0412997538344756
 31
0.0
100
AcDbAttributeDefinition
  3

  2
AUTOATTR0
 70
     0
 74
     1
  0
ENDBLK
  5
84
330
82
100
AcDbEntity
  8
0
100
AcDbBlockEnd
  0
BLOCK
  5
D3
330
D2
100
AcDbEntity
  8
0
100
AcDbBlockBegin
  2
_D
 70
     0
 10
0.0
 20
0.0
 30
0.0
  3
_D
  1

  0
LINE
  5
D5
330
D2
100
AcDbEntity
  8
치수문자_일반주서
 62
     0
370
    -2
100
AcDbLine
 10
55.08156961833213
 20
-9.996747494491617
 30
0.0
 11
68.15000000000006
 21
-9.996747494491569
 31
0.0
  0
LINE
  5
D6
330
D2
100
AcDbEntity
  8
치수문자_일반주서
 62
     0
370
    -2
100
AcDbLine
 10
55.21250000000005
 20
10.00000000000001
 30
0.0
 11
68.14999999999999
 21
10.00000000000006
 31
0.0
  0
LINE
  5
D7
330
D2
100
AcDbEntity
  8
치수문자_일반주서
 62
     0
370
    -2
100
AcDbLine
 10
68.15000000000005
 20
-6.694747494491569
 30
0.0
 11
68.15
 21
6.698000000000061
 31
0.0
  0
SOLID
  5
D8
330
D2
100
AcDbEntity
  8
치수문자_일반주서
 62
     0
100
AcDbTrace
 10
67.59966666666672
 20
-6.694747494491571
 30
0.0
 11
68.70033333333338
 21
-6.694747494491567
 31
0.0
 12
68.15000000000006
 22
-9.996747494491569
 32
0.0
 13
68.15000000000006
 23
-9.996747494491569
 33
0.0
  0
SOLID
  5
D9
330
D2
100
AcDbEntity
  8
치수문자_일반주서
 62
     0
100
AcDbTrace
 10
68.70033333333333
 20
6.698000000000063
 30
0.0
 11
67.59966666666668
 21
6.698000000000059
 31
0.0
 12
68.14999999999999
 22
10.00000000000006
 32
0.0
 13
68.14999999999999
 23
10.00000000000006
 33
0.0
  0
MTEXT
  5
DA
330
D2
100
AcDbEntity
  8
치수문자_일반주서
 62
     0
100
AcDbMText
 10
63.77500000000003
 20
-0.0000000000000095
 30
0.0
 40
3.5
 41
0.0
 71
     2
 72
     1
  1
\A1;%%c20
  7
SLDTEXTSTYLE0
 11
-3.553291533814830E-15
 21
1.0
 31
0.0
 73
     1
 44
1.0
  0
POINT
  5
DB
330
D2
100
AcDbEntity
  8
Defpoints
 62
     0
100
AcDbPoint
 10
55.01906961833213
 20
-9.996747494491617
 30
0.0
  0
POINT
  5
DC
330
D2
100
AcDbEntity
  8
Defpoints
 62
     0
100
AcDbPoint
 10
55.15000000000005
 20
10.00000000000001
 30
0.0
  0
POINT
  5
DD
330
D2
100
AcDbEntity
  8
Defpoints
 62
     0
100
AcDbPoint
 10
68.14999999999999
 20
10.00000000000006
 30
0.0
  0
ENDBLK
  5
D4
330
D2
100
AcDbEntity
  8
0
100
AcDbBlockEnd
  0
BLOCK
  5
E1
330
E0
100
AcDbEntity
  8
0
100
AcDbBlockBegin
  2
_D_1
 70
     0
 10
0.0
 20
0.0
 30
0.0
  3
_D_1
  1

  0
LINE
  5
E3
330
E0
100
AcDbEntity
  8
치수문자_일반주서
 62
     0
370
    -2
100
AcDbLine
 10
-44.84999999999997
 20
9.562499999999995
 30
0.0
 11
-44.84999999999997
 21
24.32836952549911
 31
0.0
  0
LINE
  5
E4
330
E0
100
AcDbEntity
  8
치수문자_일반주서
 62
     0
370
    -2
100
AcDbLine
 10
55.15000000000005
 20
-0.437499999999995
 30
0.0
 11
55.15000000000005
 21
24.32836952549911
 31
0.0
  0
LINE
  5
E5
330
E0
100
AcDbEntity
  8
치수문자_일반주서
 62
     0
370
    -2
100
AcDbLine
 10
-41.54799999999997
 20
24.32836952549911
 30
0.0
 11
51.84800000000005
 21
24.32836952549911
 31
0.0
  0
SOLID
  5
E6
330
E0
100
AcDbEntity
  8
치수문자_일반주서
 62
     0
100
AcDbTrace
 10
-41.54799999999997
 20
24.87870285883245
 30
0.0
 11
-41.54799999999997
 21
23.77803619216578
 31
0.0
 12
-44.84999999999997
 22
24.32836952549911
 32
0.0
 13
-44.84999999999997
 23
24.32836952549911
 33
0.0
  0
SOLID
  5
E7
330
E0
100
AcDbEntity
  8
치수문자_일반주서
 62
     0
100
AcDbTrace
 10
51.84800000000005
 20
23.77803619216578
 30
0.0
 11
51.84800000000005
 21
24.87870285883245
 31
0.0
 12
55.15000000000005
 22
24.32836952549911
 32
0.0
 13
55.15000000000005
 23
24.32836952549911
 33
0.0
  0
MTEXT
  5
E8
330
E0
100
AcDbEntity
  8
치수문자_일반주서
 62
     0
100
AcDbMText
 10
5.150000000000041
 20
28.70336952549911
 30
0.0
 40
3.5
 41
0.0
 71
     2
 72
     1
  1
\A1;100
  7
SLDTEXTSTYLE0
 73
     1
 44
1.0
  0
POINT
  5
12E
330
E0
100
AcDbEntity
  8
Defpoints
 62
     0
100
AcDbPoint
 10
-44.84999999999997
 20
9.499999999999995
 30
0.0
  0
POINT
  5
12F
330
E0
100
AcDbEntity
  8
Defpoints
 62
     0
100
AcDbPoint
 10
55.15000000000005
 20
-0.499999999999995
 30
0.0
  0
POINT
  5
130
330
E0
100
AcDbEntity
  8
Defpoints
 62
     0
100
AcDbPoint
 10
55.15000000000005
 20
24.32836952549911
 30
0.0
  0
ENDBLK
  5
E2
330
E0
100
AcDbEntity
  8
0
100
AcDbBlockEnd
  0
BLOCK
  5
EC
330
EB
100
AcDbEntity
  8
0
100
AcDbBlockBegin
  2
_D_2
 70
     0
 10
0.0
 20
0.0
 30
0.0
  3
_D_2
  1

  0
LINE
  5
EE
330
EB
100
AcDbEntity
  8
치수문자_일반주서
 62
     0
370
    -2
100
AcDbLine
 10
-44.41249999999997
 20
10.00000000000001
 30
0.0
 11
-59.21763956161991
 21
9.999999999999957
 31
0.0
  0
LINE
  5
EF
330
EB
100
AcDbEntity
  8
치수문자_일반주서
 62
     0
370
    -2
100
AcDbLine
 10
-44.41249999999997
 20
-10.00000000000001
 30
0.0
 11
-59.21763956161984
 21
-10.00000000000006
 31
0.0
  0
LINE
  5
F0
330
EB
100
AcDbEntity
  8
치수문자_일반주서
 62
     0
370
    -2
100
AcDbLine
 10
-59.2176395616199
 20
6.697999999999958
 30
0.0
 11
-59.21763956161985
 21
-6.698000000000064
 31
0.0
  0
SOLID
  5
F1
330
EB
100
AcDbEntity
  8
치수문자_일반주서
 62
     0
100
AcDbTrace
 10
-58.66730622828656
 20
6.69799999999996
 30
0.0
 11
-59.76797289495323
 21
6.697999999999956
 31
0.0
 12
-59.21763956161991
 22
9.999999999999957
 32
0.0
 13
-59.21763956161991
 23
9.999999999999957
 33
0.0
  0
SOLID
  5
F2
330
EB
100
AcDbEntity
  8
치수문자_일반주서
 62
     0
100
AcDbTrace
 10
-59.76797289495319
 20
-6.698000000000066
 30
0.0
 11
-58.66730622828652
 21
-6.698000000000063
 31
0.0
 12
-59.21763956161984
 22
-10.00000000000006
 32
0.0
 13
-59.21763956161984
 23
-10.00000000000006
 33
0.0
  0
MTEXT
  5
F3
330
EB
100
AcDbEntity
  8
치수문자_일반주서
 62
     0
100
AcDbMText
 10
-63.59263956161988
 20
-0.351069496015412
 30
0.0
 40
3.5
 41
0.0
 71
     2
 72
     1
  1
\A1;%%c20
  7
SLDTEXTSTYLE0
 11
-3.552713678800497E-15
 21
1.0
 31
0.0
 73
     1
 44
1.0
  0
POINT
  5
F4
330
EB
100
AcDbEntity
  8
Defpoints
 62
     0
100
AcDbPoint
 10
-44.34999999999997
 20
10.00000000000001
 30
0.0
  0
POINT
  5
F5
330
EB
100
AcDbEntity
  8
Defpoints
 62
     0
100
AcDbPoint
 10
-44.34999999999997
 20
-10.00000000000001
 30
0.0
  0
POINT
  5
F6
330
EB
100
AcDbEntity
  8
Defpoints
 62
     0
100
AcDbPoint
 10
-59.21763956161985
 20
-10.00000000000006
 30
0.0
  0
ENDBLK
  5
ED
330
EB
100
AcDbEntity
  8
0
100
AcDbBlockEnd
  0
BLOCK
  5
F9
330
F8
100
AcDbEntity
  8
0
100
AcDbBlockBegin
  2
_D_3
 70
     0
 10
0.0
 20
0.0
 30
0.0
  3
_D_3
  1

  0
LINE
  5
FB
330
F8
100
AcDbEntity
  8
치수문자_일반주서
 62
     0
370
    -2
100
AcDbLine
 10
55.15000000000005
 20
10.0499921777191
 30
0.0
 11
55.15000000000005
 21
13.27381355106574
 31
0.0
  0
LINE
  5
FC
330
F8
100
AcDbEntity
  8
치수문자_일반주서
 62
     0
370
    -2
100
AcDbLine
 10
10.15000000000005
 20
9.554343507190083
 30
0.0
 11
10.15000000000005
 21
13.27381355106574
 31
0.0
  0
LINE
  5
FD
330
F8
100
AcDbEntity
  8
치수문자_일반주서
 62
     0
370
    -2
100
AcDbLine
 10
51.84800000000005
 20
13.27381355106574
 30
0.0
 11
13.45200000000005
 21
13.27381355106574
 31
0.0
  0
SOLID
  5
FE
330
F8
100
AcDbEntity
  8
치수문자_일반주서
 62
     0
100
AcDbTrace
 10
51.84800000000005
 20
12.72348021773241
 30
0.0
 11
51.84800000000005
 21
13.82414688439907
 31
0.0
 12
55.15000000000005
 22
13.27381355106574
 32
0.0
 13
55.15000000000005
 23
13.27381355106574
 33
0.0
  0
SOLID
  5
FF
330
F8
100
AcDbEntity
  8
치수문자_일반주서
 62
     0
100
AcDbTrace
 10
13.45200000000005
 20
13.82414688439907
 30
0.0
 11
13.45200000000005
 21
12.72348021773241
 31
0.0
 12
10.15000000000005
 22
13.27381355106574
 32
0.0
 13
10.15000000000005
 23
13.27381355106574
 33
0.0
  0
MTEXT
  5
100
330
F8
100
AcDbEntity
  8
치수문자_일반주서
 62
     0
100
AcDbMText
 10
32.65000000000005
 20
17.64881355106574
 30
0.0
 40
3.5
 41
0.0
 71
     2
 72
     1
  1
\A1;45
  7
SLDTEXTSTYLE0
 73
     1
 44
1.0
  0
POINT
  5
131
330
F8
100
AcDbEntity
  8
Defpoints
 62
     0
100
AcDbPoint
 10
55.15000000000005
 20
9.987492177719101
 30
0.0
  0
POINT
  5
132
330
F8
100
AcDbEntity
  8
Defpoints
 62
     0
100
AcDbPoint
 10
10.15000000000005
 20
9.491843507190083
 30
0.0
  0
POINT
  5
133
330
F8
100
AcDbEntity
  8
Defpoints
 62
     0
100
AcDbPoint
 10
10.15000000000005
 20
13.27381355106574
 30
0.0
  0
ENDBLK
  5
FA
330
F8
100
AcDbEntity
  8
0
100
AcDbBlockEnd
  0
BLOCK
  5
102
330
101
100
AcDbEntity
  8
0
100
AcDbBlockBegin
  2
SW_DOWELSYMBOL_0
 70
     0
 10
0.0
 20
0.0
 30
0.0
  3
SW_DOWELSYMBOL_0
  1

  0
CIRCLE
  5
104
330
101
100
AcDbEntity
  8
해칭선
 62
     0
100
AcDbCircle
 10
0.0
 20
0.0
 30
0.0
 40
3.000000000000001
  0
HATCH
  5
105
330
101
100
AcDbEntity
  8
0
  6
Continuous
 62
     0
370
    18
100
AcDbHatch
 10
0.0
 20
0.0
 30
0.0
210
0.0
220
0.0
230
1.0
  2
SOLID
 70
     1
 71
     0
 91
        1
 92
        0
 93
        3
 72
     2
 10
0.0
 20
0.0
 40
3.000000000000001
 50
0.0
 51
90.0
 73
     1
 72
     1
 10
0.0
 20
3.000000000000001
 11
0.0
 21
0.0
 72
     1
 10
0.0
 20
0.0
 11
3.000000000000001
 21
0.0
 97
        0
 75
     0
 76
     1
 98
        1
 10
0.0
 20
0.0
  0
HATCH
  5
106
330
101
100
AcDbEntity
  8
0
  6
Continuous
 62
     0
370
    18
100
AcDbHatch
 10
0.0
 20
0.0
 30
0.0
210
0.0
220
0.0
230
1.0
  2
SOLID
 70
     1
 71
     0
 91
        1
 92
        0
 93
        3
 72
     2
 10
0.0
 20
0.0
 40
3.000000000000001
 50
180.0
 51
270.0000000000007
 73
     1
 72
     1
 10
0.0
 20
-3.000000000000001
 11
0.0
 21
0.0
 72
     1
 10
0.0
 20
0.0
 11
-3.000000000000001
 21
0.0
 97
        0
 75
     0
 76
     1
 98
        1
 10
0.0
 20
0.0
  0
ENDBLK
  5
103
330
101
100
AcDbEntity
  8
0
100
AcDbBlockEnd
  0
BLOCK
  5
169
330
168
100
AcDbEntity
  8
0
100
AcDbBlockBegin
  2
*D7
 70
     1
 10
0.0
 20
0.0
 30
0.0
  3
*D7
  1

  0
LINE
  5
16B
330
168
100
AcDbEntity
  8
치수문자_일반주서
 62
     0
370
    -2
100
AcDbLine
 10
0.1500000000000496
 20
9.912500000000001
 30
0.0
 11
0.1500000000000483
 21
18.42381355106574
 31
0.0
  0
LINE
  5
16C
330
168
100
AcDbEntity
  8
치수문자_일반주서
 62
     0
370
    -2
100
AcDbLine
 10
55.15000000000005
 20
10.61445492626835
 30
0.0
 11
55.15000000000005
 21
18.42381355106574
 31
0.0
  0
LINE
  5
16D
330
168
100
AcDbEntity
  8
치수문자_일반주서
 62
     0
370
    -2
100
AcDbLine
 10
3.452000000000048
 20
18.42381355106574
 30
0.0
 11
51.84800000000005
 21
18.42381355106574
 31
0.0
  0
SOLID
  5
16E
330
168
100
AcDbEntity
  8
치수문자_일반주서
 62
     0
100
AcDbTrace
 10
3.452000000000048
 20
18.97414688439908
 30
0.0
 11
3.452000000000048
 21
17.87348021773241
 31
0.0
 12
0.1500000000000483
 22
18.42381355106574
 32
0.0
 13
0.1500000000000483
 23
18.42381355106574
 33
0.0
  0
SOLID
  5
16F
330
168
100
AcDbEntity
  8
치수문자_일반주서
 62
     0
100
AcDbTrace
 10
51.84800000000005
 20
17.87348021773241
 30
0.0
 11
51.84800000000005
 21
18.97414688439908
 31
0.0
 12
55.15000000000005
 22
18.42381355106574
 32
0.0
 13
55.15000000000005
 23
18.42381355106574
 33
0.0
  0
MTEXT
  5
170
330
168
100
AcDbEntity
  8
치수문자_일반주서
 62
     0
100
AcDbMText
 10
27.65000000000005
 20
21.04881355106574
 30
0.0
 40
3.5
 41
0.0
 71
     5
 72
     1
  1
\A1;55
  7
SLDTEXTSTYLE0
 73
     1
 44
1.0
  0
POINT
  5
171
330
168
100
AcDbEntity
  8
Defpoints
 62
     0
100
AcDbPoint
 10
0.1500000000000496
 20
9.850000000000001
 30
0.0
  0
POINT
  5
172
330
168
100
AcDbEntity
  8
Defpoints
 62
     0
100
AcDbPoint
 10
55.15000000000005
 20
10.55195492626835
 30
0.0
  0
POINT
  5
173
330
168
100
AcDbEntity
  8
Defpoints
 62
     0
100
AcDbPoint
 10
55.15000000000005
 20
18.42381355106574
 30
0.0
  0
ENDBLK
  5
16A
330
168
100
AcDbEntity
  8
0
100
AcDbBlockEnd
  0
ENDSEC
  0
SECTION
  2
ENTITIES
  0
LINE
  5
99
330
1F
100
AcDbEntity
  8
0
  6
Continuous
 62
     4
370
    25
100
AcDbLine
 10
0.00000000000005
 20
10.0
 30
0.0
 11
-44.34999999999997
 21
9.999999999999998
 31
0.0
  0
LINE
  5
9A
330
1F
100
AcDbEntity
  8
0
  6
Continuous
 62
     4
370
    25
100
AcDbLine
 10
-44.34999999999997
 20
-9.999999999999998
 30
0.0
 11
-0.0000000000000484
 21
-9.999999999999998
 31
0.0
  0
LINE
  5
9B
330
1F
100
AcDbEntity
  8
0
  6
Continuous
 62
     4
370
    25
100
AcDbLine
 10
-44.34999999999997
 20
9.999999999999995
 30
0.0
 11
-44.84999999999997
 21
9.499999999999993
 31
0.0
  0
LINE
  5
9C
330
1F
100
AcDbEntity
  8
0
  6
Continuous
 62
     4
370
    25
100
AcDbLine
 10
-44.84999999999997
 20
-9.499999999999998
 30
0.0
 11
-44.34999999999997
 21
-9.999999999999998
 31
0.0
  0
LINE
  5
9D
330
1F
100
AcDbEntity
  8
0
  6
Continuous
 62
     1
370
    25
100
AcDbLine
 10
51.28224530236086
 20
-10.00000000000001
 30
0.0
 11
55.15000000000005
 21
-10.00000000000001
 31
0.0
1001
PE_URL
1000

  0
LINE
  5
9E
330
1F
100
AcDbEntity
  8
0
  6
Continuous
 62
     1
370
    25
100
AcDbLine
 10
31.81141348587761
 20
10.00000000000001
 30
0.0
 11
24.07365230929172
 21
10.00000000000001
 31
0.0
1001
PE_URL
1000

  0
LINE
  5
9F
330
1F
100
AcDbEntity
  8
0
  6
Continuous
 62
     1
370
    25
100
AcDbLine
 10
24.07365230929161
 20
-10.00000000000001
 30
0.0
 11
31.81141348587761
 21
-10.00000000000001
 31
0.0
1001
PE_URL
1000

  0
LINE
  5
A0
330
1F
100
AcDbEntity
  8
0
  6
Continuous
 62
     1
370
    25
100
AcDbLine
 10
55.15000000000005
 20
10.00000000000001
 30
0.0
 11
51.28224530236085
 21
10.00000000000001
 31
0.0
1001
PE_URL
1000

  0
SPLINE
  5
A1
330
1F
100
AcDbEntity
  8
0
  6
Continuous
 62
     4
370
    25
100
AcDbSpline
210
0.0
220
0.0
230
1.0
 70
    24
 71
     3
 72
    18
 73
    14
 74
     0
 42
0.000000001
 43
0.00000001
 40
0.0
 40
0.0
 40
0.0
 40
0.0
 40
0.2500000000000001
 40
0.2500000000000001
 40
0.5000000000000002
 40
0.5000000000000002
 40
0.6250000000000001
 40
0.6250000000000001
 40
0.7500000000000001
 40
0.7500000000000001
 40
0.875
 40
0.875
 40
1.0
 40
1.0
 40
1.0
 40
1.0
 10
10.15000000000005
 20
6.727714313386222
 30
0.0
 10
10.15000000000005
 20
6.211853426677023
 30
0.0
 10
10.15000000000005
 20
5.64265501853148
 30
0.0
 10
10.15000000000005
 20
4.390991358486843
 30
0.0
 10
10.15000000000005
 20
3.74070970734797
 30
0.0
 10
10.15000000000005
 20
2.726693015329852
 30
0.0
 10
10.15000000000005
 20
2.384279983618447
 30
0.0
 10
10.15000000000005
 20
1.713297297763504
 30
0.0
 10
10.15000000000005
 20
1.38150001370192
 30
0.0
 10
10.15000000000005
 20
0.7254798583454773
 30
0.0
 10
10.15000000000005
 20
0.4016091611185631
 30
0.0
 10
10.15000000000005
 20
-0.2149238552348308
 30
0.0
 10
10.15000000000005
 20
-0.5107395529361963
 30
0.0
 10
10.15000000000005
 20
-0.794110929843425
 30
0.0
  0
SPLINE
  5
A2
330
1F
100
AcDbEntity
  8
0
  6
Continuous
 62
     4
370
    25
100
AcDbSpline
210
0.0
220
0.0
230
1.0
 70
     8
 71
     3
 72
    14
 73
    10
 74
     0
 42
0.000000001
 43
0.00000001
 40
0.0
 40
0.0
 40
0.0
 40
0.0
 40
0.25
 40
0.25
 40
0.5
 40
0.5
 40
0.75
 40
0.75
 40
1.0
 40
1.0
 40
1.0
 40
1.0
 10
9.657705352784127
 20
-2.875949902740918
 30
0.0
 10
9.499915297142087
 20
-2.788699942327469
 30
0.0
 10
9.358131851934818
 20
-2.682633283478113
 30
0.0
 10
9.105637638604756
 20
-2.432950319077479
 30
0.0
 10
8.996871772860068
 20
-2.290071586499825
 30
0.0
 10
8.823498094655926
 20
-1.982319071931388
 30
0.0
 10
8.757152386110787
 20
-1.813801531938172
 30
0.0
 10
8.671064481200316
 20
-1.469331724158429
 30
0.0
 10
8.649971370996337
 20
-1.290106818201905
 30
0.0
 10
8.649971370996337
 20
-1.10922414215027
 30
0.0
  0
SPLINE
  5
A3
330
1F
100
AcDbEntity
  8
0
  6
Continuous
 62
     4
370
    25
100
AcDbSpline
210
0.0
220
0.0
230
1.0
 70
     8
 71
     3
 72
    16
 73
    12
 74
     0
 42
0.000000001
 43
0.00000001
 40
0.0
 40
0.0
 40
0.0
 40
0.0
 40
0.2500000000000003
 40
0.2500000000000003
 40
0.5000000000000007
 40
0.5000000000000007
 40
0.6250000000000004
 40
0.6250000000000004
 40
0.7500000000000003
 40
0.7500000000000003
 40
1.0
 40
1.0
 40
1.0
 40
1.0
 10
8.649971370996337
 20
5.117372802485116
 30
0.0
 10
8.649971370996337
 20
5.312337964212433
 30
0.0
 10
8.681876454302007
 20
5.498739057312092
 30
0.0
 10
8.817403304663827
 20
5.85452240177493
 30
0.0
 10
8.918417406183158
 20
6.016044855375244
 30
0.0
 10
9.119114290993107
 20
6.230874649270507
 30
0.0
 10
9.194236509178838
 20
6.297594928580388
 30
0.0
 10
9.355755673873977
 20
6.417546221501326
 30
0.0
 10
9.442767745876857
 20
6.471481492430756
 30
0.0
 10
9.723020490875758
 20
6.615639803266656
 30
0.0
 10
9.930054143123117
 20
6.685399906702933
 30
0.0
 10
10.15000000000005
 20
6.72771431338623
 30
0.0
  0
SPLINE
  5
A4
330
1F
100
AcDbEntity
  8
0
  6
Continuous
 62
     4
370
    25
100
AcDbSpline
210
0.0
220
0.0
230
1.0
 70
     8
 71
     3
 72
    12
 73
     8
 74
     0
 42
0.000000001
 43
0.00000001
 40
0.0
 40
0.0
 40
0.0
 40
0.0
 40
0.25
 40
0.25
 40
0.5
 40
0.5
 40
0.7092308967077072
 40
0.7092308967077072
 40
0.7092308967077072
 40
0.7092308967077072
 10
9.657705352784127
 20
-9.577521190625289
 30
0.0
 10
9.499915297142087
 20
-9.603720716595621
 30
0.0
 10
9.358131851934818
 20
-9.634321724080197
 30
0.0
 10
9.105637638604756
 20
-9.700382938915808
 30
0.0
 10
8.996871772860068
 20
-9.735521670493855
 30
0.0
 10
8.837634673445665
 20
-9.797329860903345
 30
0.0
 10
8.779332176796412
 20
-9.824941105066861
 30
0.0
 10
8.737013008889374
 20
-9.850000000000005
 30
0.0
  0
SPLINE
  5
A5
330
1F
100
AcDbEntity
  8
0
  6
Continuous
 62
     4
370
    25
100
AcDbSpline
210
0.0
220
0.0
230
1.0
 70
     8
 71
     3
 72
     8
 73
     4
 74
     0
 42
0.000000001
 43
0.00000001
 40
0.0
 40
0.0
 40
0.0
 40
0.0
 40
1.0
 40
1.0
 40
1.0
 40
1.0
 10
10.15000000000005
 20
-9.491843507190055
 30
0.0
 10
9.986154059299418
 20
-9.52167161832005
 30
0.0
 10
9.822022832640748
 20
-9.55023784844402
 30
0.0
 10
9.657705352784127
 20
-9.577521190625287
 30
0.0
  0
LINE
  5
A6
330
1F
100
AcDbEntity
  8
0
  6
Continuous
 62
     4
370
    25
100
AcDbLine
 10
8.649971370996337
 20
10.0
 30
0.0
 11
8.649971370996337
 21
9.938290688165191
 31
0.0
  0
SPLINE
  5
A7
330
1F
100
AcDbEntity
  8
0
  6
Continuous
 62
     4
370
    25
100
AcDbSpline
210
0.0
220
0.0
230
1.0
 70
     8
 71
     3
 72
    12
 73
     8
 74
     0
 42
0.000000001
 43
0.00000001
 40
0.0
 40
0.0
 40
0.0
 40
0.0
 40
0.25
 40
0.25
 40
0.5
 40
0.5
 40
0.7092308967076554
 40
0.7092308967076554
 40
0.7092308967076554
 40
0.7092308967076554
 10
9.657705352784127
 20
9.577521190625314
 30
0.0
 10
9.499915297142087
 20
9.603720716595651
 30
0.0
 10
9.358131851934818
 20
9.634321724080218
 30
0.0
 10
9.105637638604756
 20
9.700382938915832
 30
0.0
 10
8.996871772860068
 20
9.735521670493874
 30
0.0
 10
8.837634673445683
 20
9.797329860903357
 30
0.0
 10
8.779332176796432
 20
9.824941105066861
 30
0.0
 10
8.7370130088894
 20
9.85
 30
0.0
  0
SPLINE
  5
A8
330
1F
100
AcDbEntity
  8
0
  6
Continuous
 62
     4
370
    25
100
AcDbSpline
210
0.0
220
0.0
230
1.0
 70
     8
 71
     3
 72
     8
 73
     4
 74
     0
 42
0.000000001
 43
0.00000001
 40
0.0
 40
0.0
 40
0.0
 40
0.0
 40
1.0
 40
1.0
 40
1.0
 40
1.0
 10
10.15000000000005
 20
9.491843507190081
 30
0.0
 10
9.986154059299418
 20
9.521671618320076
 30
0.0
 10
9.822022832640748
 20
9.55023784844404
 30
0.0
 10
9.657705352784127
 20
9.577521190625308
 30
0.0
  0
LINE
  5
A9
330
1F
100
AcDbEntity
  8
0
  6
Continuous
 62
     4
370
    25
100
AcDbLine
 10
10.15000000000005
 20
9.491843507190083
 30
0.0
 11
10.15000000000005
 21
6.727714313386222
 31
0.0
  0
SPLINE
  5
AA
330
1F
100
AcDbEntity
  8
0
  6
Continuous
 62
     4
370
    25
100
AcDbSpline
210
0.0
220
0.0
230
1.0
 70
     8
 71
     3
 72
     8
 73
     4
 74
     0
 42
0.000000001
 43
0.00000001
 40
0.0
 40
0.0
 40
0.0
 40
0.0
 40
1.0
 40
1.0
 40
1.0
 40
1.0
 10
10.15000000000005
 20
-3.147206195177847
 30
0.0
 10
9.986154059299418
 20
-3.057245847681462
 30
0.0
 10
9.822022832640748
 20
-2.966809200270103
 30
0.0
 10
9.657705352784127
 20
-2.875949902740918
 30
0.0
  0
LINE
  5
AB
330
1F
100
AcDbEntity
  8
0
  6
Continuous
 62
     4
370
    25
100
AcDbLine
 10
10.15000000000005
 20
-3.147206195177847
 30
0.0
 11
10.15000000000005
 21
-7.398503910755146
 31
0.0
  0
SPLINE
  5
AC
330
1F
100
AcDbEntity
  8
0
  6
Continuous
 62
     4
370
    25
100
AcDbSpline
210
0.0
220
0.0
230
1.0
 70
     8
 71
     3
 72
    16
 73
    12
 74
     0
 42
0.000000001
 43
0.00000001
 40
0.0
 40
0.0
 40
0.0
 40
0.0
 40
0.2499999999999998
 40
0.2499999999999998
 40
0.4999999999999996
 40
0.4999999999999996
 40
0.6249999999999997
 40
0.6249999999999997
 40
0.7499999999999998
 40
0.7499999999999998
 40
1.0
 40
1.0
 40
1.0
 40
1.0
 10
8.649971370996337
 20
-8.59141988267286
 30
0.0
 10
8.649971370996337
 20
-8.47529129977498
 30
0.0
 10
8.681876454302007
 20
-8.355271396077857
 30
0.0
 10
8.817403304663827
 20
-8.109948136063622
 30
0.0
 10
8.918417406183147
 20
-7.990009651272473
 30
0.0
 10
9.119114290993107
 20
-7.822049832838436
 30
0.0
 10
9.194236509178838
 20
-7.7682903766647
 30
0.0
 10
9.355755673873977
 20
-7.669493969979823
 30
0.0
 10
9.442767745876857
 20
-7.623906043955002
 30
0.0
 10
9.723020490875758
 20
-7.499958285826488
 30
0.0
 10
9.930054143123117
 20
-7.436981857504863
 30
0.0
 10
10.15000000000005
 20
-7.39850391075514
 30
0.0
  0
LINE
  5
AD
330
1F
100
AcDbEntity
  8
0
  6
Continuous
 62
     4
370
    25
100
AcDbLine
 10
8.649971370996337
 20
-8.591419882672863
 30
0.0
 11
8.649971370996337
 21
-9.849999999999989
 31
0.0
  0
LINE
  5
AE
330
1F
100
AcDbEntity
  8
0
  6
Continuous
 62
     4
370
    25
100
AcDbLine
 10
-44.34999999999997
 20
9.999999999999995
 30
0.0
 11
-44.34999999999997
 21
-10.00000000000001
 31
0.0
  0
LINE
  5
AF
330
1F
100
AcDbEntity
  8
0
  6
Continuous
 62
     4
370
    25
100
AcDbLine
 10
8.649971370996337
 20
5.117372802485116
 30
0.0
 11
8.649971370996337
 21
-1.10922414215027
 31
0.0
  0
LINE
  5
B0
330
1F
100
AcDbEntity
  8
0
  6
Continuous
 62
     4
370
    25
100
AcDbLine
 10
-44.84999999999997
 20
9.499999999999995
 30
0.0
 11
-44.84999999999997
 21
-9.500000000000007
 31
0.0
  0
SPLINE
  5
B1
330
1F
100
AcDbEntity
  8
0
  6
Continuous
 62
     1
370
    25
100
AcDbSpline
210
0.0
220
0.0
230
1.0
 70
     8
 71
     3
 72
    23
 73
    19
 74
     0
 42
0.000000001
 43
0.00000001
 40
0.0
 40
0.0
 40
0.0
 40
0.0
 40
0.0665685435134863
 40
0.1331164613921541
 40
0.1996538139772256
 40
0.2661906973100515
 40
0.3327372090186648
 40
0.3981182151011512
 40
0.4635193214296862
 40
0.5288921100679298
 40
0.5942446881892649
 40
0.6609262371726524
 40
0.7276122464700014
 40
0.7943124160683483
 40
0.8610363993516255
 40
0.9277626980437625
 40
0.9944644532432275
 40
1.0
 40
1.0
 40
1.0
 40
1.0
 10
10.14999999999935
 20
7.201214239074305
 30
0.0
 10
11.06275351661762
 20
6.818305713413555
 30
0.0
 10
12.88797774179317
 20
6.052607302684171
 30
0.0
 10
15.62529060870507
 20
4.704893697956042
 30
0.0
 10
18.36210080085198
 20
3.252888073275909
 30
0.0
 10
21.09888161251737
 20
1.716351885865846
 30
0.0
 10
23.81989436528652
 20
0.1472189660441986
 30
0.0
 10
26.52547455134552
 20
-1.416202339924839
 30
0.0
 10
29.21527175818861
 20
-2.935704433871874
 30
0.0
 10
31.90429261205296
 20
-4.385039249983811
 30
0.0
 10
34.61070866050493
 20
-5.737920476568856
 30
0.0
 10
37.33515600972782
 20
-6.95866345161784
 30
0.0
 10
40.07810094429647
 20
-8.01393178856989
 30
0.0
 10
42.82173168323199
 20
-8.86671586383792
 30
0.0
 10
45.5661757403051
 20
-9.504580526135708
 30
0.0
 10
48.31066812818498
 20
-9.87771850618868
 30
0.0
 10
50.21596653719455
 20
-10.0344111933828
 30
0.0
 10
51.20635203037705
 20
-9.993595555195611
 30
0.0
 10
51.28224530236086
 20
-9.990467851537332
 30
0.0
  0
LINE
  5
B2
330
1F
100
AcDbEntity
  8
0
  6
Continuous
 62
     4
370
    25
100
AcDbLine
 10
10.15000000000005
 20
7.201214239083267
 30
0.0
 11
10.15000000000005
 21
9.491843507192224
 31
0.0
  0
SPLINE
  5
B3
330
1F
100
AcDbEntity
  8
0
  6
Continuous
 62
     1
370
    25
100
AcDbSpline
210
0.0
220
0.0
230
1.0
 70
     8
 71
     3
 72
    60
 73
    56
 74
     0
 42
0.000000001
 43
0.00000001
 40
0.0
 40
0.0
 40
0.0
 40
0.0
 40
0.0624999999999995
 40
0.0624999999999995
 40
0.0937499999999995
 40
0.0937499999999995
 40
0.1249999999999994
 40
0.1249999999999994
 40
0.1562499999999993
 40
0.1562499999999993
 40
0.1874999999999993
 40
0.1874999999999993
 40
0.2187499999999992
 40
0.2187499999999992
 40
0.2499999999999991
 40
0.2499999999999991
 40
0.3124999999999989
 40
0.3124999999999989
 40
0.3437499999999991
 40
0.3437499999999991
 40
0.3749999999999992
 40
0.3749999999999992
 40
0.4062499999999993
 40
0.4062499999999993
 40
0.4374999999999993
 40
0.4374999999999993
 40
0.4999999999999994
 40
0.4999999999999994
 40
0.5624999999999996
 40
0.5624999999999996
 40
0.5937499999999996
 40
0.5937499999999996
 40
0.6249999999999994
 40
0.6249999999999994
 40
0.6562499999999994
 40
0.6562499999999994
 40
0.6874999999999994
 40
0.6874999999999994
 40
0.7187499999999994
 40
0.7187499999999994
 40
0.7499999999999994
 40
0.7499999999999994
 40
0.8124999999999997
 40
0.8124999999999997
 40
0.8437499999999998
 40
0.8437499999999998
 40
0.8749999999999998
 40
0.8749999999999998
 40
0.9062499999999999
 40
0.9062499999999999
 40
0.9375
 40
0.9375
 40
0.96875
 40
0.96875
 40
1.0
 40
1.0
 40
1.0
 40
1.0
 10
55.15000000000006
 20
-9.751656983552609
 30
0.0
 10
54.21648531497401
 20
-9.631948011949087
 30
0.0
 10
53.2724238286368
 20
-9.468776464622007
 30
0.0
 10
51.86832032119879
 20
-9.163462180223753
 30
0.0
 10
51.40162711544428
 20
-9.051632441119484
 30
0.0
 10
50.46290675524317
 20
-8.80789884426402
 30
0.0
 10
49.99258414242607
 20
-8.676113590386718
 30
0.0
 10
49.0546612397462
 20
-8.394024684351677
 30
0.0
 10
48.58860807737845
 20
-8.243911160136543
 30
0.0
 10
47.65130364385386
 20
-7.925370445801223
 30
0.0
 10
47.18104835797798
 20
-7.757023105026742
 30
0.0
 10
46.24197662736425
 20
-7.403805316437891
 30
0.0
 10
45.77450502291264
 20
-7.219122324673982
 30
0.0
 10
44.83932003414898
 20
-6.834317200897206
 30
0.0
 10
44.36948785976236
 20
-6.6338878288878
 30
0.0
 10
42.96021895511471
 20
-6.011384754823835
 30
0.0
 10
42.02723080159984
 20
-5.569086698656373
 30
0.0
 10
40.61836418421362
 20
-4.870432066495952
 30
0.0
 10
40.14817920973398
 20
-4.631831828518669
 30
0.0
 10
39.21132639623722
 20
-4.145584200449877
 30
0.0
 10
38.7451173156764
 20
-3.898033011961246
 30
0.0
 10
37.8068494851609
 20
-3.393882036181271
 30
0.0
 10
37.33651047110567
 20
-3.137576762555091
 30
0.0
 10
36.39806997197645
 20
-2.619038050839326
 30
0.0
 10
35.9317223067392
 20
-2.357139204358074
 30
0.0
 10
34.5268443361806
 20
-1.563465515082484
 30
0.0
 10
33.58423466301196
 20
-1.023989773448826
 30
0.0
 10
31.71583250007536
 20
0.0560157165730563
 30
0.0
 10
30.77170461127883
 20
0.600050134283895
 30
0.0
 10
29.36843791533401
 20
1.406117718998275
 30
0.0
 10
28.90127710602282
 20
1.673446995113047
 30
0.0
 10
27.96231884506432
 20
2.204719962110725
 30
0.0
 10
27.49203375719189
 20
2.468371696016802
 30
0.0
 10
26.5544976237934
 20
2.98910840958784
 30
0.0
 10
26.08847822143765
 20
3.245976482645082
 30
0.0
 10
25.15076391722727
 20
3.753060650755772
 30
0.0
 10
24.68045943356637
 20
4.003011469098311
 30
0.0
 10
23.74160239665856
 20
4.493250461071821
 30
0.0
 10
23.27466583122851
 20
4.733268901018437
 30
0.0
 10
22.33890003005243
 20
5.202729821816034
 30
0.0
 10
21.8689320594287
 20
5.432348180775705
 30
0.0
 10
20.45972627257337
 20
6.102397008483075
 30
0.0
 10
19.52684502666914
 20
6.523183242666389
 30
0.0
 10
18.1177824455622
 20
7.110117471601019
 30
0.0
 10
17.6476888855493
 20
7.298198742415273
 30
0.0
 10
16.71132937421307
 20
7.657427539127586
 30
0.0
 10
16.24484224045765
 20
7.828630120368345
 30
0.0
 10
15.30627137495193
 20
8.154137650318066
 30
0.0
 10
14.83593708582464
 20
8.308211367324109
 30
0.0
 10
13.89781836635172
 20
8.597484915348677
 30
0.0
 10
13.43169412723149
 20
8.732547534017534
 30
0.0
 10
12.49463414712126
 20
8.983682657969892
 30
0.0
 10
12.02441511300398
 20
9.099655866231227
 30
0.0
 10
11.08524274673533
 20
9.311223201557567
 30
0.0
 10
10.61742309480242
 20
9.406749253670442
 30
0.0
 10
10.15000000000004
 20
9.491843507192234
 30
0.0
  0
LINE
  5
B4
330
1F
100
AcDbEntity
  8
0
  6
Continuous
 62
     1
370
    25
100
AcDbLine
 10
55.15000000000005
 20
-10.00000000000001
 30
0.0
 11
55.15000000000005
 21
-9.751656983552612
 31
0.0
1001
PE_URL
1000

  0
SPLINE
  5
B5
330
1F
100
AcDbEntity
  8
0
  6
Continuous
 62
     1
370
    25
100
AcDbSpline
210
0.0
220
0.0
230
1.0
 70
     8
 71
     3
 72
    19
 73
    15
 74
     0
 42
0.000000001
 43
0.00000001
 40
0.0
 40
0.0
 40
0.0
 40
0.0
 40
0.0166708250565294
 40
0.1049025191926444
 40
0.1931518120398933
 40
0.2814291210754047
 40
0.3697098758246457
 40
0.4597624620965007
 40
0.5497999196710598
 40
0.6398290886332159
 40
0.7298568272214325
 40
0.8198899968087627
 40
0.9099354468693387
 40
1.0
 40
1.0
 40
1.0
 40
1.0
 10
41.56203447201634
 20
-8.440269254505493
 30
0.0
 10
41.38748696336965
 20
-8.499263162704255
 30
0.0
 10
40.28913260395738
 20
-8.870487116292912
 30
0.0
 10
38.26681226434263
 20
-9.341436890654837
 30
0.0
 10
35.49464040206082
 20
-9.819876588249508
 30
0.0
 10
32.72172898225944
 20
-10.02804862807719
 30
0.0
 10
29.92990666885387
 20
-9.984783997323763
 30
0.0
 10
27.1198646240355
 20
-9.678430910221723
 30
0.0
 10
24.29158973265599
 20
-9.112908948431
 30
0.0
 10
21.46363246802883
 20
-8.304711402728838
 30
0.0
 10
18.63572844100682
 20
-7.276007010878046
 30
0.0
 10
15.80761706837453
 20
-6.052061137489273
 30
0.0
 10
12.97905457771099
 20
-4.672990109345354
 30
0.0
 10
11.09308486999133
 20
-3.65583679413001
 30
0.0
 10
10.15000000000005
 20
-3.147206195178927
 30
0.0
  0
SPLINE
  5
B6
330
1F
100
AcDbEntity
  8
0
  6
Continuous
 62
     1
370
    25
100
AcDbSpline
210
0.0
220
0.0
230
1.0
 70
     8
 71
     3
 72
    22
 73
    18
 74
     0
 42
0.000000001
 43
0.00000001
 40
0.0
 40
0.0
 40
0.0
 40
0.0
 40
0.0326445782092703
 40
0.1020011035288672
 40
0.1713571397141059
 40
0.2407232122272588
 40
0.3088743969018063
 40
0.3770465334653281
 40
0.4451891525243598
 40
0.5133107047514057
 40
0.5828175360384366
 40
0.6523290166219331
 40
0.7218552574752111
 40
0.791406320993919
 40
0.8609597980248418
 40
0.9304876916608021
 40
1.0
 40
1.0
 40
1.0
 40
1.0
 10
14.33728780979243
 20
8.434363621065552
 30
0.0
 10
14.76666881874477
 20
8.572079285353006
 30
0.0
 10
16.10831080494876
 20
9.002385035988866
 30
0.0
 10
18.3620956263483
 20
9.493203844474396
 30
0.0
 10
21.09888300006471
 20
9.895865167920414
 30
0.0
 10
23.81989400068539
 20
10.03939719374391
 30
0.0
 10
26.52547464846128
 20
9.939998617657162
 30
0.0
 10
29.21527173173764
 20
9.60142873859613
 30
0.0
 10
31.90429262076938
 20
9.032060583957232
 30
0.0
 10
34.6107086519624
 20
8.240111672419419
 30
0.0
 10
37.33515603557718
 20
7.239860217265584
 30
0.0
 10
40.07810084965632
 20
6.051594400581294
 30
0.0
 10
42.82173203607471
 20
4.711723158757138
 30
0.0
 10
45.56617442307763
 20
3.253795732655786
 30
0.0
 10
48.31067304347385
 20
1.715146775443254
 30
0.0
 10
51.05437921209008
 20
0.1307588316160425
 30
0.0
 10
52.88314807720864
 20
-0.9211728270105701
 30
0.0
 10
53.79743001457204
 20
-1.447079699752897
 30
0.0
  0
SPLINE
  5
B7
330
1F
100
AcDbEntity
  8
0
  6
Continuous
 62
     1
370
    25
100
AcDbSpline
210
0.0
220
0.0
230
1.0
 70
     8
 71
     3
 72
     8
 73
     4
 74
     0
 42
0.000000001
 43
0.00000001
 40
0.0
 40
0.0
 40
0.0
 40
0.0
 40
1.0
 40
1.0
 40
1.0
 40
1.0
 10
55.15000000000005
 20
-7.266081778456255
 30
0.0
 10
53.46587153796298
 20
-6.320024379565044
 30
0.0
 10
51.87553162703743
 20
-5.160603083795173
 30
0.0
 10
50.34539622185755
 20
-3.864219783566243
 30
0.0
1001
PE_URL
1000

  0
LINE
  5
B8
330
1F
100
AcDbEntity
  8
0
  6
Continuous
 62
     1
370
    25
100
AcDbLine
 10
55.15000000000005
 20
-9.751656983552612
 30
0.0
 11
55.15000000000005
 21
-7.266081778456255
 31
0.0
1001
PE_URL
1000

  0
SPLINE
  5
B9
330
1F
100
AcDbEntity
  8
0
  6
Continuous
 62
     1
370
    25
100
AcDbSpline
210
0.0
220
0.0
230
1.0
 70
    24
 71
     3
 72
    22
 73
    18
 74
     0
 42
0.000000001
 43
0.00000001
 40
0.0
 40
0.0
 40
0.0
 40
0.0
 40
0.2499999999999996
 40
0.2499999999999996
 40
0.3749999999999993
 40
0.3749999999999993
 40
0.4999999999999991
 40
0.4999999999999991
 40
0.5624999999999999
 40
0.5624999999999999
 40
0.6250000000000007
 40
0.6250000000000007
 40
0.7500000000000004
 40
0.7500000000000004
 40
0.8750000000000002
 40
0.8750000000000002
 40
1.0
 40
1.0
 40
1.0
 40
1.0
 10
53.79743001457206
 20
-1.447079699752905
 30
0.0
 10
53.79833007441133
 20
-1.446449471068622
 30
0.0
 10
53.73787192143816
 20
-1.488782725526653
 30
0.0
 10
53.52601742079487
 20
-1.637124843880739
 30
0.0
 10
53.43345551420599
 20
-1.701937388625332
 30
0.0
 10
53.20771133056527
 20
-1.860005167717568
 30
0.0
 10
53.07443790793994
 20
-1.953324222882902
 30
0.0
 10
52.84095893739484
 20
-2.116807958072023
 30
0.0
 10
52.75722578260932
 20
-2.175438544250955
 30
0.0
 10
52.58228580143282
 20
-2.297932837804995
 30
0.0
 10
52.49065279168867
 20
-2.362094961976603
 30
0.0
 10
52.20353353657322
 20
-2.563138028773607
 30
0.0
 10
51.99448072965399
 20
-2.709518380062344
 30
0.0
 10
51.54984449311736
 20
-3.020856024646463
 30
0.0
 10
51.31882063896727
 20
-3.182620668828626
 30
0.0
 10
50.84124356464537
 20
-3.517023736344948
 30
0.0
 10
50.59308936566183
 20
-3.690783177111654
 30
0.0
 10
50.34539622185755
 20
-3.864219783566267
 30
0.0
1001
PE_URL
1000

  0
SPLINE
  5
BA
330
1F
100
AcDbEntity
  8
0
  6
Continuous
 62
     1
370
    25
100
AcDbSpline
210
0.0
220
0.0
230
1.0
 70
     8
 71
     3
 72
    16
 73
    12
 74
     0
 42
0.000000001
 43
0.00000001
 40
0.0
 40
0.0
 40
0.0
 40
0.0
 40
0.1209732157455832
 40
0.2419152152161424
 40
0.3628356195575477
 40
0.4837440987087401
 40
0.6046503495922774
 40
0.7234040272063561
 40
0.8421813914524198
 40
0.9609964635246956
 40
1.0
 40
1.0
 40
1.0
 40
1.0
 10
55.15000000000006
 20
2.214765467296684
 30
0.0
 10
54.20881247311006
 20
2.738829773521094
 30
0.0
 10
52.32668028605475
 20
3.786823154915563
 30
0.0
 10
49.50396826067237
 20
5.24293287213022
 30
0.0
 10
46.68184573003013
 20
6.564118638573511
 30
0.0
 10
43.86006564736459
 20
7.710583725254999
 30
0.0
 10
41.05513178912251
 20
8.646141264612977
 30
0.0
 10
38.26681038521762
 20
9.356444393139283
 30
0.0
 10
35.49464385819981
 20
9.805448573909771
 30
0.0
 10
33.34269589271312
 20
10.0113469650036
 30
0.0
 10
32.114862212148
 20
9.979614419475213
 30
0.0
 10
31.81141348587761
 20
9.971771988798872
 30
0.0
1001
PE_URL
1000

  0
LINE
  5
BB
330
1F
100
AcDbEntity
  8
0
  6
Continuous
 62
     1
370
    25
100
AcDbLine
 10
55.15000000000005
 20
-0.5000000000000299
 30
0.0
 11
55.15000000000005
 21
2.214765467296684
 31
0.0
1001
PE_URL
1000

  0
LINE
  5
BC
330
1F
100
AcDbEntity
  8
0
  6
Continuous
 62
     1
370
    25
100
AcDbLine
 10
55.15000000000005
 20
-0.5000000000000291
 30
0.0
 11
53.79743001457206
 21
-1.447079699752918
 31
0.0
1001
PE_URL
1000

  0
SPLINE
  5
BD
330
1F
100
AcDbEntity
  8
0
  6
Continuous
 62
     1
370
    25
100
AcDbSpline
210
0.0
220
0.0
230
1.0
 70
     8
 71
     3
 72
    12
 73
     8
 74
     0
 42
0.000000001
 43
0.00000001
 40
0.0
 40
0.0
 40
0.0
 40
0.0
 40
0.1029346748005619
 40
0.3272489898835296
 40
0.5515710889644995
 40
0.7758106771329375
 40
1.0
 40
1.0
 40
1.0
 40
1.0
 10
41.56203447201634
 20
8.4402692545055
 30
0.0
 10
41.98183447220953
 20
8.574969918280097
 30
0.0
 10
43.31645884715901
 20
9.003209053851121
 30
0.0
 10
45.56618090312138
 20
9.493482869075102
 30
0.0
 10
48.31067131613374
 20
9.893426701409494
 30
0.0
 10
51.054379643746
 20
10.05165183936759
 30
0.0
 10
52.88314822108322
 20
9.947042755613584
 30
0.0
 10
53.79743001457206
 20
9.8947440766582
 30
0.0
1001
PE_URL
1000

  0
SPLINE
  5
BE
330
1F
100
AcDbEntity
  8
0
  6
Continuous
 62
     1
370
    25
100
AcDbSpline
210
0.0
220
0.0
230
1.0
 70
     8
 71
     3
 72
    22
 73
    18
 74
     0
 42
0.000000001
 43
0.00000001
 40
0.0
 40
0.0
 40
0.0
 40
0.0
 40
0.2499999999999967
 40
0.2499999999999967
 40
0.3749999999999953
 40
0.3749999999999953
 40
0.499999999999994
 40
0.499999999999994
 40
0.562499999999994
 40
0.562499999999994
 40
0.6249999999999941
 40
0.6249999999999941
 40
0.7499999999999961
 40
0.7499999999999961
 40
0.8749999999999981
 40
0.8749999999999981
 40
1.0
 40
1.0
 40
1.0
 40
1.0
 10
53.79743001457206
 20
9.89474407665822
 30
0.0
 10
53.7983300744113
 20
9.283134665630081
 30
0.0
 10
53.73787192143814
 20
8.684986715119678
 30
0.0
 10
53.52601742079489
 20
7.814347839321176
 30
0.0
 10
53.433455514206
 20
7.52602310551152
 30
0.0
 10
53.20771133056524
 20
6.983978845190976
 30
0.0
 10
53.07443790793994
 20
6.728016184879507
 30
0.0
 10
52.84095893739484
 20
6.368851405513241
 30
0.0
 10
52.75722578260928
 20
6.253066494950617
 30
0.0
 10
52.58228580143282
 20
6.035520208430539
 30
0.0
 10
52.49065279168867
 20
5.933023839203766
 30
0.0
 10
52.20353353657322
 20
5.643959723970074
 30
0.0
 10
51.99448072965399
 20
5.474803869360843
 30
0.0
 10
51.54984449311738
 20
5.189912301147333
 30
0.0
 10
51.31882063896727
 20
5.07653548715169
 30
0.0
 10
50.8412435646454
 20
4.90163533632266
 30
0.0
 10
50.59308936566183
 20
4.840255663647834
 30
0.0
 10
50.34539622185755
 20
4.80460377814248
 30
0.0
1001
PE_URL
1000

  0
SPLINE
  5
BF
330
1F
100
AcDbEntity
  8
0
  6
Continuous
 62
     1
370
    25
100
AcDbSpline
210
0.0
220
0.0
230
1.0
 70
     8
 71
     3
 72
     8
 73
     4
 74
     0
 42
0.000000001
 43
0.00000001
 40
0.0
 40
0.0
 40
0.0
 40
0.0
 40
1.0
 40
1.0
 40
1.0
 40
1.0
 10
55.15000000000005
 20
2.462652369968981
 30
0.0
 10
53.46587153796298
 20
3.373236042056526
 30
0.0
 10
51.87553162703743
 20
4.136275508719679
 30
0.0
 10
50.34539622185753
 20
4.80460377814249
 30
0.0
1001
PE_URL
1000

  0
LINE
  5
C0
330
1F
100
AcDbEntity
  8
0
  6
Continuous
 62
     1
370
    25
100
AcDbLine
 10
55.15000000000005
 20
2.222374313972023
 30
0.0
 11
55.15000000000005
 21
2.462652369968982
 31
0.0
1001
PE_URL
1000

  0
SPLINE
  5
C1
330
1F
100
AcDbEntity
  8
0
  6
Continuous
 62
     1
370
    25
100
AcDbSpline
210
0.0
220
0.0
230
1.0
 70
     8
 71
     3
 72
    13
 73
     9
 74
     0
 42
0.000000001
 43
0.00000001
 40
0.0
 40
0.0
 40
0.0
 40
0.0
 40
0.1966474027254828
 40
0.3932338761095295
 40
0.5897891389933143
 40
0.7863430156782966
 40
0.9829253351530882
 40
1.0
 40
1.0
 40
1.0
 40
1.0
 10
10.14999999999935
 20
-6.938480632166809
 30
0.0
 10
11.06275343705623
 20
-7.301271024478747
 30
0.0
 10
12.88797750313366
 20
-8.02673940192421
 30
0.0
 10
15.62529156293493
 20
-8.86692986737078
 30
0.0
 10
18.36209722309809
 20
-9.505345199468865
 30
0.0
 10
21.09889497025777
 20
-9.877565412116617
 30
0.0
 10
23.00271513683755
 20
-10.03320044467628
 30
0.0
 10
23.99440053192323
 20
-9.993477789343713
 30
0.0
 10
24.07365230929161
 20
-9.99030330371299
 30
0.0
  0
SPLINE
  5
C2
330
1F
100
AcDbEntity
  8
0
  6
Continuous
 62
     1
370
    25
100
AcDbSpline
210
0.0
220
0.0
230
1.0
 70
     8
 71
     3
 72
     9
 73
     5
 74
     0
 42
0.000000001
 43
0.00000001
 40
0.0
 40
0.0
 40
0.0
 40
0.0
 40
0.324338668619205
 40
1.0
 40
1.0
 40
1.0
 40
1.0
 10
14.33728780979231
 20
-8.434363621065545
 30
0.0
 10
13.88460410489716
 20
-8.580295079027586
 30
0.0
 10
12.48889107807139
 20
-9.030230507890607
 30
0.0
 10
11.09308929266884
 20
-9.305711591482375
 30
0.0
 10
10.15000000000006
 20
-9.491843507192208
 30
0.0
  0
LINE
  5
C3
330
1F
100
AcDbEntity
  8
0
  6
Continuous
 62
     1
370
    25
100
AcDbLine
 10
55.15000000000005
 20
-0.499999999999995
 30
0.0
 11
55.15000000000005
 21
-7.266081778456253
 31
0.0
1001
PE_URL
1000

  0
ELLIPSE
  5
C4
330
1F
100
AcDbEntity
  8
0
  6
Continuous
 62
     1
370
    25
100
AcDbEllipse
 10
55.86407400337111
 20
0.0000000000000022
 30
0.0
 11
14.28148006742111
 21
0.0
 31
0.0
210
0.0
220
0.0
230
1.0
 40
0.7002075382097123
 41
1.620817183600667
 42
1.716014156413954
1001
PE_URL
1000

  0
LINE
  5
C5
330
1F
100
AcDbEntity
  8
0
  6
Continuous
 62
     1
370
    25
100
AcDbLine
 10
55.15000000000005
 20
2.462652369968982
 30
0.0
 11
55.15000000000005
 21
9.987492177719101
 31
0.0
1001
PE_URL
1000

  0
LINE
  5
C6
330
1F
100
AcDbEntity
  8
0
  6
Continuous
 62
     1
370
    25
100
AcDbLine
 10
55.15000000000005
 20
9.987492177719101
 30
0.0
 11
55.15000000000005
 21
10.00000000000001
 31
0.0
1001
PE_URL
1000

  0
LINE
  5
C7
330
1F
100
AcDbEntity
  8
중심선
100
AcDbLine
 10
-47.84999999999995
 20
-0.0000000000000017
 30
0.0
 11
62.12629711755007
 21
0.0000000000000111
 31
0.0
  0
CIRCLE
  5
C8
330
1F
100
AcDbEntity
  8
해칭선
100
AcDbCircle
 10
-0.0000000000000004
 20
0.0
 30
0.0
 40
3.000000000000001
  0
INSERT
  5
C9
330
1F
100
AcDbEntity
  8
0
  6
Continuous
 62
     7
100
AcDbBlockReference
 66
     1
  2
블럭10
 10
-6.940272932125207
 20
-52.04717430164393
 30
0.0
  0
ATTRIB
  5
CA
330
C9
100
AcDbEntity
  8
FORMAT
 62
     2
100
AcDbText
 10
-19.90021212698297
 20
-49.97180738881174
 30
0.0
 40
4.233333333333333
  1
SEME36200E [ 4 FLUTE ]
 41
0.75
  7
SLDTEXTSTYLE0
 11
-19.90021212698297
 21
-52.08847405547841
 31
0.0
100
AcDbAttribute
  2
AUTOATTR0
 70
     0
 74
     1
  0
SEQEND
  5
CB
330
C9
100
AcDbEntity
  8
0
  6
Continuous
 62
     7
  0
HATCH
  5
CC
330
1F
100
AcDbEntity
  8
중심선
100
AcDbHatch
 10
0.0
 20
0.0
 30
0.0
210
0.0
220
0.0
230
1.0
  2
SOLID
 70
     1
 71
     0
 91
        1
 92
        0
 93
        4
 72
     1
 10
-1.225363627744373
 20
-35.8
 11
-4.671638871581655
 21
-35.8
 72
     1
 10
-4.671638871581655
 20
-35.8
 11
-6.799868730785678
 21
-38.33632558057259
 72
     1
 10
-6.799868730785678
 20
-38.33632558057259
 11
-3.353560401835247
 21
-38.3362861512701
 72
     1
 10
-3.353560401835247
 20
-38.3362861512701
 11
-1.225363627744373
 21
-35.8
 97
        0
 75
     0
 76
     1
 98
        1
 10
0.5000129285420059
 20
0.0
  0
HATCH
  5
CD
330
1F
100
AcDbEntity
  8
중심선
100
AcDbHatch
 10
0.0
 20
0.0
 30
0.0
210
0.0
220
0.0
230
1.0
  2
SOLID
 70
     1
 71
     0
 91
        1
 92
        0
 93
        4
 72
     1
 10
3.787400363291606
 20
-35.8
 11
0.3411251194543792
 21
-35.79999999999997
 72
     1
 10
0.3411251194543792
 20
-35.79999999999997
 11
-4.190012888903093
 21
-41.20000000000002
 72
     1
 10
-4.190012888903093
 20
-41.20000000000002
 11
-0.74373764506581
 21
-41.20000000000002
 72
     1
 10
-0.74373764506581
 20
-41.20000000000002
 11
3.787400363291606
 21
-35.8
 97
        0
 75
     0
 76
     1
 98
        1
 10
0.5000129285420059
 20
0.0
  0
HATCH
  5
CE
330
1F
100
AcDbEntity
  8
중심선
100
AcDbHatch
 10
0.0
 20
0.0
 30
0.0
210
0.0
220
0.0
230
1.0
  2
SOLID
 70
     1
 71
     0
 91
        1
 92
        0
 93
        4
 72
     1
 10
8.800164354327501
 20
-35.79999999999997
 11
5.353889110490385
 21
-35.79999999999997
 72
     1
 10
5.353889110490385
 20
-35.79999999999997
 11
-1.694547791398891
 21
-44.20000000000002
 72
     1
 10
-1.694547791398891
 20
-44.20000000000002
 11
1.751727452438391
 21
-44.20000000000002
 72
     1
 10
1.751727452438391
 20
-44.20000000000002
 11
8.800164354327501
 21
-35.79999999999997
 97
        0
 75
     0
 76
     1
 98
        1
 10
0.5000129285420059
 20
0.0
  0
HATCH
  5
CF
330
1F
100
AcDbEntity
  8
중심선
100
AcDbHatch
 10
0.0
 20
0.0
 30
0.0
210
0.0
220
0.0
230
1.0
  2
SOLID
 70
     1
 71
     0
 91
        1
 92
        0
 93
        6
 72
     3
 10
13.60005478533967
 20
-40.00000000005127
 11
3.960054785062283
 21
1.540882976769353E-10
 40
0.3939339440162628
 50
17.09539180608436
 51
320.0019657685077
 73
     0
 72
     1
 10
15.28305444104024
 20
-38.5878940046383
 11
17.58835631474131
 21
-36.65356729459038
 72
     3
 10
13.60005478528683
 20
-40.00000000000015
 11
6.600054785286829
 21
-1.278976924368180E-13
 40
0.636358354079598
 50
39.99873849337408
 51
368.4976242363724
 73
     1
 72
     1
 10
20.02538727718743
 20
-39.03999999993002
 11
12.28012209212275
 21
-39.03999999993002
 72
     1
 10
12.28012209212275
 20
-39.03999999993002
 11
12.28009704767681
 21
-40.95999999992991
 72
     1
 10
12.28009704767681
 20
-40.95999999992991
 11
16.72147681714885
 21
-40.95999999992988
 97
        0
 75
     0
 76
     1
 98
        1
 10
0.5000129285420059
 20
0.0
  0
DIMENSION
  5
D0
330
1F
100
AcDbEntity
  8
치수문자_일반주서
100
AcDbDimension
  2
_D
 10
68.14999999999999
 20
10.00000000000006
 30
0.0
 11
68.15000000000003
 21
0.000000000000006
 31
0.0
 70
   160
  1
%%c<>
 71
     2
 42
19.99674749449163
 52
-270.0
  3
SLDDIMSTYLE0
100
AcDbAlignedDimension
 13
55.01906961833213
 23
-9.996747494491617
 33
0.0
 14
55.15000000000005
 24
10.00000000000001
 34
0.0
 50
90.0000000000002
100
AcDbRotatedDimension
  0
DIMENSION
  5
DE
330
1F
100
AcDbEntity
  8
치수문자_일반주서
100
AcDbDimension
  2
_D_1
 10
55.15000000000005
 20
24.32836952549911
 30
0.0
 11
5.150000000000041
 21
24.32836952549911
 31
0.0
 70
   160
  1
<>
 71
     2
 42
100.0
  3
SLDDIMSTYLE1
100
AcDbAlignedDimension
 13
-44.84999999999997
 23
9.499999999999995
 33
0.0
 14
55.15000000000005
 24
-0.499999999999995
 34
0.0
 50
-0.0000000000000041
100
AcDbRotatedDimension
  0
DIMENSION
  5
E9
330
1F
100
AcDbEntity
  8
치수문자_일반주서
100
AcDbDimension
  2
_D_2
 10
-59.21763956161984
 20
-10.00000000000006
 30
0.0
 11
-59.21763956161988
 21
-0.3510694960153966
 31
0.0
 70
   160
  1
%%c<>
 71
     2
 42
20.00000000000002
 52
-270.0
  3
SLDDIMSTYLE2
100
AcDbAlignedDimension
 13
-44.34999999999997
 23
10.00000000000001
 33
0.0
 14
-44.34999999999997
 24
-10.00000000000001
 34
0.0
 50
90.0000000000002
100
AcDbRotatedDimension
  0
DIMENSION
  5
F7
330
1F
100
AcDbEntity
  8
치수문자_일반주서
100
AcDbDimension
  2
_D_3
 10
10.15000000000005
 20
13.27381355106574
 30
0.0
 11
32.65000000000005
 21
13.27381355106574
 31
0.0
 70
   160
  1
<>
 71
     2
 42
45.0
  3
SLDDIMSTYLE1
100
AcDbAlignedDimension
 13
55.15000000000005
 23
9.987492177719101
 33
0.0
 14
10.15000000000005
 24
9.491843507190083
 34
0.0
 50
-0.0000000000000136
100
AcDbRotatedDimension
  0
INSERT
  5
107
330
1F
100
AcDbEntity
  8
해칭선
100
AcDbBlockReference
  2
SW_DOWELSYMBOL_0
 10
-0.0000000000000004
 20
0.0
 30
0.0
  0
LINE
  5
15C
330
1F
100
AcDbEntity
  8
0
  6
Continuous
 62
     4
370
    25
100
AcDbLine
 10
0.1500000000000496
 20
9.850000000000001
 30
0.0
 11
0.1500000000000496
 21
-9.85
 31
0.0
1001
PE_URL
1000

  0
LINE
  5
15D
330
1F
100
AcDbEntity
  8
0
  6
Continuous
 62
     4
370
    25
100
AcDbLine
 10
0.1500000000000496
 20
9.850000000000001
 30
0.0
 11
0.00000000000005
 21
10.0
 31
0.0
1001
PE_URL
1000

  0
LINE
  5
15E
330
1F
100
AcDbEntity
  8
0
  6
Continuous
 62
     4
370
    25
100
AcDbLine
 10
0.1499999999999511
 20
-9.850000000000001
 30
0.0
 11
-0.00000000000005
 21
-10.0
 31
0.0
1001
PE_URL
1000

  0
LINE
  5
15F
330
1F
100
AcDbEntity
  8
0
  6
Continuous
 62
     4
370
    25
100
AcDbLine
 10
-0.00000000000005
 20
-10.0
 30
0.0
 11
0.00000000000005
 21
10.0
 31
0.0
1001
PE_URL
1000

  0
LINE
  5
160
102
{ACAD_REACTORS
102
}
330
1F
100
AcDbEntity
  8
0
  6
Continuous
 62
     4
370
    25
100
AcDbLine
 10
0.1500000000000496
 20
9.850000000000001
 30
0.0
 11
8.7370130088894
 21
9.85
 31
0.0
1001
PE_URL
1000

  0
LINE
  5
164
330
1F
100
AcDbEntity
  8
0
  6
Continuous
 62
     4
370
    25
100
AcDbLine
 10
0.1500000000000143
 20
-9.84999999999996
 30
0.0
 11
8.737013008889365
 21
-9.849999999999989
 31
0.0
1001
PE_URL
1000

  0
DIMENSION
  5
165
102
{ACAD_REACTORS
102
}
102
{ACAD_XDICTIONARY
360
166
102
}
330
1F
100
AcDbEntity
  8
치수문자_일반주서
100
AcDbDimension
  2
*D7
 10
55.15000000000005
 20
18.42381355106574
 30
0.0
 11
27.65000000000005
 21
21.04881355106574
 31
0.0
 70
    32
 71
     5
 42
55.0
  3
SLDDIMSTYLE1
100
AcDbAlignedDimension
 13
0.1500000000000496
 23
9.850000000000001
 33
0.0
 14
55.15000000000005
 24
10.55195492626835
 34
0.0
100
AcDbRotatedDimension
1001
ENABLE_CUSTOM_SPLIT
1070
     1
1001
PE_URL
1000

  0
ENDSEC
  0
SECTION
  2
OBJECTS
  0
DICTIONARY
  5
C
330
0
100
AcDbDictionary
281
     1
  3
ACAD_GROUP
350
D
  3
ACAD_LAYOUT
350
1A
  3
ACAD_MLINESTYLE
350
17
  3
ACAD_PLOTSETTINGS
350
19
  3
ACAD_PLOTSTYLENAME
350
E
  3
ACAD_SCALELIST
350
47
  3
APPDATA
350
129
  3
DWGPROPS
350
178
  0
DICTIONARY
  5
162
330
1F
100
AcDbDictionary
280
     1
281
     1
  3
ACAD_SORTENTS
360
163
  3
DIM_BOUNDING_BOXES_V1
360
177
  0
DICTIONARY
  5
166
330
165
100
AcDbDictionary
280
     1
281
     1
  3
ACAD_CUSTOM_BREAKDATA
360
175
  0
DICTIONARY
  5
D
102
{ACAD_REACTORS
330
C
102
}
330
C
100
AcDbDictionary
281
     1
  0
DICTIONARY
  5
1A
102
{ACAD_REACTORS
330
C
102
}
330
C
100
AcDbDictionary
281
     1
  3
Layout1
350
1E
  3
Layout2
350
26
  3
Model
350
22
  0
DICTIONARY
  5
17
102
{ACAD_REACTORS
330
C
102
}
330
C
100
AcDbDictionary
281
     1
  3
Standard
350
18
  0
DICTIONARY
  5
19
102
{ACAD_REACTORS
330
C
102
}
330
C
100
AcDbDictionary
281
     1
  0
ACDBDICTIONARYWDFLT
  5
E
102
{ACAD_REACTORS
330
C
102
}
330
C
100
AcDbDictionary
281
     1
  3
Normal
350
F
100
AcDbDictionaryWithDefault
340
F
  0
DICTIONARY
  5
47
102
{ACAD_REACTORS
330
C
102
}
330
C
100
AcDbDictionary
281
     1
  3
A0
350
48
  3
A1
350
49
  3
A2
350
4A
  3
A3
350
4B
  3
A4
350
4C
  3
A5
350
4D
  3
A6
350
4E
  3
A7
350
4F
  3
A8
350
50
  3
A9
350
51
  3
B0
350
52
  3
B1
350
53
  3
B2
350
54
  3
B3
350
55
  3
B4
350
56
  3
B5
350
57
  3
B6
350
58
  3
B7
350
59
  3
B8
350
5A
  3
B9
350
5B
  3
C0
350
5C
  3
C1
350
5D
  3
C2
350
5E
  3
C3
350
5F
  3
C4
350
60
  3
C5
350
61
  3
C6
350
62
  3
C7
350
63
  3
C8
350
64
  3
C9
350
65
  3
D0
350
66
  3
D1
350
67
  3
D2
350
68
  0
DICTIONARY
  5
129
102
{ACAD_REACTORS
330
C
102
}
330
C
100
AcDbDictionary
281
     1
  0
XRECORD
  5
178
102
{ACAD_REACTORS
330
C
102
}
330
C
100
AcDbXrecord
280
     1
  1
DWGPROPS COOKIE
  2

  3

  4

  6

  7

  8
12016016
  9

300
=
301
=
302
=
303
=
304
=
305
=
306
=
307
=
308
=
309
=
 40
0.0
 41
2458250.18289169
 42
2459702.359861597
  1

 90
        0
  0
SORTENTSTABLE
  5
163
102
{ACAD_REACTORS
330
162
102
}
330
162
100
AcDbSortentsTable
330
1F
  0
DICTIONARY
  5
177
102
{ACAD_REACTORS
330
162
102
}
330
162
100
AcDbDictionary
281
     1
  0
BREAKDATA
  5
175
102
{ACAD_REACTORS
330
166
102
}
330
166
100
AcDbBreakData
 70
     0
330
165
 90
        0
  0
LAYOUT
  5
1E
102
{ACAD_REACTORS
330
1A
102
}
330
1A
100
AcDbPlotSettings
  1

  2
none_device
  4

  6

 40
0.0
 41
0.0
 42
0.0
 43
0.0
 44
0.0
 45
0.0
 46
0.0
 47
0.0
 48
0.0
 49
0.0
140
0.0
141
0.0
142
1.0
143
1.0
 70
   688
 72
     1
 73
     0
 74
     5
  7

 75
    16
147
1.0
148
0.0
149
0.0
100
AcDbLayout
  1
Layout1
 70
     1
 71
     1
 10
0.0
 20
0.0
 11
420.0
 21
297.0
 12
0.0
 22
0.0
 32
0.0
 14
1.000000000000000E+20
 24
1.000000000000000E+20
 34
1.000000000000000E+20
 15
-1.000000000000000E+20
 25
-1.000000000000000E+20
 35
-1.000000000000000E+20
146
0.0
 13
0.0
 23
0.0
 33
0.0
 16
1.0
 26
0.0
 36
0.0
 17
0.0
 27
1.0
 37
0.0
 76
     0
330
1B
  0
LAYOUT
  5
26
102
{ACAD_REACTORS
330
1A
102
}
330
1A
100
AcDbPlotSettings
  1

  2
none_device
  4

  6

 40
0.0
 41
0.0
 42
0.0
 43
0.0
 44
0.0
 45
0.0
 46
0.0
 47
0.0
 48
0.0
 49
0.0
140
0.0
141
0.0
142
1.0
143
1.0
 70
   688
 72
     1
 73
     0
 74
     5
  7

 75
    16
147
1.0
148
0.0
149
0.0
100
AcDbLayout
  1
Layout2
 70
     1
 71
     2
 10
0.0
 20
0.0
 11
0.0
 21
0.0
 12
0.0
 22
0.0
 32
0.0
 14
0.0
 24
0.0
 34
0.0
 15
0.0
 25
0.0
 35
0.0
146
0.0
 13
0.0
 23
0.0
 33
0.0
 16
1.0
 26
0.0
 36
0.0
 17
0.0
 27
1.0
 37
0.0
 76
     0
330
23
  0
LAYOUT
  5
22
102
{ACAD_REACTORS
330
1A
102
}
330
1A
100
AcDbPlotSettings
  1

  2
none_device
  4
ANSI_A_(11.00_x_8.50_Inches)
  6

 40
6.35
 41
19.05
 42
6.35000508
 43
19.05000254
 44
279.4
 45
215.9
 46
123.9849898630934
 47
111.8101881403269
 48
0.0
 49
0.0
140
0.0
141
0.0
142
0.0824638603209911
143
1.0
 70
  1696
 72
     0
 73
     0
 74
     0
  7

 75
     0
147
0.0235690232323232
148
0.0
149
0.0
100
AcDbLayout
  1
Model
 70
     1
 71
     0
 10
0.0
 20
0.0
 11
420.0
 21
297.0
 12
0.0
 22
0.0
 32
0.0
 14
-63.59263956161989
 24
-49.97180738881174
 34
0.0
 15
68.70033333333338
 25
28.70336952549911
 35
0.0
146
0.0
 13
0.0
 23
0.0
 33
0.0
 16
1.0
 26
0.0
 36
0.0
 17
0.0
 27
1.0
 37
0.0
 76
     0
330
1F
331
29
  0
MLINESTYLE
  5
18
102
{ACAD_REACTORS
330
17
102
}
330
17
100
AcDbMlineStyle
  2
Standard
 70
     0
  3

 62
   256
 51
90.0
 52
90.0
 71
     2
 49
0.5
 62
   256
  6
BYLAYER
 49
-0.5
 62
   256
  6
BYLAYER
  0
ACDBPLACEHOLDER
  5
F
102
{ACAD_REACTORS
330
E
102
}
330
E
  0
SCALE
  5
48
102
{ACAD_REACTORS
330
47
102
}
330
47
100
AcDbScale
 70
     0
300
1:1
140
1.0
141
1.0
290
     1
  0
SCALE
  5
49
102
{ACAD_REACTORS
330
47
102
}
330
47
100
AcDbScale
 70
     0
300
1:2
140
1.0
141
2.0
290
     0
  0
SCALE
  5
4A
102
{ACAD_REACTORS
330
47
102
}
330
47
100
AcDbScale
 70
     0
300
1:4
140
1.0
141
4.0
290
     0
  0
SCALE
  5
4B
102
{ACAD_REACTORS
330
47
102
}
330
47
100
AcDbScale
 70
     0
300
1:5
140
1.0
141
5.0
290
     0
  0
SCALE
  5
4C
102
{ACAD_REACTORS
330
47
102
}
330
47
100
AcDbScale
 70
     0
300
1:8
140
1.0
141
8.0
290
     0
  0
SCALE
  5
4D
102
{ACAD_REACTORS
330
47
102
}
330
47
100
AcDbScale
 70
     0
300
1:10
140
1.0
141
10.0
290
     0
  0
SCALE
  5
4E
102
{ACAD_REACTORS
330
47
102
}
330
47
100
AcDbScale
 70
     0
300
1:16
140
1.0
141
16.0
290
     0
  0
SCALE
  5
4F
102
{ACAD_REACTORS
330
47
102
}
330
47
100
AcDbScale
 70
     0
300
1:20
140
1.0
141
20.0
290
     0
  0
SCALE
  5
50
102
{ACAD_REACTORS
330
47
102
}
330
47
100
AcDbScale
 70
     0
300
1:30
140
1.0
141
30.0
290
     0
  0
SCALE
  5
51
102
{ACAD_REACTORS
330
47
102
}
330
47
100
AcDbScale
 70
     0
300
1:40
140
1.0
141
40.0
290
     0
  0
SCALE
  5
52
102
{ACAD_REACTORS
330
47
102
}
330
47
100
AcDbScale
 70
     0
300
1:50
140
1.0
141
50.0
290
     0
  0
SCALE
  5
53
102
{ACAD_REACTORS
330
47
102
}
330
47
100
AcDbScale
 70
     0
300
1:100
140
1.0
141
100.0
290
     0
  0
SCALE
  5
54
102
{ACAD_REACTORS
330
47
102
}
330
47
100
AcDbScale
 70
     0
300
2:1
140
2.0
141
1.0
290
     0
  0
SCALE
  5
55
102
{ACAD_REACTORS
330
47
102
}
330
47
100
AcDbScale
 70
     0
300
4:1
140
4.0
141
1.0
290
     0
  0
SCALE
  5
56
102
{ACAD_REACTORS
330
47
102
}
330
47
100
AcDbScale
 70
     0
300
8:1
140
8.0
141
1.0
290
     0
  0
SCALE
  5
57
102
{ACAD_REACTORS
330
47
102
}
330
47
100
AcDbScale
 70
     0
300
10:1
140
10.0
141
1.0
290
     0
  0
SCALE
  5
58
102
{ACAD_REACTORS
330
47
102
}
330
47
100
AcDbScale
 70
     0
300
100:1
140
100.0
141
1.0
290
     0
  0
SCALE
  5
59
102
{ACAD_REACTORS
330
47
102
}
330
47
100
AcDbScale
 70
     0
300
1/128" = 1'-0"
140
0.0078125
141
12.0
290
     0
  0
SCALE
  5
5A
102
{ACAD_REACTORS
330
47
102
}
330
47
100
AcDbScale
 70
     0
300
1/64" = 1'-0"
140
0.015625
141
12.0
290
     0
  0
SCALE
  5
5B
102
{ACAD_REACTORS
330
47
102
}
330
47
100
AcDbScale
 70
     0
300
1/32" = 1'-0"
140
0.03125
141
12.0
290
     0
  0
SCALE
  5
5C
102
{ACAD_REACTORS
330
47
102
}
330
47
100
AcDbScale
 70
     0
300
1/16" = 1'-0"
140
0.0625
141
12.0
290
     0
  0
SCALE
  5
5D
102
{ACAD_REACTORS
330
47
102
}
330
47
100
AcDbScale
 70
     0
300
3/32" = 1'-0"
140
0.09375
141
12.0
290
     0
  0
SCALE
  5
5E
102
{ACAD_REACTORS
330
47
102
}
330
47
100
AcDbScale
 70
     0
300
1/8" = 1'-0"
140
0.125
141
12.0
290
     0
  0
SCALE
  5
5F
102
{ACAD_REACTORS
330
47
102
}
330
47
100
AcDbScale
 70
     0
300
3/16" = 1'-0"
140
0.1875
141
12.0
290
     0
  0
SCALE
  5
60
102
{ACAD_REACTORS
330
47
102
}
330
47
100
AcDbScale
 70
     0
300
1/4" = 1'-0"
140
0.25
141
12.0
290
     0
  0
SCALE
  5
61
102
{ACAD_REACTORS
330
47
102
}
330
47
100
AcDbScale
 70
     0
300
3/8" = 1'-0"
140
0.375
141
12.0
290
     0
  0
SCALE
  5
62
102
{ACAD_REACTORS
330
47
102
}
330
47
100
AcDbScale
 70
     0
300
1/2" = 1'-0"
140
0.5
141
12.0
290
     0
  0
SCALE
  5
63
102
{ACAD_REACTORS
330
47
102
}
330
47
100
AcDbScale
 70
     0
300
3/4" = 1'-0"
140
0.75
141
12.0
290
     0
  0
SCALE
  5
64
102
{ACAD_REACTORS
330
47
102
}
330
47
100
AcDbScale
 70
     0
300
1" = 1'-0"
140
1.0
141
12.0
290
     0
  0
SCALE
  5
65
102
{ACAD_REACTORS
330
47
102
}
330
47
100
AcDbScale
 70
     0
300
1-1/2" = 1'-0"
140
1.5
141
12.0
290
     0
  0
SCALE
  5
66
102
{ACAD_REACTORS
330
47
102
}
330
47
100
AcDbScale
 70
     0
300
3" = 1'-0"
140
3.0
141
12.0
290
     0
  0
SCALE
  5
67
102
{ACAD_REACTORS
330
47
102
}
330
47
100
AcDbScale
 70
     0
300
6" = 1'-0"
140
6.0
141
12.0
290
     0
  0
SCALE
  5
68
102
{ACAD_REACTORS
330
47
102
}
330
47
100
AcDbScale
 70
     0
300
1'-0" = 1'-0"
140
12.0
141
12.0
290
     0
  0
ENDSEC
  0
EOF
