  0
SECTION
  2
HEADER
  9
$ACADVER
  1
AC1015
  9
$ACADMAINTVER
 70
     6
  9
$DWGCODEPAGE
  3
ANSI_949
  9
$INSBASE
 10
0.0
 20
0.0
 30
0.0
  9
$EXTMIN
 10
-83.00161415783549
 20
-49.97180738881174
 30
0.0
  9
$EXTMAX
 10
68.41635873711775
 20
31.20336952549911
 30
0.0
  9
$LIMMIN
 10
0.0
 20
0.0
  9
$LIMMAX
 10
420.0
 20
297.0
  9
$ORTHOMODE
 70
     1
  9
$REGENMODE
 70
     1
  9
$FILLMODE
 70
     1
  9
$QTEXTMODE
 70
     0
  9
$MIRRTEXT
 70
     1
  9
$LTSCALE
 40
1.0
  9
$ATTMODE
 70
     1
  9
$TEXTSIZE
 40
3.5
  9
$TRACEWID
 40
1.0
  9
$TEXTSTYLE
  7
Standard
  9
$CLAYER
  8
0
  9
$CELTYPE
  6
ByLayer
  9
$CECOLOR
 62
   256
  9
$CELTSCALE
 40
1.0
  9
$DISPSILH
 70
     0
  9
$DIMSCALE
 40
1.0
  9
$DIMASZ
 40
3.302
  9
$DIMEXO
 40
1.0
  9
$DIMDLI
 40
3.75
  9
$DIMRND
 40
0.0
  9
$DIMDLE
 40
0.0
  9
$DIMEXE
 40
1.0
  9
$DIMTP
 40
0.0
  9
$DIMTM
 40
0.0
  9
$DIMTXT
 40
3.5
  9
$DIMCEN
 40
2.5
  9
$DIMTSZ
 40
0.0
  9
$DIMTOL
 70
     0
  9
$DIMLIM
 70
     0
  9
$DIMTIH
 70
     1
  9
$DIMTOH
 70
     1
  9
$DIMSE1
 70
     0
  9
$DIMSE2
 70
     0
  9
$DIMTAD
 70
     1
  9
$DIMZIN
 70
     0
  9
$DIMBLK
  1

  9
$DIMASO
 70
     1
  9
$DIMSHO
 70
     1
  9
$DIMPOST
  1

  9
$DIMAPOST
  1

  9
$DIMALT
 70
     0
  9
$DIMALTD
 70
     3
  9
$DIMALTF
 40
0.0393700787401575
  9
$DIMLFAC
 40
1.0
  9
$DIMTOFL
 70
     1
  9
$DIMTVP
 40
0.0
  9
$DIMTIX
 70
     0
  9
$DIMSOXD
 70
     0
  9
$DIMSAH
 70
     0
  9
$DIMBLK1
  1

  9
$DIMBLK2
  1

  9
$DIMSTYLE
  2
ISO-25
  9
$DIMCLRD
 70
     0
  9
$DIMCLRE
 70
     0
  9
$DIMCLRT
 70
     0
  9
$DIMTFAC
 40
1.0
  9
$DIMGAP
 40
1.524
  9
$DIMJUST
 70
     0
  9
$DIMSD1
 70
     0
  9
$DIMSD2
 70
     0
  9
$DIMTOLJ
 70
     0
  9
$DIMTZIN
 70
     0
  9
$DIMALTZ
 70
     0
  9
$DIMALTTZ
 70
     0
  9
$DIMUPT
 70
     0
  9
$DIMDEC
 70
     2
  9
$DIMTDEC
 70
     2
  9
$DIMALTU
 70
     2
  9
$DIMALTTD
 70
     3
  9
$DIMTXSTY
  7
Standard
  9
$DIMAUNIT
 70
     0
  9
$DIMADEC
 70
     2
  9
$DIMALTRND
 40
0.0
  9
$DIMAZIN
 70
     0
  9
$DIMDSEP
 70
    44
  9
$DIMATFIT
 70
     3
  9
$DIMFRAC
 70
     0
  9
$DIMLDRBLK
  1

  9
$DIMLUNIT
 70
     2
  9
$DIMLWD
 70
    -2
  9
$DIMLWE
 70
    -2
  9
$DIMTMOVE
 70
     0
  9
$LUNITS
 70
     2
  9
$LUPREC
 70
     2
  9
$SKETCHINC
 40
1.0
  9
$FILLETRAD
 40
10.0
  9
$AUNITS
 70
     0
  9
$AUPREC
 70
     2
  9
$MENU
  1
.
  9
$ELEVATION
 40
0.0
  9
$PELEVATION
 40
0.0
  9
$THICKNESS
 40
0.0
  9
$LIMCHECK
 70
     0
  9
$CHAMFERA
 40
0.0
  9
$CHAMFERB
 40
0.0
  9
$CHAMFERC
 40
0.0
  9
$CHAMFERD
 40
0.0
  9
$SKPOLY
 70
     0
  9
$TDCREATE
 40
2458250.558072616
  9
$TDUCREATE
 40
2458250.183072616
  9
$TDUPDATE
 40
2459702.736544167
  9
$TDUUPDATE
 40
2459702.361544167
  9
$TDINDWG
 40
0.0010617361
  9
$TDUSRTIMER
 40
0.0004804977
  9
$USRTIMER
 70
     1
  9
$ANGBASE
 50
0.0
  9
$ANGDIR
 70
     0
  9
$PDMODE
 70
     0
  9
$PDSIZE
 40
-1.0
  9
$PLINEWID
 40
0.0
  9
$SPLFRAME
 70
     0
  9
$SPLINETYPE
 70
     6
  9
$SPLINESEGS
 70
     8
  9
$HANDSEED
  5
164
  9
$SURFTAB1
 70
     6
  9
$SURFTAB2
 70
     6
  9
$SURFTYPE
 70
     6
  9
$SURFU
 70
     6
  9
$SURFV
 70
     6
  9
$UCSBASE
  2

  9
$UCSNAME
  2

  9
$UCSORG
 10
0.0
 20
0.0
 30
0.0
  9
$UCSXDIR
 10
1.0
 20
0.0
 30
0.0
  9
$UCSYDIR
 10
0.0
 20
1.0
 30
0.0
  9
$UCSORTHOREF
  2

  9
$UCSORTHOVIEW
 70
     0
  9
$UCSORGTOP
 10
0.0
 20
0.0
 30
0.0
  9
$UCSORGBOTTOM
 10
0.0
 20
0.0
 30
0.0
  9
$UCSORGLEFT
 10
0.0
 20
0.0
 30
0.0
  9
$UCSORGRIGHT
 10
0.0
 20
0.0
 30
0.0
  9
$UCSORGFRONT
 10
0.0
 20
0.0
 30
0.0
  9
$UCSORGBACK
 10
0.0
 20
0.0
 30
0.0
  9
$PUCSBASE
  2

  9
$PUCSNAME
  2

  9
$PUCSORG
 10
0.0
 20
0.0
 30
0.0
  9
$PUCSXDIR
 10
1.0
 20
0.0
 30
0.0
  9
$PUCSYDIR
 10
0.0
 20
1.0
 30
0.0
  9
$PUCSORTHOREF
  2

  9
$PUCSORTHOVIEW
 70
     0
  9
$PUCSORGTOP
 10
0.0
 20
0.0
 30
0.0
  9
$PUCSORGBOTTOM
 10
0.0
 20
0.0
 30
0.0
  9
$PUCSORGLEFT
 10
0.0
 20
0.0
 30
0.0
  9
$PUCSORGRIGHT
 10
0.0
 20
0.0
 30
0.0
  9
$PUCSORGFRONT
 10
0.0
 20
0.0
 30
0.0
  9
$PUCSORGBACK
 10
0.0
 20
0.0
 30
0.0
  9
$USERI1
 70
     0
  9
$USERI2
 70
     0
  9
$USERI3
 70
     0
  9
$USERI4
 70
     0
  9
$USERI5
 70
     0
  9
$USERR1
 40
0.0
  9
$USERR2
 40
0.0
  9
$USERR3
 40
0.0
  9
$USERR4
 40
0.0
  9
$USERR5
 40
0.0
  9
$WORLDVIEW
 70
     1
  9
$SHADEDGE
 70
     3
  9
$SHADEDIF
 70
    70
  9
$TILEMODE
 70
     1
  9
$MAXACTVP
 70
    64
  9
$PINSBASE
 10
0.0
 20
0.0
 30
0.0
  9
$PLIMCHECK
 70
     0
  9
$PEXTMIN
 10
1.000000000000000E+20
 20
1.000000000000000E+20
 30
1.000000000000000E+20
  9
$PEXTMAX
 10
-1.000000000000000E+20
 20
-1.000000000000000E+20
 30
-1.000000000000000E+20
  9
$PLIMMIN
 10
0.0
 20
0.0
  9
$PLIMMAX
 10
0.0
 20
0.0
  9
$UNITMODE
 70
     0
  9
$VISRETAIN
 70
     1
  9
$PLINEGEN
 70
     0
  9
$PSLTSCALE
 70
     1
  9
$TREEDEPTH
 70
  3020
  9
$CMLSTYLE
  2
Standard
  9
$CMLJUST
 70
     0
  9
$CMLSCALE
 40
20.0
  9
$PROXYGRAPHICS
 70
     1
  9
$MEASUREMENT
 70
     1
  9
$CELWEIGHT
370
    -1
  9
$ENDCAPS
280
     0
  9
$JOINSTYLE
280
     0
  9
$LWDISPLAY
290
     1
  9
$INSUNITS
 70
     4
  9
$HYPERLINKBASE
  1

  9
$STYLESHEET
  1

  9
$XEDIT
290
     1
  9
$CEPSNTYPE
380
     0
  9
$PSTYLEMODE
290
     1
  9
$FINGERPRINTGUID
  2
{9A278C99-67F9-45AE-9D8D-EA890F1875C5}
  9
$VERSIONGUID
  2
{FAEB1C32-E019-11D5-929B-00C0DF256EC4}
  9
$EXTNAMES
290
     1
  9
$PSVPSCALE
 40
0.0
  9
$OLESTARTUP
290
     0
  0
ENDSEC
  0
SECTION
  2
CLASSES
  0
CLASS
  1
ACDBDICTIONARYWDFLT
  2
AcDbDictionaryWithDefault
  3
ObjectDBX Classes
 90
        0
280
     0
281
     0
  0
CLASS
  1
VISUALSTYLE
  2
AcDbVisualStyle
  3
ObjectDBX Classes
 90
     4095
280
     0
281
     0
  0
CLASS
  1
MATERIAL
  2
AcDbMaterial
  3
ObjectDBX Classes
 90
     1153
280
     0
281
     0
  0
CLASS
  1
SCALE
  2
AcDbScale
  3
ObjectDBX Classes
 90
     1153
280
     0
281
     0
  0
CLASS
  1
TABLESTYLE
  2
AcDbTableStyle
  3
ObjectDBX Classes
 90
     4095
280
     0
281
     0
  0
CLASS
  1
MLEADERSTYLE
  2
AcDbMLeaderStyle
  3
ACDB_MLEADERSTYLE_CLASS
 90
     4095
280
     0
281
     0
  0
CLASS
  1
SUN
  2
AcDbSun
  3
SCENEOE
 90
     1153
280
     0
281
     0
  0
CLASS
  1
ACDBPLACEHOLDER
  2
AcDbPlaceHolder
  3
ObjectDBX Classes
 90
        0
280
     0
281
     0
  0
CLASS
  1
LAYOUT
  2
AcDbLayout
  3
ObjectDBX Classes
 90
        0
280
     0
281
     0
  0
ENDSEC
  0
SECTION
  2
TABLES
  0
TABLE
  2
VPORT
  5
8
330
0
100
AcDbSymbolTable
 70
     1
  0
VPORT
  5
29
330
8
100
AcDbSymbolTableRecord
100
AcDbViewportTableRecord
  2
*Active
 70
     0
 10
0.0
 20
0.0
 11
1.0
 21
1.0
 12
-0.5097503844472655
 22
-1.393085521940582
 13
0.0
 23
0.0
 14
10.0
 24
10.0
 15
10.0
 25
10.0
 16
0.0
 26
0.0
 36
1.0
 17
0.0
 27
0.0
 37
0.0
 40
31.78022858320251
 41
1.531481481481481
 42
50.0
 43
0.0
 44
0.0
 50
0.0
 51
0.0
 71
    16
 72
  2000
 73
     1
 74
     3
 75
     0
 76
     0
 77
     0
 78
     0
281
     0
 65
     1
110
0.0
120
0.0
130
0.0
111
1.0
121
0.0
131
0.0
112
0.0
122
1.0
132
0.0
 79
     0
146
0.0
  0
ENDTAB
  0
TABLE
  2
LTYPE
  5
5
330
0
100
AcDbSymbolTable
 70
     6
  0
LTYPE
  5
14
330
5
100
AcDbSymbolTableRecord
100
AcDbLinetypeTableRecord
  2
ByBlock
 70
     0
  3

 72
    65
 73
     0
 40
0.0
  0
LTYPE
  5
15
330
5
100
AcDbSymbolTableRecord
100
AcDbLinetypeTableRecord
  2
ByLayer
 70
     0
  3

 72
    65
 73
     0
 40
0.0
  0
LTYPE
  5
16
330
5
100
AcDbSymbolTableRecord
100
AcDbLinetypeTableRecord
  2
Continuous
 70
     0
  3
Solid line
 72
    65
 73
     0
 40
0.0
  0
LTYPE
  5
6E
330
5
100
AcDbSymbolTableRecord
100
AcDbLinetypeTableRecord
  2
HIDDEN
 70
     0
  3
Hidden __ __ __ __ __ __ __ __ __ __ __ __ __ __
 72
    65
 73
     2
 40
1.905
 49
1.27
 74
     0
 49
-0.635
 74
     0
  0
LTYPE
  5
6F
330
5
100
AcDbSymbolTableRecord
100
AcDbLinetypeTableRecord
  2
PHANTOM
 70
     0
  3
Phantom ______  __  __  ______  __  __  ______
 72
    65
 73
     6
 40
12.7
 49
6.35
 74
     0
 49
-1.27
 74
     0
 49
1.27
 74
     0
 49
-1.27
 74
     0
 49
1.27
 74
     0
 49
-1.27
 74
     0
  0
LTYPE
  5
70
330
5
100
AcDbSymbolTableRecord
100
AcDbLinetypeTableRecord
  2
CENTER
 70
     0
  3
Center ____ _ ____ _ ____ _ ____ _ ____ _ ____
 72
    65
 73
     4
 40
10.16
 49
6.35
 74
     0
 49
-1.27
 74
     0
 49
1.27
 74
     0
 49
-1.27
 74
     0
  0
LTYPE
  5
71
330
5
100
AcDbSymbolTableRecord
100
AcDbLinetypeTableRecord
  2
CENTERX2
 70
     0
  3
Center (2x) ________  __  ________  __  _____
 72
    65
 73
     4
 40
20.32
 49
12.7
 74
     0
 49
-2.54
 74
     0
 49
2.54
 74
     0
 49
-2.54
 74
     0
  0
LTYPE
  5
72
330
5
100
AcDbSymbolTableRecord
100
AcDbLinetypeTableRecord
  2
DOT2
 70
     0
  3
Dot (.5x) ........................................
 72
    65
 73
     2
 40
0.635
 49
0.0
 74
     0
 49
-0.635
 74
     0
  0
ENDTAB
  0
TABLE
  2
LAYER
  5
2
330
0
100
AcDbSymbolTable
 70
    17
  0
LAYER
  5
10
330
2
100
AcDbSymbolTableRecord
100
AcDbLayerTableRecord
  2
0
 70
     0
 62
     7
  6
Continuous
370
    -3
390
F
  0
LAYER
  5
73
330
2
100
AcDbSymbolTableRecord
100
AcDbLayerTableRecord
  2
FORMAT
 70
     0
 62
     2
  6
Continuous
370
    -3
390
F
  0
LAYER
  5
74
330
2
100
AcDbSymbolTableRecord
100
AcDbLayerTableRecord
  2
외형선
 70
     0
 62
   100
  6
Continuous
370
    35
390
F
  0
LAYER
  5
75
330
2
100
AcDbSymbolTableRecord
100
AcDbLayerTableRecord
  2
숨은선
 70
     0
 62
     2
  6
HIDDEN
370
    25
390
F
  0
LAYER
  5
76
330
2
100
AcDbSymbolTableRecord
100
AcDbLayerTableRecord
  2
중심선
 70
     0
 62
     1
  6
CENTERX2
370
    -3
390
F
  0
LAYER
  5
77
330
2
100
AcDbSymbolTableRecord
100
AcDbLayerTableRecord
  2
파단선
 70
     0
 62
     4
  6
Continuous
370
    -3
390
F
  0
LAYER
  5
78
330
2
100
AcDbSymbolTableRecord
100
AcDbLayerTableRecord
  2
해칭선
 70
     0
 62
   100
  6
Continuous
370
    -3
390
F
  0
LAYER
  5
79
330
2
100
AcDbSymbolTableRecord
100
AcDbLayerTableRecord
  2
가는실선
 70
     0
 62
     4
  6
Continuous
370
    -3
390
F
  0
LAYER
  5
7A
330
2
100
AcDbSymbolTableRecord
100
AcDbLayerTableRecord
  2
치수_보조선
 70
     0
 62
     4
  6
Continuous
370
    -3
390
F
  0
LAYER
  5
7B
330
2
100
AcDbSymbolTableRecord
100
AcDbLayerTableRecord
  2
치수문자_일반주서
 70
     0
 62
     7
  6
Continuous
370
    25
390
F
  0
LAYER
  5
7C
330
2
100
AcDbSymbolTableRecord
100
AcDbLayerTableRecord
  2
개별주서
 70
     0
 62
   100
  6
Continuous
370
    35
390
F
  0
LAYER
  5
7D
330
2
100
AcDbSymbolTableRecord
100
AcDbLayerTableRecord
  2
중간선
 70
     0
 62
     2
  6
Continuous
370
    25
390
F
  0
LAYER
  5
7E
330
2
100
AcDbSymbolTableRecord
100
AcDbLayerTableRecord
  2
윤곽선
 70
     0
 62
     3
  6
Continuous
370
    50
390
F
  0
LAYER
  5
7F
330
2
100
AcDbSymbolTableRecord
100
AcDbLayerTableRecord
  2
중심마크
 70
     0
 62
   100
  6
Continuous
370
    35
390
F
  0
LAYER
  5
80
330
2
100
AcDbSymbolTableRecord
100
AcDbLayerTableRecord
  2
가상선
 70
     0
 62
     4
  6
PHANTOM
370
    -3
390
F
  0
LAYER
  5
81
330
2
100
AcDbSymbolTableRecord
100
AcDbLayerTableRecord
  2
특수지정선
 70
     0
 62
     5
  6
CENTERX2
370
    70
390
F
  0
LAYER
  5
131
330
2
100
AcDbSymbolTableRecord
100
AcDbLayerTableRecord
  2
Defpoints
 70
     0
 62
     7
  6
Continuous
290
     0
370
    -3
390
F
  0
ENDTAB
  0
TABLE
  2
STYLE
  5
3
330
0
100
AcDbSymbolTable
 70
     2
  0
STYLE
  5
11
330
3
100
AcDbSymbolTableRecord
100
AcDbTextStyleTableRecord
  2
Standard
 70
     0
 40
0.0
 41
1.0
 50
0.0
 71
     0
 42
3.5
  3
txt
  4

  0
STYLE
  5
97
330
3
100
AcDbSymbolTableRecord
100
AcDbTextStyleTableRecord
  2
SLDTEXTSTYLE0
 70
     0
 40
0.0
 41
0.75
 50
0.0
 71
     0
 42
3.5
  3
TXT
  4

  0
ENDTAB
  0
TABLE
  2
VIEW
  5
6
330
0
100
AcDbSymbolTable
 70
     0
  0
ENDTAB
  0
TABLE
  2
UCS
  5
7
330
0
100
AcDbSymbolTable
 70
     0
  0
ENDTAB
  0
TABLE
  2
APPID
  5
9
330
0
100
AcDbSymbolTable
 70
     2
  0
APPID
  5
12
330
9
100
AcDbSymbolTableRecord
100
AcDbRegAppTableRecord
  2
ACAD
 70
     0
  0
APPID
  5
134
330
9
100
AcDbSymbolTableRecord
100
AcDbRegAppTableRecord
  2
PE_URL
 70
     0
  0
ENDTAB
  0
TABLE
  2
DIMSTYLE
  5
A
330
0
100
AcDbSymbolTable
 70
     4
100
AcDbDimStyleTable
  0
DIMSTYLE
105
27
330
A
100
AcDbSymbolTableRecord
100
AcDbDimStyleTableRecord
  2
ISO-25
 70
     0
 41
2.5
 42
0.625
 43
3.75
 44
1.25
 73
     0
 74
     0
 77
     1
 78
     8
140
2.5
141
2.5
143
0.03937007874016
147
0.625
171
     3
172
     1
178
     0
271
     2
272
     2
274
     3
278
    44
283
     0
284
     8
340
11
  0
DIMSTYLE
105
DA
102
{ACAD_REACTORS
330
D9
102
}
330
A
100
AcDbSymbolTableRecord
100
AcDbDimStyleTableRecord
  2
SLDDIMSTYLE0
 70
     0
 41
3.302
 44
0.0
 45
0.000000001
 73
     0
 74
     0
 77
     1
 78
    12
 79
     3
140
3.5
147
0.875
172
     1
173
     1
178
     0
271
     1
272
     1
276
     2
284
    12
289
     0
340
97
  0
DIMSTYLE
105
E8
102
{ACAD_REACTORS
330
E7
330
FE
102
}
330
A
100
AcDbSymbolTableRecord
100
AcDbDimStyleTableRecord
  2
SLDDIMSTYLE1
 70
     0
 41
3.302
 44
0.0
 45
0.000000001
 73
     0
 74
     0
 77
     1
 78
    12
 79
     3
140
3.5
147
0.875
173
     1
178
     0
271
     2
272
     2
276
     2
284
    12
340
97
  0
DIMSTYLE
105
F3
102
{ACAD_REACTORS
330
F2
102
}
330
A
100
AcDbSymbolTableRecord
100
AcDbDimStyleTableRecord
  2
SLDDIMSTYLE2
 70
     0
 41
3.302
 44
0.0
 45
0.000000001
 73
     0
 74
     0
 77
     1
 78
    12
 79
     3
140
3.5
147
0.875
172
     1
173
     1
178
     0
271
     2
272
     2
276
     2
284
    12
289
     0
340
97
  0
ENDTAB
  0
TABLE
  2
BLOCK_RECORD
  5
1
330
0
100
AcDbSymbolTable
 70
     7
  0
BLOCK_RECORD
  5
1F
102
{ACAD_XDICTIONARY
360
161
102
}
330
1
100
AcDbSymbolTableRecord
100
AcDbBlockTableRecord
  2
*Model_Space
340
22
  0
BLOCK_RECORD
  5
1B
330
1
100
AcDbSymbolTableRecord
100
AcDbBlockTableRecord
  2
*Paper_Space
340
1E
  0
BLOCK_RECORD
  5
23
330
1
100
AcDbSymbolTableRecord
100
AcDbBlockTableRecord
  2
*Paper_Space0
340
26
  0
BLOCK_RECORD
  5
82
330
1
100
AcDbSymbolTableRecord
100
AcDbBlockTableRecord
  2
블럭10
340
0
102
{BLKREFS
331
D2
102
}
  0
BLOCK_RECORD
  5
DB
330
1
100
AcDbSymbolTableRecord
100
AcDbBlockTableRecord
  2
_D
340
0
  0
BLOCK_RECORD
  5
E9
330
1
100
AcDbSymbolTableRecord
100
AcDbBlockTableRecord
  2
_D_1
340
0
  0
BLOCK_RECORD
  5
F4
330
1
100
AcDbSymbolTableRecord
100
AcDbBlockTableRecord
  2
_D_2
340
0
  0
BLOCK_RECORD
  5
FF
330
1
100
AcDbSymbolTableRecord
100
AcDbBlockTableRecord
  2
_D_3
340
0
  0
BLOCK_RECORD
  5
108
330
1
100
AcDbSymbolTableRecord
100
AcDbBlockTableRecord
  2
SW_DOWELSYMBOL_0
340
0
102
{BLKREFS
331
10E
102
}
  0
ENDTAB
  0
ENDSEC
  0
SECTION
  2
BLOCKS
  0
BLOCK
  5
20
330
1F
100
AcDbEntity
  8
0
100
AcDbBlockBegin
  2
*Model_Space
 70
     0
 10
0.0
 20
0.0
 30
0.0
  3
*Model_Space
  1

  0
ENDBLK
  5
21
330
1F
100
AcDbEntity
  8
0
100
AcDbBlockEnd
  0
BLOCK
  5
1C
330
1B
100
AcDbEntity
 67
     1
  8
0
100
AcDbBlockBegin
  2
*Paper_Space
 70
     0
 10
0.0
 20
0.0
 30
0.0
  3
*Paper_Space
  1

  0
ENDBLK
  5
1D
330
1B
100
AcDbEntity
 67
     1
  8
0
100
AcDbBlockEnd
  0
BLOCK
  5
24
330
23
100
AcDbEntity
  8
0
100
AcDbBlockBegin
  2
*Paper_Space0
 70
     0
 10
0.0
 20
0.0
 30
0.0
  3
*Paper_Space0
  1

  0
ENDBLK
  5
25
330
23
100
AcDbEntity
  8
0
100
AcDbBlockEnd
  0
BLOCK
  5
83
330
82
100
AcDbEntity
  8
0
100
AcDbBlockBegin
  2
블럭10
 70
     2
 10
0.0
 20
0.0
 30
0.0
  3
블럭10
  1

  0
ELLIPSE
  5
85
330
82
100
AcDbEntity
  8
중심선
100
AcDbEllipse
 10
20.54032771741204
 20
12.0471743016438
 30
0.0
 11
6.600054785286829
 21
-1.261213355974178E-13
 31
0.0
210
0.0
220
0.0
230
1.0
 40
0.636358354079598
 41
0.9219305317359503
 42
6.513795318482858
  0
ELLIPSE
  5
86
330
82
100
AcDbEntity
  8
중심선
100
AcDbEllipse
 10
20.54032771746488
 20
12.04717430159265
 30
0.0
 11
3.960054785062283
 21
1.540847449632565E-10
 31
0.0
210
0.0
220
0.0
230
1.0
 40
0.3939339440162632
 41
1.131841032648279
 42
5.62031148352944
  0
LINE
  5
87
330
82
100
AcDbEntity
  8
중심선
100
AcDbLine
 10
2.268634060543552
 20
16.24717430164393
 30
0.0
 11
5.714909304380834
 21
16.24717430164393
 31
0.0
  0
LINE
  5
88
330
82
100
AcDbEntity
  8
중심선
100
AcDbLine
 10
5.245725140726316
 20
7.84717430164391
 30
0.0
 11
8.692000384563599
 21
7.84717430164391
 31
0.0
  0
LINE
  5
89
330
82
100
AcDbEntity
  8
중심선
100
AcDbLine
 10
15.74043728645272
 20
16.24717430164393
 30
0.0
 11
8.692000384563599
 21
7.84717430164391
 31
0.0
  0
LINE
  5
8A
330
82
100
AcDbEntity
  8
중심선
100
AcDbLine
 10
0.1404042013395286
 20
13.71084872107135
 30
0.0
 11
3.58671253028996
 21
13.71088815037384
 31
0.0
  0
LINE
  5
8B
330
82
100
AcDbEntity
  8
중심선
100
AcDbLine
 10
2.750260043222114
 20
10.84717430164391
 30
0.0
 11
6.196535287059397
 21
10.84717430164391
 31
0.0
  0
LINE
  5
8C
330
82
100
AcDbEntity
  8
중심선
100
AcDbLine
 10
12.29416204261559
 20
16.24717430164393
 30
0.0
 11
5.245725140726316
 21
7.84717430164391
 31
0.0
  0
LINE
  5
8D
330
82
100
AcDbEntity
  8
중심선
100
AcDbLine
 10
10.72767329541681
 20
16.24717430164393
 30
0.0
 11
6.196535287059397
 21
10.84717430164391
 31
0.0
  0
LINE
  5
8E
330
82
100
AcDbEntity
  8
중심선
100
AcDbLine
 10
7.28139805157953
 20
16.24717430164393
 30
0.0
 11
2.750260043222114
 21
10.84717430164391
 31
0.0
  0
LINE
  5
8F
330
82
100
AcDbEntity
  8
중심선
100
AcDbLine
 10
5.714909304380834
 20
16.24717430164393
 30
0.0
 11
3.58671253028996
 21
13.71088815037384
 31
0.0
  0
LINE
  5
90
330
82
100
AcDbEntity
  8
중심선
100
AcDbLine
 10
2.268634060543552
 20
16.24717430164393
 30
0.0
 11
0.1404042013395286
 21
13.71084872107135
 31
0.0
  0
LINE
  5
91
330
82
100
AcDbEntity
  8
중심선
100
AcDbLine
 10
7.28139805157953
 20
16.24717430164393
 30
0.0
 11
10.72767329541681
 21
16.24717430164393
 31
0.0
  0
LINE
  5
92
330
82
100
AcDbEntity
  8
중심선
100
AcDbLine
 10
12.29416204261559
 20
16.24717430164393
 30
0.0
 11
15.74043728645272
 21
16.24717430164393
 31
0.0
  0
LINE
  5
93
330
82
100
AcDbEntity
  8
중심선
100
AcDbLine
 10
19.22036997980202
 20
11.08717430171403
 30
0.0
 11
23.66174974927406
 21
11.08717430171406
 31
0.0
  0
LINE
  5
94
330
82
100
AcDbEntity
  8
중심선
100
AcDbLine
 10
19.22039502424796
 20
13.00717430171391
 30
0.0
 11
19.22036997980202
 21
11.08717430171403
 31
0.0
  0
LINE
  5
95
330
82
100
AcDbEntity
  8
중심선
100
AcDbLine
 10
19.22039502424796
 20
13.00717430171391
 30
0.0
 11
26.96566020931264
 21
13.00717430171391
 31
0.0
  0
LINE
  5
96
330
82
100
AcDbEntity
  8
중심선
100
AcDbLine
 10
22.22332737316547
 20
13.45928029700563
 30
0.0
 11
24.52862924686651
 21
15.39360700705356
 31
0.0
  0
ATTDEF
  5
98
330
82
100
AcDbEntity
  8
FORMAT
 62
     2
100
AcDbText
 10
-12.95993919485777
 20
2.075366912832191
 30
0.0
 40
4.233333333333333
  1
SEME36240E [ 4 FLUTE ]
 41
0.75
  7
SLDTEXTSTYLE0
 11
-12.95993919485777
 21
-0.0412997538344756
 31
0.0
100
AcDbAttributeDefinition
  3

  2
AUTOATTR0
 70
     0
 74
     1
  0
ENDBLK
  5
84
330
82
100
AcDbEntity
  8
0
100
AcDbBlockEnd
  0
BLOCK
  5
DC
330
DB
100
AcDbEntity
  8
0
100
AcDbBlockBegin
  2
_D
 70
     0
 10
0.0
 20
0.0
 30
0.0
  3
_D
  1

  0
LINE
  5
DE
330
DB
100
AcDbEntity
  8
치수문자_일반주서
 62
     0
370
    -2
100
AcDbLine
 10
54.92852540378443
 20
-12.0
 30
0.0
 11
67.86602540378445
 21
-11.99999999999995
 31
0.0
  0
LINE
  5
DF
330
DB
100
AcDbEntity
  8
치수문자_일반주서
 62
     0
370
    -2
100
AcDbLine
 10
54.92852540378443
 20
11.9895788082818
 30
0.0
 11
67.86602540378436
 21
11.98957880828185
 31
0.0
  0
LINE
  5
E0
330
DB
100
AcDbEntity
  8
치수문자_일반주서
 62
     0
370
    -2
100
AcDbLine
 10
67.86602540378443
 20
-8.697999999999947
 30
0.0
 11
67.86602540378438
 21
8.687578808281854
 31
0.0
  0
SOLID
  5
E1
330
DB
100
AcDbEntity
  8
치수문자_일반주서
 62
     0
100
AcDbTrace
 10
67.3156920704511
 20
-8.697999999999949
 30
0.0
 11
68.41635873711776
 21
-8.697999999999945
 31
0.0
 12
67.86602540378445
 22
-11.99999999999995
 32
0.0
 13
67.86602540378445
 23
-11.99999999999995
 33
0.0
  0
SOLID
  5
E2
330
DB
100
AcDbEntity
  8
치수문자_일반주서
 62
     0
100
AcDbTrace
 10
68.4163587371177
 20
8.687578808281856
 30
0.0
 11
67.31569207045105
 21
8.687578808281852
 31
0.0
 12
67.86602540378436
 22
11.98957880828185
 32
0.0
 13
67.86602540378436
 23
11.98957880828185
 33
0.0
  0
MTEXT
  5
E3
330
DB
100
AcDbEntity
  8
치수문자_일반주서
 62
     0
100
AcDbMText
 10
63.49102540378441
 20
-0.0000000000000076
 30
0.0
 40
3.5
 41
0.0
 71
     2
 72
     1
  1
\A1;%%c24
  7
SLDTEXTSTYLE0
 11
-3.554256995198948E-15
 21
1.0
 31
0.0
 73
     1
 44
1.0
  0
POINT
  5
E4
330
DB
100
AcDbEntity
  8
Defpoints
 62
     0
100
AcDbPoint
 10
54.86602540378443
 20
-12.0
 30
0.0
  0
POINT
  5
E5
330
DB
100
AcDbEntity
  8
Defpoints
 62
     0
100
AcDbPoint
 10
54.86602540378443
 20
11.9895788082818
 30
0.0
  0
POINT
  5
E6
330
DB
100
AcDbEntity
  8
Defpoints
 62
     0
100
AcDbPoint
 10
67.86602540378436
 20
11.98957880828185
 30
0.0
  0
ENDBLK
  5
DD
330
DB
100
AcDbEntity
  8
0
100
AcDbBlockEnd
  0
BLOCK
  5
EA
330
E9
100
AcDbEntity
  8
0
100
AcDbBlockBegin
  2
_D_1
 70
     0
 10
0.0
 20
0.0
 30
0.0
  3
_D_1
  1

  0
LINE
  5
EC
330
E9
100
AcDbEntity
  8
치수문자_일반주서
 62
     0
370
    -2
100
AcDbLine
 10
-65.13397459621558
 20
12.06249999999999
 30
0.0
 11
-65.13397459621558
 21
26.82836952549911
 31
0.0
  0
LINE
  5
ED
330
E9
100
AcDbEntity
  8
치수문자_일반주서
 62
     0
370
    -2
100
AcDbLine
 10
54.86602540378443
 20
-0.4374999999999929
 30
0.0
 11
54.86602540378443
 21
26.82836952549911
 31
0.0
  0
LINE
  5
EE
330
E9
100
AcDbEntity
  8
치수문자_일반주서
 62
     0
370
    -2
100
AcDbLine
 10
-61.83197459621558
 20
26.82836952549911
 30
0.0
 11
51.56402540378443
 21
26.82836952549911
 31
0.0
  0
SOLID
  5
EF
330
E9
100
AcDbEntity
  8
치수문자_일반주서
 62
     0
100
AcDbTrace
 10
-61.83197459621558
 20
27.37870285883245
 30
0.0
 11
-61.83197459621558
 21
26.27803619216578
 31
0.0
 12
-65.13397459621558
 22
26.82836952549911
 32
0.0
 13
-65.13397459621558
 23
26.82836952549911
 33
0.0
  0
SOLID
  5
F0
330
E9
100
AcDbEntity
  8
치수문자_일반주서
 62
     0
100
AcDbTrace
 10
51.56402540378443
 20
26.27803619216578
 30
0.0
 11
51.56402540378443
 21
27.37870285883245
 31
0.0
 12
54.86602540378443
 22
26.82836952549911
 32
0.0
 13
54.86602540378443
 23
26.82836952549911
 33
0.0
  0
MTEXT
  5
F1
330
E9
100
AcDbEntity
  8
치수문자_일반주서
 62
     0
100
AcDbMText
 10
-5.133974596215571
 20
31.20336952549911
 30
0.0
 40
3.5
 41
0.0
 71
     2
 72
     1
  1
\A1;120
  7
SLDTEXTSTYLE0
 73
     1
 44
1.0
  0
POINT
  5
15B
330
E9
100
AcDbEntity
  8
Defpoints
 62
     0
100
AcDbPoint
 10
-65.13397459621558
 20
11.99999999999999
 30
0.0
  0
POINT
  5
15C
330
E9
100
AcDbEntity
  8
Defpoints
 62
     0
100
AcDbPoint
 10
54.86602540378443
 20
-0.4999999999999929
 30
0.0
  0
POINT
  5
15D
330
E9
100
AcDbEntity
  8
Defpoints
 62
     0
100
AcDbPoint
 10
54.86602540378443
 20
26.8283695254991
 30
0.0
  0
ENDBLK
  5
EB
330
E9
100
AcDbEntity
  8
0
100
AcDbBlockEnd
  0
BLOCK
  5
F5
330
F4
100
AcDbEntity
  8
0
100
AcDbBlockBegin
  2
_D_2
 70
     0
 10
0.0
 20
0.0
 30
0.0
  3
_D_2
  1

  0
LINE
  5
F7
330
F4
100
AcDbEntity
  8
치수문자_일반주서
 62
     0
370
    -2
100
AcDbLine
 10
-64.69647459621558
 20
12.49999999999998
 30
0.0
 11
-78.6266141578355
 21
12.49999999999993
 31
0.0
  0
LINE
  5
F8
330
F4
100
AcDbEntity
  8
치수문자_일반주서
 62
     0
370
    -2
100
AcDbLine
 10
-64.69647459621558
 20
-12.50000000000001
 30
0.0
 11
-78.62661415783542
 21
-12.50000000000006
 31
0.0
  0
LINE
  5
F9
330
F4
100
AcDbEntity
  8
치수문자_일반주서
 62
     0
370
    -2
100
AcDbLine
 10
-78.62661415783549
 20
9.197999999999931
 30
0.0
 11
-78.62661415783543
 21
-9.19800000000006
 31
0.0
  0
SOLID
  5
FA
330
F4
100
AcDbEntity
  8
치수문자_일반주서
 62
     0
100
AcDbTrace
 10
-78.07628082450216
 20
9.197999999999933
 30
0.0
 11
-79.17694749116882
 21
9.19799999999993
 31
0.0
 12
-78.6266141578355
 22
12.49999999999993
 32
0.0
 13
-78.6266141578355
 23
12.49999999999993
 33
0.0
  0
SOLID
  5
FB
330
F4
100
AcDbEntity
  8
치수문자_일반주서
 62
     0
100
AcDbTrace
 10
-79.17694749116876
 20
-9.198000000000063
 30
0.0
 11
-78.0762808245021
 21
-9.198000000000059
 31
0.0
 12
-78.62661415783542
 22
-12.50000000000006
 32
0.0
 13
-78.62661415783542
 23
-12.50000000000006
 33
0.0
  0
MTEXT
  5
FC
330
F4
100
AcDbEntity
  8
치수문자_일반주서
 62
     0
100
AcDbMText
 10
-83.00161415783546
 20
-0.000000000000024
 30
0.0
 40
3.5
 41
0.0
 71
     2
 72
     1
  1
\A1;%%c25
  7
SLDTEXTSTYLE0
 11
-3.410605131648482E-15
 21
1.0
 31
0.0
 73
     1
 44
1.0
  0
POINT
  5
FD
330
F4
100
AcDbEntity
  8
Defpoints
 62
     0
100
AcDbPoint
 10
-64.63397459621558
 20
12.49999999999998
 30
0.0
  0
POINT
  5
132
330
F4
100
AcDbEntity
  8
Defpoints
 62
     0
100
AcDbPoint
 10
-64.63397459621558
 20
-12.50000000000001
 30
0.0
  0
POINT
  5
133
330
F4
100
AcDbEntity
  8
Defpoints
 62
     0
100
AcDbPoint
 10
-78.62661415783542
 20
-12.50000000000006
 30
0.0
  0
ENDBLK
  5
F6
330
F4
100
AcDbEntity
  8
0
100
AcDbBlockEnd
  0
BLOCK
  5
100
330
FF
100
AcDbEntity
  8
0
100
AcDbBlockBegin
  2
_D_3
 70
     0
 10
0.0
 20
0.0
 30
0.0
  3
_D_3
  1

  0
LINE
  5
102
330
FF
100
AcDbEntity
  8
치수문자_일반주서
 62
     0
370
    -2
100
AcDbLine
 10
54.86602540378443
 20
12.05207880828181
 30
0.0
 11
54.86602540378443
 21
15.27590018162845
 31
0.0
  0
LINE
  5
103
330
FF
100
AcDbEntity
  8
치수문자_일반주서
 62
     0
370
    -2
100
AcDbLine
 10
4.866025403784432
 20
10.51969194128773
 30
0.0
 11
4.866025403784434
 21
15.27590018162845
 31
0.0
  0
LINE
  5
104
330
FF
100
AcDbEntity
  8
치수문자_일반주서
 62
     0
370
    -2
100
AcDbLine
 10
51.56402540378443
 20
15.27590018162845
 30
0.0
 11
8.168025403784434
 21
15.27590018162845
 31
0.0
  0
SOLID
  5
105
330
FF
100
AcDbEntity
  8
치수문자_일반주서
 62
     0
100
AcDbTrace
 10
51.56402540378443
 20
14.72556684829512
 30
0.0
 11
51.56402540378443
 21
15.82623351496179
 31
0.0
 12
54.86602540378443
 22
15.27590018162845
 32
0.0
 13
54.86602540378443
 23
15.27590018162845
 33
0.0
  0
SOLID
  5
106
330
FF
100
AcDbEntity
  8
치수문자_일반주서
 62
     0
100
AcDbTrace
 10
8.168025403784434
 20
15.82623351496179
 30
0.0
 11
8.168025403784434
 21
14.72556684829512
 31
0.0
 12
4.866025403784434
 22
15.27590018162845
 32
0.0
 13
4.866025403784434
 23
15.27590018162845
 33
0.0
  0
MTEXT
  5
107
330
FF
100
AcDbEntity
  8
치수문자_일반주서
 62
     0
100
AcDbMText
 10
29.86602540378443
 20
19.65090018162845
 30
0.0
 40
3.5
 41
0.0
 71
     2
 72
     1
  1
\A1;50
  7
SLDTEXTSTYLE0
 73
     1
 44
1.0
  0
POINT
  5
15E
330
FF
100
AcDbEntity
  8
Defpoints
 62
     0
100
AcDbPoint
 10
54.86602540378443
 20
11.98957880828181
 30
0.0
  0
POINT
  5
15F
330
FF
100
AcDbEntity
  8
Defpoints
 62
     0
100
AcDbPoint
 10
4.866025403784432
 20
10.45719194128773
 30
0.0
  0
POINT
  5
160
330
FF
100
AcDbEntity
  8
Defpoints
 62
     0
100
AcDbPoint
 10
4.866025403784432
 20
15.27590018162846
 30
0.0
  0
ENDBLK
  5
101
330
FF
100
AcDbEntity
  8
0
100
AcDbBlockEnd
  0
BLOCK
  5
109
330
108
100
AcDbEntity
  8
0
100
AcDbBlockBegin
  2
SW_DOWELSYMBOL_0
 70
     0
 10
0.0
 20
0.0
 30
0.0
  3
SW_DOWELSYMBOL_0
  1

  0
CIRCLE
  5
10B
330
108
100
AcDbEntity
  8
해칭선
 62
     0
100
AcDbCircle
 10
0.0
 20
0.0
 30
0.0
 40
3.000000000000001
  0
HATCH
  5
10C
330
108
100
AcDbEntity
  8
0
  6
Continuous
 62
     0
370
    18
100
AcDbHatch
 10
0.0
 20
0.0
 30
0.0
210
0.0
220
0.0
230
1.0
  2
SOLID
 70
     1
 71
     0
 91
        1
 92
        0
 93
        3
 72
     2
 10
0.0
 20
0.0
 40
3.000000000000001
 50
0.0
 51
90.0
 73
     1
 72
     1
 10
0.0
 20
3.000000000000001
 11
0.0
 21
0.0
 72
     1
 10
0.0
 20
0.0
 11
3.000000000000001
 21
0.0
 97
        0
 75
     0
 76
     1
 98
        1
 10
0.0
 20
0.0
  0
HATCH
  5
10D
330
108
100
AcDbEntity
  8
0
  6
Continuous
 62
     0
370
    18
100
AcDbHatch
 10
0.0
 20
0.0
 30
0.0
210
0.0
220
0.0
230
1.0
  2
SOLID
 70
     1
 71
     0
 91
        1
 92
        0
 93
        3
 72
     2
 10
0.0
 20
0.0
 40
3.000000000000001
 50
180.0
 51
270.0000000000007
 73
     1
 72
     1
 10
0.0
 20
-3.000000000000001
 11
0.0
 21
0.0
 72
     1
 10
0.0
 20
0.0
 11
-3.000000000000001
 21
0.0
 97
        0
 75
     0
 76
     1
 98
        1
 10
0.0
 20
0.0
  0
ENDBLK
  5
10A
330
108
100
AcDbEntity
  8
0
100
AcDbBlockEnd
  0
ENDSEC
  0
SECTION
  2
ENTITIES
  0
LINE
  5
99
330
1F
100
AcDbEntity
  8
0
  6
Continuous
 62
     4
370
    25
100
AcDbLine
 10
3.000148363310931
 20
12.5
 30
0.0
 11
-64.63397459621558
 21
12.49999999999999
 31
0.0
  0
LINE
  5
9A
330
1F
100
AcDbEntity
  8
0
  6
Continuous
 62
     4
370
    25
100
AcDbLine
 10
-64.63397459621558
 20
-12.5
 30
0.0
 11
3.000148363310915
 21
-12.5
 31
0.0
  0
LINE
  5
9D
330
1F
100
AcDbEntity
  8
0
  6
Continuous
 62
     4
370
    25
100
AcDbLine
 10
-64.63397459621558
 20
12.49999999999999
 30
0.0
 11
-65.13397459621558
 21
11.99999999999999
 31
0.0
  0
LINE
  5
9E
330
1F
100
AcDbEntity
  8
0
  6
Continuous
 62
     4
370
    25
100
AcDbLine
 10
-65.13397459621558
 20
-12.0
 30
0.0
 11
-64.63397459621558
 21
-12.5
 31
0.0
  0
LINE
  5
9F
330
1F
100
AcDbEntity
  8
0
  6
Continuous
 62
     1
370
    25
100
AcDbLine
 10
26.85862913178998
 20
12.0
 30
0.0
 11
17.57544778240433
 21
12.0
 31
0.0
1001
PE_URL
1000

  0
LINE
  5
A0
330
1F
100
AcDbEntity
  8
0
  6
Continuous
 62
     1
370
    25
100
AcDbLine
 10
50.22481830315697
 20
-12.0
 30
0.0
 11
54.86602540378443
 21
-12.0
 31
0.0
1001
PE_URL
1000

  0
LINE
  5
A1
330
1F
100
AcDbEntity
  8
0
  6
Continuous
 62
     1
370
    25
100
AcDbLine
 10
17.57544778240421
 20
-12.0
 30
0.0
 11
26.85862913179
 21
-12.0
 31
0.0
1001
PE_URL
1000

  0
LINE
  5
A2
330
1F
100
AcDbEntity
  8
0
  6
Continuous
 62
     1
370
    25
100
AcDbLine
 10
54.86602540378443
 20
12.0
 30
0.0
 11
50.22481830315694
 21
12.0
 31
0.0
1001
PE_URL
1000

  0
LINE
  5
A3
330
1F
100
AcDbEntity
  8
0
  6
Continuous
 62
     4
370
    25
100
AcDbLine
 10
3.000148363310931
 20
12.5
 30
0.0
 11
3.000148363310931
 21
-12.50000000000001
 31
0.0
  0
LINE
  5
A4
330
1F
100
AcDbEntity
  8
0
  6
Continuous
 62
     4
370
    25
100
AcDbLine
 10
-64.63397459621558
 20
12.49999999999999
 30
0.0
 11
-64.63397459621558
 21
-12.50000000000001
 31
0.0
  0
LINE
  5
A5
330
1F
100
AcDbEntity
  8
0
  6
Continuous
 62
     4
370
    25
100
AcDbLine
 10
3.366228071836161
 20
12.13392029147477
 30
0.0
 11
3.366228071836151
 21
11.50739213115573
 31
0.0
  0
SPLINE
  5
A6
330
1F
100
AcDbEntity
  8
0
  6
Continuous
 62
     4
370
    25
100
AcDbSpline
210
0.0
220
0.0
230
1.0
 70
     8
 71
     3
 72
    12
 73
     8
 74
     0
 42
0.000000001
 43
0.00000001
 40
0.0
 40
0.0
 40
0.0
 40
0.0
 40
0.2500000000000003
 40
0.2500000000000003
 40
0.5000000000000007
 40
0.5000000000000007
 40
1.0
 40
1.0
 40
1.0
 40
1.0
 10
3.866025403784432
 20
10.82408425481159
 30
0.0
 10
3.783137828386501
 20
10.88949789883977
 30
0.0
 10
3.710628147237511
 20
10.95385972935556
 30
0.0
 10
3.585347437220262
 20
11.07963781110431
 30
0.0
 10
3.532258349529872
 20
11.14153544797031
 30
0.0
 10
3.405863862334611
 20
11.31800828883041
 30
0.0
 10
3.366228071836161
 20
11.42139116826748
 30
0.0
 10
3.366228071836161
 20
11.50739213115573
 30
0.0
  0
LINE
  5
A7
330
1F
100
AcDbEntity
  8
0
  6
Continuous
 62
     4
370
    25
100
AcDbLine
 10
3.866025403784432
 20
10.82408425481158
 30
0.0
 11
3.866025403784432
 21
5.312810715085359
 31
0.0
  0
SPLINE
  5
A8
330
1F
100
AcDbEntity
  8
0
  6
Continuous
 62
     4
370
    25
100
AcDbSpline
210
0.0
220
0.0
230
1.0
 70
     8
 71
     3
 72
    10
 73
     6
 74
     0
 42
0.000000001
 43
0.00000001
 40
0.0
 40
0.0
 40
0.0
 40
0.0
 40
0.5
 40
0.5
 40
1.0
 40
1.0
 40
1.0
 40
1.0
 10
3.366228071836161
 20
3.989237180800829
 30
0.0
 10
3.366228071836161
 20
4.245389434140707
 30
0.0
 10
3.405710513356611
 20
4.490111029276529
 30
0.0
 10
3.574496696916922
 20
4.944028773977213
 30
0.0
 10
3.700134517538542
 20
5.143855506494676
 30
0.0
 10
3.866025403783061
 20
5.312810715086464
 30
0.0
  0
LINE
  5
A9
330
1F
100
AcDbEntity
  8
0
  6
Continuous
 62
     4
370
    25
100
AcDbLine
 10
3.366228071836161
 20
3.989237180800827
 30
0.0
 11
3.366228071836161
 21
-3.848629363770706
 31
0.0
  0
SPLINE
  5
AA
330
1F
100
AcDbEntity
  8
0
  6
Continuous
 62
     4
370
    25
100
AcDbSpline
210
0.0
220
0.0
230
1.0
 70
     8
 71
     3
 72
    12
 73
     8
 74
     0
 42
0.000000001
 43
0.00000001
 40
0.0
 40
0.0
 40
0.0
 40
0.0
 40
0.2500000000000003
 40
0.2500000000000003
 40
0.5000000000000007
 40
0.5000000000000007
 40
1.0
 40
1.0
 40
1.0
 40
1.0
 10
3.866025403784432
 20
-5.180656333394413
 30
0.0
 10
3.783137828386511
 20
-5.09543028108057
 30
0.0
 10
3.710628147237511
 20
-5.002768886411052
 30
0.0
 10
3.585347437220262
 20
-4.802701388339464
 30
0.0
 10
3.532258349529881
 20
-4.694347884463216
 30
0.0
 10
3.405863862334611
 20
-4.352289325936606
 30
0.0
 10
3.366228071836161
 20
-4.105772026799808
 30
0.0
 10
3.366228071836161
 20
-3.848629363770705
 30
0.0
  0
LINE
  5
AB
330
1F
100
AcDbEntity
  8
0
  6
Continuous
 62
     4
370
    25
100
AcDbLine
 10
3.866025403784432
 20
-5.18065633339441
 30
0.0
 11
3.866025403784432
 21
-10.75983467836172
 31
0.0
  0
SPLINE
  5
AC
330
1F
100
AcDbEntity
  8
0
  6
Continuous
 62
     4
370
    25
100
AcDbSpline
210
0.0
220
0.0
230
1.0
 70
     8
 71
     3
 72
    10
 73
     6
 74
     0
 42
0.000000001
 43
0.00000001
 40
0.0
 40
0.0
 40
0.0
 40
0.0
 40
0.5
 40
0.5
 40
1.0
 40
1.0
 40
1.0
 40
1.0
 10
3.366228071836161
 20
-11.45940698095588
 30
0.0
 10
3.366228071836161
 20
-11.37023551731317
 30
0.0
 10
3.405710513356601
 20
-11.2640956202576
 30
0.0
 10
3.574496696916912
 20
-11.02283941157643
 30
0.0
 10
3.700134517538542
 20
-10.89283216701862
 30
0.0
 10
3.866025403783061
 20
-10.75983467836158
 30
0.0
  0
LINE
  5
AD
330
1F
100
AcDbEntity
  8
0
  6
Continuous
 62
     4
370
    25
100
AcDbLine
 10
3.366228071836161
 20
-11.45940698095588
 30
0.0
 11
3.366228071836161
 21
-12.13392029147477
 31
0.0
  0
LINE
  5
AE
330
1F
100
AcDbEntity
  8
0
  6
Continuous
 62
     4
370
    25
100
AcDbLine
 10
-65.13397459621558
 20
11.99999999999999
 30
0.0
 11
-65.13397459621558
 21
-12.00000000000001
 31
0.0
  0
SPLINE
  5
AF
330
1F
100
AcDbEntity
  8
0
  6
Continuous
 62
     4
370
    25
100
AcDbSpline
210
0.0
220
0.0
230
1.0
 70
     8
 71
     3
 72
    10
 73
     6
 74
     0
 42
0.000000001
 43
0.00000001
 40
0.0
 40
0.0
 40
0.0
 40
0.0
 40
0.5
 40
0.5
 40
1.0
 40
1.0
 40
1.0
 40
1.0
 10
3.866025403784432
 20
5.312810715085359
 30
0.0
 10
3.995189568238112
 20
5.46629548919666
 30
0.0
 10
4.144042107790632
 20
5.599398210306966
 30
0.0
 10
4.480453562439381
 20
5.827632969975981
 30
0.0
 10
4.667476127461391
 20
5.921540327741663
 30
0.0
 10
4.866025403783711
 20
5.991731320312526
 30
0.0
  0
SPLINE
  5
B0
330
1F
100
AcDbEntity
  8
0
  6
Continuous
 62
     4
370
    25
100
AcDbSpline
210
0.0
220
0.0
230
1.0
 70
    24
 71
     3
 72
    28
 73
    24
 74
     0
 42
0.000000001
 43
0.00000001
 40
0.0
 40
0.0
 40
0.0
 40
0.0
 40
0.1250000000000002
 40
0.1250000000000002
 40
0.1875000000000001
 40
0.1875000000000001
 40
0.2500000000000001
 40
0.2500000000000001
 40
0.3750000000000001
 40
0.3750000000000001
 40
0.4375000000000001
 40
0.4375000000000001
 40
0.5000000000000001
 40
0.5000000000000001
 40
0.6250000000000001
 40
0.6250000000000001
 40
0.6875000000000001
 40
0.6875000000000001
 40
0.75
 40
0.75
 40
0.875
 40
0.875
 40
1.0
 40
1.0
 40
1.0
 40
1.0
 10
4.866025403784432
 20
5.991731320311598
 30
0.0
 10
4.866025403784432
 20
5.702524440220985
 30
0.0
 10
4.866025403784432
 20
5.384321332405833
 30
0.0
 10
4.866025403784432
 20
4.863511691002962
 30
0.0
 10
4.866025403784432
 20
4.682613990613332
 30
0.0
 10
4.866025403784432
 20
4.305655877729112
 30
0.0
 10
4.866025403784432
 20
4.108975959552414
 30
0.0
 10
4.866025403784432
 20
3.50754569305631
 30
0.0
 10
4.866025403784432
 20
3.088081837609606
 30
0.0
 10
4.866025403784432
 20
2.43047083552359
 30
0.0
 10
4.866025403784432
 20
2.206501954448723
 30
0.0
 10
4.866025403784432
 20
1.748533064679784
 30
0.0
 10
4.866025403784432
 20
1.515453623692051
 30
0.0
 10
4.866025403784432
 20
0.8175020717854794
 30
0.0
 10
4.866025403784432
 20
0.3488539201925708
 30
0.0
 10
4.866025403784432
 20
-0.3591921995877322
 30
0.0
 10
4.866025403784432
 20
-0.5973497709658983
 30
0.0
 10
4.866025403784432
 20
-1.068820844535268
 30
0.0
 10
4.866025403784432
 20
-1.30125613219176
 30
0.0
 10
4.866025403784432
 20
-1.989042534047381
 30
0.0
 10
4.866025403784432
 20
-2.434952386116819
 30
0.0
 10
4.866025403784432
 20
-3.301605634363697
 30
0.0
 10
4.866025403784432
 20
-3.713602918044721
 30
0.0
 10
4.866025403784432
 20
-4.102272810739417
 30
0.0
  0
SPLINE
  5
B1
330
1F
100
AcDbEntity
  8
0
  6
Continuous
 62
     4
370
    25
100
AcDbSpline
210
0.0
220
0.0
230
1.0
 70
     8
 71
     3
 72
    10
 73
     6
 74
     0
 42
0.000000001
 43
0.00000001
 40
0.0
 40
0.0
 40
0.0
 40
0.0
 40
0.5000000000000001
 40
0.5000000000000001
 40
1.0
 40
1.0
 40
1.0
 40
1.0
 10
4.574828685546791
 20
-5.739052824071056
 30
0.0
 10
4.436213562635441
 20
-5.668717071642997
 30
0.0
 10
4.307979442643802
 20
-5.587020465272276
 30
0.0
 10
4.071410860503521
 20
-5.401044105705792
 30
0.0
 10
3.962453891893951
 20
-5.295924786677383
 30
0.0
 10
3.866025403784441
 20
-5.180656333394397
 30
0.0
  0
SPLINE
  5
B2
330
1F
100
AcDbEntity
  8
0
  6
Continuous
 62
     4
370
    25
100
AcDbSpline
210
0.0
220
0.0
230
1.0
 70
     8
 71
     3
 72
     8
 73
     4
 74
     0
 42
0.000000001
 43
0.00000001
 40
0.0
 40
0.0
 40
0.0
 40
0.0
 40
1.0
 40
1.0
 40
1.0
 40
1.0
 10
4.866025403784432
 20
-5.886181844206086
 30
0.0
 10
4.768904620139102
 20
-5.837320668000364
 30
0.0
 10
4.671834300089921
 20
-5.788275179794826
 30
0.0
 10
4.574828685547022
 20
-5.739052824071176
 30
0.0
  0
LINE
  5
B3
330
1F
100
AcDbEntity
  8
0
  6
Continuous
 62
     4
370
    25
100
AcDbLine
 10
4.866025403784432
 20
-5.886181844206086
 30
0.0
 11
4.866025403784432
 21
-10.39707438586444
 31
0.0
  0
SPLINE
  5
B4
330
1F
100
AcDbEntity
  8
0
  6
Continuous
 62
     4
370
    25
100
AcDbSpline
210
0.0
220
0.0
230
1.0
 70
     8
 71
     3
 72
    10
 73
     6
 74
     0
 42
0.000000001
 43
0.00000001
 40
0.0
 40
0.0
 40
0.0
 40
0.0
 40
0.5
 40
0.5
 40
1.0
 40
1.0
 40
1.0
 40
1.0
 10
3.866025403784432
 20
-10.75983467836172
 30
0.0
 10
3.995189568238121
 20
-10.6840495406829
 30
0.0
 10
4.144042107790632
 20
-10.61431015769479
 30
0.0
 10
4.480453562439381
 20
-10.49073564668277
 30
0.0
 10
4.667476127461402
 20
-10.43752476190069
 30
0.0
 10
4.866025403783722
 20
-10.3970743858639
 30
0.0
  0
SPLINE
  5
B5
330
1F
100
AcDbEntity
  8
0
  6
Continuous
 62
     4
370
    25
100
AcDbSpline
210
0.0
220
0.0
230
1.0
 70
     8
 71
     3
 72
    10
 73
     6
 74
     0
 42
0.000000001
 43
0.00000001
 40
0.0
 40
0.0
 40
0.0
 40
0.0
 40
0.5
 40
0.5
 40
1.0
 40
1.0
 40
1.0
 40
1.0
 10
4.574828685546791
 20
10.53865611368554
 30
0.0
 10
4.436213562635441
 20
10.57695896693845
 30
0.0
 10
4.307979442643802
 20
10.62055282418494
 30
0.0
 10
4.071410860503512
 20
10.71632691452135
 30
0.0
 10
3.962453891893951
 20
10.76891411491956
 30
0.0
 10
3.866025403784441
 20
10.82408425481159
 30
0.0
  0
SPLINE
  5
B6
330
1F
100
AcDbEntity
  8
0
  6
Continuous
 62
     4
370
    25
100
AcDbSpline
210
0.0
220
0.0
230
1.0
 70
     8
 71
     3
 72
     8
 73
     4
 74
     0
 42
0.000000001
 43
0.00000001
 40
0.0
 40
0.0
 40
0.0
 40
0.0
 40
1.0
 40
1.0
 40
1.0
 40
1.0
 10
4.866025403784432
 20
10.45719194128798
 30
0.0
 10
4.768904620139111
 20
10.48469509604343
 30
0.0
 10
4.671834300089921
 20
10.51185101666211
 30
0.0
 10
4.574828685547031
 20
10.53865611368548
 30
0.0
  0
LINE
  5
B7
330
1F
100
AcDbEntity
  8
0
  6
Continuous
 62
     4
370
    25
100
AcDbLine
 10
4.866025403784432
 20
10.45719194128798
 30
0.0
 11
4.866025403784432
 21
5.991731320311599
 31
0.0
  0
SPLINE
  5
B8
330
1F
100
AcDbEntity
  8
0
  6
Continuous
 62
     4
370
    25
100
AcDbSpline
210
0.0
220
0.0
230
1.0
 70
     8
 71
     3
 72
    10
 73
     6
 74
     0
 42
0.000000001
 43
0.00000001
 40
0.0
 40
0.0
 40
0.0
 40
0.0
 40
0.5
 40
0.5
 40
1.0
 40
1.0
 40
1.0
 40
1.0
 10
4.574828685546791
 20
-10.5386561136855
 30
0.0
 10
4.436213562635441
 20
-10.57695896693842
 30
0.0
 10
4.307979442643802
 20
-10.6205528241849
 30
0.0
 10
4.071410860503521
 20
-10.71632691452131
 30
0.0
 10
3.962453891893951
 20
-10.76891411491952
 30
0.0
 10
3.866025403784441
 20
-10.82408425481155
 30
0.0
  0
SPLINE
  5
B9
330
1F
100
AcDbEntity
  8
0
  6
Continuous
 62
     4
370
    25
100
AcDbSpline
210
0.0
220
0.0
230
1.0
 70
     8
 71
     3
 72
     8
 73
     4
 74
     0
 42
0.000000001
 43
0.00000001
 40
0.0
 40
0.0
 40
0.0
 40
0.0
 40
1.0
 40
1.0
 40
1.0
 40
1.0
 10
4.866025403784432
 20
-10.45719194128794
 30
0.0
 10
4.768904620139111
 20
-10.48469509604339
 30
0.0
 10
4.671834300089921
 20
-10.51185101666207
 30
0.0
 10
4.574828685547031
 20
-10.53865611368544
 30
0.0
  0
SPLINE
  5
BA
330
1F
100
AcDbEntity
  8
0
  6
Continuous
 62
     1
370
    25
100
AcDbSpline
210
0.0
220
0.0
230
1.0
 70
     8
 71
     3
 72
    23
 73
    19
 74
     0
 42
0.000000001
 43
0.00000001
 40
0.0
 40
0.0
 40
0.0
 40
0.0
 40
0.0424032905211554
 40
0.1065114077679774
 40
0.1705927255295772
 40
0.2346563428010164
 40
0.2987153933720809
 40
0.3616391587089083
 40
0.4245901320281779
 40
0.4875535769155117
 40
0.5504852310619736
 40
0.6146863727614151
 40
0.6788867617658921
 40
0.7430991138199056
 40
0.8073360989757645
 40
0.8715805471932453
 40
0.9357978291309947
 40
1.0
 40
1.0
 40
1.0
 40
1.0
 10
5.891308215557032
 20
10.12904233201053
 30
0.0
 10
6.559497298454241
 20
10.33516108246455
 30
0.0
 10
8.237899115857292
 20
10.85290388045049
 30
0.0
 10
10.92640577752139
 20
11.4260198819514
 30
0.0
 10
13.95582083559616
 20
11.86170102545185
 30
0.0
 10
16.98433372016971
 20
12.03728563638136
 30
0.0
 10
19.99457326725941
 20
11.96041465615435
 30
0.0
 10
22.98728801289496
 20
11.63505179351542
 30
0.0
 10
25.96306910890853
 20
11.07382572660382
 30
0.0
 10
28.93919337983625
 20
10.28622272859665
 30
0.0
 10
31.93451800995299
 20
9.281184786574602
 30
0.0
 10
34.94930536291957
 20
8.074972356453952
 30
0.0
 10
37.98424254781845
 20
6.688718659879055
 30
0.0
 10
41.01984910272083
 20
5.15994288567623
 30
0.0
 10
44.05644038762427
 20
3.52118110641708
 30
0.0
 10
47.09323943908984
 20
1.808307647223945
 30
0.0
 10
50.12910183134975
 20
0.0539901446500634
 30
0.0
 10
52.15256709790447
 20
-1.109811935679702
 30
0.0
 10
53.16418068098315
 20
-1.691644503767902
 30
0.0
  0
SPLINE
  5
BB
330
1F
100
AcDbEntity
  8
0
  6
Continuous
 62
     1
370
    25
100
AcDbSpline
210
0.0
220
0.0
230
1.0
 70
     8
 71
     3
 72
    17
 73
    13
 74
     0
 42
0.000000001
 43
0.00000001
 40
0.0
 40
0.0
 40
0.0
 40
0.0
 40
0.1120029595084309
 40
0.2239729076745541
 40
0.335922080980934
 40
0.4478627708551412
 40
0.5598072911877096
 40
0.6697701949630753
 40
0.7797700560328866
 40
0.8897817470922879
 40
0.9997529507110022
 40
1.0
 40
1.0
 40
1.0
 40
1.0
 10
54.86602540378444
 20
2.657718560755796
 30
0.0
 10
53.82031247128479
 20
3.240454936688415
 30
0.0
 10
51.72919481588746
 20
4.405755934967273
 30
0.0
 10
48.59311921401291
 20
6.037628730283817
 30
0.0
 10
45.45772195064755
 20
7.536552377182301
 30
0.0
 10
42.32261944416265
 20
8.862884377342922
 30
0.0
 10
39.2060182730734
 20
9.98214575755201
 30
0.0
 10
36.1075147746193
 20
10.87008167289351
 30
0.0
 10
33.02677908421089
 20
11.52324557829087
 30
0.0
 10
29.94584907042319
 20
11.89068358058357
 30
0.0
 10
27.88987266087106
 20
12.04452330062507
 30
0.0
 10
26.86093544857523
 20
11.99979945089428
 30
0.0
 10
26.85862913178998
 20
11.99969920438351
 30
0.0
1001
PE_URL
1000

  0
LINE
  5
BC
330
1F
100
AcDbEntity
  8
0
  6
Continuous
 62
     1
370
    25
100
AcDbLine
 10
54.86602540378443
 20
-0.5000000000000347
 30
0.0
 11
54.86602540378443
 21
2.657718560756027
 31
0.0
1001
PE_URL
1000

  0
LINE
  5
BD
330
1F
100
AcDbEntity
  8
0
  6
Continuous
 62
     1
370
    25
100
AcDbLine
 10
54.86602540378444
 20
-0.5000000000000376
 30
0.0
 11
53.16418068098315
 21
-1.691644503767916
 31
0.0
1001
PE_URL
1000

  0
SPLINE
  5
BE
330
1F
100
AcDbEntity
  8
0
  6
Continuous
 62
     1
370
    25
100
AcDbSpline
210
0.0
220
0.0
230
1.0
 70
     8
 71
     3
 72
    23
 73
    19
 74
     0
 42
0.000000001
 43
0.00000001
 40
0.0
 40
0.0
 40
0.0
 40
0.0
 40
0.0667959509084125
 40
0.1336096281047107
 40
0.2003953747949895
 40
0.2671626739799194
 40
0.3339252137356572
 40
0.3995045557245037
 40
0.4651122539564301
 40
0.5307329500949957
 40
0.5963205138255344
 40
0.6632311413927935
 40
0.7301409844990429
 40
0.7970632955323556
 40
0.8640112792602621
 40
0.9309670410139714
 40
0.9978944899872938
 40
0.9999999999999999
 40
0.9999999999999999
 40
0.9999999999999999
 40
0.9999999999999999
 10
4.866025403783212
 20
6.888750574511144
 30
0.0
 10
5.875966398088352
 20
6.397238786024497
 30
0.0
 10
7.896116404513641
 20
5.414084771811465
 30
0.0
 10
10.92640232384474
 20
3.786083063005833
 30
0.0
 10
13.95582176060234
 20
2.087835100068645
 30
0.0
 10
16.98433347220631
 20
0.3427149063208179
 30
0.0
 10
19.99457333242547
 20
-1.398448025692947
 30
0.0
 10
22.98728799542261
 20
-3.100312633225804
 30
0.0
 10
25.96306911409734
 20
-4.728351121619069
 30
0.0
 10
28.93919337656133
 20
-6.259422336050044
 30
0.0
 10
31.93451801793688
 20
-7.672498638613723
 30
0.0
 10
34.94930533366031
 20
-8.934237278712711
 30
0.0
 10
37.98424265663175
 20
-10.01477601960319
 30
0.0
 10
41.01984869657858
 20
-10.87997669257325
 30
0.0
 10
44.05644190405208
 20
-11.52143527975545
 30
0.0
 10
47.09323378006624
 20
-11.88758606561193
 30
0.0
 10
49.14929526678648
 20
-12.03978251117051
 30
0.0
 10
50.19298567372527
 20
-11.99739875901636
 30
0.0
 10
50.22481830315695
 20
-11.99610605165095
 30
0.0
  0
LINE
  5
BF
330
1F
100
AcDbEntity
  8
0
  6
Continuous
 62
     4
370
    25
100
AcDbLine
 10
4.866025403784432
 20
6.888750574524146
 30
0.0
 11
4.866025403784432
 21
10.45719194128773
 31
0.0
  0
SPLINE
  5
C0
330
1F
100
AcDbEntity
  8
0
  6
Continuous
 62
     1
370
    25
100
AcDbSpline
210
0.0
220
0.0
230
1.0
 70
     8
 71
     3
 72
    58
 73
    54
 74
     0
 42
0.000000001
 43
0.00000001
 40
0.0
 40
0.0
 40
0.0
 40
0.0
 40
0.0625000000000002
 40
0.0625000000000002
 40
0.0937500000000003
 40
0.0937500000000003
 40
0.1250000000000004
 40
0.1250000000000004
 40
0.1562500000000005
 40
0.1562500000000005
 40
0.1875000000000006
 40
0.1875000000000006
 40
0.2500000000000008
 40
0.2500000000000008
 40
0.2812500000000008
 40
0.2812500000000008
 40
0.3125000000000007
 40
0.3125000000000007
 40
0.3437500000000007
 40
0.3437500000000007
 40
0.3750000000000006
 40
0.3750000000000006
 40
0.4375000000000005
 40
0.4375000000000005
 40
0.5000000000000003
 40
0.5000000000000003
 40
0.5312500000000003
 40
0.5312500000000003
 40
0.5625000000000003
 40
0.5625000000000003
 40
0.5937500000000003
 40
0.5937500000000003
 40
0.6250000000000003
 40
0.6250000000000003
 40
0.6875000000000002
 40
0.6875000000000002
 40
0.7187500000000002
 40
0.7187500000000002
 40
0.7500000000000002
 40
0.7500000000000002
 40
0.7812500000000002
 40
0.7812500000000002
 40
0.8125000000000002
 40
0.8125000000000002
 40
0.8437500000000002
 40
0.8437500000000002
 40
0.8750000000000002
 40
0.8750000000000002
 40
0.9375000000000001
 40
0.9375000000000001
 40
0.9687500000000001
 40
0.9687500000000001
 40
1.0
 40
1.0
 40
1.0
 40
1.0
 10
54.86602540378443
 20
-11.70198838026025
 30
0.0
 10
53.82835017990443
 20
-11.5689634702565
 30
0.0
 10
52.78042750147737
 20
-11.3912805486042
 30
0.0
 10
51.21966067097476
 20
-11.06208564953375
 30
0.0
 10
50.70113547693887
 20
-10.9419760689834
 30
0.0
 10
49.65854171850683
 20
-10.68094552015285
 30
0.0
 10
49.13617692947593
 20
-10.54013791210033
 30
0.0
 10
48.09373722482103
 20
-10.23913396133843
 30
0.0
 10
47.57535950475369
 20
-10.07913078769867
 30
0.0
 10
46.53459561161297
 20
-9.740063390604414
 30
0.0
 10
46.01243589627209
 20
-9.560995503895684
 30
0.0
 10
44.44725332631433
 20
-8.997393801737132
 30
0.0
 10
43.41028295049397
 20
-8.587116906197318
 30
0.0
 10
41.84495153517307
 20
-7.924261675061134
 30
0.0
 10
41.32289674563329
 20
-7.695579445599675
 30
0.0
 10
40.28264883404207
 20
-7.224736965767645
 30
0.0
 10
39.76394424971097
 20
-6.982518118902878
 30
0.0
 10
38.72120714472186
 20
-6.484554796278125
 30
0.0
 10
38.19884774591471
 20
-6.229060389225895
 30
0.0
 10
37.15657279697813
 20
-5.70721602194393
 30
0.0
 10
36.6383106295123
 20
-5.44116004470774
 30
0.0
 10
35.07680174745909
 20
-4.627248916503474
 30
0.0
 10
34.03035039388256
 20
-4.06414598193677
 30
0.0
 10
31.95361882878103
 20
-2.914542152558184
 30
0.0
 10
30.90561730674669
 20
-2.32478295609888
 30
0.0
 10
29.34565634288278
 20
-1.432596161829973
 30
0.0
 10
28.82674045806037
 20
-1.133778100782538
 30
0.0
 10
27.78387071864725
 20
-0.533604416602719
 30
0.0
 10
27.26152210010201
 20
-0.2325558423739034
 30
0.0
 10
26.21942260318021
 20
0.3689137026158502
 30
0.0
 10
25.70124406299947
 20
0.6690319745092748
 30
0.0
 10
24.66000676625784
 20
1.268382899784628
 30
0.0
 10
24.13776365757846
 20
1.567456244910687
 30
0.0
 10
22.57279435294065
 20
2.459062024031485
 30
0.0
 10
21.53571733637788
 20
3.045254155428044
 30
0.0
 10
19.97030151607604
 20
3.905880937133936
 30
0.0
 10
19.4483731703526
 20
4.189360692152139
 30
0.0
 10
18.40868374770279
 20
4.747157399416016
 30
0.0
 10
17.88952465941374
 20
5.021734051798642
 30
0.0
 10
16.84653300225613
 20
5.561726571394735
 30
0.0
 10
16.32420055363961
 20
5.826871363415302
 30
0.0
 10
15.28228719901914
 20
6.345222808751053
 30
0.0
 10
14.76416035794864
 20
6.598206793806059
 30
0.0
 10
13.72270234660503
 20
7.092127900230314
 30
0.0
 10
13.20042561963472
 20
7.332877315029714
 30
0.0
 10
12.15719993743926
 20
7.799891470106856
 30
0.0
 10
11.63738092388281
 20
8.025997764694873
 30
0.0
 10
10.07885978763126
 20
8.680932590021916
 30
0.0
 10
9.03082299032923
 20
9.087626621504432
 30
0.0
 10
7.471731598029841
 20
9.642473082229653
 30
0.0
 10
6.952297411608882
 20
9.818501161208296
 30
0.0
 10
5.909194557566131
 20
10.15219291693408
 30
0.0
 10
5.386883667988231
 20
10.30969266349607
 30
0.0
 10
4.866025403784581
 20
10.45719194128565
 30
0.0
  0
LINE
  5
C1
330
1F
100
AcDbEntity
  8
0
  6
Continuous
 62
     1
370
    25
100
AcDbLine
 10
54.86602540378443
 20
-12.00000000000001
 30
0.0
 11
54.86602540378443
 21
-11.70198838026313
 31
0.0
1001
PE_URL
1000

  0
SPLINE
  5
C2
330
1F
100
AcDbEntity
  8
0
  6
Continuous
 62
     1
370
    25
100
AcDbSpline
210
0.0
220
0.0
230
1.0
 70
     8
 71
     3
 72
    18
 73
    14
 74
     0
 42
0.000000001
 43
0.00000001
 40
0.0
 40
0.0
 40
0.0
 40
0.0
 40
0.0721725905909523
 40
0.1636681335556618
 40
0.2551735164538973
 40
0.346645222760791
 40
0.4399650897529855
 40
0.5332787297766507
 40
0.6265959630170177
 40
0.7199266004045196
 40
0.813280418373919
 40
0.9066528772056102
 40
1.0
 40
1.0
 40
1.0
 40
1.0
 10
38.53792954033877
 20
-10.13640370618735
 30
0.0
 10
37.72790188883394
 20
-10.37976630710227
 30
0.0
 10
35.89097580976797
 20
-10.93164760085741
 30
0.0
 10
33.0267780248401
 20
-11.51338848990948
 30
0.0
 10
29.94584663608072
 20
-11.91252168328469
 30
0.0
 10
26.84480074893249
 20
-12.0445884129037
 30
0.0
 10
23.72348625277052
 20
-11.90907427888028
 30
0.0
 10
20.58152214539403
 20
-11.50045954608526
 30
0.0
 10
17.43940723264921
 20
-10.82937261440047
 30
0.0
 10
14.2967521411608
 20
-9.911778778829133
 30
0.0
 10
11.15332233344167
 20
-8.765341010952522
 30
0.0
 10
8.009480064478831
 20
-7.428727493734836
 30
0.0
 10
5.913748833878181
 20
-6.400317212279043
 30
0.0
 10
4.866025403784592
 20
-5.886181844204408
 30
0.0
  0
SPLINE
  5
C3
330
1F
100
AcDbEntity
  8
0
  6
Continuous
 62
     1
370
    25
100
AcDbSpline
210
0.0
220
0.0
230
1.0
 70
     8
 71
     3
 72
     8
 73
     4
 74
     0
 42
0.000000001
 43
0.00000001
 40
0.0
 40
0.0
 40
0.0
 40
0.0
 40
1.0
 40
1.0
 40
1.0
 40
1.0
 10
54.86602540378443
 20
-8.663640430430316
 30
0.0
 10
52.83387339736424
 20
-7.522404755074832
 30
0.0
 10
50.91444291905588
 20
-6.124015966156755
 30
0.0
 10
49.06755638520108
 20
-4.560131716887558
 30
0.0
1001
PE_URL
1000

  0
LINE
  5
C4
330
1F
100
AcDbEntity
  8
0
  6
Continuous
 62
     1
370
    25
100
AcDbLine
 10
54.86602540378443
 20
-11.70198838026313
 30
0.0
 11
54.86602540378443
 21
-8.66364043043032
 31
0.0
1001
PE_URL
1000

  0
SPLINE
  5
C5
330
1F
100
AcDbEntity
  8
0
  6
Continuous
 62
     1
370
    25
100
AcDbSpline
210
0.0
220
0.0
230
1.0
 70
    24
 71
     3
 72
    22
 73
    18
 74
     0
 42
0.000000001
 43
0.00000001
 40
0.0
 40
0.0
 40
0.0
 40
0.0
 40
0.2499999999999993
 40
0.2499999999999993
 40
0.3749999999999986
 40
0.3749999999999986
 40
0.4999999999999979
 40
0.4999999999999979
 40
0.5624999999999974
 40
0.5624999999999974
 40
0.6249999999999971
 40
0.6249999999999971
 40
0.749999999999998
 40
0.749999999999998
 40
0.874999999999999
 40
0.874999999999999
 40
1.0
 40
1.0
 40
1.0
 40
1.0
 10
53.16418068098315
 20
-1.691644503767906
 30
0.0
 10
53.16308996823215
 20
-1.692408229058181
 30
0.0
 10
53.08948711850383
 20
-1.743945499271685
 30
0.0
 10
52.83670788898331
 20
-1.920943421284808
 30
0.0
 10
52.72663589195104
 20
-1.998016663352559
 30
0.0
 10
52.45861914820183
 20
-2.185684007692167
 30
0.0
 10
52.30068289400851
 20
-2.296272163434932
 30
0.0
 10
52.02457917215835
 20
-2.489602070802182
 30
0.0
 10
51.92546341398917
 20
-2.5590036718277
 30
0.0
 10
51.71823689155782
 20
-2.704105244951122
 30
0.0
 10
51.60974205184023
 20
-2.780074149578117
 30
0.0
 10
51.26995237456618
 20
-3.017997443011277
 30
0.0
 10
51.02354884970996
 20
-3.190531048557034
 30
0.0
 10
50.49616168258897
 20
-3.559811518530211
 30
0.0
 10
50.2222682082311
 20
-3.751593793942058
 30
0.0
 10
49.65634801201766
 20
-4.147855381355818
 30
0.0
 10
49.36198802163586
 20
-4.353968465568482
 30
0.0
 10
49.0675563852009
 20
-4.560131716887662
 30
0.0
1001
PE_URL
1000

  0
SPLINE
  5
C6
330
1F
100
AcDbEntity
  8
0
  6
Continuous
 62
     1
370
    25
100
AcDbSpline
210
0.0
220
0.0
230
1.0
 70
     8
 71
     3
 72
    12
 73
     8
 74
     0
 42
0.000000001
 43
0.00000001
 40
0.0
 40
0.0
 40
0.0
 40
0.0
 40
0.1696717983930709
 40
0.3772918699086055
 40
0.584936062752125
 40
0.7924924515848074
 40
1.0
 40
1.0
 40
1.0
 40
1.0
 10
38.53792954033877
 20
10.13640370618736
 30
0.0
 10
39.36510970671272
 20
10.3836348752777
 30
0.0
 10
41.20447461401178
 20
10.93339217713462
 30
0.0
 10
44.05644318118461
 20
11.51329067604169
 30
0.0
 10
47.0932386944498
 20
11.90428506052884
 30
0.0
 10
50.12910201742589
 20
12.05369299414267
 30
0.0
 10
52.15256715992499
 20
11.93800364455419
 30
0.0
 10
53.16418068098315
 20
11.88016577632109
 30
0.0
1001
PE_URL
1000

  0
SPLINE
  5
C7
330
1F
100
AcDbEntity
  8
0
  6
Continuous
 62
     1
370
    25
100
AcDbSpline
210
0.0
220
0.0
230
1.0
 70
     8
 71
     3
 72
    22
 73
    18
 74
     0
 42
0.000000001
 43
0.00000001
 40
0.0
 40
0.0
 40
0.0
 40
0.0
 40
0.2499999999999983
 40
0.2499999999999983
 40
0.3749999999999977
 40
0.3749999999999977
 40
0.4999999999999972
 40
0.4999999999999972
 40
0.5624999999999976
 40
0.5624999999999976
 40
0.6249999999999979
 40
0.6249999999999979
 40
0.7499999999999986
 40
0.7499999999999986
 40
0.8749999999999993
 40
0.8749999999999993
 40
1.0
 40
1.0
 40
1.0
 40
1.0
 10
53.16418068098315
 20
11.88016577632111
 30
0.0
 10
53.16308996823215
 20
11.15290214342857
 30
0.0
 10
53.0894871185038
 20
10.44191842464897
 30
0.0
 10
52.83670788898325
 20
9.407407868263347
 30
0.0
 10
52.72663589195105
 20
9.064695625836476
 30
0.0
 10
52.45861914820187
 20
8.419582672881686
 30
0.0
 10
52.30068289400858
 20
8.114869745666947
 30
0.0
 10
52.02457917215843
 20
7.687032167131123
 30
0.0
 10
51.92546341398923
 20
7.548783657477401
 30
0.0
 10
51.71823689155787
 20
7.288599250674225
 30
0.0
 10
51.60974205184031
 20
7.165933747155742
 30
0.0
 10
51.26995237456622
 20
6.819700712514232
 30
0.0
 10
51.02354884971006
 20
6.617216349992683
 30
0.0
 10
50.49616168258907
 20
6.272803345380397
 30
0.0
 10
50.22226820823119
 20
6.135073359721081
 30
0.0
 10
49.65634801201778
 20
5.920905339623427
 30
0.0
 10
49.36198802163604
 20
5.844435147441143
 30
0.0
 10
49.06755638520109
 20
5.798469018583363
 30
0.0
1001
PE_URL
1000

  0
SPLINE
  5
C8
330
1F
100
AcDbEntity
  8
0
  6
Continuous
 62
     1
370
    25
100
AcDbSpline
210
0.0
220
0.0
230
1.0
 70
     8
 71
     3
 72
     8
 73
     4
 74
     0
 42
0.000000001
 43
0.00000001
 40
0.0
 40
0.0
 40
0.0
 40
0.0
 40
1.0
 40
1.0
 40
1.0
 40
1.0
 10
54.86602540378443
 20
2.971322119928739
 30
0.0
 10
52.83387339736424
 20
4.070194816796729
 30
0.0
 10
50.91444291905587
 20
4.991477517991283
 30
0.0
 10
49.06755638520107
 20
5.798469018583371
 30
0.0
1001
PE_URL
1000

  0
LINE
  5
C9
330
1F
100
AcDbEntity
  8
0
  6
Continuous
 62
     1
370
    25
100
AcDbLine
 10
54.86602540378443
 20
2.666865629879561
 30
0.0
 11
54.86602540378443
 21
2.971322119928739
 31
0.0
1001
PE_URL
1000

  0
SPLINE
  5
CA
330
1F
100
AcDbEntity
  8
0
  6
Continuous
 62
     1
370
    25
100
AcDbSpline
210
0.0
220
0.0
230
1.0
 70
     8
 71
     3
 72
    12
 73
     8
 74
     0
 42
0.000000001
 43
0.00000001
 40
0.0
 40
0.0
 40
0.0
 40
0.0
 40
0.2383917450302449
 40
0.4768467543848163
 40
0.7152020810194173
 40
0.9534915693369985
 40
1.0
 40
1.0
 40
1.0
 40
1.0
 10
4.866025403783212
 20
-9.82573740348137
 30
0.0
 10
5.875966376412931
 20
-10.14000019152188
 30
0.0
 10
7.896116339481631
 20
-10.76860916656011
 30
0.0
 10
10.926402584008
 20
-11.43255422000815
 30
0.0
 10
13.95582078556789
 20
-11.84700206397977
 30
0.0
 10
16.1719905541196
 20
-12.02447888397581
 30
0.0
 10
17.37843195925326
 20
-11.98624694952901
 30
0.0
 10
17.57544778240421
 20
-11.98000354972224
 30
0.0
  0
LINE
  5
CB
330
1F
100
AcDbEntity
  8
0
  6
Continuous
 62
     1
370
    25
100
AcDbLine
 10
5.891308215556881
 20
-10.12904233201053
 30
0.0
 11
4.866025403784592
 21
-10.45719194128561
 31
0.0
  0
LINE
  5
CC
330
1F
100
AcDbEntity
  8
0
  6
Continuous
 62
     1
370
    25
100
AcDbLine
 10
54.86602540378443
 20
-0.4999999999999929
 30
0.0
 11
54.86602540378443
 21
-8.663640430430315
 31
0.0
1001
PE_URL
1000

  0
ELLIPSE
  5
CD
330
1F
100
AcDbEntity
  8
0
  6
Continuous
 62
     1
370
    25
100
AcDbEllipse
 10
55.58009940715549
 20
0.0000000000000039
 30
0.0
 11
17.13777608090533
 21
0.0
 31
0.0
210
0.0
220
0.0
230
1.0
 40
0.7002075382097119
 41
1.612475059217475
 42
1.712237836678997
1001
PE_URL
1000

  0
LINE
  5
CE
330
1F
100
AcDbEntity
  8
0
  6
Continuous
 62
     1
370
    25
100
AcDbLine
 10
54.86602540378443
 20
2.971322119928739
 30
0.0
 11
54.86602540378443
 21
11.98957880828181
 31
0.0
1001
PE_URL
1000

  0
LINE
  5
CF
330
1F
100
AcDbEntity
  8
0
  6
Continuous
 62
     1
370
    25
100
AcDbLine
 10
54.86602540378443
 20
11.98957880828181
 30
0.0
 11
54.86602540378443
 21
12.00000000000001
 31
0.0
1001
PE_URL
1000

  0
LINE
  5
D0
330
1F
100
AcDbEntity
  8
중심선
100
AcDbLine
 10
-68.13397459621557
 20
0.0
 30
0.0
 11
57.86602540378442
 21
0.0000000000000155
 31
0.0
  0
CIRCLE
  5
D1
330
1F
100
AcDbEntity
  8
해칭선
100
AcDbCircle
 10
0.0
 20
-0.0000000000000001
 30
0.0
 40
3.000000000000001
  0
INSERT
  5
D2
330
1F
100
AcDbEntity
  8
0
  6
Continuous
 62
     7
100
AcDbBlockReference
 66
     1
  2
블럭10
 10
-12.44028586066722
 20
-52.04717430164393
 30
0.0
  0
ATTRIB
  5
D3
330
D2
100
AcDbEntity
  8
FORMAT
 62
     2
100
AcDbText
 10
-25.40022505552498
 20
-49.97180738881174
 30
0.0
 40
4.233333333333333
  1
SEME36240E [ 4 FLUTE ]
 41
0.75
  7
SLDTEXTSTYLE0
 11
-25.40022505552498
 21
-52.08847405547841
 31
0.0
100
AcDbAttribute
  2
AUTOATTR0
 70
     0
 74
     1
  0
SEQEND
  5
D4
330
D2
100
AcDbEntity
  8
0
  6
Continuous
 62
     7
  0
HATCH
  5
D5
330
1F
100
AcDbEntity
  8
중심선
100
AcDbHatch
 10
0.0
 20
0.0
 30
0.0
210
0.0
220
0.0
230
1.0
  2
SOLID
 70
     1
 71
     0
 91
        1
 92
        0
 93
        4
 72
     1
 10
-6.725376556286383
 20
-35.8
 11
-10.17165180012367
 21
-35.8
 72
     1
 10
-10.17165180012367
 20
-35.8
 11
-12.29988165932769
 21
-38.33632558057262
 72
     1
 10
-12.29988165932769
 20
-38.33632558057262
 11
-8.853573330377229
 21
-38.33628615127013
 72
     1
 10
-8.853573330377229
 20
-38.33628615127013
 11
-6.725376556286383
 21
-35.8
 97
        0
 75
     0
 76
     1
 98
        1
 10
0.0
 20
0.0
  0
HATCH
  5
D6
330
1F
100
AcDbEntity
  8
중심선
100
AcDbHatch
 10
0.0
 20
0.0
 30
0.0
210
0.0
220
0.0
230
1.0
  2
SOLID
 70
     1
 71
     0
 91
        1
 92
        0
 93
        4
 72
     1
 10
-1.712612565250404
 20
-35.8
 11
-5.158887809087687
 21
-35.8
 72
     1
 10
-5.158887809087687
 20
-35.8
 11
-9.690025817445102
 21
-41.20000000000002
 72
     1
 10
-9.690025817445102
 20
-41.20000000000002
 11
-6.24375057360782
 21
-41.20000000000002
 72
     1
 10
-6.24375057360782
 20
-41.20000000000002
 11
-1.712612565250404
 21
-35.8
 97
        0
 75
     0
 76
     1
 98
        1
 10
0.0
 20
0.0
  0
HATCH
  5
D7
330
1F
100
AcDbEntity
  8
중심선
100
AcDbHatch
 10
0.0
 20
0.0
 30
0.0
210
0.0
220
0.0
230
1.0
  2
SOLID
 70
     1
 71
     0
 91
        1
 92
        0
 93
        4
 72
     1
 10
3.300151425785491
 20
-35.79999999999997
 11
-0.1461238180516244
 21
-35.8
 72
     1
 10
-0.1461238180516244
 20
-35.8
 11
-7.194560719940901
 21
-44.20000000000002
 72
     1
 10
-7.194560719940901
 20
-44.20000000000002
 11
-3.748285476103619
 21
-44.20000000000002
 72
     1
 10
-3.748285476103619
 20
-44.20000000000002
 11
3.300151425785491
 21
-35.79999999999997
 97
        0
 75
     0
 76
     1
 98
        1
 10
0.0
 20
0.0
  0
HATCH
  5
D8
330
1F
100
AcDbEntity
  8
중심선
100
AcDbHatch
 10
0.0
 20
0.0
 30
0.0
210
0.0
220
0.0
230
1.0
  2
SOLID
 70
     1
 71
     0
 91
        1
 92
        0
 93
        6
 72
     3
 10
8.100041856797663
 20
-40.00000000005127
 11
3.960054785062284
 21
1.540850780301639E-10
 40
0.3939339440162633
 50
17.09539180608434
 51
320.0019657685075
 73
     0
 72
     1
 10
9.783041512498231
 20
-38.5878940046383
 11
12.0883433861993
 21
-36.65356729459038
 72
     3
 10
8.100041856744816
 20
-40.00000000000015
 11
6.600054785286829
 21
-1.249000902703301E-13
 40
0.6363583540795982
 50
39.99873849337408
 51
368.4976242363724
 73
     1
 72
     1
 10
14.52537434864542
 20
-39.03999999993002
 11
6.780109163580739
 21
-39.03999999993002
 72
     1
 10
6.780109163580739
 20
-39.03999999993002
 11
6.780084119134805
 21
-40.95999999992991
 72
     1
 10
6.780084119134805
 20
-40.95999999992991
 11
11.22146388860684
 21
-40.95999999992988
 97
        0
 75
     0
 76
     1
 98
        1
 10
0.0
 20
0.0
  0
DIMENSION
  5
D9
330
1F
100
AcDbEntity
  8
치수문자_일반주서
100
AcDbDimension
  2
_D
 10
67.86602540378436
 20
11.98957880828185
 30
0.0
 11
67.8660254037844
 21
0.0000000000000078
 31
0.0
 70
   160
  1
%%c<>
 71
     2
 42
23.9895788082818
 52
-270.0
  3
SLDDIMSTYLE0
100
AcDbAlignedDimension
 13
54.86602540378443
 23
-12.0
 33
0.0
 14
54.86602540378443
 24
11.9895788082818
 34
0.0
 50
90.0000000000002
100
AcDbRotatedDimension
  0
DIMENSION
  5
E7
330
1F
100
AcDbEntity
  8
치수문자_일반주서
100
AcDbDimension
  2
_D_1
 10
54.86602540378443
 20
26.82836952549911
 30
0.0
 11
-5.133974596215571
 21
26.82836952549911
 31
0.0
 70
   160
  1
<>
 71
     2
 42
120.0
  3
SLDDIMSTYLE1
100
AcDbAlignedDimension
 13
-65.13397459621558
 23
11.99999999999999
 33
0.0
 14
54.86602540378443
 24
-0.4999999999999929
 34
0.0
 50
-0.0000000000000034
100
AcDbRotatedDimension
  0
DIMENSION
  5
F2
330
1F
100
AcDbEntity
  8
치수문자_일반주서
100
AcDbDimension
  2
_D_2
 10
-78.62661415783542
 20
-12.50000000000006
 30
0.0
 11
-78.62661415783546
 21
-0.0000000000000089
 31
0.0
 70
   160
  1
%%c<>
 71
     2
 42
24.99999999999999
 52
-270.0
  3
SLDDIMSTYLE2
100
AcDbAlignedDimension
 13
-64.63397459621558
 23
12.49999999999998
 33
0.0
 14
-64.63397459621558
 24
-12.50000000000001
 34
0.0
 50
90.0000000000002
100
AcDbRotatedDimension
  0
DIMENSION
  5
FE
330
1F
100
AcDbEntity
  8
치수문자_일반주서
100
AcDbDimension
  2
_D_3
 10
4.866025403784434
 20
15.27590018162845
 30
0.0
 11
29.86602540378443
 21
15.27590018162845
 31
0.0
 70
   160
  1
<>
 71
     2
 42
49.99999999999999
  3
SLDDIMSTYLE1
100
AcDbAlignedDimension
 13
54.86602540378443
 23
11.98957880828181
 33
0.0
 14
4.866025403784432
 24
10.45719194128773
 34
0.0
 50
-0.0000000000000122
100
AcDbRotatedDimension
  0
INSERT
  5
10E
330
1F
100
AcDbEntity
  8
해칭선
100
AcDbBlockReference
  2
SW_DOWELSYMBOL_0
 10
0.0
 20
0.0
 30
0.0
  0
LINE
  5
159
330
1F
100
AcDbEntity
  8
0
  6
Continuous
 62
     4
370
    25
100
AcDbLine
 10
3.366228071836161
 20
12.13392029147477
 30
0.0
 11
3.000148363310931
 21
12.5
 31
0.0
1001
PE_URL
1000

  0
LINE
  5
15A
330
1F
100
AcDbEntity
  8
0
  6
Continuous
 62
     4
370
    25
100
AcDbLine
 10
3.366228071836165
 20
-12.13392029147476
 30
0.0
 11
3.000148363310934
 21
-12.49999999999999
 31
0.0
1001
PE_URL
1000

  0
ENDSEC
  0
SECTION
  2
OBJECTS
  0
DICTIONARY
  5
C
330
0
100
AcDbDictionary
281
     1
  3
ACAD_GROUP
350
D
  3
ACAD_LAYOUT
350
1A
  3
ACAD_MLINESTYLE
350
17
  3
ACAD_PLOTSETTINGS
350
19
  3
ACAD_PLOTSTYLENAME
350
E
  3
ACAD_SCALELIST
350
47
  3
APPDATA
350
130
  3
DWGPROPS
350
163
  0
DICTIONARY
  5
161
330
1F
100
AcDbDictionary
280
     1
281
     1
  3
DIM_BOUNDING_BOXES_V1
360
162
  0
DICTIONARY
  5
D
102
{ACAD_REACTORS
330
C
102
}
330
C
100
AcDbDictionary
281
     1
  0
DICTIONARY
  5
1A
102
{ACAD_REACTORS
330
C
102
}
330
C
100
AcDbDictionary
281
     1
  3
Layout1
350
1E
  3
Layout2
350
26
  3
Model
350
22
  0
DICTIONARY
  5
17
102
{ACAD_REACTORS
330
C
102
}
330
C
100
AcDbDictionary
281
     1
  3
Standard
350
18
  0
DICTIONARY
  5
19
102
{ACAD_REACTORS
330
C
102
}
330
C
100
AcDbDictionary
281
     1
  0
ACDBDICTIONARYWDFLT
  5
E
102
{ACAD_REACTORS
330
C
102
}
330
C
100
AcDbDictionary
281
     1
  3
Normal
350
F
100
AcDbDictionaryWithDefault
340
F
  0
DICTIONARY
  5
47
102
{ACAD_REACTORS
330
C
102
}
330
C
100
AcDbDictionary
281
     1
  3
A0
350
48
  3
A1
350
49
  3
A2
350
4A
  3
A3
350
4B
  3
A4
350
4C
  3
A5
350
4D
  3
A6
350
4E
  3
A7
350
4F
  3
A8
350
50
  3
A9
350
51
  3
B0
350
52
  3
B1
350
53
  3
B2
350
54
  3
B3
350
55
  3
B4
350
56
  3
B5
350
57
  3
B6
350
58
  3
B7
350
59
  3
B8
350
5A
  3
B9
350
5B
  3
C0
350
5C
  3
C1
350
5D
  3
C2
350
5E
  3
C3
350
5F
  3
C4
350
60
  3
C5
350
61
  3
C6
350
62
  3
C7
350
63
  3
C8
350
64
  3
C9
350
65
  3
D0
350
66
  3
D1
350
67
  3
D2
350
68
  0
DICTIONARY
  5
130
102
{ACAD_REACTORS
330
C
102
}
330
C
100
AcDbDictionary
281
     1
  0
XRECORD
  5
163
102
{ACAD_REACTORS
330
C
102
}
330
C
100
AcDbXrecord
280
     1
  1
DWGPROPS COOKIE
  2

  3

  4

  6

  7

  8
12016016
  9

300
=
301
=
302
=
303
=
304
=
305
=
306
=
307
=
308
=
309
=
 40
0.0
 41
2458250.183072616
 42
2459702.361544167
  1

 90
        0
  0
DICTIONARY
  5
162
102
{ACAD_REACTORS
330
161
102
}
330
161
100
AcDbDictionary
281
     1
  0
LAYOUT
  5
1E
102
{ACAD_REACTORS
330
1A
102
}
330
1A
100
AcDbPlotSettings
  1

  2
none_device
  4

  6

 40
0.0
 41
0.0
 42
0.0
 43
0.0
 44
0.0
 45
0.0
 46
0.0
 47
0.0
 48
0.0
 49
0.0
140
0.0
141
0.0
142
1.0
143
1.0
 70
   688
 72
     1
 73
     0
 74
     5
  7

 75
    16
147
1.0
148
0.0
149
0.0
100
AcDbLayout
  1
Layout1
 70
     1
 71
     1
 10
0.0
 20
0.0
 11
420.0
 21
297.0
 12
0.0
 22
0.0
 32
0.0
 14
1.000000000000000E+20
 24
1.000000000000000E+20
 34
1.000000000000000E+20
 15
-1.000000000000000E+20
 25
-1.000000000000000E+20
 35
-1.000000000000000E+20
146
0.0
 13
0.0
 23
0.0
 33
0.0
 16
1.0
 26
0.0
 36
0.0
 17
0.0
 27
1.0
 37
0.0
 76
     0
330
1B
  0
LAYOUT
  5
26
102
{ACAD_REACTORS
330
1A
102
}
330
1A
100
AcDbPlotSettings
  1

  2
none_device
  4

  6

 40
0.0
 41
0.0
 42
0.0
 43
0.0
 44
0.0
 45
0.0
 46
0.0
 47
0.0
 48
0.0
 49
0.0
140
0.0
141
0.0
142
1.0
143
1.0
 70
   688
 72
     1
 73
     0
 74
     5
  7

 75
    16
147
1.0
148
0.0
149
0.0
100
AcDbLayout
  1
Layout2
 70
     1
 71
     2
 10
0.0
 20
0.0
 11
0.0
 21
0.0
 12
0.0
 22
0.0
 32
0.0
 14
0.0
 24
0.0
 34
0.0
 15
0.0
 25
0.0
 35
0.0
146
0.0
 13
0.0
 23
0.0
 33
0.0
 16
1.0
 26
0.0
 36
0.0
 17
0.0
 27
1.0
 37
0.0
 76
     0
330
23
  0
LAYOUT
  5
22
102
{ACAD_REACTORS
330
1A
102
}
330
1A
100
AcDbPlotSettings
  1

  2
none_device
  4
ANSI_A_(11.00_x_8.50_Inches)
  6

 40
6.35
 41
19.05
 42
6.35000508
 43
19.05000254
 44
279.4
 45
215.9
 46
134.3121789167789
 47
106.5229813673396
 48
0.0
 49
0.0
140
0.0
141
0.0
142
0.0716174803469391
143
1.0
 70
  1696
 72
     0
 73
     0
 74
     0
  7

 75
     0
147
0.0235690232323232
148
0.0
149
0.0
100
AcDbLayout
  1
Model
 70
     1
 71
     0
 10
0.0
 20
0.0
 11
420.0
 21
297.0
 12
0.0
 22
0.0
 32
0.0
 14
-83.00161415783549
 24
-49.97180738881174
 34
0.0
 15
68.41635873711775
 25
31.20336952549911
 35
0.0
146
0.0
 13
0.0
 23
0.0
 33
0.0
 16
1.0
 26
0.0
 36
0.0
 17
0.0
 27
1.0
 37
0.0
 76
     0
330
1F
331
29
  0
MLINESTYLE
  5
18
102
{ACAD_REACTORS
330
17
102
}
330
17
100
AcDbMlineStyle
  2
Standard
 70
     0
  3

 62
   256
 51
90.0
 52
90.0
 71
     2
 49
0.5
 62
   256
  6
BYLAYER
 49
-0.5
 62
   256
  6
BYLAYER
  0
ACDBPLACEHOLDER
  5
F
102
{ACAD_REACTORS
330
E
102
}
330
E
  0
SCALE
  5
48
102
{ACAD_REACTORS
330
47
102
}
330
47
100
AcDbScale
 70
     0
300
1:1
140
1.0
141
1.0
290
     1
  0
SCALE
  5
49
102
{ACAD_REACTORS
330
47
102
}
330
47
100
AcDbScale
 70
     0
300
1:2
140
1.0
141
2.0
290
     0
  0
SCALE
  5
4A
102
{ACAD_REACTORS
330
47
102
}
330
47
100
AcDbScale
 70
     0
300
1:4
140
1.0
141
4.0
290
     0
  0
SCALE
  5
4B
102
{ACAD_REACTORS
330
47
102
}
330
47
100
AcDbScale
 70
     0
300
1:5
140
1.0
141
5.0
290
     0
  0
SCALE
  5
4C
102
{ACAD_REACTORS
330
47
102
}
330
47
100
AcDbScale
 70
     0
300
1:8
140
1.0
141
8.0
290
     0
  0
SCALE
  5
4D
102
{ACAD_REACTORS
330
47
102
}
330
47
100
AcDbScale
 70
     0
300
1:10
140
1.0
141
10.0
290
     0
  0
SCALE
  5
4E
102
{ACAD_REACTORS
330
47
102
}
330
47
100
AcDbScale
 70
     0
300
1:16
140
1.0
141
16.0
290
     0
  0
SCALE
  5
4F
102
{ACAD_REACTORS
330
47
102
}
330
47
100
AcDbScale
 70
     0
300
1:20
140
1.0
141
20.0
290
     0
  0
SCALE
  5
50
102
{ACAD_REACTORS
330
47
102
}
330
47
100
AcDbScale
 70
     0
300
1:30
140
1.0
141
30.0
290
     0
  0
SCALE
  5
51
102
{ACAD_REACTORS
330
47
102
}
330
47
100
AcDbScale
 70
     0
300
1:40
140
1.0
141
40.0
290
     0
  0
SCALE
  5
52
102
{ACAD_REACTORS
330
47
102
}
330
47
100
AcDbScale
 70
     0
300
1:50
140
1.0
141
50.0
290
     0
  0
SCALE
  5
53
102
{ACAD_REACTORS
330
47
102
}
330
47
100
AcDbScale
 70
     0
300
1:100
140
1.0
141
100.0
290
     0
  0
SCALE
  5
54
102
{ACAD_REACTORS
330
47
102
}
330
47
100
AcDbScale
 70
     0
300
2:1
140
2.0
141
1.0
290
     0
  0
SCALE
  5
55
102
{ACAD_REACTORS
330
47
102
}
330
47
100
AcDbScale
 70
     0
300
4:1
140
4.0
141
1.0
290
     0
  0
SCALE
  5
56
102
{ACAD_REACTORS
330
47
102
}
330
47
100
AcDbScale
 70
     0
300
8:1
140
8.0
141
1.0
290
     0
  0
SCALE
  5
57
102
{ACAD_REACTORS
330
47
102
}
330
47
100
AcDbScale
 70
     0
300
10:1
140
10.0
141
1.0
290
     0
  0
SCALE
  5
58
102
{ACAD_REACTORS
330
47
102
}
330
47
100
AcDbScale
 70
     0
300
100:1
140
100.0
141
1.0
290
     0
  0
SCALE
  5
59
102
{ACAD_REACTORS
330
47
102
}
330
47
100
AcDbScale
 70
     0
300
1/128" = 1'-0"
140
0.0078125
141
12.0
290
     0
  0
SCALE
  5
5A
102
{ACAD_REACTORS
330
47
102
}
330
47
100
AcDbScale
 70
     0
300
1/64" = 1'-0"
140
0.015625
141
12.0
290
     0
  0
SCALE
  5
5B
102
{ACAD_REACTORS
330
47
102
}
330
47
100
AcDbScale
 70
     0
300
1/32" = 1'-0"
140
0.03125
141
12.0
290
     0
  0
SCALE
  5
5C
102
{ACAD_REACTORS
330
47
102
}
330
47
100
AcDbScale
 70
     0
300
1/16" = 1'-0"
140
0.0625
141
12.0
290
     0
  0
SCALE
  5
5D
102
{ACAD_REACTORS
330
47
102
}
330
47
100
AcDbScale
 70
     0
300
3/32" = 1'-0"
140
0.09375
141
12.0
290
     0
  0
SCALE
  5
5E
102
{ACAD_REACTORS
330
47
102
}
330
47
100
AcDbScale
 70
     0
300
1/8" = 1'-0"
140
0.125
141
12.0
290
     0
  0
SCALE
  5
5F
102
{ACAD_REACTORS
330
47
102
}
330
47
100
AcDbScale
 70
     0
300
3/16" = 1'-0"
140
0.1875
141
12.0
290
     0
  0
SCALE
  5
60
102
{ACAD_REACTORS
330
47
102
}
330
47
100
AcDbScale
 70
     0
300
1/4" = 1'-0"
140
0.25
141
12.0
290
     0
  0
SCALE
  5
61
102
{ACAD_REACTORS
330
47
102
}
330
47
100
AcDbScale
 70
     0
300
3/8" = 1'-0"
140
0.375
141
12.0
290
     0
  0
SCALE
  5
62
102
{ACAD_REACTORS
330
47
102
}
330
47
100
AcDbScale
 70
     0
300
1/2" = 1'-0"
140
0.5
141
12.0
290
     0
  0
SCALE
  5
63
102
{ACAD_REACTORS
330
47
102
}
330
47
100
AcDbScale
 70
     0
300
3/4" = 1'-0"
140
0.75
141
12.0
290
     0
  0
SCALE
  5
64
102
{ACAD_REACTORS
330
47
102
}
330
47
100
AcDbScale
 70
     0
300
1" = 1'-0"
140
1.0
141
12.0
290
     0
  0
SCALE
  5
65
102
{ACAD_REACTORS
330
47
102
}
330
47
100
AcDbScale
 70
     0
300
1-1/2" = 1'-0"
140
1.5
141
12.0
290
     0
  0
SCALE
  5
66
102
{ACAD_REACTORS
330
47
102
}
330
47
100
AcDbScale
 70
     0
300
3" = 1'-0"
140
3.0
141
12.0
290
     0
  0
SCALE
  5
67
102
{ACAD_REACTORS
330
47
102
}
330
47
100
AcDbScale
 70
     0
300
6" = 1'-0"
140
6.0
141
12.0
290
     0
  0
SCALE
  5
68
102
{ACAD_REACTORS
330
47
102
}
330
47
100
AcDbScale
 70
     0
300
1'-0" = 1'-0"
140
12.0
141
12.0
290
     0
  0
ENDSEC
  0
EOF
