  0
SECTION
  2
HEADER
  9
$ACADVER
  1
AC1015
  9
$ACADMAINTVER
 70
     6
  9
$DWGCODEPAGE
  3
ANSI_949
  9
$INSBASE
 10
0.0
 20
0.0
 30
0.0
  9
$EXTMIN
 10
1.000000000000000E+20
 20
1.000000000000000E+20
 30
1.000000000000000E+20
  9
$EXTMAX
 10
-1.000000000000000E+20
 20
-1.000000000000000E+20
 30
-1.000000000000000E+20
  9
$LIMMIN
 10
0.0
 20
0.0
  9
$LIMMAX
 10
420.0
 20
297.0
  9
$ORTHOMODE
 70
     0
  9
$REGENMODE
 70
     1
  9
$FILLMODE
 70
     1
  9
$QTEXTMODE
 70
     0
  9
$MIRRTEXT
 70
     1
  9
$LTSCALE
 40
1.0
  9
$ATTMODE
 70
     1
  9
$TEXTSIZE
 40
3.5
  9
$TRACEWID
 40
1.0
  9
$TEXTSTYLE
  7
Standard
  9
$CLAYER
  8
0
  9
$CELTYPE
  6
ByLayer
  9
$CECOLOR
 62
   256
  9
$CELTSCALE
 40
1.0
  9
$DISPSILH
 70
     0
  9
$DIMSCALE
 40
1.0
  9
$DIMASZ
 40
3.302
  9
$DIMEXO
 40
1.0
  9
$DIMDLI
 40
3.75
  9
$DIMRND
 40
0.0
  9
$DIMDLE
 40
0.0
  9
$DIMEXE
 40
1.0
  9
$DIMTP
 40
0.0
  9
$DIMTM
 40
0.0
  9
$DIMTXT
 40
3.5
  9
$DIMCEN
 40
2.5
  9
$DIMTSZ
 40
0.0
  9
$DIMTOL
 70
     0
  9
$DIMLIM
 70
     0
  9
$DIMTIH
 70
     1
  9
$DIMTOH
 70
     1
  9
$DIMSE1
 70
     0
  9
$DIMSE2
 70
     0
  9
$DIMTAD
 70
     1
  9
$DIMZIN
 70
     0
  9
$DIMBLK
  1

  9
$DIMASO
 70
     1
  9
$DIMSHO
 70
     1
  9
$DIMPOST
  1

  9
$DIMAPOST
  1

  9
$DIMALT
 70
     0
  9
$DIMALTD
 70
     3
  9
$DIMALTF
 40
0.0393700787401575
  9
$DIMLFAC
 40
1.0
  9
$DIMTOFL
 70
     1
  9
$DIMTVP
 40
0.0
  9
$DIMTIX
 70
     0
  9
$DIMSOXD
 70
     0
  9
$DIMSAH
 70
     0
  9
$DIMBLK1
  1

  9
$DIMBLK2
  1

  9
$DIMSTYLE
  2
ISO-25
  9
$DIMCLRD
 70
     0
  9
$DIMCLRE
 70
     0
  9
$DIMCLRT
 70
     0
  9
$DIMTFAC
 40
1.0
  9
$DIMGAP
 40
1.524
  9
$DIMJUST
 70
     0
  9
$DIMSD1
 70
     0
  9
$DIMSD2
 70
     0
  9
$DIMTOLJ
 70
     0
  9
$DIMTZIN
 70
     0
  9
$DIMALTZ
 70
     0
  9
$DIMALTTZ
 70
     0
  9
$DIMUPT
 70
     0
  9
$DIMDEC
 70
     2
  9
$DIMTDEC
 70
     2
  9
$DIMALTU
 70
     2
  9
$DIMALTTD
 70
     3
  9
$DIMTXSTY
  7
Standard
  9
$DIMAUNIT
 70
     0
  9
$DIMADEC
 70
     2
  9
$DIMALTRND
 40
0.0
  9
$DIMAZIN
 70
     0
  9
$DIMDSEP
 70
    44
  9
$DIMATFIT
 70
     3
  9
$DIMFRAC
 70
     0
  9
$DIMLDRBLK
  1

  9
$DIMLUNIT
 70
     2
  9
$DIMLWD
 70
    -2
  9
$DIMLWE
 70
    -2
  9
$DIMTMOVE
 70
     0
  9
$LUNITS
 70
     2
  9
$LUPREC
 70
     2
  9
$SKETCHINC
 40
1.0
  9
$FILLETRAD
 40
10.0
  9
$AUNITS
 70
     0
  9
$AUPREC
 70
     2
  9
$MENU
  1
.
  9
$ELEVATION
 40
0.0
  9
$PELEVATION
 40
0.0
  9
$THICKNESS
 40
0.0
  9
$LIMCHECK
 70
     0
  9
$CHAMFERA
 40
0.0
  9
$CHAMFERB
 40
0.0
  9
$CHAMFERC
 40
0.0
  9
$CHAMFERD
 40
0.0
  9
$SKPOLY
 70
     0
  9
$TDCREATE
 40
2458263.740453229
  9
$TDUCREATE
 40
2458263.365453229
  9
$TDUPDATE
 40
2458269.653358079
  9
$TDUUPDATE
 40
2458269.278358079
  9
$TDINDWG
 40
0.0000779398
  9
$TDUSRTIMER
 40
2458269.278280417
  9
$USRTIMER
 70
     1
  9
$ANGBASE
 50
0.0
  9
$ANGDIR
 70
     0
  9
$PDMODE
 70
     0
  9
$PDSIZE
 40
-1.0
  9
$PLINEWID
 40
0.0
  9
$SPLFRAME
 70
     0
  9
$SPLINETYPE
 70
     6
  9
$SPLINESEGS
 70
     8
  9
$HANDSEED
  5
2AF
  9
$SURFTAB1
 70
     6
  9
$SURFTAB2
 70
     6
  9
$SURFTYPE
 70
     6
  9
$SURFU
 70
     6
  9
$SURFV
 70
     6
  9
$UCSBASE
  2

  9
$UCSNAME
  2

  9
$UCSORG
 10
0.0
 20
0.0
 30
0.0
  9
$UCSXDIR
 10
1.0
 20
0.0
 30
0.0
  9
$UCSYDIR
 10
0.0
 20
1.0
 30
0.0
  9
$UCSORTHOREF
  2

  9
$UCSORTHOVIEW
 70
     0
  9
$UCSORGTOP
 10
0.0
 20
0.0
 30
0.0
  9
$UCSORGBOTTOM
 10
0.0
 20
0.0
 30
0.0
  9
$UCSORGLEFT
 10
0.0
 20
0.0
 30
0.0
  9
$UCSORGRIGHT
 10
0.0
 20
0.0
 30
0.0
  9
$UCSORGFRONT
 10
0.0
 20
0.0
 30
0.0
  9
$UCSORGBACK
 10
0.0
 20
0.0
 30
0.0
  9
$PUCSBASE
  2

  9
$PUCSNAME
  2

  9
$PUCSORG
 10
0.0
 20
0.0
 30
0.0
  9
$PUCSXDIR
 10
1.0
 20
0.0
 30
0.0
  9
$PUCSYDIR
 10
0.0
 20
1.0
 30
0.0
  9
$PUCSORTHOREF
  2

  9
$PUCSORTHOVIEW
 70
     0
  9
$PUCSORGTOP
 10
0.0
 20
0.0
 30
0.0
  9
$PUCSORGBOTTOM
 10
0.0
 20
0.0
 30
0.0
  9
$PUCSORGLEFT
 10
0.0
 20
0.0
 30
0.0
  9
$PUCSORGRIGHT
 10
0.0
 20
0.0
 30
0.0
  9
$PUCSORGFRONT
 10
0.0
 20
0.0
 30
0.0
  9
$PUCSORGBACK
 10
0.0
 20
0.0
 30
0.0
  9
$USERI1
 70
     0
  9
$USERI2
 70
     0
  9
$USERI3
 70
     0
  9
$USERI4
 70
     0
  9
$USERI5
 70
     0
  9
$USERR1
 40
0.0
  9
$USERR2
 40
0.0
  9
$USERR3
 40
0.0
  9
$USERR4
 40
0.0
  9
$USERR5
 40
0.0
  9
$WORLDVIEW
 70
     1
  9
$SHADEDGE
 70
     3
  9
$SHADEDIF
 70
    70
  9
$TILEMODE
 70
     1
  9
$MAXACTVP
 70
    64
  9
$PINSBASE
 10
0.0
 20
0.0
 30
0.0
  9
$PLIMCHECK
 70
     0
  9
$PEXTMIN
 10
1.000000000000000E+20
 20
1.000000000000000E+20
 30
1.000000000000000E+20
  9
$PEXTMAX
 10
-1.000000000000000E+20
 20
-1.000000000000000E+20
 30
-1.000000000000000E+20
  9
$PLIMMIN
 10
0.0
 20
0.0
  9
$PLIMMAX
 10
0.0
 20
0.0
  9
$UNITMODE
 70
     0
  9
$VISRETAIN
 70
     1
  9
$PLINEGEN
 70
     0
  9
$PSLTSCALE
 70
     1
  9
$TREEDEPTH
 70
  3020
  9
$CMLSTYLE
  2
Standard
  9
$CMLJUST
 70
     0
  9
$CMLSCALE
 40
20.0
  9
$PROXYGRAPHICS
 70
     1
  9
$MEASUREMENT
 70
     1
  9
$CELWEIGHT
370
    -1
  9
$ENDCAPS
280
     0
  9
$JOINSTYLE
280
     0
  9
$LWDISPLAY
290
     1
  9
$INSUNITS
 70
     4
  9
$HYPERLINKBASE
  1

  9
$STYLESHEET
  1

  9
$XEDIT
290
     1
  9
$CEPSNTYPE
380
     0
  9
$PSTYLEMODE
290
     1
  9
$FINGERPRINTGUID
  2
{9EF10B1D-F5A0-4422-86A9-891727DFF3F3}
  9
$VERSIONGUID
  2
{FAEB1C32-E019-11D5-929B-00C0DF256EC4}
  9
$EXTNAMES
290
     1
  9
$PSVPSCALE
 40
0.0
  9
$OLESTARTUP
290
     0
  0
ENDSEC
  0
SECTION
  2
CLASSES
  0
CLASS
  1
ACDBDICTIONARYWDFLT
  2
AcDbDictionaryWithDefault
  3
ObjectDBX Classes
 90
        0
280
     0
281
     0
  0
CLASS
  1
VISUALSTYLE
  2
AcDbVisualStyle
  3
ObjectDBX Classes
 90
     4095
280
     0
281
     0
  0
CLASS
  1
MATERIAL
  2
AcDbMaterial
  3
ObjectDBX Classes
 90
     1153
280
     0
281
     0
  0
CLASS
  1
SCALE
  2
AcDbScale
  3
ObjectDBX Classes
 90
     1153
280
     0
281
     0
  0
CLASS
  1
TABLESTYLE
  2
AcDbTableStyle
  3
ObjectDBX Classes
 90
     4095
280
     0
281
     0
  0
CLASS
  1
MLEADERSTYLE
  2
AcDbMLeaderStyle
  3
ACDB_MLEADERSTYLE_CLASS
 90
     4095
280
     0
281
     0
  0
CLASS
  1
SUN
  2
AcDbSun
  3
SCENEOE
 90
     1153
280
     0
281
     0
  0
CLASS
  1
ACDBPLACEHOLDER
  2
AcDbPlaceHolder
  3
ObjectDBX Classes
 90
        0
280
     0
281
     0
  0
CLASS
  1
LAYOUT
  2
AcDbLayout
  3
ObjectDBX Classes
 90
        0
280
     0
281
     0
  0
CLASS
  1
RASTERVARIABLES
  2
AcDbRasterVariables
  3
ISM
 90
        0
280
     0
281
     0
  0
CLASS
  1
DIMASSOC
  2
AcDbDimAssoc
  3
"AcDbDimAssoc|Product Desc:     AcDim ARX App For Dimension|Company:          Autodesk, Inc.|WEB Address:      www.autodesk.com"
 90
        0
280
     0
281
     0
  0
ENDSEC
  0
SECTION
  2
TABLES
  0
TABLE
  2
VPORT
  5
8
330
0
100
AcDbSymbolTable
 70
     1
  0
VPORT
  5
29
330
8
100
AcDbSymbolTableRecord
100
AcDbViewportTableRecord
  2
*Active
 70
     0
 10
0.0
 20
0.0
 11
1.0
 21
1.0
 12
6.578072103249275
 22
0.4513694676497428
 13
0.0
 23
0.0
 14
10.0
 24
10.0
 15
10.0
 25
10.0
 16
0.0
 26
0.0
 36
1.0
 17
0.0
 27
0.0
 37
0.0
 40
3.49218184805502
 41
1.741312741312741
 42
50.0
 43
0.0
 44
0.0
 50
0.0
 51
0.0
 71
    16
 72
  2000
 73
     1
 74
     3
 75
     0
 76
     0
 77
     0
 78
     0
281
     0
 65
     1
110
0.0
120
0.0
130
0.0
111
1.0
121
0.0
131
0.0
112
0.0
122
1.0
132
0.0
 79
     0
146
0.0
  0
ENDTAB
  0
TABLE
  2
LTYPE
  5
5
330
0
100
AcDbSymbolTable
 70
     6
  0
LTYPE
  5
14
330
5
100
AcDbSymbolTableRecord
100
AcDbLinetypeTableRecord
  2
ByBlock
 70
     0
  3

 72
    65
 73
     0
 40
0.0
  0
LTYPE
  5
15
330
5
100
AcDbSymbolTableRecord
100
AcDbLinetypeTableRecord
  2
ByLayer
 70
     0
  3

 72
    65
 73
     0
 40
0.0
  0
LTYPE
  5
16
330
5
100
AcDbSymbolTableRecord
100
AcDbLinetypeTableRecord
  2
Continuous
 70
     0
  3
Solid line
 72
    65
 73
     0
 40
0.0
  0
LTYPE
  5
6E
330
5
100
AcDbSymbolTableRecord
100
AcDbLinetypeTableRecord
  2
HIDDEN
 70
     0
  3
Hidden __ __ __ __ __ __ __ __ __ __ __ __ __ __
 72
    65
 73
     2
 40
1.905
 49
1.27
 74
     0
 49
-0.635
 74
     0
  0
LTYPE
  5
6F
330
5
100
AcDbSymbolTableRecord
100
AcDbLinetypeTableRecord
  2
PHANTOM
 70
     0
  3
Phantom ______  __  __  ______  __  __  ______
 72
    65
 73
     6
 40
12.7
 49
6.35
 74
     0
 49
-1.27
 74
     0
 49
1.27
 74
     0
 49
-1.27
 74
     0
 49
1.27
 74
     0
 49
-1.27
 74
     0
  0
LTYPE
  5
70
330
5
100
AcDbSymbolTableRecord
100
AcDbLinetypeTableRecord
  2
CENTER
 70
     0
  3
Center ____ _ ____ _ ____ _ ____ _ ____ _ ____
 72
    65
 73
     4
 40
10.16
 49
6.35
 74
     0
 49
-1.27
 74
     0
 49
1.27
 74
     0
 49
-1.27
 74
     0
  0
LTYPE
  5
71
330
5
100
AcDbSymbolTableRecord
100
AcDbLinetypeTableRecord
  2
CENTERX2
 70
     0
  3
Center (2x) ________  __  ________  __  _____
 72
    65
 73
     4
 40
20.32
 49
12.7
 74
     0
 49
-2.54
 74
     0
 49
2.54
 74
     0
 49
-2.54
 74
     0
  0
LTYPE
  5
72
330
5
100
AcDbSymbolTableRecord
100
AcDbLinetypeTableRecord
  2
DOT2
 70
     0
  3
Dot (.5x) ........................................
 72
    65
 73
     2
 40
0.635
 49
0.0
 74
     0
 49
-0.635
 74
     0
  0
ENDTAB
  0
TABLE
  2
LAYER
  5
2
330
0
100
AcDbSymbolTable
 70
    17
  0
LAYER
  5
10
330
2
100
AcDbSymbolTableRecord
100
AcDbLayerTableRecord
  2
0
 70
     0
 62
     7
  6
Continuous
370
    -3
390
F
  0
LAYER
  5
73
330
2
100
AcDbSymbolTableRecord
100
AcDbLayerTableRecord
  2
FORMAT
 70
     0
 62
     2
  6
Continuous
370
    -3
390
F
  0
LAYER
  5
74
330
2
100
AcDbSymbolTableRecord
100
AcDbLayerTableRecord
  2
외형선
 70
     0
 62
   100
  6
Continuous
370
    35
390
F
  0
LAYER
  5
75
330
2
100
AcDbSymbolTableRecord
100
AcDbLayerTableRecord
  2
숨은선
 70
     0
 62
     2
  6
HIDDEN
370
    25
390
F
  0
LAYER
  5
76
330
2
100
AcDbSymbolTableRecord
100
AcDbLayerTableRecord
  2
중심선
 70
     0
 62
     1
  6
CENTERX2
370
    -3
390
F
  0
LAYER
  5
77
330
2
100
AcDbSymbolTableRecord
100
AcDbLayerTableRecord
  2
파단선
 70
     0
 62
     4
  6
Continuous
370
    -3
390
F
  0
LAYER
  5
78
330
2
100
AcDbSymbolTableRecord
100
AcDbLayerTableRecord
  2
해칭선
 70
     0
 62
     4
  6
Continuous
370
    -3
390
F
  0
LAYER
  5
79
330
2
100
AcDbSymbolTableRecord
100
AcDbLayerTableRecord
  2
가는실선
 70
     0
 62
     4
  6
Continuous
370
    -3
390
F
  0
LAYER
  5
7A
330
2
100
AcDbSymbolTableRecord
100
AcDbLayerTableRecord
  2
치수_보조선
 70
     0
 62
     4
  6
Continuous
370
    -3
390
F
  0
LAYER
  5
7B
330
2
100
AcDbSymbolTableRecord
100
AcDbLayerTableRecord
  2
치수문자_일반주서
 70
     0
 62
     7
  6
Continuous
370
    25
390
F
  0
LAYER
  5
7C
330
2
100
AcDbSymbolTableRecord
100
AcDbLayerTableRecord
  2
개별주서
 70
     0
 62
   100
  6
Continuous
370
    35
390
F
  0
LAYER
  5
7D
330
2
100
AcDbSymbolTableRecord
100
AcDbLayerTableRecord
  2
중간선
 70
     0
 62
     2
  6
Continuous
370
    25
390
F
  0
LAYER
  5
7E
330
2
100
AcDbSymbolTableRecord
100
AcDbLayerTableRecord
  2
윤곽선
 70
     0
 62
     3
  6
Continuous
370
    50
390
F
  0
LAYER
  5
7F
330
2
100
AcDbSymbolTableRecord
100
AcDbLayerTableRecord
  2
중심마크
 70
     0
 62
   100
  6
Continuous
370
    35
390
F
  0
LAYER
  5
80
330
2
100
AcDbSymbolTableRecord
100
AcDbLayerTableRecord
  2
가상선
 70
     0
 62
     4
  6
PHANTOM
370
    -3
390
F
  0
LAYER
  5
81
330
2
100
AcDbSymbolTableRecord
100
AcDbLayerTableRecord
  2
특수지정선
 70
     0
 62
     5
  6
CENTERX2
370
    70
390
F
  0
LAYER
  5
144
330
2
100
AcDbSymbolTableRecord
100
AcDbLayerTableRecord
  2
Defpoints
 70
     0
 62
     7
  6
Continuous
290
     0
370
    -3
390
F
  0
ENDTAB
  0
TABLE
  2
STYLE
  5
3
330
0
100
AcDbSymbolTable
 70
     2
  0
STYLE
  5
11
330
3
100
AcDbSymbolTableRecord
100
AcDbTextStyleTableRecord
  2
Standard
 70
     0
 40
0.0
 41
1.0
 50
0.0
 71
     0
 42
3.5
  3
txt
  4

  0
STYLE
  5
97
330
3
100
AcDbSymbolTableRecord
100
AcDbTextStyleTableRecord
  2
SLDTEXTSTYLE0
 70
     0
 40
0.0
 41
0.75
 50
0.0
 71
     0
 42
3.5
  3
TXT
  4

  0
ENDTAB
  0
TABLE
  2
VIEW
  5
6
330
0
100
AcDbSymbolTable
 70
     0
  0
ENDTAB
  0
TABLE
  2
UCS
  5
7
330
0
100
AcDbSymbolTable
 70
     0
  0
ENDTAB
  0
TABLE
  2
APPID
  5
9
330
0
100
AcDbSymbolTable
 70
     4
  0
APPID
  5
12
330
9
100
AcDbSymbolTableRecord
100
AcDbRegAppTableRecord
  2
ACAD
 70
     0
  0
APPID
  5
23C
330
9
100
AcDbSymbolTableRecord
100
AcDbRegAppTableRecord
  2
ACAD_DSTYLE_DIMRADIAL_EXTENSION
 70
     0
  0
APPID
  5
2AD
330
9
100
AcDbSymbolTableRecord
100
AcDbRegAppTableRecord
  2
ACAD_DSTYLE_DIMFLIPARROW_SYMBOL
 70
     0
  0
APPID
  5
2AE
330
9
100
AcDbSymbolTableRecord
100
AcDbRegAppTableRecord
  2
ACAD_DSTYLE_DIMFLIPARROW_WHICH_SYMBOL
 70
     0
  0
ENDTAB
  0
TABLE
  2
DIMSTYLE
  5
A
330
0
100
AcDbSymbolTable
 70
     5
100
AcDbDimStyleTable
  0
DIMSTYLE
105
27
330
A
100
AcDbSymbolTableRecord
100
AcDbDimStyleTableRecord
  2
ISO-25
 70
     0
 41
2.5
 42
0.625
 43
3.75
 44
1.25
 73
     0
 74
     0
 77
     1
 78
     8
140
2.5
141
2.5
143
0.03937007874016
147
0.625
171
     3
172
     1
178
     0
271
     2
272
     2
274
     3
278
    44
283
     0
284
     8
340
11
  0
DIMSTYLE
105
DA
102
{ACAD_REACTORS
330
17B
330
1A2
330
1E2
330
1E5
102
}
330
A
100
AcDbSymbolTableRecord
100
AcDbDimStyleTableRecord
  2
SLDDIMSTYLE0
 70
     0
 41
3.302
 44
0.0
 45
0.000000001
 73
     0
 74
     0
 77
     1
 78
    12
 79
     3
140
3.5
147
0.875
172
     1
173
     1
178
     0
271
     2
272
     2
276
     2
284
    12
289
     0
340
97
  0
DIMSTYLE
105
E8
102
{ACAD_REACTORS
330
188
330
1E3
102
}
330
A
100
AcDbSymbolTableRecord
100
AcDbDimStyleTableRecord
  2
SLDDIMSTYLE1
 70
     0
 41
3.302
 44
0.0
 45
0.000000001
 73
     0
 74
     0
 77
     1
 78
     4
 79
     1
140
3.5
147
0.875
172
     1
173
     1
178
     0
271
     2
272
     2
276
     2
284
    12
289
     0
340
97
  0
DIMSTYLE
105
F5
102
{ACAD_REACTORS
330
195
330
1E4
102
}
330
A
100
AcDbSymbolTableRecord
100
AcDbDimStyleTableRecord
  2
SLDDIMSTYLE2
 70
     0
 41
3.302
 44
0.0
 45
0.000000001
 73
     0
 74
     0
 77
     1
 78
    12
 79
     3
140
3.5
147
0.875
173
     1
178
     0
271
     2
272
     2
276
     2
284
    12
340
97
  0
DIMSTYLE
105
10C
102
{ACAD_REACTORS
330
1B2
330
1E6
330
275
330
29F
102
}
330
A
100
AcDbSymbolTableRecord
100
AcDbDimStyleTableRecord
  2
SLDDIMSTYLE3
 70
     0
 41
3.302
 44
0.0
 45
0.000000001
 73
     0
 74
     0
 77
     1
140
3.5
147
0.875
172
     1
173
     1
178
     0
271
     2
272
     2
276
     2
284
    12
289
     0
340
97
  0
ENDTAB
  0
TABLE
  2
BLOCK_RECORD
  5
1
330
0
100
AcDbSymbolTable
 70
    22
  0
BLOCK_RECORD
  5
1F
330
1
100
AcDbSymbolTableRecord
100
AcDbBlockTableRecord
  2
*Model_Space
340
22
  0
BLOCK_RECORD
  5
1B
330
1
100
AcDbSymbolTableRecord
100
AcDbBlockTableRecord
  2
*Paper_Space
340
1E
  0
BLOCK_RECORD
  5
23
330
1
100
AcDbSymbolTableRecord
100
AcDbBlockTableRecord
  2
*Paper_Space0
340
26
  0
BLOCK_RECORD
  5
82
330
1
100
AcDbSymbolTableRecord
100
AcDbBlockTableRecord
  2
블럭10
340
0
102
{BLKREFS
331
D2
102
}
  0
BLOCK_RECORD
  5
DB
330
1
100
AcDbSymbolTableRecord
100
AcDbBlockTableRecord
  2
_D
340
0
  0
BLOCK_RECORD
  5
E9
330
1
100
AcDbSymbolTableRecord
100
AcDbBlockTableRecord
  2
_D_1
340
0
  0
BLOCK_RECORD
  5
F6
330
1
100
AcDbSymbolTableRecord
100
AcDbBlockTableRecord
  2
_D_2
340
0
  0
BLOCK_RECORD
  5
100
330
1
100
AcDbSymbolTableRecord
100
AcDbBlockTableRecord
  2
_D_3
340
0
  0
BLOCK_RECORD
  5
10D
330
1
100
AcDbSymbolTableRecord
100
AcDbBlockTableRecord
  2
_D_4
340
0
  0
BLOCK_RECORD
  5
119
330
1
100
AcDbSymbolTableRecord
100
AcDbBlockTableRecord
  2
SW_DOWELSYMBOL_0
340
0
102
{BLKREFS
331
0
331
1C2
331
1E7
102
}
  0
BLOCK_RECORD
  5
17C
330
1
100
AcDbSymbolTableRecord
100
AcDbBlockTableRecord
  2
*D9
340
0
  0
BLOCK_RECORD
  5
189
330
1
100
AcDbSymbolTableRecord
100
AcDbBlockTableRecord
  2
*D10
340
0
  0
BLOCK_RECORD
  5
196
330
1
100
AcDbSymbolTableRecord
100
AcDbBlockTableRecord
  2
*D11
340
0
  0
BLOCK_RECORD
  5
1A3
330
1
100
AcDbSymbolTableRecord
100
AcDbBlockTableRecord
  2
*D12
340
0
  0
BLOCK_RECORD
  5
1B3
330
1
100
AcDbSymbolTableRecord
100
AcDbBlockTableRecord
  2
*D13
340
0
  0
BLOCK_RECORD
  5
1F2
330
1
100
AcDbSymbolTableRecord
100
AcDbBlockTableRecord
  2
*D14
340
0
  0
BLOCK_RECORD
  5
1FE
330
1
100
AcDbSymbolTableRecord
100
AcDbBlockTableRecord
  2
*D15
340
0
  0
BLOCK_RECORD
  5
20B
330
1
100
AcDbSymbolTableRecord
100
AcDbBlockTableRecord
  2
*D16
340
0
  0
BLOCK_RECORD
  5
217
330
1
100
AcDbSymbolTableRecord
100
AcDbBlockTableRecord
  2
*D17
340
0
  0
BLOCK_RECORD
  5
226
330
1
100
AcDbSymbolTableRecord
100
AcDbBlockTableRecord
  2
*D18
340
0
  0
BLOCK_RECORD
  5
278
330
1
100
AcDbSymbolTableRecord
100
AcDbBlockTableRecord
  2
*D20
340
0
  0
BLOCK_RECORD
  5
2A2
330
1
100
AcDbSymbolTableRecord
100
AcDbBlockTableRecord
  2
*D21
340
0
  0
ENDTAB
  0
ENDSEC
  0
SECTION
  2
BLOCKS
  0
BLOCK
  5
20
330
1F
100
AcDbEntity
  8
0
100
AcDbBlockBegin
  2
*Model_Space
 70
     0
 10
0.0
 20
0.0
 30
0.0
  3
*Model_Space
  1
*Model_Space
  0
ENDBLK
  5
21
330
1F
100
AcDbEntity
  8
0
100
AcDbBlockEnd
  0
BLOCK
  5
1C
330
1B
100
AcDbEntity
 67
     1
  8
0
100
AcDbBlockBegin
  2
*Paper_Space
 70
     0
 10
0.0
 20
0.0
 30
0.0
  3
*Paper_Space
  1
*Paper_Space
  0
ENDBLK
  5
1D
330
1B
100
AcDbEntity
 67
     1
  8
0
100
AcDbBlockEnd
  0
BLOCK
  5
24
330
23
100
AcDbEntity
  8
0
100
AcDbBlockBegin
  2
*Paper_Space0
 70
     0
 10
0.0
 20
0.0
 30
0.0
  3
*Paper_Space0
  1
*Paper_Space0
  0
ENDBLK
  5
25
330
23
100
AcDbEntity
  8
0
100
AcDbBlockEnd
  0
BLOCK
  5
83
330
82
100
AcDbEntity
  8
0
100
AcDbBlockBegin
  2
블럭10
 70
     2
 10
0.0
 20
0.0
 30
0.0
  3
블럭10
  1
블럭10
  0
ELLIPSE
  5
85
330
82
100
AcDbEntity
  8
중심선
100
AcDbEllipse
 10
20.54032771741204
 20
12.0471743016438
 30
0.0
 11
6.600054785286829
 21
-1.261213355974178E-13
 31
0.0
210
0.0
220
0.0
230
1.0
 40
0.636358354079598
 41
0.9219305317359503
 42
6.513795318482858
  0
ELLIPSE
  5
86
330
82
100
AcDbEntity
  8
중심선
100
AcDbEllipse
 10
20.54032771746488
 20
12.04717430159265
 30
0.0
 11
3.960054785062283
 21
1.540847449632565E-10
 31
0.0
210
0.0
220
0.0
230
1.0
 40
0.3939339440162632
 41
1.131841032648279
 42
5.62031148352944
  0
LINE
  5
87
330
82
100
AcDbEntity
  8
중심선
100
AcDbLine
 10
2.268634060543552
 20
16.24717430164393
 30
0.0
 11
5.714909304380834
 21
16.24717430164393
 31
0.0
  0
LINE
  5
88
330
82
100
AcDbEntity
  8
중심선
100
AcDbLine
 10
5.245725140726316
 20
7.84717430164391
 30
0.0
 11
8.692000384563599
 21
7.84717430164391
 31
0.0
  0
LINE
  5
89
330
82
100
AcDbEntity
  8
중심선
100
AcDbLine
 10
15.74043728645272
 20
16.24717430164393
 30
0.0
 11
8.692000384563599
 21
7.84717430164391
 31
0.0
  0
LINE
  5
8A
330
82
100
AcDbEntity
  8
중심선
100
AcDbLine
 10
0.1404042013395286
 20
13.71084872107135
 30
0.0
 11
3.58671253028996
 21
13.71088815037384
 31
0.0
  0
LINE
  5
8B
330
82
100
AcDbEntity
  8
중심선
100
AcDbLine
 10
2.750260043222114
 20
10.84717430164391
 30
0.0
 11
6.196535287059397
 21
10.84717430164391
 31
0.0
  0
LINE
  5
8C
330
82
100
AcDbEntity
  8
중심선
100
AcDbLine
 10
12.29416204261559
 20
16.24717430164393
 30
0.0
 11
5.245725140726316
 21
7.84717430164391
 31
0.0
  0
LINE
  5
8D
330
82
100
AcDbEntity
  8
중심선
100
AcDbLine
 10
10.72767329541681
 20
16.24717430164393
 30
0.0
 11
6.196535287059397
 21
10.84717430164391
 31
0.0
  0
LINE
  5
8E
330
82
100
AcDbEntity
  8
중심선
100
AcDbLine
 10
7.28139805157953
 20
16.24717430164393
 30
0.0
 11
2.750260043222114
 21
10.84717430164391
 31
0.0
  0
LINE
  5
8F
330
82
100
AcDbEntity
  8
중심선
100
AcDbLine
 10
5.714909304380834
 20
16.24717430164393
 30
0.0
 11
3.58671253028996
 21
13.71088815037384
 31
0.0
  0
LINE
  5
90
330
82
100
AcDbEntity
  8
중심선
100
AcDbLine
 10
2.268634060543552
 20
16.24717430164393
 30
0.0
 11
0.1404042013395286
 21
13.71084872107135
 31
0.0
  0
LINE
  5
91
330
82
100
AcDbEntity
  8
중심선
100
AcDbLine
 10
7.28139805157953
 20
16.24717430164393
 30
0.0
 11
10.72767329541681
 21
16.24717430164393
 31
0.0
  0
LINE
  5
92
330
82
100
AcDbEntity
  8
중심선
100
AcDbLine
 10
12.29416204261559
 20
16.24717430164393
 30
0.0
 11
15.74043728645272
 21
16.24717430164393
 31
0.0
  0
LINE
  5
93
330
82
100
AcDbEntity
  8
중심선
100
AcDbLine
 10
19.22036997980202
 20
11.08717430171403
 30
0.0
 11
23.66174974927406
 21
11.08717430171406
 31
0.0
  0
LINE
  5
94
330
82
100
AcDbEntity
  8
중심선
100
AcDbLine
 10
19.22039502424796
 20
13.00717430171391
 30
0.0
 11
19.22036997980202
 21
11.08717430171403
 31
0.0
  0
LINE
  5
95
330
82
100
AcDbEntity
  8
중심선
100
AcDbLine
 10
19.22039502424796
 20
13.00717430171391
 30
0.0
 11
26.96566020931264
 21
13.00717430171391
 31
0.0
  0
LINE
  5
96
330
82
100
AcDbEntity
  8
중심선
100
AcDbLine
 10
22.22332737316547
 20
13.45928029700563
 30
0.0
 11
24.52862924686651
 21
15.39360700705356
 31
0.0
  0
ATTDEF
  5
98
330
82
100
AcDbEntity
  8
FORMAT
 62
     2
100
AcDbText
 10
-19.27858288401334
 20
2.075366912832191
 30
0.0
 40
4.233333333333333
  1
SEME610070202E [ 2 FLUTE ]
 41
0.75
  7
SLDTEXTSTYLE0
 11
-19.27858288401334
 21
-0.0412997538344756
 31
0.0
100
AcDbAttributeDefinition
  3

  2
AUTOATTR0
 70
     0
 74
     1
  0
ENDBLK
  5
84
330
82
100
AcDbEntity
  8
0
100
AcDbBlockEnd
  0
BLOCK
  5
DC
330
DB
100
AcDbEntity
  8
0
100
AcDbBlockBegin
  2
_D
 70
     0
 10
0.0
 20
0.0
 30
0.0
  3
_D
  1
_D
  0
SOLID
  5
DE
330
DB
100
AcDbEntity
  8
치수문자_일반주서
100
AcDbTrace
 10
-44.00250885508846
 20
2.001074928723888
 30
0.0
 11
-43.49450885508845
 21
5.303074928723888
 31
0.0
 12
-44.51050885508846
 22
5.303074928723888
 32
0.0
 13
-44.51050885508846
 23
5.303074928723888
 33
0.0
  0
SOLID
  5
DF
330
DB
100
AcDbEntity
  8
치수문자_일반주서
100
AcDbTrace
 10
-44.00250885508846
 20
-1.998925071276106
 30
0.0
 11
-44.51050885508846
 21
-5.300925071276105
 31
0.0
 12
-43.49450885508845
 22
-5.300925071276105
 32
0.0
 13
-43.49450885508845
 23
-5.300925071276105
 33
0.0
  0
LINE
  5
E0
330
DB
100
AcDbEntity
  8
치수문자_일반주서
100
AcDbLine
 10
-32.50605083347638
 20
2.001074928723888
 30
0.0
 11
-45.00250885508846
 21
2.001074928723888
 31
0.0
  0
LINE
  5
E1
330
DB
100
AcDbEntity
  8
치수문자_일반주서
100
AcDbLine
 10
-32.50605083347638
 20
-1.998925071276106
 30
0.0
 11
-45.00250885508846
 21
-1.998925071276106
 31
0.0
  0
LINE
  5
E2
330
DB
100
AcDbEntity
  8
치수문자_일반주서
100
AcDbLine
 10
-44.00250885508846
 20
2.001074928723888
 30
0.0
 11
-44.00250885508846
 21
8.351074928723888
 31
0.0
  0
LINE
  5
E3
330
DB
100
AcDbEntity
  8
치수문자_일반주서
100
AcDbLine
 10
-44.00250885508846
 20
2.001074928723888
 30
0.0
 11
-44.00250885508846
 21
-1.998925071276106
 31
0.0
  0
LINE
  5
E4
330
DB
100
AcDbEntity
  8
치수문자_일반주서
100
AcDbLine
 10
-44.00250885508846
 20
-1.998925071276106
 30
0.0
 11
-44.00250885508846
 21
-8.348925071276105
 31
0.0
  0
MTEXT
  5
E5
330
DB
100
AcDbEntity
  8
치수문자_일반주서
100
AcDbMText
 10
-48.51424594429029
 20
-3.931199483639881
 30
0.0
 40
3.5
 41
0.0
 71
     1
 72
     1
  1
%%c
  7
SLDTEXTSTYLE0
 11
-7.044195017643634E-15
 21
1.0
 31
0.0
 73
     1
 44
1.0
  0
MTEXT
  5
E6
330
DB
100
AcDbEntity
  8
치수문자_일반주서
100
AcDbMText
 10
-48.56771812095018
 20
1.3472379147342
 30
0.0
 40
3.5
 41
0.0
 71
     1
 72
     1
  1
4
  7
SLDTEXTSTYLE0
 11
-7.044195017643634E-15
 21
1.0
 31
0.0
 73
     1
 44
1.0
  0
ENDBLK
  5
DD
330
DB
100
AcDbEntity
  8
0
100
AcDbBlockEnd
  0
BLOCK
  5
EA
330
E9
100
AcDbEntity
  8
0
100
AcDbBlockBegin
  2
_D_1
 70
     0
 10
0.0
 20
0.0
 30
0.0
  3
_D_1
  1
_D_1
  0
SOLID
  5
EC
330
E9
100
AcDbEntity
  8
치수문자_일반주서
100
AcDbTrace
 10
12.49394916652241
 20
18.65107492872356
 30
0.0
 11
15.79594916652244
 21
18.14307492872377
 31
0.0
 12
15.79594916652237
 22
19.15907492872377
 32
0.0
 13
15.79594916652237
 23
19.15907492872377
 33
0.0
  0
SOLID
  5
ED
330
E9
100
AcDbEntity
  8
치수문자_일반주서
100
AcDbTrace
 10
11.29394916652241
 20
18.65107492872348
 30
0.0
 11
7.991949166522383
 21
19.15907492872326
 31
0.0
 12
7.991949166522448
 22
18.14307492872327
 32
0.0
 13
7.991949166522448
 23
18.14307492872327
 33
0.0
  0
LINE
  5
EE
330
E9
100
AcDbEntity
  8
치수문자_일반주서
100
AcDbLine
 10
12.49394916652355
 20
1.151074928723893
 30
0.0
 11
12.49394916652234
 21
19.65107492872356
 31
0.0
  0
LINE
  5
EF
330
E9
100
AcDbEntity
  8
치수문자_일반주서
100
AcDbLine
 10
11.29394916652355
 20
1.274406895385969
 30
0.0
 11
11.29394916652235
 21
19.65107492872348
 31
0.0
  0
LINE
  5
F0
330
E9
100
AcDbEntity
  8
치수문자_일반주서
100
AcDbLine
 10
12.49394916652241
 20
18.65107492872356
 30
0.0
 11
18.33219388599644
 21
18.65107492872393
 31
0.0
  0
LINE
  5
F1
330
E9
100
AcDbEntity
  8
치수문자_일반주서
100
AcDbLine
 10
12.49394916652241
 20
18.65107492872356
 30
0.0
 11
11.29394916652241
 21
18.65107492872348
 31
0.0
  0
LINE
  5
F2
330
E9
100
AcDbEntity
  8
치수문자_일반주서
100
AcDbLine
 10
11.29394916652241
 20
18.65107492872348
 30
0.0
 11
4.943949166522415
 21
18.65107492872308
 31
0.0
  0
MTEXT
  5
F3
330
E9
100
AcDbEntity
  8
치수문자_일반주서
100
AcDbMText
 10
9.280804825082006
 20
23.16281184330252
 30
0.0
 40
3.5
 41
0.0
 71
     1
 72
     1
  1
1.20
  7
SLDTEXTSTYLE0
 73
     1
 44
1.0
  0
ENDBLK
  5
EB
330
E9
100
AcDbEntity
  8
0
100
AcDbBlockEnd
  0
BLOCK
  5
F7
330
F6
100
AcDbEntity
  8
0
100
AcDbBlockBegin
  2
_D_2
 70
     0
 10
0.0
 20
0.0
 30
0.0
  3
_D_2
  1
_D_2
  0
SOLID
  5
F9
330
F6
100
AcDbEntity
  8
치수문자_일반주서
100
AcDbTrace
 10
12.49394916652362
 20
40.70939943376818
 30
0.0
 11
9.191949166523615
 21
41.21739943376819
 31
0.0
 12
9.191949166523615
 22
40.20139943376818
 32
0.0
 13
9.191949166523615
 23
40.20139943376818
 33
0.0
  0
SOLID
  5
FA
330
F6
100
AcDbEntity
  8
치수문자_일반주서
100
AcDbTrace
 10
-32.50605083347638
 20
40.70939943376818
 30
0.0
 11
-29.20405083347638
 21
40.20139943376818
 31
0.0
 12
-29.20405083347638
 22
41.21739943376819
 32
0.0
 13
-29.20405083347638
 23
41.21739943376819
 33
0.0
  0
LINE
  5
FB
330
F6
100
AcDbEntity
  8
치수문자_일반주서
100
AcDbLine
 10
12.49394916652362
 20
1.151074928723893
 30
0.0
 11
12.49394916652362
 21
41.70939943376818
 31
0.0
  0
LINE
  5
FC
330
F6
100
AcDbEntity
  8
치수문자_일반주서
100
AcDbLine
 10
-32.50605083347638
 20
2.001074928723888
 30
0.0
 11
-32.50605083347638
 21
41.70939943376818
 31
0.0
  0
LINE
  5
FD
330
F6
100
AcDbEntity
  8
치수문자_일반주서
100
AcDbLine
 10
12.49394916652362
 20
40.70939943376818
 30
0.0
 11
-32.50605083347638
 21
40.70939943376818
 31
0.0
  0
MTEXT
  5
FE
330
F6
100
AcDbEntity
  8
치수문자_일반주서
100
AcDbMText
 10
-12.59216202699921
 20
45.22113634834707
 30
0.0
 40
3.5
 41
0.0
 71
     1
 72
     1
  1
45
  7
SLDTEXTSTYLE0
 73
     1
 44
1.0
  0
ENDBLK
  5
F8
330
F6
100
AcDbEntity
  8
0
100
AcDbBlockEnd
  0
BLOCK
  5
101
330
100
100
AcDbEntity
  8
0
100
AcDbBlockBegin
  2
_D_3
 70
     0
 10
0.0
 20
0.0
 30
0.0
  3
_D_3
  1
_D_3
  0
SOLID
  5
103
330
100
100
AcDbEntity
  8
치수문자_일반주서
100
AcDbTrace
 10
13.49394916652351
 20
30.12107492872394
 30
0.0
 11
16.79594916652351
 21
29.61307492872395
 31
0.0
 12
16.79594916652351
 22
30.62907492872395
 32
0.0
 13
16.79594916652351
 23
30.62907492872395
 33
0.0
  0
SOLID
  5
104
330
100
100
AcDbEntity
  8
치수문자_일반주서
100
AcDbTrace
 10
10.30734662614507
 20
30.12107492872393
 30
0.0
 11
7.005346626145066
 21
30.62907492872392
 31
0.0
 12
7.005346626145069
 22
29.61307492872392
 32
0.0
 13
7.005346626145069
 23
29.61307492872392
 33
0.0
  0
LINE
  5
105
330
100
100
AcDbEntity
  8
치수문자_일반주서
100
AcDbLine
 10
13.49394916652361
 20
1.201074928723894
 30
0.0
 11
13.49394916652351
 21
31.12107492872394
 31
0.0
  0
LINE
  5
106
330
100
100
AcDbEntity
  8
치수문자_일반주서
100
AcDbLine
 10
10.30734662614517
 20
1.061199803428677
 30
0.0
 11
10.30734662614506
 21
31.12107492872393
 31
0.0
  0
LINE
  5
107
330
100
100
AcDbEntity
  8
치수문자_일반주서
100
AcDbLine
 10
13.49394916652351
 20
30.12107492872394
 30
0.0
 11
45.12480835498598
 21
30.12107492872405
 31
0.0
  0
LINE
  5
108
330
100
100
AcDbEntity
  8
치수문자_일반주서
100
AcDbLine
 10
13.49394916652351
 20
30.12107492872394
 30
0.0
 11
10.30734662614507
 21
30.12107492872393
 31
0.0
  0
LINE
  5
109
330
100
100
AcDbEntity
  8
치수문자_일반주서
100
AcDbLine
 10
10.30734662614507
 20
30.12107492872393
 30
0.0
 11
3.957346626145067
 21
30.12107492872391
 31
0.0
  0
MTEXT
  5
10A
330
100
100
AcDbEntity
  8
치수문자_일반주서
100
AcDbMText
 10
36.07341929407147
 20
34.63281184330295
 30
0.0
 40
3.5
 41
0.0
 71
     1
 72
     1
  1
3.19
  7
SLDTEXTSTYLE0
 73
     1
 44
1.0
  0
ENDBLK
  5
102
330
100
100
AcDbEntity
  8
0
100
AcDbBlockEnd
  0
BLOCK
  5
10E
330
10D
100
AcDbEntity
  8
0
100
AcDbBlockBegin
  2
_D_4
 70
     0
 10
0.0
 20
0.0
 30
0.0
  3
_D_4
  1
_D_4
  0
SOLID
  5
110
330
10D
100
AcDbEntity
  8
치수문자_일반주서
100
AcDbTrace
 10
34.30059833193547
 20
0.2510749287239238
 30
0.0
 11
34.80859833193546
 21
3.553074928723924
 31
0.0
 12
33.79259833193546
 22
3.553074928723922
 32
0.0
 13
33.79259833193546
 23
3.553074928723922
 33
0.0
  0
SOLID
  5
111
330
10D
100
AcDbEntity
  8
치수문자_일반주서
100
AcDbTrace
 10
34.30059833193548
 20
-0.2457884678290603
 30
0.0
 11
33.79259833193548
 21
-3.547788467829061
 31
0.0
 12
34.80859833193549
 22
-3.547788467829059
 32
0.0
 13
34.80859833193549
 23
-3.547788467829059
 33
0.0
  0
LINE
  5
112
330
10D
100
AcDbEntity
  8
치수문자_일반주서
100
AcDbLine
 10
17.44394916652362
 20
0.2510749287238954
 30
0.0
 11
35.30059833193547
 21
0.2510749287239255
 31
0.0
  0
LINE
  5
113
330
10D
100
AcDbEntity
  8
치수문자_일반주서
100
AcDbLine
 10
17.44394916652362
 20
-0.2457884678290887
 30
0.0
 11
35.30059833193548
 21
-0.2457884678290586
 31
0.0
  0
LINE
  5
114
330
10D
100
AcDbEntity
  8
치수문자_일반주서
100
AcDbLine
 10
34.30059833193547
 20
0.2510749287239238
 30
0.0
 11
34.30059833193538
 21
6.601074928723923
 31
0.0
  0
LINE
  5
115
330
10D
100
AcDbEntity
  8
치수문자_일반주서
100
AcDbLine
 10
34.30059833193547
 20
0.2510749287239238
 30
0.0
 11
34.30059833193548
 21
-0.2457884678290603
 31
0.0
  0
LINE
  5
116
330
10D
100
AcDbEntity
  8
치수문자_일반주서
100
AcDbLine
 10
34.30059833193548
 20
-0.2457884678290603
 30
0.0
 11
34.30059833193558
 21
-8.35659775097388
 31
0.0
  0
MTEXT
  5
117
330
10D
100
AcDbEntity
  8
치수문자_일반주서
100
AcDbMText
 10
29.78886124273366
 20
-8.356597750973934
 30
0.0
 40
3.5
 41
0.0
 71
     1
 72
     1
  1
%%c
  7
SLDTEXTSTYLE0
 11
-8.820551857043885E-15
 21
1.0
 31
0.0
 73
     1
 44
1.0
  0
MTEXT
  5
118
330
10D
100
AcDbEntity
  8
치수문자_일반주서
100
AcDbMText
 10
29.73538906607376
 20
-3.078160352599854
 30
0.0
 40
3.5
 41
0.0
 71
     1
 72
     1
  1
0.50
  7
SLDTEXTSTYLE0
 11
-8.820551857043885E-15
 21
1.0
 31
0.0
 73
     1
 44
1.0
  0
ENDBLK
  5
10F
330
10D
100
AcDbEntity
  8
0
100
AcDbBlockEnd
  0
BLOCK
  5
11A
330
119
100
AcDbEntity
  8
0
100
AcDbBlockBegin
  2
SW_DOWELSYMBOL_0
 70
     0
 10
0.0
 20
0.0
 30
0.0
  3
SW_DOWELSYMBOL_0
  1
SW_DOWELSYMBOL_0
  0
CIRCLE
  5
11C
330
119
100
AcDbEntity
  8
외형선
 62
     0
100
AcDbCircle
 10
0.0
 20
0.0
 30
0.0
 40
3.000000000000004
  0
HATCH
  5
11D
330
119
100
AcDbEntity
  8
0
  6
Continuous
 62
     0
370
    35
100
AcDbHatch
 10
0.0
 20
0.0
 30
0.0
210
0.0
220
0.0
230
1.0
  2
SOLID
 70
     1
 71
     0
 91
        1
 92
        0
 93
        3
 72
     2
 10
0.0000000000000104
 20
0.0
 40
3.000000000000004
 50
0.0
 51
90.0
 73
     1
 72
     1
 10
0.0000000000000104
 20
3.000000000000004
 11
0.0000000000000104
 21
0.0
 72
     1
 10
0.0000000000000104
 20
0.0
 11
3.000000000000015
 21
0.0
 97
        0
 75
     0
 76
     1
 98
        1
 10
0.0
 20
0.0
  0
HATCH
  5
11E
330
119
100
AcDbEntity
  8
0
  6
Continuous
 62
     0
370
    35
100
AcDbHatch
 10
0.0
 20
0.0
 30
0.0
210
0.0
220
0.0
230
1.0
  2
SOLID
 70
     1
 71
     0
 91
        1
 92
        0
 93
        3
 72
     2
 10
0.0000000000000104
 20
0.0
 40
3.000000000000004
 50
180.0
 51
270.0000000000008
 73
     1
 72
     1
 10
0.0000000000000104
 20
-3.000000000000004
 11
0.0000000000000104
 21
0.0
 72
     1
 10
0.0000000000000104
 20
0.0
 11
-2.999999999999994
 21
0.0
 97
        0
 75
     0
 76
     1
 98
        1
 10
0.0
 20
0.0
  0
ENDBLK
  5
11B
330
119
100
AcDbEntity
  8
0
100
AcDbBlockEnd
  0
BLOCK
  5
17D
330
17C
100
AcDbEntity
  8
0
100
AcDbBlockBegin
  2
*D9
 70
     1
 10
0.0
 20
0.0
 30
0.0
  3
*D9
  1
*D9
  0
LINE
  5
17E
330
17C
100
AcDbEntity
  8
치수문자_일반주서
 62
     0
370
    -2
100
AcDbLine
 10
16.80895802161217
 20
8.951282474748325
 30
0.0
 11
4.374999999999993
 21
8.951282474748279
 31
0.0
  0
LINE
  5
17F
330
17C
100
AcDbEntity
  8
치수문자_일반주서
 62
     0
370
    -2
100
AcDbLine
 10
16.80895802161217
 20
4.951282474748325
 30
0.0
 11
4.375000000000007
 21
4.951282474748279
 31
0.0
  0
LINE
  5
180
330
17C
100
AcDbEntity
  8
치수문자_일반주서
 62
     0
370
    -2
100
AcDbLine
 10
4.375000000000004
 20
5.649282474748279
 30
0.0
 11
4.374999999999996
 21
8.253282474748278
 31
0.0
  0
SOLID
  5
181
330
17C
100
AcDbEntity
  8
치수문자_일반주서
 62
     0
100
AcDbTrace
 10
4.925333333333338
 20
5.649282474748281
 30
0.0
 11
3.824666666666671
 21
5.649282474748277
 31
0.0
 12
4.374999999999993
 22
8.951282474748279
 32
0.0
 13
4.374999999999993
 23
8.951282474748279
 33
0.0
  0
SOLID
  5
182
330
17C
100
AcDbEntity
  8
치수문자_일반주서
 62
     0
100
AcDbTrace
 10
3.824666666666662
 20
8.253282474748277
 30
0.0
 11
4.925333333333329
 21
8.25328247474828
 31
0.0
 12
4.375000000000007
 22
4.951282474748279
 32
0.0
 13
4.375000000000007
 23
4.951282474748279
 33
0.0
  0
MTEXT
  5
183
330
17C
100
AcDbEntity
  8
치수문자_일반주서
 62
     0
100
AcDbMText
 10
0.0
 20
6.95128247474831
 30
0.0
 40
3.5
 41
0.0
 71
     2
 72
     1
  1
\A1;%%c4
  7
SLDTEXTSTYLE0
 11
-3.552713678800500E-15
 21
1.0
 31
0.0
 73
     1
 44
1.0
  0
POINT
  5
184
330
17C
100
AcDbEntity
  8
Defpoints
 62
     0
100
AcDbPoint
 10
16.87145802161217
 20
8.951282474748325
 30
0.0
  0
POINT
  5
185
330
17C
100
AcDbEntity
  8
Defpoints
 62
     0
100
AcDbPoint
 10
16.87145802161217
 20
4.951282474748325
 30
0.0
  0
POINT
  5
186
330
17C
100
AcDbEntity
  8
Defpoints
 62
     0
100
AcDbPoint
 10
4.375
 20
4.951282474748278
 30
0.0
  0
ENDBLK
  5
187
330
17C
100
AcDbEntity
  8
0
100
AcDbBlockEnd
  0
BLOCK
  5
18A
330
189
100
AcDbEntity
  8
0
100
AcDbBlockBegin
  2
*D10
 70
     1
 10
0.0
 20
0.0
 30
0.0
  3
*D10
  1
*D10
  0
LINE
  5
18B
330
189
100
AcDbEntity
  8
치수문자_일반주서
 62
     0
370
    -2
100
AcDbLine
 10
60.87145802161217
 20
7.313782474748336
 30
0.0
 11
60.87145802161217
 21
26.25928247474801
 31
0.0
  0
LINE
  5
18C
330
189
100
AcDbEntity
  8
치수문자_일반주서
 62
     0
370
    -2
100
AcDbLine
 10
59.67145802161212
 20
7.287114441410409
 30
0.0
 11
59.67145802161212
 21
26.25928247474801
 31
0.0
  0
LINE
  5
18D
330
189
100
AcDbEntity
  8
치수문자_일반주서
 62
     0
370
    -2
100
AcDbLine
 10
60.87145802161217
 20
26.25928247474801
 30
0.0
 11
75.78795802161217
 21
26.25928247474801
 31
0.0
  0
LINE
  5
18E
330
189
100
AcDbEntity
  8
치수문자_일반주서
 62
     0
370
    -2
100
AcDbLine
 10
57.56945802161217
 20
26.25928247474801
 30
0.0
 11
62.97345802161212
 21
26.25928247474801
 31
0.0
  0
SOLID
  5
18F
330
189
100
AcDbEntity
  8
치수문자_일반주서
 62
     0
100
AcDbTrace
 10
57.56945802161217
 20
25.70894914141467
 30
0.0
 11
57.56945802161217
 21
26.80961580808134
 31
0.0
 12
60.87145802161217
 22
26.25928247474801
 32
0.0
 13
60.87145802161217
 23
26.25928247474801
 33
0.0
  0
SOLID
  5
190
330
189
100
AcDbEntity
  8
치수문자_일반주서
 62
     0
100
AcDbTrace
 10
62.97345802161212
 20
26.80961580808134
 30
0.0
 11
62.97345802161212
 21
25.70894914141467
 31
0.0
 12
59.67145802161212
 22
26.25928247474801
 32
0.0
 13
59.67145802161212
 23
26.25928247474801
 33
0.0
  0
MTEXT
  5
191
330
189
100
AcDbEntity
  8
치수문자_일반주서
 62
     0
100
AcDbMText
 10
71.63170802161217
 20
30.63428247474801
 30
0.0
 40
3.5
 41
0.0
 71
     2
 72
     1
  1
\A1;1.20
  7
SLDTEXTSTYLE0
 73
     1
 44
1.0
  0
POINT
  5
192
330
189
100
AcDbEntity
  8
Defpoints
 62
     0
100
AcDbPoint
 10
60.87145802161217
 20
7.251282474748336
 30
0.0
  0
POINT
  5
193
330
189
100
AcDbEntity
  8
Defpoints
 62
     0
100
AcDbPoint
 10
59.67145802161212
 20
7.224614441410409
 30
0.0
  0
POINT
  5
1D5
330
189
100
AcDbEntity
  8
Defpoints
 62
     0
100
AcDbPoint
 10
59.67145802161212
 20
26.25928247474801
 30
0.0
  0
ENDBLK
  5
194
330
189
100
AcDbEntity
  8
0
100
AcDbBlockEnd
  0
BLOCK
  5
197
330
196
100
AcDbEntity
  8
0
100
AcDbBlockBegin
  2
*D11
 70
     1
 10
0.0
 20
0.0
 30
0.0
  3
*D11
  1
*D11
  0
LINE
  5
198
330
196
100
AcDbEntity
  8
치수문자_일반주서
 62
     0
370
    -2
100
AcDbLine
 10
60.87145802161217
 20
7.313782474748336
 30
0.0
 11
60.87145802161217
 21
47.80960697979262
 31
0.0
  0
LINE
  5
199
330
196
100
AcDbEntity
  8
치수문자_일반주서
 62
     0
370
    -2
100
AcDbLine
 10
15.87145802161217
 20
8.013782474748325
 30
0.0
 11
15.87145802161217
 21
47.80960697979262
 31
0.0
  0
LINE
  5
19A
330
196
100
AcDbEntity
  8
치수문자_일반주서
 62
     0
370
    -2
100
AcDbLine
 10
57.56945802161217
 20
47.80960697979262
 30
0.0
 11
19.17345802161217
 21
47.80960697979262
 31
0.0
  0
SOLID
  5
19B
330
196
100
AcDbEntity
  8
치수문자_일반주서
 62
     0
100
AcDbTrace
 10
57.56945802161217
 20
47.25927364645928
 30
0.0
 11
57.56945802161217
 21
48.35994031312595
 31
0.0
 12
60.87145802161217
 22
47.80960697979262
 32
0.0
 13
60.87145802161217
 23
47.80960697979262
 33
0.0
  0
SOLID
  5
19C
330
196
100
AcDbEntity
  8
치수문자_일반주서
 62
     0
100
AcDbTrace
 10
19.17345802161217
 20
48.35994031312595
 30
0.0
 11
19.17345802161217
 21
47.25927364645928
 31
0.0
 12
15.87145802161217
 22
47.80960697979262
 32
0.0
 13
15.87145802161217
 23
47.80960697979262
 33
0.0
  0
MTEXT
  5
19D
330
196
100
AcDbEntity
  8
치수문자_일반주서
 62
     0
100
AcDbMText
 10
38.37145802161217
 20
52.18460697979262
 30
0.0
 40
3.5
 41
0.0
 71
     2
 72
     1
  1
\A1;45
  7
SLDTEXTSTYLE0
 73
     1
 44
1.0
  0
POINT
  5
19E
330
196
100
AcDbEntity
  8
Defpoints
 62
     0
100
AcDbPoint
 10
60.87145802161217
 20
7.251282474748336
 30
0.0
  0
POINT
  5
19F
330
196
100
AcDbEntity
  8
Defpoints
 62
     0
100
AcDbPoint
 10
15.87145802161217
 20
7.951282474748325
 30
0.0
  0
POINT
  5
1A0
330
196
100
AcDbEntity
  8
Defpoints
 62
     0
100
AcDbPoint
 10
15.87145802161217
 20
47.80960697979262
 30
0.0
  0
ENDBLK
  5
1A1
330
196
100
AcDbEntity
  8
0
100
AcDbBlockEnd
  0
BLOCK
  5
1A4
330
1A3
100
AcDbEntity
  8
0
100
AcDbBlockBegin
  2
*D12
 70
     1
 10
0.0
 20
0.0
 30
0.0
  3
*D12
  1
*D12
  0
LINE
  5
1A5
330
1A3
100
AcDbEntity
  8
치수문자_일반주서
 62
     0
370
    -2
100
AcDbLine
 10
60.87145802161217
 20
7.313248461878743
 30
0.0
 11
60.87145802161217
 21
37.07128247474847
 31
0.0
  0
LINE
  5
1A6
330
1A3
100
AcDbEntity
  8
치수문자_일반주서
 62
     0
370
    -2
100
AcDbLine
 10
58.87145802161217
 20
7.338782474748342
 30
0.0
 11
58.87145802161217
 21
37.07128247474847
 31
0.0
  0
LINE
  5
1A7
330
1A3
100
AcDbEntity
  8
치수문자_일반주서
 62
     0
370
    -2
100
AcDbLine
 10
60.87145802161217
 20
37.07128247474847
 30
0.0
 11
82.7266226796171
 21
37.07128247474847
 31
0.0
  0
LINE
  5
1A8
330
1A3
100
AcDbEntity
  8
치수문자_일반주서
 62
     0
370
    -2
100
AcDbLine
 10
60.87145802161217
 20
37.07128247474847
 30
0.0
 11
58.87145802161217
 21
37.07128247474847
 31
0.0
  0
LINE
  5
1A9
330
1A3
100
AcDbEntity
  8
치수문자_일반주서
 62
     0
370
    -2
100
AcDbLine
 10
64.17345802161216
 20
37.07128247474847
 30
0.0
 11
67.47545802161216
 21
37.07128247474847
 31
0.0
  0
LINE
  5
1AA
330
1A3
100
AcDbEntity
  8
치수문자_일반주서
 62
     0
370
    -2
100
AcDbLine
 10
55.56945802161217
 20
37.07128247474847
 30
0.0
 11
52.26745802161217
 21
37.07128247474847
 31
0.0
  0
SOLID
  5
1AB
330
1A3
100
AcDbEntity
  8
치수문자_일반주서
 62
     0
100
AcDbTrace
 10
64.17345802161216
 20
37.62161580808181
 30
0.0
 11
64.17345802161216
 21
36.52094914141514
 31
0.0
 12
60.87145802161217
 22
37.07128247474847
 32
0.0
 13
60.87145802161217
 23
37.07128247474847
 33
0.0
  0
SOLID
  5
1AC
330
1A3
100
AcDbEntity
  8
치수문자_일반주서
 62
     0
100
AcDbTrace
 10
55.56945802161217
 20
36.52094914141514
 30
0.0
 11
55.56945802161217
 21
37.62161580808181
 31
0.0
 12
58.87145802161217
 22
37.07128247474847
 32
0.0
 13
58.87145802161217
 23
37.07128247474847
 33
0.0
  0
MTEXT
  5
1AD
330
1A3
100
AcDbEntity
  8
치수문자_일반주서
 62
     0
100
AcDbMText
 10
80.9766226796171
 20
41.44628247474847
 30
0.0
 40
3.5
 41
0.0
 71
     2
 72
     1
  1
\A1;2
  7
SLDTEXTSTYLE0
 73
     1
 44
1.0
  0
POINT
  5
1AE
330
1A3
100
AcDbEntity
  8
Defpoints
 62
     0
100
AcDbPoint
 10
60.87145802161217
 20
7.250748461878743
 30
0.0
  0
POINT
  5
1AF
330
1A3
100
AcDbEntity
  8
Defpoints
 62
     0
100
AcDbPoint
 10
58.87145802161217
 20
7.276282474748342
 30
0.0
  0
POINT
  5
1B0
330
1A3
100
AcDbEntity
  8
Defpoints
 62
     0
100
AcDbPoint
 10
58.87145802161217
 20
37.07128247474847
 30
0.0
  0
ENDBLK
  5
1B1
330
1A3
100
AcDbEntity
  8
0
100
AcDbBlockEnd
  0
BLOCK
  5
1B4
330
1B3
100
AcDbEntity
  8
0
100
AcDbBlockBegin
  2
*D13
 70
     1
 10
0.0
 20
0.0
 30
0.0
  3
*D13
  1
*D13
  0
LINE
  5
1B5
330
1B3
100
AcDbEntity
  8
치수문자_일반주서
 62
     0
370
    -2
100
AcDbLine
 10
60.93399708714719
 20
7.301893685075441
 30
0.0
 11
74.6781071870239
 21
7.301893685075493
 31
0.0
  0
LINE
  5
1B6
330
1B3
100
AcDbEntity
  8
치수문자_일반주서
 62
     0
370
    -2
100
AcDbLine
 10
60.88395802160858
 20
6.603999999999928
 30
0.0
 11
74.6781071870239
 21
6.60399999999998
 31
0.0
  0
LINE
  5
1B7
330
1B3
100
AcDbEntity
  8
치수문자_일반주서
 62
     0
370
    -2
100
AcDbLine
 10
74.6781071870239
 20
7.301893685075493
 30
0.0
 11
74.6781071870239
 21
25.49631494949679
 31
0.0
  0
LINE
  5
1B8
330
1B3
100
AcDbEntity
  8
치수문자_일반주서
 62
     0
370
    -2
100
AcDbLine
 10
74.6781071870239
 20
7.301893685075493
 30
0.0
 11
74.6781071870239
 21
6.60399999999998
 31
0.0
  0
LINE
  5
1B9
330
1B3
100
AcDbEntity
  8
치수문자_일반주서
 62
     0
370
    -2
100
AcDbLine
 10
74.6781071870239
 20
10.60389368507549
 30
0.0
 11
74.6781071870239
 21
13.90589368507549
 31
0.0
  0
LINE
  5
1BA
330
1B3
100
AcDbEntity
  8
치수문자_일반주서
 62
     0
370
    -2
100
AcDbLine
 10
74.6781071870239
 20
3.30199999999998
 30
0.0
 11
74.6781071870239
 21
-0.0000000000000195
 31
0.0
  0
SOLID
  5
1BB
330
1B3
100
AcDbEntity
  8
치수문자_일반주서
 62
     0
100
AcDbTrace
 10
74.12777385369057
 20
10.60389368507549
 30
0.0
 11
75.22844052035722
 21
10.60389368507549
 31
0.0
 12
74.6781071870239
 22
7.301893685075493
 32
0.0
 13
74.6781071870239
 23
7.301893685075493
 33
0.0
  0
SOLID
  5
1BC
330
1B3
100
AcDbEntity
  8
치수문자_일반주서
 62
     0
100
AcDbTrace
 10
75.22844052035722
 20
3.30199999999998
 30
0.0
 11
74.12777385369057
 21
3.30199999999998
 31
0.0
 12
74.6781071870239
 22
6.60399999999998
 32
0.0
 13
74.6781071870239
 23
6.60399999999998
 33
0.0
  0
MTEXT
  5
1BD
330
1B3
100
AcDbEntity
  8
치수문자_일반주서
 62
     0
100
AcDbMText
 10
70.3031071870239
 20
19.80881494949679
 30
0.0
 40
3.5
 41
0.0
 71
     2
 72
     1
  1
\A1;%%c0.70
  7
SLDTEXTSTYLE0
 11
0.0
 21
1.0
 31
0.0
 73
     1
 44
1.0
  0
POINT
  5
1BE
330
1B3
100
AcDbEntity
  8
Defpoints
 62
     0
100
AcDbPoint
 10
60.87149708714719
 20
7.301893685075441
 30
0.0
  0
POINT
  5
1BF
330
1B3
100
AcDbEntity
  8
Defpoints
 62
     0
100
AcDbPoint
 10
60.82145802160858
 20
6.603999999999928
 30
0.0
  0
POINT
  5
1C0
330
1B3
100
AcDbEntity
  8
Defpoints
 62
     0
100
AcDbPoint
 10
74.6781071870239
 20
6.60399999999998
 30
0.0
  0
ENDBLK
  5
1C1
330
1B3
100
AcDbEntity
  8
0
100
AcDbBlockEnd
  0
BLOCK
  5
1F3
330
1F2
100
AcDbEntity
  8
0
100
AcDbBlockBegin
  2
*D14
 70
     1
 10
0.0
 20
0.0
 30
0.0
  3
*D14
  1
*D14
  0
LINE
  5
1F5
330
1F2
100
AcDbEntity
  8
치수문자_일반주서
 62
     0
370
    -2
100
AcDbLine
 10
-35.81131489732206
 20
2.0
 30
0.0
 11
-48.24527291893424
 21
1.999999999999953
 31
0.0
  0
LINE
  5
1F6
330
1F2
100
AcDbEntity
  8
치수문자_일반주서
 62
     0
370
    -2
100
AcDbLine
 10
-35.81131489732206
 20
-2.0
 30
0.0
 11
-48.24527291893423
 21
-2.000000000000047
 31
0.0
  0
LINE
  5
1F7
330
1F2
100
AcDbEntity
  8
치수문자_일반주서
 62
     0
370
    -2
100
AcDbLine
 10
-48.24527291893423
 20
-1.302000000000047
 30
0.0
 11
-48.24527291893424
 21
1.301999999999953
 31
0.0
  0
SOLID
  5
1F8
330
1F2
100
AcDbEntity
  8
치수문자_일반주서
 62
     0
100
AcDbTrace
 10
-47.69493958560089
 20
-1.302000000000045
 30
0.0
 11
-48.79560625226756
 21
-1.302000000000049
 31
0.0
 12
-48.24527291893424
 22
1.999999999999953
 32
0.0
 13
-48.24527291893424
 23
1.999999999999953
 33
0.0
  0
SOLID
  5
1F9
330
1F2
100
AcDbEntity
  8
치수문자_일반주서
 62
     0
100
AcDbTrace
 10
-48.79560625226758
 20
1.301999999999951
 30
0.0
 11
-47.69493958560091
 21
1.301999999999955
 31
0.0
 12
-48.24527291893423
 22
-2.000000000000047
 32
0.0
 13
-48.24527291893423
 23
-2.000000000000047
 33
0.0
  0
MTEXT
  5
1FA
330
1F2
100
AcDbEntity
  8
치수문자_일반주서
 62
     0
100
AcDbMText
 10
-52.62027291893423
 20
-0.0000000000000154
 30
0.0
 40
3.5
 41
0.0
 71
     2
 72
     1
  1
\A1;%%c4
  7
SLDTEXTSTYLE0
 11
-3.552713678800502E-15
 21
1.0
 31
0.0
 73
     1
 44
1.0
  0
POINT
  5
1FB
330
1F2
100
AcDbEntity
  8
Defpoints
 62
     0
100
AcDbPoint
 10
-35.74881489732206
 20
2.0
 30
0.0
  0
POINT
  5
1FC
330
1F2
100
AcDbEntity
  8
Defpoints
 62
     0
100
AcDbPoint
 10
-35.74881489732206
 20
-2.0
 30
0.0
  0
POINT
  5
1FD
330
1F2
100
AcDbEntity
  8
Defpoints
 62
     0
100
AcDbPoint
 10
-48.24527291893423
 20
-2.000000000000047
 30
0.0
  0
ENDBLK
  5
1F4
330
1F2
100
AcDbEntity
  8
0
100
AcDbBlockEnd
  0
BLOCK
  5
1FF
330
1FE
100
AcDbEntity
  8
0
100
AcDbBlockBegin
  2
*D15
 70
     1
 10
0.0
 20
0.0
 30
0.0
  3
*D15
  1
*D15
  0
LINE
  5
201
330
1FE
100
AcDbEntity
  8
치수문자_일반주서
 62
     0
370
    -2
100
AcDbLine
 10
8.251185102677937
 20
0.3625000000000114
 30
0.0
 11
8.251185102677937
 21
19.30799999999968
 31
0.0
  0
LINE
  5
202
330
1FE
100
AcDbEntity
  8
치수문자_일반주서
 62
     0
370
    -2
100
AcDbLine
 10
7.051185102677891
 20
0.3358319666620844
 30
0.0
 11
7.051185102677891
 21
19.30799999999968
 31
0.0
  0
LINE
  5
203
330
1FE
100
AcDbEntity
  8
치수문자_일반주서
 62
     0
370
    -2
100
AcDbLine
 10
8.251185102677937
 20
19.30799999999968
 30
0.0
 11
23.16768510267794
 21
19.30799999999968
 31
0.0
  0
LINE
  5
204
330
1FE
100
AcDbEntity
  8
치수문자_일반주서
 62
     0
370
    -2
100
AcDbLine
 10
4.949185102677937
 20
19.30799999999968
 30
0.0
 11
10.35318510267789
 21
19.30799999999968
 31
0.0
  0
SOLID
  5
205
330
1FE
100
AcDbEntity
  8
치수문자_일반주서
 62
     0
100
AcDbTrace
 10
4.949185102677937
 20
18.75766666666635
 30
0.0
 11
4.949185102677937
 21
19.85833333333301
 31
0.0
 12
8.251185102677937
 22
19.30799999999968
 32
0.0
 13
8.251185102677937
 23
19.30799999999968
 33
0.0
  0
SOLID
  5
206
330
1FE
100
AcDbEntity
  8
치수문자_일반주서
 62
     0
100
AcDbTrace
 10
10.35318510267789
 20
19.85833333333301
 30
0.0
 11
10.35318510267789
 21
18.75766666666635
 31
0.0
 12
7.051185102677891
 22
19.30799999999968
 32
0.0
 13
7.051185102677891
 23
19.30799999999968
 33
0.0
  0
MTEXT
  5
207
330
1FE
100
AcDbEntity
  8
치수문자_일반주서
 62
     0
100
AcDbMText
 10
19.01143510267794
 20
23.68299999999968
 30
0.0
 40
3.5
 41
0.0
 71
     2
 72
     1
  1
\A1;1.20
  7
SLDTEXTSTYLE0
 73
     1
 44
1.0
  0
POINT
  5
208
330
1FE
100
AcDbEntity
  8
Defpoints
 62
     0
100
AcDbPoint
 10
8.251185102677937
 20
0.3000000000000114
 30
0.0
  0
POINT
  5
209
330
1FE
100
AcDbEntity
  8
Defpoints
 62
     0
100
AcDbPoint
 10
7.051185102677891
 20
0.2733319666620844
 30
0.0
  0
POINT
  5
20A
330
1FE
100
AcDbEntity
  8
Defpoints
 62
     0
100
AcDbPoint
 10
7.051185102677891
 20
19.30799999999968
 30
0.0
  0
ENDBLK
  5
200
330
1FE
100
AcDbEntity
  8
0
100
AcDbBlockEnd
  0
BLOCK
  5
20C
330
20B
100
AcDbEntity
  8
0
100
AcDbBlockBegin
  2
*D16
 70
     1
 10
0.0
 20
0.0
 30
0.0
  3
*D16
  1
*D16
  0
LINE
  5
20E
330
20B
100
AcDbEntity
  8
치수문자_일반주서
 62
     0
370
    -2
100
AcDbLine
 10
8.251185102677937
 20
0.3625000000000114
 30
0.0
 11
8.251185102677937
 21
40.85832450504429
 31
0.0
  0
LINE
  5
20F
330
20B
100
AcDbEntity
  8
치수문자_일반주서
 62
     0
370
    -2
100
AcDbLine
 10
-36.74881489732206
 20
1.0625
 30
0.0
 11
-36.74881489732206
 21
40.85832450504429
 31
0.0
  0
LINE
  5
210
330
20B
100
AcDbEntity
  8
치수문자_일반주서
 62
     0
370
    -2
100
AcDbLine
 10
4.949185102677937
 20
40.85832450504429
 30
0.0
 11
-33.44681489732206
 21
40.85832450504429
 31
0.0
  0
SOLID
  5
211
330
20B
100
AcDbEntity
  8
치수문자_일반주서
 62
     0
100
AcDbTrace
 10
4.949185102677937
 20
40.30799117171096
 30
0.0
 11
4.949185102677937
 21
41.40865783837763
 31
0.0
 12
8.251185102677937
 22
40.85832450504429
 32
0.0
 13
8.251185102677937
 23
40.85832450504429
 33
0.0
  0
SOLID
  5
212
330
20B
100
AcDbEntity
  8
치수문자_일반주서
 62
     0
100
AcDbTrace
 10
-33.44681489732206
 20
41.40865783837763
 30
0.0
 11
-33.44681489732206
 21
40.30799117171096
 31
0.0
 12
-36.74881489732206
 22
40.85832450504429
 32
0.0
 13
-36.74881489732206
 23
40.85832450504429
 33
0.0
  0
MTEXT
  5
213
330
20B
100
AcDbEntity
  8
치수문자_일반주서
 62
     0
100
AcDbMText
 10
-14.24881489732206
 20
45.23332450504429
 30
0.0
 40
3.5
 41
0.0
 71
     2
 72
     1
  1
\A1;45
  7
SLDTEXTSTYLE0
 73
     1
 44
1.0
  0
POINT
  5
214
330
20B
100
AcDbEntity
  8
Defpoints
 62
     0
100
AcDbPoint
 10
8.251185102677937
 20
0.3000000000000114
 30
0.0
  0
POINT
  5
215
330
20B
100
AcDbEntity
  8
Defpoints
 62
     0
100
AcDbPoint
 10
-36.74881489732206
 20
1.0
 30
0.0
  0
POINT
  5
216
330
20B
100
AcDbEntity
  8
Defpoints
 62
     0
100
AcDbPoint
 10
-36.74881489732206
 20
40.85832450504429
 30
0.0
  0
ENDBLK
  5
20D
330
20B
100
AcDbEntity
  8
0
100
AcDbBlockEnd
  0
BLOCK
  5
218
330
217
100
AcDbEntity
  8
0
100
AcDbBlockBegin
  2
*D17
 70
     1
 10
0.0
 20
0.0
 30
0.0
  3
*D17
  1
*D17
  0
LINE
  5
21A
330
217
100
AcDbEntity
  8
치수문자_일반주서
 62
     0
370
    -2
100
AcDbLine
 10
8.251185102677937
 20
0.3619659871304179
 30
0.0
 11
8.251185102677937
 21
30.12000000000015
 31
0.0
  0
LINE
  5
21B
330
217
100
AcDbEntity
  8
치수문자_일반주서
 62
     0
370
    -2
100
AcDbLine
 10
6.251185102677937
 20
0.3875000000000171
 30
0.0
 11
6.251185102677937
 21
30.12000000000015
 31
0.0
  0
LINE
  5
21C
330
217
100
AcDbEntity
  8
치수문자_일반주서
 62
     0
370
    -2
100
AcDbLine
 10
8.251185102677937
 20
30.12000000000015
 30
0.0
 11
30.10634976068286
 21
30.12000000000015
 31
0.0
  0
LINE
  5
21D
330
217
100
AcDbEntity
  8
치수문자_일반주서
 62
     0
370
    -2
100
AcDbLine
 10
8.251185102677937
 20
30.12000000000015
 30
0.0
 11
6.251185102677937
 21
30.12000000000015
 31
0.0
  0
LINE
  5
21E
330
217
100
AcDbEntity
  8
치수문자_일반주서
 62
     0
370
    -2
100
AcDbLine
 10
11.55318510267794
 20
30.12000000000015
 30
0.0
 11
14.85518510267794
 21
30.12000000000015
 31
0.0
  0
LINE
  5
21F
330
217
100
AcDbEntity
  8
치수문자_일반주서
 62
     0
370
    -2
100
AcDbLine
 10
2.949185102677937
 20
30.12000000000015
 30
0.0
 11
-0.3528148973220624
 21
30.12000000000015
 31
0.0
  0
SOLID
  5
220
330
217
100
AcDbEntity
  8
치수문자_일반주서
 62
     0
100
AcDbTrace
 10
11.55318510267794
 20
30.67033333333348
 30
0.0
 11
11.55318510267794
 21
29.56966666666681
 31
0.0
 12
8.251185102677937
 22
30.12000000000015
 32
0.0
 13
8.251185102677937
 23
30.12000000000015
 33
0.0
  0
SOLID
  5
221
330
217
100
AcDbEntity
  8
치수문자_일반주서
 62
     0
100
AcDbTrace
 10
2.949185102677937
 20
29.56966666666681
 30
0.0
 11
2.949185102677937
 21
30.67033333333348
 31
0.0
 12
6.251185102677937
 22
30.12000000000015
 32
0.0
 13
6.251185102677937
 23
30.12000000000015
 33
0.0
  0
MTEXT
  5
222
330
217
100
AcDbEntity
  8
치수문자_일반주서
 62
     0
100
AcDbMText
 10
28.35634976068286
 20
34.49500000000015
 30
0.0
 40
3.5
 41
0.0
 71
     2
 72
     1
  1
\A1;2
  7
SLDTEXTSTYLE0
 73
     1
 44
1.0
  0
POINT
  5
223
330
217
100
AcDbEntity
  8
Defpoints
 62
     0
100
AcDbPoint
 10
8.251185102677937
 20
0.2994659871304179
 30
0.0
  0
POINT
  5
224
330
217
100
AcDbEntity
  8
Defpoints
 62
     0
100
AcDbPoint
 10
6.251185102677937
 20
0.3250000000000171
 30
0.0
  0
POINT
  5
225
330
217
100
AcDbEntity
  8
Defpoints
 62
     0
100
AcDbPoint
 10
6.251185102677937
 20
30.12000000000015
 30
0.0
  0
ENDBLK
  5
219
330
217
100
AcDbEntity
  8
0
100
AcDbBlockEnd
  0
BLOCK
  5
227
330
226
100
AcDbEntity
  8
0
100
AcDbBlockBegin
  2
*D18
 70
     1
 10
0.0
 20
0.0
 30
0.0
  3
*D18
  1
*D18
  0
LINE
  5
229
330
226
100
AcDbEntity
  8
치수문자_일반주서
 62
     0
370
    -2
100
AcDbLine
 10
8.313724168212957
 20
0.3506112103271166
 30
0.0
 11
22.05783426808973
 21
0.3506112103271679
 31
0.0
  0
LINE
  5
22A
330
226
100
AcDbEntity
  8
치수문자_일반주서
 62
     0
370
    -2
100
AcDbLine
 10
8.263685102674344
 20
-0.3472824747483967
 30
0.0
 11
22.05783426808973
 21
-0.3472824747483454
 31
0.0
  0
LINE
  5
22B
330
226
100
AcDbEntity
  8
치수문자_일반주서
 62
     0
370
    -2
100
AcDbLine
 10
22.05783426808973
 20
0.3506112103271679
 30
0.0
 11
22.05783426808964
 21
18.54503247474847
 31
0.0
  0
LINE
  5
22C
330
226
100
AcDbEntity
  8
치수문자_일반주서
 62
     0
370
    -2
100
AcDbLine
 10
22.05783426808973
 20
0.3506112103271679
 30
0.0
 11
22.05783426808973
 21
-0.3472824747483454
 31
0.0
  0
LINE
  5
22D
330
226
100
AcDbEntity
  8
치수문자_일반주서
 62
     0
370
    -2
100
AcDbLine
 10
22.05783426808971
 20
3.652611210327168
 30
0.0
 11
22.05783426808969
 21
6.954611210327167
 31
0.0
  0
LINE
  5
22E
330
226
100
AcDbEntity
  8
치수문자_일반주서
 62
     0
370
    -2
100
AcDbLine
 10
22.05783426808975
 20
-3.649282474748345
 30
0.0
 11
22.05783426808977
 21
-6.951282474748345
 31
0.0
  0
SOLID
  5
22F
330
226
100
AcDbEntity
  8
치수문자_일반주서
 62
     0
100
AcDbTrace
 10
21.50750093475638
 20
3.652611210327165
 30
0.0
 11
22.60816760142304
 21
3.65261121032717
 31
0.0
 12
22.05783426808973
 22
0.3506112103271679
 32
0.0
 13
22.05783426808973
 23
0.3506112103271679
 33
0.0
  0
SOLID
  5
230
330
226
100
AcDbEntity
  8
치수문자_일반주서
 62
     0
100
AcDbTrace
 10
22.60816760142308
 20
-3.649282474748342
 30
0.0
 11
21.50750093475641
 21
-3.649282474748348
 31
0.0
 12
22.05783426808973
 22
-0.3472824747483454
 32
0.0
 13
22.05783426808973
 23
-0.3472824747483454
 33
0.0
  0
MTEXT
  5
231
330
226
100
AcDbEntity
  8
치수문자_일반주서
 62
     0
100
AcDbMText
 10
17.68283426808966
 20
12.85753247474844
 30
0.0
 40
3.5
 41
0.0
 71
     2
 72
     1
  1
\A1;%%c0.70
  7
SLDTEXTSTYLE0
 11
-5.090623048718504E-15
 21
1.0
 31
0.0
 73
     1
 44
1.0
  0
POINT
  5
232
330
226
100
AcDbEntity
  8
Defpoints
 62
     0
100
AcDbPoint
 10
8.251224168212957
 20
0.3506112103271164
 30
0.0
  0
POINT
  5
233
330
226
100
AcDbEntity
  8
Defpoints
 62
     0
100
AcDbPoint
 10
8.201185102674344
 20
-0.3472824747483969
 30
0.0
  0
POINT
  5
234
330
226
100
AcDbEntity
  8
Defpoints
 62
     0
100
AcDbPoint
 10
22.05783426808966
 20
-0.3472824747483451
 30
0.0
  0
ENDBLK
  5
228
330
226
100
AcDbEntity
  8
0
100
AcDbBlockEnd
  0
BLOCK
  5
279
330
278
100
AcDbEntity
  8
0
100
AcDbBlockBegin
  2
*D20
 70
     1
 10
0.0
 20
0.0
 30
0.0
  3
*D20
  1
*D20
  0
LINE
  5
27A
330
278
100
AcDbEntity
  8
치수문자_일반주서
 62
     0
370
    -2
100
AcDbLine
 10
2.149045579367978
 20
17.89746209053171
 30
0.0
 11
8.7244274800626
 21
-1.033199005072571
 31
0.0
  0
MTEXT
  5
27B
330
278
100
AcDbEntity
  8
치수문자_일반주서
 62
     0
100
AcDbMText
 10
9.337972387309376
 20
5.200727838963341
 30
0.0
 40
3.5
 41
0.0
 71
     5
 72
     1
  1
\A1;R0.20
  7
SLDTEXTSTYLE0
 11
0.3281112448223819
 21
-0.944639090352028
 31
0.0
 73
     1
 44
1.0
  0
LINE
  5
27C
330
278
100
AcDbEntity
  8
치수문자_일반주서
 62
     0
370
    -2
100
AcDbLine
 10
1.0
 20
21.2055881849445
 30
0.0
 11
1.065622248964473
 21
21.01666036687411
 31
0.0
  0
SOLID
  5
27D
330
278
100
AcDbEntity
  8
치수문자_일반주서
 62
     0
100
AcDbTrace
 10
2.668911958758378
 20
18.07803264559896
 30
0.0
 11
1.629179199977579
 21
17.71689153546446
 31
0.0
 12
1.065622248964473
 22
21.01666036687411
 32
0.0
 13
1.065622248964473
 23
21.01666036687411
 33
0.0
  0
ARC
  5
27E
330
278
100
AcDbEntity
  8
치수문자_일반주서
 62
     0
370
    -2
100
AcDbCircle
 10
1.0
 20
21.2055881849445
 30
0.0
 40
0.1999999999999907
100
AcDbArc
 50
289.1541757701465
 51
289.1683581034315
  0
POINT
  5
27F
330
278
100
AcDbEntity
  8
Defpoints
 62
     0
100
AcDbPoint
 10
1.065622248964473
 20
21.01666036687411
 30
0.0
  0
POINT
  5
280
330
278
100
AcDbEntity
  8
Defpoints
 62
     0
100
AcDbPoint
 10
1.0
 20
21.2055881849445
 30
0.0
  0
ENDBLK
  5
281
330
278
100
AcDbEntity
  8
0
100
AcDbBlockEnd
  0
BLOCK
  5
2A3
330
2A2
100
AcDbEntity
  8
0
100
AcDbBlockBegin
  2
*D21
 70
     1
 10
0.0
 20
0.0
 30
0.0
  3
*D21
  1
*D21
  0
LINE
  5
2A5
330
2A2
100
AcDbEntity
  8
치수문자_일반주서
 62
     0
370
    -2
100
AcDbLine
 10
9.200230682049735
 20
-3.454257580676747
 30
0.0
 11
15.77561258274436
 21
-22.38491867628103
 31
0.0
  0
MTEXT
  5
2A6
330
2A2
100
AcDbEntity
  8
치수문자_일반주서
 62
     0
100
AcDbMText
 10
16.38915748999113
 20
-16.15099183224512
 30
0.0
 40
3.5
 41
0.0
 71
     5
 72
     1
  1
\A1;R0.20
  7
SLDTEXTSTYLE0
 11
0.3281112448223819
 21
-0.944639090352028
 31
0.0
 73
     1
 44
1.0
  0
LINE
  5
2A7
330
2A2
100
AcDbEntity
  8
치수문자_일반주서
 62
     0
370
    -2
100
AcDbLine
 10
8.051185102681757
 20
-0.146131486263954
 30
0.0
 11
8.11680735164623
 21
-0.3350593043343508
 31
0.0
  0
SOLID
  5
2A8
330
2A2
100
AcDbEntity
  8
치수문자_일반주서
 62
     0
100
AcDbTrace
 10
9.720097061440134
 20
-3.273687025609496
 30
0.0
 11
8.680364302659337
 21
-3.634828135743998
 31
0.0
 12
8.11680735164623
 22
-0.3350593043343508
 32
0.0
 13
8.11680735164623
 23
-0.3350593043343508
 33
0.0
  0
ARC
  5
2A9
330
2A2
100
AcDbEntity
  8
치수문자_일반주서
 62
     0
370
    -2
100
AcDbCircle
 10
8.051185102681757
 20
-0.146131486263954
 30
0.0
 40
0.1999999999999907
100
AcDbArc
 50
289.1541757701465
 51
289.1683581034315
  0
POINT
  5
2AA
330
2A2
100
AcDbEntity
  8
Defpoints
 62
     0
100
AcDbPoint
 10
8.11680735164623
 20
-0.3350593043343508
 30
0.0
  0
POINT
  5
2AB
330
2A2
100
AcDbEntity
  8
Defpoints
 62
     0
100
AcDbPoint
 10
8.051185102681757
 20
-0.146131486263954
 30
0.0
  0
ENDBLK
  5
2A4
330
2A2
100
AcDbEntity
  8
0
100
AcDbBlockEnd
  0
ENDSEC
  0
SECTION
  2
ENTITIES
  0
INSERT
  5
D2
330
1F
100
AcDbEntity
  8
0
  6
Continuous
 62
     7
100
AcDbBlockReference
 66
     1
  2
블럭10
 10
-22.93944368806589
 20
-52.04609937292004
 30
0.0
  0
ATTRIB
  5
D3
330
D2
100
AcDbEntity
  8
FORMAT
 62
     2
100
AcDbText
 10
-42.21802657207924
 20
-49.97073246008785
 30
0.0
 40
4.233333333333333
  1
SEME610070202E [ 2 FLUTE ]
 41
0.75
  7
SLDTEXTSTYLE0
 11
-42.21802657207924
 21
-52.08739912675452
 31
0.0
100
AcDbAttribute
  2
AUTOATTR0
 70
     0
 74
     1
  0
SEQEND
  5
D4
330
D2
100
AcDbEntity
  8
0
  6
Continuous
 62
     7
  0
HATCH
  5
D5
330
1F
100
AcDbEntity
  8
중심선
100
AcDbHatch
 10
0.0
 20
0.0
 30
0.0
210
0.0
220
0.0
230
1.0
  2
SOLID
 70
     1
 71
     0
 91
        1
 92
        0
 93
        4
 72
     1
 10
-17.22453438368504
 20
-35.7989250712761
 11
-20.67080962752232
 21
-35.7989250712761
 72
     1
 10
-20.67080962752232
 20
-35.7989250712761
 11
-22.79903948672635
 21
-38.3352506518487
 72
     1
 10
-22.79903948672635
 20
-38.3352506518487
 11
-19.35273115777591
 21
-38.33521122254621
 72
     1
 10
-19.35273115777591
 20
-38.33521122254621
 11
-17.22453438368504
 21
-35.7989250712761
 97
        0
 75
     0
 76
     1
 98
        1
 10
0.0
 20
0.0
  0
HATCH
  5
D6
330
1F
100
AcDbEntity
  8
중심선
100
AcDbHatch
 10
0.0
 20
0.0
 30
0.0
210
0.0
220
0.0
230
1.0
  2
SOLID
 70
     1
 71
     0
 91
        1
 92
        0
 93
        4
 72
     1
 10
-12.21177039264909
 20
-35.7989250712761
 11
-15.65804563648637
 21
-35.7989250712761
 72
     1
 10
-15.65804563648637
 20
-35.7989250712761
 11
-20.18918364484376
 21
-41.19892507127612
 72
     1
 10
-20.18918364484376
 20
-41.19892507127612
 11
-16.74290840100648
 21
-41.19892507127612
 72
     1
 10
-16.74290840100648
 20
-41.19892507127612
 11
-12.21177039264909
 21
-35.7989250712761
 97
        0
 75
     0
 76
     1
 98
        1
 10
0.0
 20
0.0
  0
HATCH
  5
D7
330
1F
100
AcDbEntity
  8
중심선
100
AcDbHatch
 10
0.0
 20
0.0
 30
0.0
210
0.0
220
0.0
230
1.0
  2
SOLID
 70
     1
 71
     0
 91
        1
 92
        0
 93
        4
 72
     1
 10
-7.199006401613195
 20
-35.79892507127613
 11
-10.64528164545031
 21
-35.7989250712761
 72
     1
 10
-10.64528164545031
 20
-35.7989250712761
 11
-17.69371854733956
 21
-44.19892507127612
 72
     1
 10
-17.69371854733956
 20
-44.19892507127612
 11
-14.24744330350228
 21
-44.19892507127612
 72
     1
 10
-14.24744330350228
 20
-44.19892507127612
 11
-7.199006401613195
 21
-35.79892507127613
 97
        0
 75
     0
 76
     1
 98
        1
 10
0.0
 20
0.0
  0
HATCH
  5
D8
330
1F
100
AcDbEntity
  8
중심선
100
AcDbHatch
 10
0.0
 20
0.0
 30
0.0
210
0.0
220
0.0
230
1.0
  2
SOLID
 70
     1
 71
     0
 91
        1
 92
        0
 93
        6
 72
     3
 10
-2.399115970600996
 20
-39.99892507132738
 11
3.960054785062284
 21
1.540850780301639E-10
 40
0.3939339440162633
 50
17.09539180608433
 51
320.0019657685079
 73
     0
 72
     1
 10
-0.7161163149004002
 20
-38.58681907591441
 11
1.589185558800638
 21
-36.65249236586649
 72
     3
 10
-2.399115970653842
 20
-39.99892507127625
 11
6.600054785286829
 21
-1.249000902703301E-13
 40
0.6363583540795982
 50
39.99873849337408
 51
368.4976242363725
 73
     1
 72
     1
 10
4.026216521246767
 20
-39.03892507120613
 11
-3.71904866381792
 21
-39.0389250712061
 72
     1
 10
-3.71904866381792
 20
-39.0389250712061
 11
-3.719073708263854
 21
-40.95892507120602
 72
     1
 10
-3.719073708263854
 20
-40.95892507120602
 11
0.7223060612081831
 21
-40.95892507120599
 97
        0
 75
     0
 76
     1
 98
        1
 10
0.0
 20
0.0
  0
LINE
  5
1D7
330
1F
100
AcDbEntity
  8
0
  6
Continuous
 62
     4
370
    25
100
AcDbLine
 10
0.0
 20
2.0
 30
0.0
 11
-35.74881489732206
 21
2.0
 31
0.0
  0
LINE
  5
1D8
330
1F
100
AcDbEntity
  8
0
  6
Continuous
 62
     4
370
    25
100
AcDbLine
 10
-35.74881489732206
 20
-2.0
 30
0.0
 11
0.0
 21
-2.0
 31
0.0
  0
LINE
  5
1D9
330
1F
100
AcDbEntity
  8
0
  6
Continuous
 62
     4
370
    25
100
AcDbLine
 10
-35.74881489732206
 20
2.0
 30
0.0
 11
-36.74881489732206
 21
1.0
 31
0.0
  0
LINE
  5
1DA
330
1F
100
AcDbEntity
  8
0
  6
Continuous
 62
     4
370
    25
100
AcDbLine
 10
-36.74881489732206
 20
-1.0
 30
0.0
 11
-35.74881489732206
 21
-2.0
 31
0.0
  0
LINE
  5
1DB
330
1F
100
AcDbEntity
  8
0
  6
Continuous
 62
     4
370
    25
100
AcDbLine
 10
6.558339577894458
 20
0.3250000000000171
 30
0.0
 11
6.381083596335429
 21
0.3250000000000171
 31
0.0
  0
LINE
  5
1DC
330
1F
100
AcDbEntity
  8
0
  6
Continuous
 62
     4
370
    25
100
AcDbLine
 10
0.0
 20
2.0
 30
0.0
 11
0.0
 21
-2.0
 31
0.0
  0
LINE
  5
1DD
330
1F
100
AcDbEntity
  8
0
  6
Continuous
 62
     4
370
    25
100
AcDbLine
 10
-35.74881489732206
 20
2.0
 30
0.0
 11
-35.74881489732206
 21
-2.0
 31
0.0
  0
LINE
  5
1DE
330
1F
100
AcDbEntity
  8
0
  6
Continuous
 62
     4
370
    25
100
AcDbLine
 10
-36.74881489732206
 20
1.0
 30
0.0
 11
-36.74881489732206
 21
-1.0
 31
0.0
  0
SPLINE
  5
1DF
330
1F
100
AcDbEntity
  8
0
  6
Continuous
 62
     4
370
    25
100
AcDbSpline
210
0.0
220
0.0
230
1.0
 70
     8
 71
     3
 72
     9
 73
     5
 74
     0
 42
0.000000001
 43
0.00000001
 40
0.0
 40
0.0
 40
0.0
 40
0.0
 40
0.6264348274230753
 40
1.0
 40
1.0
 40
1.0
 40
1.0
 10
7.051185102679938
 20
0.2234902486358123
 30
0.0
 10
6.948272400034966
 20
0.2606046826277577
 30
0.0
 10
6.78398922461156
 20
0.3198517620799066
 30
0.0
 10
6.619708962399045
 20
0.3162573775450994
 30
0.0
 10
6.558339577894458
 20
0.3250000000000171
 30
0.0
  0
LINE
  5
1E0
330
1F
100
AcDbEntity
  8
중심선
100
AcDbLine
 10
-39.74881489732206
 20
0.0
 30
0.0
 11
9.751185102677937
 21
0.0
 31
0.0
  0
CIRCLE
  5
1E1
330
1F
100
AcDbEntity
  8
외형선
100
AcDbCircle
 10
0.0
 20
0.0
 30
0.0
 40
3.000000000000005
  0
DIMENSION
  5
1E2
330
1F
100
AcDbEntity
  8
치수문자_일반주서
100
AcDbDimension
  2
*D14
 10
-48.24527291893423
 20
-2.000000000000047
 30
0.0
 11
-48.24527291893423
 21
0.0
 31
0.0
 70
   160
  1
%%c<>
 71
     2
 42
4.0
 52
-270.0
  3
SLDDIMSTYLE0
100
AcDbAlignedDimension
 13
-35.74881489732206
 23
2.0
 33
0.0
 14
-35.74881489732206
 24
-2.0
 34
0.0
 50
90.0000000000002
100
AcDbRotatedDimension
  0
DIMENSION
  5
1E3
330
1F
100
AcDbEntity
  8
치수문자_일반주서
100
AcDbDimension
  2
*D15
 10
7.051185102677891
 20
19.30799999999968
 30
0.0
 11
19.01143510267794
 21
19.30799999999968
 31
0.0
 70
   160
  1
<>
 71
     2
 42
1.200000000000045
  3
SLDDIMSTYLE1
100
AcDbAlignedDimension
 13
8.251185102677937
 23
0.3000000000000114
 33
0.0
 14
7.051185102677891
 24
0.2733319666620844
 34
0.0
100
AcDbRotatedDimension
1001
ACAD_DSTYLE_DIMFLIPARROW_SYMBOL
1070
   385
1070
     0
1001
ACAD_DSTYLE_DIMFLIPARROW_WHICH_SYMBOL
1070
   386
1070
     3
  0
DIMENSION
  5
1E4
330
1F
100
AcDbEntity
  8
치수문자_일반주서
100
AcDbDimension
  2
*D16
 10
-36.74881489732206
 20
40.85832450504429
 30
0.0
 11
-14.24881489732206
 21
40.85832450504429
 31
0.0
 70
   160
  1
<>
 71
     2
 42
45.0
  3
SLDDIMSTYLE2
100
AcDbAlignedDimension
 13
8.251185102677937
 23
0.3000000000000114
 33
0.0
 14
-36.74881489732206
 24
1.0
 34
0.0
100
AcDbRotatedDimension
  0
DIMENSION
  5
1E5
330
1F
100
AcDbEntity
  8
치수문자_일반주서
100
AcDbDimension
  2
*D17
 10
6.251185102677937
 20
30.12000000000015
 30
0.0
 11
28.35634976068286
 21
30.12000000000015
 31
0.0
 70
   160
  1
<>
 71
     2
 42
2.0
  3
SLDDIMSTYLE0
100
AcDbAlignedDimension
 13
8.251185102677937
 23
0.2994659871304179
 33
0.0
 14
6.251185102677937
 24
0.3250000000000171
 34
0.0
 50
0.0000000000001916
100
AcDbRotatedDimension
  0
DIMENSION
  5
1E6
330
1F
100
AcDbEntity
  8
치수문자_일반주서
100
AcDbDimension
  2
*D18
 10
22.05783426808973
 20
-0.3472824747483454
 30
0.0
 11
22.05783426808966
 21
12.85753247474847
 31
0.0
 70
   160
  1
%%c<>
 71
     2
 42
0.6978936850755131
 52
-270.0
  3
SLDDIMSTYLE3
100
AcDbAlignedDimension
 13
8.251224168212957
 23
0.3506112103271164
 33
0.0
 14
8.201185102674344
 24
-0.3472824747483969
 34
0.0
 50
90.0000000000002
100
AcDbRotatedDimension
  0
INSERT
  5
1E7
330
1F
100
AcDbEntity
  8
외형선
100
AcDbBlockReference
  2
SW_DOWELSYMBOL_0
 10
0.0
 20
0.0
 30
0.0
  0
SPLINE
  5
1E8
330
1F
100
AcDbEntity
  8
0
  6
Continuous
 62
     4
370
    25
100
AcDbSpline
210
0.0
220
0.0
230
1.0
 70
     8
 71
     3
 72
     8
 73
     4
 74
     0
 42
0.000000001
 43
0.00000001
 40
0.0
 40
0.0
 40
0.0
 40
0.0
 40
0.7781396782430604
 40
0.7781396782430604
 40
0.7781396782430604
 40
0.7781396782430604
 10
7.051185102681757
 20
0.2733021270559277
 30
0.0
 10
6.998805906915777
 20
0.2735422696835883
 30
0.0
 10
6.946426711149797
 20
0.2737824123112205
 30
0.0
 10
6.894274338314744
 20
0.276841267173694
 30
0.0
  0
SPLINE
  5
1E9
330
1F
100
AcDbEntity
  8
0
  6
Continuous
 62
     4
370
    25
100
AcDbSpline
210
0.0
220
0.0
230
1.0
 70
     8
 71
     3
 72
     9
 73
     5
 74
     0
 42
0.000000001
 43
0.00000001
 40
0.1218325077086408
 40
0.1218325077086408
 40
0.1218325077086408
 40
0.1218325077086408
 40
0.516819283994065
 40
0.9999999999999999
 40
0.9999999999999999
 40
0.9999999999999999
 40
0.9999999999999999
 10
6.614986150025288
 20
-0.3249999999999886
 30
0.0
 10
6.789947105865394
 20
-0.2835577328565364
 30
0.0
 10
6.892055464660871
 20
-0.2754442369182755
 30
0.0
 10
6.994705524592973
 20
-0.2740624220126051
 30
0.0
 10
7.051185102681757
 20
-0.2733021270558993
 30
0.0
  0
LINE
  5
1EA
330
1F
100
AcDbEntity
  8
0
  6
Continuous
 62
     4
370
    25
100
AcDbLine
 10
6.251185102677937
 20
0.3250000000000171
 30
0.0
 11
3.052320795635978
 21
0.8890460849567887
 31
0.0
  0
LINE
  5
1EB
330
1F
100
AcDbEntity
  8
0
  6
Continuous
 62
     4
370
    25
100
AcDbLine
 10
0.0
 20
2.0
 30
0.0
 11
3.052320795635978
 21
0.8890460849567887
 31
0.0
  0
LINE
  5
1EC
330
1F
100
AcDbEntity
  8
0
  6
Continuous
 62
     4
370
    25
100
AcDbLine
 10
6.251185102677937
 20
-0.3249999999999886
 30
0.0
 11
3.052320795635978
 21
-0.8890460849567603
 31
0.0
  0
LINE
  5
1ED
330
1F
100
AcDbEntity
  8
0
  6
Continuous
 62
     4
370
    25
100
AcDbLine
 10
0.0
 20
-2.0
 30
0.0
 11
3.052320795635978
 21
-0.8890460849567603
 31
0.0
  0
LINE
  5
1EE
330
1F
100
AcDbEntity
  8
0
  6
Continuous
 62
     4
370
    25
100
AcDbLine
 10
3.052320795635978
 20
0.8890460849567887
 30
0.0
 11
3.052320795635978
 21
-0.8890460849567603
 31
0.0
  0
LINE
  5
1EF
330
1F
100
AcDbEntity
  8
0
  6
Continuous
 62
     4
370
    25
100
AcDbLine
 10
6.251185102677937
 20
0.3250000000000171
 30
0.0
 11
6.251185102677937
 21
-0.3249999999999886
 31
0.0
  0
LINE
  5
1F0
330
1F
100
AcDbEntity
  8
0
  6
Continuous
 62
     4
370
    25
100
AcDbLine
 10
6.251185102677937
 20
-0.3249999999999886
 30
0.0
 11
6.614986150025288
 21
-0.3249999999999886
 31
0.0
  0
LINE
  5
1F1
330
1F
100
AcDbEntity
  8
0
  6
Continuous
 62
     4
370
    25
100
AcDbLine
 10
6.49183268195975
 20
0.3250000000000171
 30
0.0
 11
6.251185102677937
 21
0.3250000000000171
 31
0.0
  0
LINE
  5
285
330
1F
100
AcDbEntity
  8
0
  6
Continuous
 62
     1
370
    25
100
AcDbLine
 10
7.26291558519074
 20
0.1316156142981697
 30
0.0
 11
7.248227234379328
 21
0.1392870414241543
 31
0.0
  0
SPLINE
  5
286
330
1F
100
AcDbEntity
  8
0
  6
Continuous
 62
     1
370
    25
100
AcDbSpline
210
0.0
220
0.0
230
1.0
 70
     8
 71
     3
 72
     9
 73
     5
 74
     0
 42
0.000000001
 43
0.00000001
 40
0.0
 40
0.0
 40
0.0
 40
0.0
 40
0.5902110599566494
 40
1.0
 40
1.0
 40
1.0
 40
1.0
 10
7.34358001514147
 20
0.090935433863109
 30
0.0
 10
7.327716215081182
 20
0.0985951467382336
 30
0.0
 10
7.300838033466562
 20
0.111573068357842
 30
0.0
 10
7.273938653567484
 20
0.1257897680148119
 30
0.0
 10
7.26291558519074
 20
0.1316156142981697
 30
0.0
  0
SPLINE
  5
287
330
1F
100
AcDbEntity
  8
0
  6
Continuous
 62
     1
370
    25
100
AcDbSpline
210
0.0
220
0.0
230
1.0
 70
     8
 71
     3
 72
     9
 73
     5
 74
     0
 42
0.000000001
 43
0.00000001
 40
0.0
 40
0.0
 40
0.0
 40
0.0
 40
0.9286042244457605
 40
0.9999999999999999
 40
0.9999999999999999
 40
0.9999999999999999
 40
0.9999999999999999
 10
7.229579366887037
 20
0.2792890856464112
 30
0.0
 10
7.174262713024518
 20
0.2766850038214272
 30
0.0
 10
7.114693035861364
 20
0.2738807070538485
 30
0.0
 10
7.055437123092588
 20
0.2746033168866973
 30
0.0
 10
7.051206501244224
 20
0.27465490817616
 30
0.0
  0
SPLINE
  5
288
330
1F
100
AcDbEntity
  8
0
  6
Continuous
 62
     1
370
    25
100
AcDbSpline
210
0.0
220
0.0
230
1.0
 70
     8
 71
     3
 72
    10
 73
     6
 74
     0
 42
0.000000001
 43
0.00000001
 40
0.0
 40
0.0
 40
0.0
 40
0.0
 40
0.405866600128026
 40
0.6105845023706842
 40
1.0
 40
1.0
 40
1.0
 40
1.0
 10
8.07469108874443
 20
0.2358699615809599
 30
0.0
 10
8.001305970079557
 20
0.2332499802801067
 30
0.0
 10
7.890905616497321
 20
0.2293084882275309
 30
0.0
 10
7.697376675676878
 20
0.2387198897382063
 30
0.0
 10
7.584177980261529
 20
0.2542592014408172
 30
0.0
 10
7.509983655694896
 20
0.2644442016458015
 30
0.0
  0
SPLINE
  5
289
330
1F
100
AcDbEntity
  8
0
  6
Continuous
 62
     1
370
    25
100
AcDbSpline
210
0.0
220
0.0
230
1.0
 70
     8
 71
     3
 72
     9
 73
     5
 74
     0
 42
0.000000001
 43
0.00000001
 40
0.0
 40
0.0
 40
0.0
 40
0.0
 40
0.9965351123090412
 40
1.0
 40
1.0
 40
1.0
 40
1.0
 10
7.509983655694896
 20
-0.2621301745221274
 30
0.0
 10
7.601766899293807
 20
-0.247348400255305
 30
0.0
 10
7.693869267253831
 20
-0.2325152307219582
 30
0.0
 10
7.782219665381717
 20
-0.2327700514195783
 30
0.0
 10
7.782525789588817
 20
-0.2327709343446713
 30
0.0
  0
SPLINE
  5
28A
330
1F
100
AcDbEntity
  8
0
  6
Continuous
 62
     1
370
    25
100
AcDbSpline
210
0.0
220
0.0
230
1.0
 70
     8
 71
     3
 72
     9
 73
     5
 74
     0
 42
0.000000001
 43
0.00000001
 40
0.0
 40
0.0
 40
0.0
 40
0.0
 40
0.0713957755542299
 40
1.0
 40
1.0
 40
1.0
 40
1.0
 10
7.051206501244224
 20
-0.2723408810524859
 30
0.0
 10
7.055437123092588
 20
-0.2722892897630516
 30
0.0
 10
7.114693035861364
 20
-0.2715666799301744
 30
0.0
 10
7.174262713024518
 20
-0.2743709766977531
 30
0.0
 10
7.229579366887037
 20
-0.2769750585227371
 30
0.0
  0
SPLINE
  5
28B
330
1F
100
AcDbEntity
  8
0
  6
Continuous
 62
     4
370
    25
100
AcDbSpline
210
0.0
220
0.0
230
1.0
 70
    24
 71
     3
 72
    11
 73
     7
 74
     0
 42
0.000000001
 43
0.00000001
 40
0.0
 40
0.0
 40
0.0
 40
0.0
 40
0.1996482009471086
 40
0.4923007250435245
 40
0.7433462567090295
 40
1.0
 40
1.0
 40
1.0
 40
1.0
 10
7.051185102681757
 20
0.2733644502332879
 30
0.0
 10
7.051185102681757
 20
0.2734223644221458
 30
0.0
 10
7.051185102681757
 20
0.2735651716051564
 30
0.0
 10
7.051185102681757
 20
0.2616041108312288
 30
0.0
 10
7.051185102681757
 20
0.2414583860548873
 30
0.0
 10
7.051185102681757
 20
0.2220448471299505
 30
0.0
 10
7.051185102681757
 20
0.2122308535290358
 30
0.0
  0
SPLINE
  5
28C
330
1F
100
AcDbEntity
  8
0
  6
Continuous
 62
     4
370
    25
100
AcDbSpline
210
0.0
220
0.0
230
1.0
 70
    24
 71
     3
 72
     8
 73
     4
 74
     0
 42
0.000000001
 43
0.00000001
 40
0.0
 40
0.0
 40
0.0
 40
0.0
 40
1.0
 40
1.0
 40
1.0
 40
1.0
 10
7.051185102681984
 20
0.1438039687419064
 30
0.0
 10
7.051185102681984
 20
0.1339445535867583
 30
0.0
 10
7.051185102681984
 20
0.1173501896284961
 30
0.0
 10
7.051185102681984
 20
0.0982617720262056
 30
0.0
  0
SPLINE
  5
28D
330
1F
100
AcDbEntity
  8
0
  6
Continuous
 62
     4
370
    25
100
AcDbSpline
210
0.0
220
0.0
230
1.0
 70
    24
 71
     3
 72
    10
 73
     6
 74
     0
 42
0.000000001
 43
0.00000001
 40
0.0
 40
0.0
 40
0.0
 40
0.0
 40
0.5
 40
0.5
 40
1.0
 40
1.0
 40
1.0
 40
1.0
 10
7.051185102681757
 20
0.0982617720262908
 30
0.0
 10
7.051185102681757
 20
0.0374038532970076
 30
0.0
 10
7.051185102681757
 20
-0.0305574748324204
 30
0.0
 10
7.051185102681757
 20
-0.1564510189236614
 30
0.0
 10
7.051185102681757
 20
-0.2134078008471647
 30
0.0
 10
7.051185102681757
 20
-0.2559113334425831
 30
0.0
  0
SPLINE
  5
28E
330
1F
100
AcDbEntity
  8
0
  6
Continuous
 62
     1
370
    25
100
AcDbSpline
210
0.0
220
0.0
230
1.0
 70
     8
 71
     3
 72
    16
 73
    12
 74
     0
 42
0.000000001
 43
0.00000001
 40
0.0
 40
0.0
 40
0.0
 40
0.0
 40
0.2500000000000009
 40
0.2500000000000009
 40
0.5000000000000018
 40
0.5000000000000018
 40
0.7500000000000027
 40
0.7500000000000027
 40
0.8750000000000013
 40
0.8750000000000013
 40
1.0
 40
1.0
 40
1.0
 40
1.0
 10
8.116854114638045
 20
-0.3350430551756745
 30
0.0
 10
8.106164568667964
 20
-0.3392715005149967
 30
0.0
 10
8.007340834779143
 20
-0.3189221972208998
 30
0.0
 10
7.820202030587325
 20
-0.2571559683088083
 30
0.0
 10
7.718885038478675
 20
-0.214256481567844
 30
0.0
 10
7.532925211773772
 20
-0.1181491322873853
 30
0.0
 10
7.432870078431279
 20
-0.0625357364832269
 30
0.0
 10
7.291048474433182
 20
0.019965017116732
 30
0.0
 10
7.244924083972819
 20
0.0473278606501992
 30
0.0
 10
7.148220085164212
 20
0.1015305034154039
 30
0.0
 10
7.099074397264985
 20
0.1280766333755423
 30
0.0
 10
7.051185102681757
 20
0.1529694787328424
 30
0.0
  0
SPLINE
  5
28F
330
1F
100
AcDbEntity
  8
0
  6
Continuous
 62
     1
370
    25
100
AcDbSpline
210
0.0
220
0.0
230
1.0
 70
     8
 71
     3
 72
     9
 73
     5
 74
     0
 42
0.000000001
 43
0.00000001
 40
0.0
 40
0.0
 40
0.0
 40
0.0
 40
0.5887092994244861
 40
0.9999999999999999
 40
0.9999999999999999
 40
0.9999999999999999
 40
0.9999999999999999
 10
7.386900726623253
 20
-0.0339036965102082
 30
0.0
 10
7.321053095701473
 20
-0.0071001358236344
 30
0.0
 10
7.209202253552121
 20
0.0384292293703083
 30
0.0
 10
7.097235845209752
 20
0.0808248482400131
 30
0.0
 10
7.051185102681757
 20
0.0982617720262908
 30
0.0
  0
SPLINE
  5
290
330
1F
100
AcDbEntity
  8
0
  6
Continuous
 62
     4
370
    25
100
AcDbSpline
210
0.0
220
0.0
230
1.0
 70
    24
 71
     3
 72
     8
 73
     4
 74
     0
 42
0.000000001
 43
0.00000001
 40
0.0
 40
0.0
 40
0.0
 40
0.0
 40
1.0
 40
1.0
 40
1.0
 40
1.0
 10
7.051185102681984
 20
0.1529694787327571
 30
0.0
 10
7.051185102681984
 20
0.1473102841284231
 30
0.0
 10
7.051185102681984
 20
0.1257785968833218
 30
0.0
 10
7.051185102681984
 20
0.0982617720261771
 30
0.0
  0
LINE
  5
291
330
1F
100
AcDbEntity
  8
0
  6
Continuous
 62
     4
370
    25
100
AcDbLine
 10
7.051185102681757
 20
0.1529694787328992
 30
0.0
 11
7.051185102681757
 21
0.2341616673568012
 31
0.0
  0
SPLINE
  5
292
330
1F
100
AcDbEntity
  8
0
  6
Continuous
 62
     1
370
    25
100
AcDbSpline
210
0.0
220
0.0
230
1.0
 70
     8
 71
     3
 72
    11
 73
     7
 74
     0
 42
0.000000001
 43
0.00000001
 40
0.0
 40
0.0
 40
0.0
 40
0.0
 40
0.2607214645663943
 40
0.5204327675187086
 40
0.7796131223070238
 40
1.0
 40
1.0
 40
1.0
 40
1.0
 10
8.251185102681802
 20
0.0011570135618229
 30
0.0
 10
8.162287924019438
 20
0.0421562630753556
 30
0.0
 10
7.984837997551722
 20
0.1239959110920381
 30
0.0
 10
7.71920402782257
 20
0.2224404587657602
 30
0.0
 10
7.467373794310561
 20
0.2811100949439265
 30
0.0
 10
7.304006813632441
 20
0.2775217120549769
 30
0.0
 10
7.228930919469576
 20
0.2758726575589492
 30
0.0
  0
SPLINE
  5
293
330
1F
100
AcDbEntity
  8
0
  6
Continuous
 62
     4
370
    25
100
AcDbSpline
210
0.0
220
0.0
230
1.0
 70
    24
 71
     3
 72
    11
 73
     7
 74
     0
 42
0.000000001
 43
0.00000001
 40
0.0
 40
0.0
 40
0.0
 40
0.0
 40
0.1909134365747861
 40
0.4867598697046714
 40
0.7405452259928197
 40
0.9999999999999999
 40
0.9999999999999999
 40
0.9999999999999999
 40
0.9999999999999999
 10
7.051185102681757
 20
0.2733021270559277
 30
0.0
 10
7.051185102681757
 20
0.2733440078356466
 30
0.0
 10
7.051185102681757
 20
0.2734507886009681
 30
0.0
 10
7.051185102681757
 20
0.2615884035531622
 30
0.0
 10
7.051185102681757
 20
0.2414621556411305
 30
0.0
 10
7.051185102681757
 20
0.2220461128781039
 30
0.0
 10
7.051185102681757
 20
0.2122308535290358
 30
0.0
  0
SPLINE
  5
294
330
1F
100
AcDbEntity
  8
0
  6
Continuous
 62
     1
370
    25
100
AcDbSpline
210
0.0
220
0.0
230
1.0
 70
     8
 71
     3
 72
    10
 73
     6
 74
     0
 42
0.000000001
 43
0.00000001
 40
0.0
 40
0.0
 40
0.0
 40
0.0
 40
0.1239803170732143
 40
0.6998804570833331
 40
1.0
 40
1.0
 40
1.0
 40
1.0
 10
7.511172933520356
 20
-0.2577390318194546
 30
0.0
 10
7.492167173379812
 20
-0.2620090455545778
 30
0.0
 10
7.38487788417433
 20
-0.2861136714760733
 30
0.0
 10
7.23166126679962
 20
-0.28236579411967
 30
0.0
 10
7.097237834103453
 20
-0.2626618103181784
 30
0.0
 10
7.051185102681757
 20
-0.2559113334425831
 30
0.0
  0
SPLINE
  5
295
330
1F
100
AcDbEntity
  8
0
  6
Continuous
 62
     4
370
    25
100
AcDbSpline
210
0.0
220
0.0
230
1.0
 70
    24
 71
     3
 72
    10
 73
     6
 74
     0
 42
0.000000001
 43
0.00000001
 40
0.0
 40
0.0
 40
0.0
 40
0.0
 40
0.5
 40
0.5
 40
1.0
 40
1.0
 40
1.0
 40
1.0
 10
7.051185102681757
 20
0.0982617720262908
 30
0.0
 10
7.051185102681757
 20
0.0374038532970076
 30
0.0
 10
7.051185102681757
 20
-0.0305574748324204
 30
0.0
 10
7.051185102681757
 20
-0.1564510189236614
 30
0.0
 10
7.051185102681757
 20
-0.2134078008471647
 30
0.0
 10
7.051185102681757
 20
-0.2559113334425831
 30
0.0
  0
SPLINE
  5
296
330
1F
100
AcDbEntity
  8
0
  6
Continuous
 62
     1
370
    25
100
AcDbSpline
210
0.0
220
0.0
230
1.0
 70
    24
 71
     3
 72
     8
 73
     4
 74
     0
 42
0.000000001
 43
0.00000001
 40
0.9628663910921699
 40
0.9628663910921699
 40
0.9628663910921699
 40
0.9628663910921699
 40
1.0
 40
1.0
 40
1.0
 40
1.0
 10
8.251185102681802
 20
0.2984394883102368
 30
0.0
 10
8.251185102681802
 20
0.2991661441892575
 30
0.0
 10
8.251185102681802
 20
0.299894015897479
 30
0.0
 10
8.251185102681802
 20
0.3006230006924397
 30
0.0
  0
SPLINE
  5
297
330
1F
100
AcDbEntity
  8
0
  6
Continuous
 62
     1
370
    25
100
AcDbSpline
210
0.0
220
0.0
230
1.0
 70
    24
 71
     3
 72
     8
 73
     4
 74
     0
 42
0.000000001
 43
0.00000001
 40
0.0
 40
0.0
 40
0.0
 40
0.0
 40
0.4578740682017839
 40
0.4578740682017839
 40
0.4578740682017839
 40
0.4578740682017839
 10
8.251185102681802
 20
0.0011570135618229
 30
0.0
 10
8.251185102681802
 20
0.0545442564653342
 30
0.0
 10
8.251185102681802
 20
0.1066119551223039
 30
0.0
 10
8.251185102681802
 20
0.1484455026719047
 30
0.0
  0
SPLINE
  5
298
330
1F
100
AcDbEntity
  8
0
  6
Continuous
 62
     1
370
    25
100
AcDbSpline
210
0.0
220
0.0
230
1.0
 70
     8
 71
     3
 72
     9
 73
     5
 74
     0
 42
0.000000001
 43
0.00000001
 40
0.0
 40
0.0
 40
0.0
 40
0.0
 40
0.1923250594471999
 40
0.7979768523481642
 40
0.7979768523481642
 40
0.7979768523481642
 40
0.7979768523481642
 10
7.78373613905228
 20
0.2356495874052484
 30
0.0
 10
7.810499795486749
 20
0.2487602897501233
 30
0.0
 10
7.921545014347657
 20
0.3031579694872448
 30
0.0
 10
8.03258094244643
 20
0.3252470890959103
 30
0.0
 10
8.116854114637817
 20
0.3373570822992633
 30
0.0
  0
LINE
  5
299
330
1F
100
AcDbEntity
  8
0
  6
Continuous
 62
     1
370
    25
100
AcDbLine
 10
8.226860080021652
 20
0.2440399815152716
 30
0.0
 11
8.07368266953381
 21
0.2307087920096365
 31
0.0
  0
ARC
  5
29A
330
1F
100
AcDbEntity
  8
0
  6
Continuous
 62
     1
370
    25
100
AcDbCircle
 10
8.051185102681757
 20
0.1484455133875997
 30
0.0
 40
0.2
100
AcDbArc
 50
359.9999969301795
 51
70.83164189657823
  0
ARC
  5
29B
102
{ACAD_REACTORS
102
}
330
1F
100
AcDbEntity
  8
0
  6
Continuous
 62
     1
370
    25
100
AcDbCircle
 10
8.051185102681757
 20
-0.146131486263954
 30
0.0
 40
0.2
100
AcDbArc
 50
289.1683581034217
 51
0.0000030698123475
  0
SPLINE
  5
29C
330
1F
100
AcDbEntity
  8
0
  6
Continuous
 62
     1
370
    25
100
AcDbSpline
210
0.0
220
0.0
230
1.0
 70
     8
 71
     3
 72
    11
 73
     7
 74
     0
 42
0.000000001
 43
0.00000001
 40
0.0431280092802602
 40
0.0431280092802602
 40
0.0431280092802602
 40
0.0431280092802602
 40
0.2912956201656163
 40
0.5814779978888001
 40
0.8710753296619392
 40
0.9999999999999999
 40
0.9999999999999999
 40
0.9999999999999999
 40
0.9999999999999999
 10
8.211699825379583
 20
-0.2654421052265263
 30
0.0
 10
8.135964734824483
 20
-0.2470302328298715
 30
0.0
 10
7.971680690861831
 20
-0.2050066210508135
 30
0.0
 10
7.719204685688055
 20
-0.0934452875477234
 30
0.0
 10
7.50314912398153
 20
0.0167582886606397
 30
0.0
 10
7.375553555660417
 20
0.0746160371335804
 30
0.0
 10
7.336248055592478
 20
0.0924389738268587
 30
0.0
  0
SPLINE
  5
29D
330
1F
100
AcDbEntity
  8
0
  6
Continuous
 62
     1
370
    25
100
AcDbSpline
210
0.0
220
0.0
230
1.0
 70
    24
 71
     3
 72
     8
 73
     4
 74
     0
 42
0.000000001
 43
0.00000001
 40
0.5323665476976801
 40
0.5323665476976801
 40
0.5323665476976801
 40
0.5323665476976801
 40
1.0
 40
1.0
 40
1.0
 40
1.0
 10
8.251185102681802
 20
-0.1461314755480032
 30
0.0
 10
8.251185102681802
 20
-0.1002255711043176
 30
0.0
 10
8.251185102681802
 20
-0.0489952219498662
 30
0.0
 10
8.251185102681802
 20
0.0011570135618229
 30
0.0
  0
SPLINE
  5
29E
330
1F
100
AcDbEntity
  8
0
  6
Continuous
 62
     1
370
    25
100
AcDbSpline
210
0.0
220
0.0
230
1.0
 70
     8
 71
     3
 72
    16
 73
    12
 74
     0
 42
0.000000001
 43
0.00000001
 40
0.0326822373385696
 40
0.0326822373385696
 40
0.0326822373385696
 40
0.0326822373385696
 40
0.2500000000000008
 40
0.2500000000000008
 40
0.5000000000000017
 40
0.5000000000000017
 40
0.7500000000000024
 40
0.7500000000000024
 40
0.8750000000000012
 40
0.8750000000000012
 40
1.0
 40
1.0
 40
1.0
 40
1.0
 10
8.163744544245219
 20
-0.3114504873344401
 30
0.0
 10
8.080416119699294
 20
-0.2897869912210069
 30
0.0
 10
7.9951086051517
 20
-0.2590216237765901
 30
0.0
 10
7.820202030587325
 20
-0.1801498558069454
 30
0.0
 10
7.718885038478675
 20
-0.1282076307329874
 30
0.0
 10
7.532925211773772
 20
-0.0213870149865443
 30
0.0
 10
7.432870078431279
 20
0.0361976428949617
 30
0.0
 10
7.291048474433182
 20
0.1160556309297647
 30
0.0
 10
7.244924083972819
 20
0.1416558437795175
 30
0.0
 10
7.148220085164212
 20
0.1905453968916788
 30
0.0
 10
7.099074397264985
 20
0.2135465431904606
 30
0.0
 10
7.051185102681757
 20
0.2341616673567444
 30
0.0
  0
DIMENSION
  5
29F
102
{ACAD_REACTORS
102
}
102
{ACAD_XDICTIONARY
360
2A0
102
}
330
1F
100
AcDbEntity
  8
치수문자_일반주서
100
AcDbDimension
  2
*D21
 10
8.051185102681757
 20
-0.146131486263954
 30
0.0
 11
13.90947987781706
 21
-17.01228384990387
 31
0.0
 70
   164
  1
<>
 71
     5
 42
0.1999999999999907
  3
SLDDIMSTYLE3
100
AcDbRadialDimension
 15
8.11680735164623
 25
-0.3350593043343508
 35
0.0
 40
0.0
1001
ACAD_DSTYLE_DIMRADIAL_EXTENSION
1070
   387
1070
     1
1070
   388
1040
5.046939941490905
1070
   390
1040
0.0000000535784823
  0
ENDSEC
  0
SECTION
  2
OBJECTS
  0
DICTIONARY
  5
C
330
0
100
AcDbDictionary
281
     1
  3
ACAD_GROUP
350
D
  3
ACAD_IMAGE_VARS
350
143
  3
ACAD_LAYOUT
350
1A
  3
ACAD_MLINESTYLE
350
17
  3
ACAD_PLOTSETTINGS
350
19
  3
ACAD_PLOTSTYLENAME
350
E
  3
ACAD_SCALELIST
350
47
  3
APPDATA
350
141
  3
DWGPROPS
350
2AC
  0
DICTIONARY
  5
2A0
330
29F
100
AcDbDictionary
280
     1
281
     1
  0
DICTIONARY
  5
D
102
{ACAD_REACTORS
330
C
102
}
330
C
100
AcDbDictionary
281
     1
  0
RASTERVARIABLES
  5
143
102
{ACAD_REACTORS
330
C
102
}
330
C
100
AcDbRasterVariables
 90
        0
 70
     1
 71
     1
 72
     1
  0
DICTIONARY
  5
1A
102
{ACAD_REACTORS
330
C
102
}
330
C
100
AcDbDictionary
281
     1
  3
Layout1
350
1E
  3
Layout2
350
26
  3
Model
350
22
  0
DICTIONARY
  5
17
102
{ACAD_REACTORS
330
C
102
}
330
C
100
AcDbDictionary
281
     1
  3
Standard
350
18
  0
DICTIONARY
  5
19
102
{ACAD_REACTORS
330
C
102
}
330
C
100
AcDbDictionary
281
     1
  0
ACDBDICTIONARYWDFLT
  5
E
102
{ACAD_REACTORS
330
C
102
}
330
C
100
AcDbDictionary
281
     1
  3
Normal
350
F
100
AcDbDictionaryWithDefault
340
F
  0
DICTIONARY
  5
47
102
{ACAD_REACTORS
330
C
102
}
330
C
100
AcDbDictionary
281
     1
  3
A0
350
48
  3
A1
350
49
  3
A2
350
4A
  3
A3
350
4B
  3
A4
350
4C
  3
A5
350
4D
  3
A6
350
4E
  3
A7
350
4F
  3
A8
350
50
  3
A9
350
51
  3
B0
350
52
  3
B1
350
53
  3
B2
350
54
  3
B3
350
55
  3
B4
350
56
  3
B5
350
57
  3
B6
350
58
  3
B7
350
59
  3
B8
350
5A
  3
B9
350
5B
  3
C0
350
5C
  3
C1
350
5D
  3
C2
350
5E
  3
C3
350
5F
  3
C4
350
60
  3
C5
350
61
  3
C6
350
62
  3
C7
350
63
  3
C8
350
64
  3
C9
350
65
  3
D0
350
66
  3
D1
350
67
  3
D2
350
68
  0
DICTIONARY
  5
141
102
{ACAD_REACTORS
330
C
102
}
330
C
100
AcDbDictionary
281
     1
  0
XRECORD
  5
2AC
102
{ACAD_REACTORS
330
C
102
}
330
C
100
AcDbXrecord
280
     1
  1
DWGPROPS COOKIE
  2

  3

  4

  6

  7

  8
12016016
  9

300
=
301
=
302
=
303
=
304
=
305
=
306
=
307
=
308
=
309
=
 40
0.0
 41
2458263.365453229
 42
2458269.278358079
  1

 90
        0
  0
LAYOUT
  5
1E
102
{ACAD_REACTORS
330
1A
102
}
330
1A
100
AcDbPlotSettings
  1

  2
none_device
  4

  6

 40
0.0
 41
0.0
 42
0.0
 43
0.0
 44
0.0
 45
0.0
 46
0.0
 47
0.0
 48
0.0
 49
0.0
140
0.0
141
0.0
142
1.0
143
1.0
 70
   688
 72
     1
 73
     0
 74
     5
  7

 75
    16
147
1.0
148
0.0
149
0.0
100
AcDbLayout
  1
Layout1
 70
     1
 71
     1
 10
0.0
 20
0.0
 11
420.0
 21
297.0
 12
0.0
 22
0.0
 32
0.0
 14
1.000000000000000E+20
 24
1.000000000000000E+20
 34
1.000000000000000E+20
 15
-1.000000000000000E+20
 25
-1.000000000000000E+20
 35
-1.000000000000000E+20
146
0.0
 13
0.0
 23
0.0
 33
0.0
 16
1.0
 26
0.0
 36
0.0
 17
0.0
 27
1.0
 37
0.0
 76
     0
330
1B
  0
LAYOUT
  5
26
102
{ACAD_REACTORS
330
1A
102
}
330
1A
100
AcDbPlotSettings
  1

  2
none_device
  4

  6

 40
0.0
 41
0.0
 42
0.0
 43
0.0
 44
0.0
 45
0.0
 46
0.0
 47
0.0
 48
0.0
 49
0.0
140
0.0
141
0.0
142
1.0
143
1.0
 70
   688
 72
     1
 73
     0
 74
     5
  7

 75
    16
147
1.0
148
0.0
149
0.0
100
AcDbLayout
  1
Layout2
 70
     1
 71
     2
 10
0.0
 20
0.0
 11
0.0
 21
0.0
 12
0.0
 22
0.0
 32
0.0
 14
0.0
 24
0.0
 34
0.0
 15
0.0
 25
0.0
 35
0.0
146
0.0
 13
0.0
 23
0.0
 33
0.0
 16
1.0
 26
0.0
 36
0.0
 17
0.0
 27
1.0
 37
0.0
 76
     0
330
23
  0
LAYOUT
  5
22
102
{ACAD_REACTORS
330
1A
102
}
330
1A
100
AcDbPlotSettings
  1

  2
none_device
  4
ANSI_A_(11.00_x_8.50_Inches)
  6

 40
6.35
 41
19.05
 42
6.35000508
 43
19.05000254
 44
279.4
 45
215.9
 46
137.1815673173565
 47
95.02383331796862
 48
0.0
 49
0.0
140
0.0
141
0.0
142
0.0877180779535586
143
1.0
 70
  1696
 72
     0
 73
     0
 74
     0
  7

 75
     0
147
0.0235690232323232
148
0.0
149
0.0
100
AcDbLayout
  1
Model
 70
     1
 71
     0
 10
0.0
 20
0.0
 11
420.0
 21
297.0
 12
0.0
 22
0.0
 32
0.0
 14
1.000000000000000E+20
 24
1.000000000000000E+20
 34
1.000000000000000E+20
 15
-1.000000000000000E+20
 25
-1.000000000000000E+20
 35
-1.000000000000000E+20
146
0.0
 13
0.0
 23
0.0
 33
0.0
 16
1.0
 26
0.0
 36
0.0
 17
0.0
 27
1.0
 37
0.0
 76
     0
330
1F
331
29
  0
MLINESTYLE
  5
18
102
{ACAD_REACTORS
330
17
102
}
330
17
100
AcDbMlineStyle
  2
Standard
 70
     0
  3

 62
   256
 51
90.0
 52
90.0
 71
     2
 49
0.5
 62
   256
  6
BYLAYER
 49
-0.5
 62
   256
  6
BYLAYER
  0
ACDBPLACEHOLDER
  5
F
102
{ACAD_REACTORS
330
E
102
}
330
E
  0
SCALE
  5
48
102
{ACAD_REACTORS
330
47
102
}
330
47
100
AcDbScale
 70
     0
300
1:1
140
1.0
141
1.0
290
     1
  0
SCALE
  5
49
102
{ACAD_REACTORS
330
47
102
}
330
47
100
AcDbScale
 70
     0
300
1:2
140
1.0
141
2.0
290
     0
  0
SCALE
  5
4A
102
{ACAD_REACTORS
330
47
102
}
330
47
100
AcDbScale
 70
     0
300
1:4
140
1.0
141
4.0
290
     0
  0
SCALE
  5
4B
102
{ACAD_REACTORS
330
47
102
}
330
47
100
AcDbScale
 70
     0
300
1:5
140
1.0
141
5.0
290
     0
  0
SCALE
  5
4C
102
{ACAD_REACTORS
330
47
102
}
330
47
100
AcDbScale
 70
     0
300
1:8
140
1.0
141
8.0
290
     0
  0
SCALE
  5
4D
102
{ACAD_REACTORS
330
47
102
}
330
47
100
AcDbScale
 70
     0
300
1:10
140
1.0
141
10.0
290
     0
  0
SCALE
  5
4E
102
{ACAD_REACTORS
330
47
102
}
330
47
100
AcDbScale
 70
     0
300
1:16
140
1.0
141
16.0
290
     0
  0
SCALE
  5
4F
102
{ACAD_REACTORS
330
47
102
}
330
47
100
AcDbScale
 70
     0
300
1:20
140
1.0
141
20.0
290
     0
  0
SCALE
  5
50
102
{ACAD_REACTORS
330
47
102
}
330
47
100
AcDbScale
 70
     0
300
1:30
140
1.0
141
30.0
290
     0
  0
SCALE
  5
51
102
{ACAD_REACTORS
330
47
102
}
330
47
100
AcDbScale
 70
     0
300
1:40
140
1.0
141
40.0
290
     0
  0
SCALE
  5
52
102
{ACAD_REACTORS
330
47
102
}
330
47
100
AcDbScale
 70
     0
300
1:50
140
1.0
141
50.0
290
     0
  0
SCALE
  5
53
102
{ACAD_REACTORS
330
47
102
}
330
47
100
AcDbScale
 70
     0
300
1:100
140
1.0
141
100.0
290
     0
  0
SCALE
  5
54
102
{ACAD_REACTORS
330
47
102
}
330
47
100
AcDbScale
 70
     0
300
2:1
140
2.0
141
1.0
290
     0
  0
SCALE
  5
55
102
{ACAD_REACTORS
330
47
102
}
330
47
100
AcDbScale
 70
     0
300
4:1
140
4.0
141
1.0
290
     0
  0
SCALE
  5
56
102
{ACAD_REACTORS
330
47
102
}
330
47
100
AcDbScale
 70
     0
300
8:1
140
8.0
141
1.0
290
     0
  0
SCALE
  5
57
102
{ACAD_REACTORS
330
47
102
}
330
47
100
AcDbScale
 70
     0
300
10:1
140
10.0
141
1.0
290
     0
  0
SCALE
  5
58
102
{ACAD_REACTORS
330
47
102
}
330
47
100
AcDbScale
 70
     0
300
100:1
140
100.0
141
1.0
290
     0
  0
SCALE
  5
59
102
{ACAD_REACTORS
330
47
102
}
330
47
100
AcDbScale
 70
     0
300
1/128" = 1'-0"
140
0.0078125
141
12.0
290
     0
  0
SCALE
  5
5A
102
{ACAD_REACTORS
330
47
102
}
330
47
100
AcDbScale
 70
     0
300
1/64" = 1'-0"
140
0.015625
141
12.0
290
     0
  0
SCALE
  5
5B
102
{ACAD_REACTORS
330
47
102
}
330
47
100
AcDbScale
 70
     0
300
1/32" = 1'-0"
140
0.03125
141
12.0
290
     0
  0
SCALE
  5
5C
102
{ACAD_REACTORS
330
47
102
}
330
47
100
AcDbScale
 70
     0
300
1/16" = 1'-0"
140
0.0625
141
12.0
290
     0
  0
SCALE
  5
5D
102
{ACAD_REACTORS
330
47
102
}
330
47
100
AcDbScale
 70
     0
300
3/32" = 1'-0"
140
0.09375
141
12.0
290
     0
  0
SCALE
  5
5E
102
{ACAD_REACTORS
330
47
102
}
330
47
100
AcDbScale
 70
     0
300
1/8" = 1'-0"
140
0.125
141
12.0
290
     0
  0
SCALE
  5
5F
102
{ACAD_REACTORS
330
47
102
}
330
47
100
AcDbScale
 70
     0
300
3/16" = 1'-0"
140
0.1875
141
12.0
290
     0
  0
SCALE
  5
60
102
{ACAD_REACTORS
330
47
102
}
330
47
100
AcDbScale
 70
     0
300
1/4" = 1'-0"
140
0.25
141
12.0
290
     0
  0
SCALE
  5
61
102
{ACAD_REACTORS
330
47
102
}
330
47
100
AcDbScale
 70
     0
300
3/8" = 1'-0"
140
0.375
141
12.0
290
     0
  0
SCALE
  5
62
102
{ACAD_REACTORS
330
47
102
}
330
47
100
AcDbScale
 70
     0
300
1/2" = 1'-0"
140
0.5
141
12.0
290
     0
  0
SCALE
  5
63
102
{ACAD_REACTORS
330
47
102
}
330
47
100
AcDbScale
 70
     0
300
3/4" = 1'-0"
140
0.75
141
12.0
290
     0
  0
SCALE
  5
64
102
{ACAD_REACTORS
330
47
102
}
330
47
100
AcDbScale
 70
     0
300
1" = 1'-0"
140
1.0
141
12.0
290
     0
  0
SCALE
  5
65
102
{ACAD_REACTORS
330
47
102
}
330
47
100
AcDbScale
 70
     0
300
1-1/2" = 1'-0"
140
1.5
141
12.0
290
     0
  0
SCALE
  5
66
102
{ACAD_REACTORS
330
47
102
}
330
47
100
AcDbScale
 70
     0
300
3" = 1'-0"
140
3.0
141
12.0
290
     0
  0
SCALE
  5
67
102
{ACAD_REACTORS
330
47
102
}
330
47
100
AcDbScale
 70
     0
300
6" = 1'-0"
140
6.0
141
12.0
290
     0
  0
SCALE
  5
68
102
{ACAD_REACTORS
330
47
102
}
330
47
100
AcDbScale
 70
     0
300
1'-0" = 1'-0"
140
12.0
141
12.0
290
     0
  0
ENDSEC
  0
EOF
