  0
SECTION
  2
HEADER
  9
$ACADVER
  1
AC1015
  9
$ACADMAINTVER
 70
     6
  9
$DWGCODEPAGE
  3
ANSI_949
  9
$INSBASE
 10
0.0
 20
0.0
 30
0.0
  9
$EXTMIN
 10
1.000000000000000E+20
 20
1.000000000000000E+20
 30
1.000000000000000E+20
  9
$EXTMAX
 10
-1.000000000000000E+20
 20
-1.000000000000000E+20
 30
-1.000000000000000E+20
  9
$LIMMIN
 10
0.0
 20
0.0
  9
$LIMMAX
 10
420.0
 20
297.0
  9
$ORTHOMODE
 70
     0
  9
$REGENMODE
 70
     1
  9
$FILLMODE
 70
     1
  9
$QTEXTMODE
 70
     0
  9
$MIRRTEXT
 70
     1
  9
$LTSCALE
 40
1.0
  9
$ATTMODE
 70
     1
  9
$TEXTSIZE
 40
3.5
  9
$TRACEWID
 40
1.0
  9
$TEXTSTYLE
  7
Standard
  9
$CLAYER
  8
0
  9
$CELTYPE
  6
ByLayer
  9
$CECOLOR
 62
   256
  9
$CELTSCALE
 40
1.0
  9
$DISPSILH
 70
     0
  9
$DIMSCALE
 40
1.0
  9
$DIMASZ
 40
3.302
  9
$DIMEXO
 40
1.0
  9
$DIMDLI
 40
3.75
  9
$DIMRND
 40
0.0
  9
$DIMDLE
 40
0.0
  9
$DIMEXE
 40
1.0
  9
$DIMTP
 40
0.0
  9
$DIMTM
 40
0.0
  9
$DIMTXT
 40
3.5
  9
$DIMCEN
 40
2.5
  9
$DIMTSZ
 40
0.0
  9
$DIMTOL
 70
     0
  9
$DIMLIM
 70
     0
  9
$DIMTIH
 70
     1
  9
$DIMTOH
 70
     1
  9
$DIMSE1
 70
     0
  9
$DIMSE2
 70
     0
  9
$DIMTAD
 70
     1
  9
$DIMZIN
 70
     0
  9
$DIMBLK
  1

  9
$DIMASO
 70
     1
  9
$DIMSHO
 70
     1
  9
$DIMPOST
  1

  9
$DIMAPOST
  1

  9
$DIMALT
 70
     0
  9
$DIMALTD
 70
     3
  9
$DIMALTF
 40
0.0393700787401575
  9
$DIMLFAC
 40
1.0
  9
$DIMTOFL
 70
     1
  9
$DIMTVP
 40
0.0
  9
$DIMTIX
 70
     0
  9
$DIMSOXD
 70
     0
  9
$DIMSAH
 70
     0
  9
$DIMBLK1
  1

  9
$DIMBLK2
  1

  9
$DIMSTYLE
  2
ISO-25
  9
$DIMCLRD
 70
     0
  9
$DIMCLRE
 70
     0
  9
$DIMCLRT
 70
     0
  9
$DIMTFAC
 40
1.0
  9
$DIMGAP
 40
1.524
  9
$DIMJUST
 70
     0
  9
$DIMSD1
 70
     0
  9
$DIMSD2
 70
     0
  9
$DIMTOLJ
 70
     0
  9
$DIMTZIN
 70
     0
  9
$DIMALTZ
 70
     0
  9
$DIMALTTZ
 70
     0
  9
$DIMUPT
 70
     0
  9
$DIMDEC
 70
     2
  9
$DIMTDEC
 70
     2
  9
$DIMALTU
 70
     2
  9
$DIMALTTD
 70
     3
  9
$DIMTXSTY
  7
Standard
  9
$DIMAUNIT
 70
     0
  9
$DIMADEC
 70
     2
  9
$DIMALTRND
 40
0.0
  9
$DIMAZIN
 70
     0
  9
$DIMDSEP
 70
    44
  9
$DIMATFIT
 70
     3
  9
$DIMFRAC
 70
     0
  9
$DIMLDRBLK
  1

  9
$DIMLUNIT
 70
     2
  9
$DIMLWD
 70
    -2
  9
$DIMLWE
 70
    -2
  9
$DIMTMOVE
 70
     0
  9
$LUNITS
 70
     2
  9
$LUPREC
 70
     2
  9
$SKETCHINC
 40
1.0
  9
$FILLETRAD
 40
10.0
  9
$AUNITS
 70
     0
  9
$AUPREC
 70
     2
  9
$MENU
  1
.
  9
$ELEVATION
 40
0.0
  9
$PELEVATION
 40
0.0
  9
$THICKNESS
 40
0.0
  9
$LIMCHECK
 70
     0
  9
$CHAMFERA
 40
0.0
  9
$CHAMFERB
 40
0.0
  9
$CHAMFERC
 40
0.0
  9
$CHAMFERD
 40
0.0
  9
$SKPOLY
 70
     0
  9
$TDCREATE
 40
2458263.753308275
  9
$TDUCREATE
 40
2458263.378308275
  9
$TDUPDATE
 40
2458269.566351724
  9
$TDUUPDATE
 40
2458269.191351724
  9
$TDINDWG
 40
0.0000950579
  9
$TDUSRTIMER
 40
2458269.191256945
  9
$USRTIMER
 70
     1
  9
$ANGBASE
 50
0.0
  9
$ANGDIR
 70
     0
  9
$PDMODE
 70
     0
  9
$PDSIZE
 40
-1.0
  9
$PLINEWID
 40
0.0
  9
$SPLFRAME
 70
     0
  9
$SPLINETYPE
 70
     6
  9
$SPLINESEGS
 70
     8
  9
$HANDSEED
  5
2B3
  9
$SURFTAB1
 70
     6
  9
$SURFTAB2
 70
     6
  9
$SURFTYPE
 70
     6
  9
$SURFU
 70
     6
  9
$SURFV
 70
     6
  9
$UCSBASE
  2

  9
$UCSNAME
  2

  9
$UCSORG
 10
0.0
 20
0.0
 30
0.0
  9
$UCSXDIR
 10
1.0
 20
0.0
 30
0.0
  9
$UCSYDIR
 10
0.0
 20
1.0
 30
0.0
  9
$UCSORTHOREF
  2

  9
$UCSORTHOVIEW
 70
     0
  9
$UCSORGTOP
 10
0.0
 20
0.0
 30
0.0
  9
$UCSORGBOTTOM
 10
0.0
 20
0.0
 30
0.0
  9
$UCSORGLEFT
 10
0.0
 20
0.0
 30
0.0
  9
$UCSORGRIGHT
 10
0.0
 20
0.0
 30
0.0
  9
$UCSORGFRONT
 10
0.0
 20
0.0
 30
0.0
  9
$UCSORGBACK
 10
0.0
 20
0.0
 30
0.0
  9
$PUCSBASE
  2

  9
$PUCSNAME
  2

  9
$PUCSORG
 10
0.0
 20
0.0
 30
0.0
  9
$PUCSXDIR
 10
1.0
 20
0.0
 30
0.0
  9
$PUCSYDIR
 10
0.0
 20
1.0
 30
0.0
  9
$PUCSORTHOREF
  2

  9
$PUCSORTHOVIEW
 70
     0
  9
$PUCSORGTOP
 10
0.0
 20
0.0
 30
0.0
  9
$PUCSORGBOTTOM
 10
0.0
 20
0.0
 30
0.0
  9
$PUCSORGLEFT
 10
0.0
 20
0.0
 30
0.0
  9
$PUCSORGRIGHT
 10
0.0
 20
0.0
 30
0.0
  9
$PUCSORGFRONT
 10
0.0
 20
0.0
 30
0.0
  9
$PUCSORGBACK
 10
0.0
 20
0.0
 30
0.0
  9
$USERI1
 70
     0
  9
$USERI2
 70
     0
  9
$USERI3
 70
     0
  9
$USERI4
 70
     0
  9
$USERI5
 70
     0
  9
$USERR1
 40
0.0
  9
$USERR2
 40
0.0
  9
$USERR3
 40
0.0
  9
$USERR4
 40
0.0
  9
$USERR5
 40
0.0
  9
$WORLDVIEW
 70
     1
  9
$SHADEDGE
 70
     3
  9
$SHADEDIF
 70
    70
  9
$TILEMODE
 70
     1
  9
$MAXACTVP
 70
    64
  9
$PINSBASE
 10
0.0
 20
0.0
 30
0.0
  9
$PLIMCHECK
 70
     0
  9
$PEXTMIN
 10
1.000000000000000E+20
 20
1.000000000000000E+20
 30
1.000000000000000E+20
  9
$PEXTMAX
 10
-1.000000000000000E+20
 20
-1.000000000000000E+20
 30
-1.000000000000000E+20
  9
$PLIMMIN
 10
0.0
 20
0.0
  9
$PLIMMAX
 10
0.0
 20
0.0
  9
$UNITMODE
 70
     0
  9
$VISRETAIN
 70
     1
  9
$PLINEGEN
 70
     0
  9
$PSLTSCALE
 70
     1
  9
$TREEDEPTH
 70
  3020
  9
$CMLSTYLE
  2
Standard
  9
$CMLJUST
 70
     0
  9
$CMLSCALE
 40
20.0
  9
$PROXYGRAPHICS
 70
     1
  9
$MEASUREMENT
 70
     1
  9
$CELWEIGHT
370
    -1
  9
$ENDCAPS
280
     0
  9
$JOINSTYLE
280
     0
  9
$LWDISPLAY
290
     1
  9
$INSUNITS
 70
     4
  9
$HYPERLINKBASE
  1

  9
$STYLESHEET
  1

  9
$XEDIT
290
     1
  9
$CEPSNTYPE
380
     0
  9
$PSTYLEMODE
290
     1
  9
$FINGERPRINTGUID
  2
{E6A34AAC-635A-4548-864C-B4DCBAE9654D}
  9
$VERSIONGUID
  2
{FAEB1C32-E019-11D5-929B-00C0DF256EC4}
  9
$EXTNAMES
290
     1
  9
$PSVPSCALE
 40
0.0
  9
$OLESTARTUP
290
     0
  0
ENDSEC
  0
SECTION
  2
CLASSES
  0
CLASS
  1
ACDBDICTIONARYWDFLT
  2
AcDbDictionaryWithDefault
  3
ObjectDBX Classes
 90
        0
280
     0
281
     0
  0
CLASS
  1
VISUALSTYLE
  2
AcDbVisualStyle
  3
ObjectDBX Classes
 90
     4095
280
     0
281
     0
  0
CLASS
  1
MATERIAL
  2
AcDbMaterial
  3
ObjectDBX Classes
 90
     1153
280
     0
281
     0
  0
CLASS
  1
SCALE
  2
AcDbScale
  3
ObjectDBX Classes
 90
     1153
280
     0
281
     0
  0
CLASS
  1
TABLESTYLE
  2
AcDbTableStyle
  3
ObjectDBX Classes
 90
     4095
280
     0
281
     0
  0
CLASS
  1
MLEADERSTYLE
  2
AcDbMLeaderStyle
  3
ACDB_MLEADERSTYLE_CLASS
 90
     4095
280
     0
281
     0
  0
CLASS
  1
SUN
  2
AcDbSun
  3
SCENEOE
 90
     1153
280
     0
281
     0
  0
CLASS
  1
ACDBPLACEHOLDER
  2
AcDbPlaceHolder
  3
ObjectDBX Classes
 90
        0
280
     0
281
     0
  0
CLASS
  1
LAYOUT
  2
AcDbLayout
  3
ObjectDBX Classes
 90
        0
280
     0
281
     0
  0
CLASS
  1
RASTERVARIABLES
  2
AcDbRasterVariables
  3
ISM
 90
        0
280
     0
281
     0
  0
CLASS
  1
DIMASSOC
  2
AcDbDimAssoc
  3
"AcDbDimAssoc|Product Desc:     AcDim ARX App For Dimension|Company:          Autodesk, Inc.|WEB Address:      www.autodesk.com"
 90
        0
280
     0
281
     0
  0
ENDSEC
  0
SECTION
  2
TABLES
  0
TABLE
  2
VPORT
  5
8
330
0
100
AcDbSymbolTable
 70
     1
  0
VPORT
  5
29
330
8
100
AcDbSymbolTableRecord
100
AcDbViewportTableRecord
  2
*Active
 70
     0
 10
0.0
 20
0.0
 11
1.0
 21
1.0
 12
8.945479873869774
 22
-0.4115475739897942
 13
0.0
 23
0.0
 14
10.0
 24
10.0
 15
10.0
 25
10.0
 16
0.0
 26
0.0
 36
1.0
 17
0.0
 27
0.0
 37
0.0
 40
3.504742668890732
 41
1.78957528957529
 42
50.0
 43
0.0
 44
0.0
 50
0.0
 51
0.0
 71
    16
 72
  2000
 73
     1
 74
     3
 75
     0
 76
     0
 77
     0
 78
     0
281
     0
 65
     1
110
0.0
120
0.0
130
0.0
111
1.0
121
0.0
131
0.0
112
0.0
122
1.0
132
0.0
 79
     0
146
0.0
  0
ENDTAB
  0
TABLE
  2
LTYPE
  5
5
330
0
100
AcDbSymbolTable
 70
     6
  0
LTYPE
  5
14
330
5
100
AcDbSymbolTableRecord
100
AcDbLinetypeTableRecord
  2
ByBlock
 70
     0
  3

 72
    65
 73
     0
 40
0.0
  0
LTYPE
  5
15
330
5
100
AcDbSymbolTableRecord
100
AcDbLinetypeTableRecord
  2
ByLayer
 70
     0
  3

 72
    65
 73
     0
 40
0.0
  0
LTYPE
  5
16
330
5
100
AcDbSymbolTableRecord
100
AcDbLinetypeTableRecord
  2
Continuous
 70
     0
  3
Solid line
 72
    65
 73
     0
 40
0.0
  0
LTYPE
  5
6E
330
5
100
AcDbSymbolTableRecord
100
AcDbLinetypeTableRecord
  2
HIDDEN
 70
     0
  3
Hidden __ __ __ __ __ __ __ __ __ __ __ __ __ __
 72
    65
 73
     2
 40
1.905
 49
1.27
 74
     0
 49
-0.635
 74
     0
  0
LTYPE
  5
6F
330
5
100
AcDbSymbolTableRecord
100
AcDbLinetypeTableRecord
  2
PHANTOM
 70
     0
  3
Phantom ______  __  __  ______  __  __  ______
 72
    65
 73
     6
 40
12.7
 49
6.35
 74
     0
 49
-1.27
 74
     0
 49
1.27
 74
     0
 49
-1.27
 74
     0
 49
1.27
 74
     0
 49
-1.27
 74
     0
  0
LTYPE
  5
70
330
5
100
AcDbSymbolTableRecord
100
AcDbLinetypeTableRecord
  2
CENTER
 70
     0
  3
Center ____ _ ____ _ ____ _ ____ _ ____ _ ____
 72
    65
 73
     4
 40
10.16
 49
6.35
 74
     0
 49
-1.27
 74
     0
 49
1.27
 74
     0
 49
-1.27
 74
     0
  0
LTYPE
  5
71
330
5
100
AcDbSymbolTableRecord
100
AcDbLinetypeTableRecord
  2
CENTERX2
 70
     0
  3
Center (2x) ________  __  ________  __  _____
 72
    65
 73
     4
 40
20.32
 49
12.7
 74
     0
 49
-2.54
 74
     0
 49
2.54
 74
     0
 49
-2.54
 74
     0
  0
LTYPE
  5
72
330
5
100
AcDbSymbolTableRecord
100
AcDbLinetypeTableRecord
  2
DOT2
 70
     0
  3
Dot (.5x) ........................................
 72
    65
 73
     2
 40
0.635
 49
0.0
 74
     0
 49
-0.635
 74
     0
  0
ENDTAB
  0
TABLE
  2
LAYER
  5
2
330
0
100
AcDbSymbolTable
 70
    17
  0
LAYER
  5
10
330
2
100
AcDbSymbolTableRecord
100
AcDbLayerTableRecord
  2
0
 70
     0
 62
     7
  6
Continuous
370
    -3
390
F
  0
LAYER
  5
73
330
2
100
AcDbSymbolTableRecord
100
AcDbLayerTableRecord
  2
FORMAT
 70
     0
 62
     2
  6
Continuous
370
    -3
390
F
  0
LAYER
  5
74
330
2
100
AcDbSymbolTableRecord
100
AcDbLayerTableRecord
  2
외형선
 70
     0
 62
   100
  6
Continuous
370
    35
390
F
  0
LAYER
  5
75
330
2
100
AcDbSymbolTableRecord
100
AcDbLayerTableRecord
  2
숨은선
 70
     0
 62
     2
  6
HIDDEN
370
    25
390
F
  0
LAYER
  5
76
330
2
100
AcDbSymbolTableRecord
100
AcDbLayerTableRecord
  2
중심선
 70
     0
 62
     1
  6
CENTERX2
370
    -3
390
F
  0
LAYER
  5
77
330
2
100
AcDbSymbolTableRecord
100
AcDbLayerTableRecord
  2
파단선
 70
     0
 62
     4
  6
Continuous
370
    -3
390
F
  0
LAYER
  5
78
330
2
100
AcDbSymbolTableRecord
100
AcDbLayerTableRecord
  2
해칭선
 70
     0
 62
     4
  6
Continuous
370
    -3
390
F
  0
LAYER
  5
79
330
2
100
AcDbSymbolTableRecord
100
AcDbLayerTableRecord
  2
가는실선
 70
     0
 62
     4
  6
Continuous
370
    -3
390
F
  0
LAYER
  5
7A
330
2
100
AcDbSymbolTableRecord
100
AcDbLayerTableRecord
  2
치수_보조선
 70
     0
 62
     4
  6
Continuous
370
    -3
390
F
  0
LAYER
  5
7B
330
2
100
AcDbSymbolTableRecord
100
AcDbLayerTableRecord
  2
치수문자_일반주서
 70
     0
 62
     7
  6
Continuous
370
    25
390
F
  0
LAYER
  5
7C
330
2
100
AcDbSymbolTableRecord
100
AcDbLayerTableRecord
  2
개별주서
 70
     0
 62
   100
  6
Continuous
370
    35
390
F
  0
LAYER
  5
7D
330
2
100
AcDbSymbolTableRecord
100
AcDbLayerTableRecord
  2
중간선
 70
     0
 62
     2
  6
Continuous
370
    25
390
F
  0
LAYER
  5
7E
330
2
100
AcDbSymbolTableRecord
100
AcDbLayerTableRecord
  2
윤곽선
 70
     0
 62
     3
  6
Continuous
370
    50
390
F
  0
LAYER
  5
7F
330
2
100
AcDbSymbolTableRecord
100
AcDbLayerTableRecord
  2
중심마크
 70
     0
 62
   100
  6
Continuous
370
    35
390
F
  0
LAYER
  5
80
330
2
100
AcDbSymbolTableRecord
100
AcDbLayerTableRecord
  2
가상선
 70
     0
 62
     4
  6
PHANTOM
370
    -3
390
F
  0
LAYER
  5
81
330
2
100
AcDbSymbolTableRecord
100
AcDbLayerTableRecord
  2
특수지정선
 70
     0
 62
     5
  6
CENTERX2
370
    70
390
F
  0
LAYER
  5
146
330
2
100
AcDbSymbolTableRecord
100
AcDbLayerTableRecord
  2
Defpoints
 70
     0
 62
     7
  6
Continuous
290
     0
370
    -3
390
F
  0
ENDTAB
  0
TABLE
  2
STYLE
  5
3
330
0
100
AcDbSymbolTable
 70
     2
  0
STYLE
  5
11
330
3
100
AcDbSymbolTableRecord
100
AcDbTextStyleTableRecord
  2
Standard
 70
     0
 40
0.0
 41
1.0
 50
0.0
 71
     0
 42
3.5
  3
txt
  4

  0
STYLE
  5
97
330
3
100
AcDbSymbolTableRecord
100
AcDbTextStyleTableRecord
  2
SLDTEXTSTYLE0
 70
     0
 40
0.0
 41
0.75
 50
0.0
 71
     0
 42
3.5
  3
TXT
  4

  0
ENDTAB
  0
TABLE
  2
VIEW
  5
6
330
0
100
AcDbSymbolTable
 70
     0
  0
ENDTAB
  0
TABLE
  2
UCS
  5
7
330
0
100
AcDbSymbolTable
 70
     0
  0
ENDTAB
  0
TABLE
  2
APPID
  5
9
330
0
100
AcDbSymbolTable
 70
     4
  0
APPID
  5
12
330
9
100
AcDbSymbolTableRecord
100
AcDbRegAppTableRecord
  2
ACAD
 70
     0
  0
APPID
  5
23C
330
9
100
AcDbSymbolTableRecord
100
AcDbRegAppTableRecord
  2
ACAD_DSTYLE_DIMRADIAL_EXTENSION
 70
     0
  0
APPID
  5
2B1
330
9
100
AcDbSymbolTableRecord
100
AcDbRegAppTableRecord
  2
ACAD_DSTYLE_DIMFLIPARROW_SYMBOL
 70
     0
  0
APPID
  5
2B2
330
9
100
AcDbSymbolTableRecord
100
AcDbRegAppTableRecord
  2
ACAD_DSTYLE_DIMFLIPARROW_WHICH_SYMBOL
 70
     0
  0
ENDTAB
  0
TABLE
  2
DIMSTYLE
  5
A
330
0
100
AcDbSymbolTable
 70
     5
100
AcDbDimStyleTable
  0
DIMSTYLE
105
27
330
A
100
AcDbSymbolTableRecord
100
AcDbDimStyleTableRecord
  2
ISO-25
 70
     0
 41
2.5
 42
0.625
 43
3.75
 44
1.25
 73
     0
 74
     0
 77
     1
 78
     8
140
2.5
141
2.5
143
0.03937007874016
147
0.625
171
     3
172
     1
178
     0
271
     2
272
     2
274
     3
278
    44
283
     0
284
     8
340
11
  0
DIMSTYLE
105
DC
102
{ACAD_REACTORS
330
199
330
1C3
330
1E5
330
1EC
102
}
330
A
100
AcDbSymbolTableRecord
100
AcDbDimStyleTableRecord
  2
SLDDIMSTYLE0
 70
     0
 41
3.302
 44
0.0
 45
0.000000001
 73
     0
 74
     0
 77
     1
 78
    12
 79
     3
140
3.5
147
0.875
172
     1
173
     1
178
     0
271
     2
272
     2
276
     2
284
    12
289
     0
340
97
  0
DIMSTYLE
105
EA
102
{ACAD_REACTORS
330
17D
330
1E3
102
}
330
A
100
AcDbSymbolTableRecord
100
AcDbDimStyleTableRecord
  2
SLDDIMSTYLE1
 70
     0
 41
3.302
 44
0.0
 45
0.000000001
 73
     0
 74
     0
 77
     1
 78
     4
 79
     1
140
3.5
147
0.875
172
     1
173
     1
178
     0
271
     2
272
     2
276
     2
284
    12
289
     0
340
97
  0
DIMSTYLE
105
F7
102
{ACAD_REACTORS
330
18C
330
1E4
102
}
330
A
100
AcDbSymbolTableRecord
100
AcDbDimStyleTableRecord
  2
SLDDIMSTYLE2
 70
     0
 41
3.302
 44
0.0
 45
0.000000001
 73
     0
 74
     0
 77
     1
 78
    12
 79
     3
140
3.5
147
0.875
173
     1
178
     0
271
     2
272
     2
276
     2
284
    12
340
97
  0
DIMSTYLE
105
10E
102
{ACAD_REACTORS
330
1A8
330
1E6
330
278
330
2A4
102
}
330
A
100
AcDbSymbolTableRecord
100
AcDbDimStyleTableRecord
  2
SLDDIMSTYLE3
 70
     0
 41
3.302
 44
0.0
 45
0.000000001
 73
     0
 74
     0
 77
     1
 78
     8
 79
     2
140
3.5
147
0.875
172
     1
173
     1
178
     0
271
     2
272
     2
276
     2
284
    12
289
     0
340
97
  0
ENDTAB
  0
TABLE
  2
BLOCK_RECORD
  5
1
330
0
100
AcDbSymbolTable
 70
    22
  0
BLOCK_RECORD
  5
1F
330
1
100
AcDbSymbolTableRecord
100
AcDbBlockTableRecord
  2
*Model_Space
340
22
  0
BLOCK_RECORD
  5
1B
330
1
100
AcDbSymbolTableRecord
100
AcDbBlockTableRecord
  2
*Paper_Space
340
1E
  0
BLOCK_RECORD
  5
23
330
1
100
AcDbSymbolTableRecord
100
AcDbBlockTableRecord
  2
*Paper_Space0
340
26
  0
BLOCK_RECORD
  5
82
330
1
100
AcDbSymbolTableRecord
100
AcDbBlockTableRecord
  2
블럭10
340
0
102
{BLKREFS
331
D4
102
}
  0
BLOCK_RECORD
  5
DD
330
1
100
AcDbSymbolTableRecord
100
AcDbBlockTableRecord
  2
_D
340
0
  0
BLOCK_RECORD
  5
EB
330
1
100
AcDbSymbolTableRecord
100
AcDbBlockTableRecord
  2
_D_1
340
0
  0
BLOCK_RECORD
  5
F8
330
1
100
AcDbSymbolTableRecord
100
AcDbBlockTableRecord
  2
_D_2
340
0
  0
BLOCK_RECORD
  5
102
330
1
100
AcDbSymbolTableRecord
100
AcDbBlockTableRecord
  2
_D_3
340
0
  0
BLOCK_RECORD
  5
10F
330
1
100
AcDbSymbolTableRecord
100
AcDbBlockTableRecord
  2
_D_4
340
0
  0
BLOCK_RECORD
  5
11B
330
1
100
AcDbSymbolTableRecord
100
AcDbBlockTableRecord
  2
SW_DOWELSYMBOL_0
340
0
102
{BLKREFS
331
0
331
1B8
331
1E7
102
}
  0
BLOCK_RECORD
  5
17E
330
1
100
AcDbSymbolTableRecord
100
AcDbBlockTableRecord
  2
*D9
340
0
  0
BLOCK_RECORD
  5
18D
330
1
100
AcDbSymbolTableRecord
100
AcDbBlockTableRecord
  2
*D10
340
0
  0
BLOCK_RECORD
  5
19A
330
1
100
AcDbSymbolTableRecord
100
AcDbBlockTableRecord
  2
*D11
340
0
  0
BLOCK_RECORD
  5
1A9
330
1
100
AcDbSymbolTableRecord
100
AcDbBlockTableRecord
  2
*D12
340
0
  0
BLOCK_RECORD
  5
1C4
330
1
100
AcDbSymbolTableRecord
100
AcDbBlockTableRecord
  2
*D13
340
0
  0
BLOCK_RECORD
  5
1F1
330
1
100
AcDbSymbolTableRecord
100
AcDbBlockTableRecord
  2
*D14
340
0
  0
BLOCK_RECORD
  5
200
330
1
100
AcDbSymbolTableRecord
100
AcDbBlockTableRecord
  2
*D15
340
0
  0
BLOCK_RECORD
  5
20C
330
1
100
AcDbSymbolTableRecord
100
AcDbBlockTableRecord
  2
*D16
340
0
  0
BLOCK_RECORD
  5
21A
330
1
100
AcDbSymbolTableRecord
100
AcDbBlockTableRecord
  2
*D17
340
0
  0
BLOCK_RECORD
  5
229
330
1
100
AcDbSymbolTableRecord
100
AcDbBlockTableRecord
  2
*D18
340
0
  0
BLOCK_RECORD
  5
27B
330
1
100
AcDbSymbolTableRecord
100
AcDbBlockTableRecord
  2
*D20
340
0
  0
BLOCK_RECORD
  5
2A7
330
1
100
AcDbSymbolTableRecord
100
AcDbBlockTableRecord
  2
*D21
340
0
  0
ENDTAB
  0
ENDSEC
  0
SECTION
  2
BLOCKS
  0
BLOCK
  5
20
330
1F
100
AcDbEntity
  8
0
100
AcDbBlockBegin
  2
*Model_Space
 70
     0
 10
0.0
 20
0.0
 30
0.0
  3
*Model_Space
  1
*Model_Space
  0
ENDBLK
  5
21
330
1F
100
AcDbEntity
  8
0
100
AcDbBlockEnd
  0
BLOCK
  5
1C
330
1B
100
AcDbEntity
 67
     1
  8
0
100
AcDbBlockBegin
  2
*Paper_Space
 70
     0
 10
0.0
 20
0.0
 30
0.0
  3
*Paper_Space
  1
*Paper_Space
  0
ENDBLK
  5
1D
330
1B
100
AcDbEntity
 67
     1
  8
0
100
AcDbBlockEnd
  0
BLOCK
  5
24
330
23
100
AcDbEntity
  8
0
100
AcDbBlockBegin
  2
*Paper_Space0
 70
     0
 10
0.0
 20
0.0
 30
0.0
  3
*Paper_Space0
  1
*Paper_Space0
  0
ENDBLK
  5
25
330
23
100
AcDbEntity
  8
0
100
AcDbBlockEnd
  0
BLOCK
  5
83
330
82
100
AcDbEntity
  8
0
100
AcDbBlockBegin
  2
블럭10
 70
     2
 10
0.0
 20
0.0
 30
0.0
  3
블럭10
  1
블럭10
  0
ELLIPSE
  5
85
330
82
100
AcDbEntity
  8
중심선
100
AcDbEllipse
 10
20.54032771741204
 20
12.0471743016438
 30
0.0
 11
6.600054785286829
 21
-1.261213355974178E-13
 31
0.0
210
0.0
220
0.0
230
1.0
 40
0.636358354079598
 41
0.9219305317359503
 42
6.513795318482858
  0
ELLIPSE
  5
86
330
82
100
AcDbEntity
  8
중심선
100
AcDbEllipse
 10
20.54032771746488
 20
12.04717430159265
 30
0.0
 11
3.960054785062283
 21
1.540847449632565E-10
 31
0.0
210
0.0
220
0.0
230
1.0
 40
0.3939339440162632
 41
1.131841032648279
 42
5.62031148352944
  0
LINE
  5
87
330
82
100
AcDbEntity
  8
중심선
100
AcDbLine
 10
2.268634060543552
 20
16.24717430164393
 30
0.0
 11
5.714909304380834
 21
16.24717430164393
 31
0.0
  0
LINE
  5
88
330
82
100
AcDbEntity
  8
중심선
100
AcDbLine
 10
5.245725140726316
 20
7.84717430164391
 30
0.0
 11
8.692000384563599
 21
7.84717430164391
 31
0.0
  0
LINE
  5
89
330
82
100
AcDbEntity
  8
중심선
100
AcDbLine
 10
15.74043728645272
 20
16.24717430164393
 30
0.0
 11
8.692000384563599
 21
7.84717430164391
 31
0.0
  0
LINE
  5
8A
330
82
100
AcDbEntity
  8
중심선
100
AcDbLine
 10
0.1404042013395286
 20
13.71084872107135
 30
0.0
 11
3.58671253028996
 21
13.71088815037384
 31
0.0
  0
LINE
  5
8B
330
82
100
AcDbEntity
  8
중심선
100
AcDbLine
 10
2.750260043222114
 20
10.84717430164391
 30
0.0
 11
6.196535287059397
 21
10.84717430164391
 31
0.0
  0
LINE
  5
8C
330
82
100
AcDbEntity
  8
중심선
100
AcDbLine
 10
12.29416204261559
 20
16.24717430164393
 30
0.0
 11
5.245725140726316
 21
7.84717430164391
 31
0.0
  0
LINE
  5
8D
330
82
100
AcDbEntity
  8
중심선
100
AcDbLine
 10
10.72767329541681
 20
16.24717430164393
 30
0.0
 11
6.196535287059397
 21
10.84717430164391
 31
0.0
  0
LINE
  5
8E
330
82
100
AcDbEntity
  8
중심선
100
AcDbLine
 10
7.28139805157953
 20
16.24717430164393
 30
0.0
 11
2.750260043222114
 21
10.84717430164391
 31
0.0
  0
LINE
  5
8F
330
82
100
AcDbEntity
  8
중심선
100
AcDbLine
 10
5.714909304380834
 20
16.24717430164393
 30
0.0
 11
3.58671253028996
 21
13.71088815037384
 31
0.0
  0
LINE
  5
90
330
82
100
AcDbEntity
  8
중심선
100
AcDbLine
 10
2.268634060543552
 20
16.24717430164393
 30
0.0
 11
0.1404042013395286
 21
13.71084872107135
 31
0.0
  0
LINE
  5
91
330
82
100
AcDbEntity
  8
중심선
100
AcDbLine
 10
7.28139805157953
 20
16.24717430164393
 30
0.0
 11
10.72767329541681
 21
16.24717430164393
 31
0.0
  0
LINE
  5
92
330
82
100
AcDbEntity
  8
중심선
100
AcDbLine
 10
12.29416204261559
 20
16.24717430164393
 30
0.0
 11
15.74043728645272
 21
16.24717430164393
 31
0.0
  0
LINE
  5
93
330
82
100
AcDbEntity
  8
중심선
100
AcDbLine
 10
19.22036997980202
 20
11.08717430171403
 30
0.0
 11
23.66174974927406
 21
11.08717430171406
 31
0.0
  0
LINE
  5
94
330
82
100
AcDbEntity
  8
중심선
100
AcDbLine
 10
19.22039502424796
 20
13.00717430171391
 30
0.0
 11
19.22036997980202
 21
11.08717430171403
 31
0.0
  0
LINE
  5
95
330
82
100
AcDbEntity
  8
중심선
100
AcDbLine
 10
19.22039502424796
 20
13.00717430171391
 30
0.0
 11
26.96566020931264
 21
13.00717430171391
 31
0.0
  0
LINE
  5
96
330
82
100
AcDbEntity
  8
중심선
100
AcDbLine
 10
22.22332737316547
 20
13.45928029700563
 30
0.0
 11
24.52862924686651
 21
15.39360700705356
 31
0.0
  0
ATTDEF
  5
98
330
82
100
AcDbEntity
  8
FORMAT
 62
     2
100
AcDbText
 10
-19.27858288401334
 20
2.075366912832191
 30
0.0
 40
4.233333333333333
  1
SEME610120104E [ 2 FLUTE ]
 41
0.75
  7
SLDTEXTSTYLE0
 11
-19.27858288401334
 21
-0.0412997538344756
 31
0.0
100
AcDbAttributeDefinition
  3

  2
AUTOATTR0
 70
     0
 74
     1
  0
ENDBLK
  5
84
330
82
100
AcDbEntity
  8
0
100
AcDbBlockEnd
  0
BLOCK
  5
DE
330
DD
100
AcDbEntity
  8
0
100
AcDbBlockBegin
  2
_D
 70
     0
 10
0.0
 20
0.0
 30
0.0
  3
_D
  1
_D
  0
SOLID
  5
E0
330
DD
100
AcDbEntity
  8
치수문자_일반주서
100
AcDbTrace
 10
-47.00250885508845
 20
2.001074928723889
 30
0.0
 11
-46.49450885508845
 21
5.303074928723889
 31
0.0
 12
-47.51050885508845
 22
5.303074928723889
 32
0.0
 13
-47.51050885508845
 23
5.303074928723889
 33
0.0
  0
SOLID
  5
E1
330
DD
100
AcDbEntity
  8
치수문자_일반주서
100
AcDbTrace
 10
-47.00250885508845
 20
-1.998925071276107
 30
0.0
 11
-47.51050885508845
 21
-5.300925071276106
 31
0.0
 12
-46.49450885508845
 22
-5.300925071276106
 32
0.0
 13
-46.49450885508845
 23
-5.300925071276106
 33
0.0
  0
LINE
  5
E2
330
DD
100
AcDbEntity
  8
치수문자_일반주서
100
AcDbLine
 10
-35.50605083347638
 20
2.001074928723889
 30
0.0
 11
-48.00250885508845
 21
2.001074928723889
 31
0.0
  0
LINE
  5
E3
330
DD
100
AcDbEntity
  8
치수문자_일반주서
100
AcDbLine
 10
-35.50605083347638
 20
-1.998925071276107
 30
0.0
 11
-48.00250885508845
 21
-1.998925071276107
 31
0.0
  0
LINE
  5
E4
330
DD
100
AcDbEntity
  8
치수문자_일반주서
100
AcDbLine
 10
-47.00250885508845
 20
2.001074928723889
 30
0.0
 11
-47.00250885508845
 21
8.35107492872389
 31
0.0
  0
LINE
  5
E5
330
DD
100
AcDbEntity
  8
치수문자_일반주서
100
AcDbLine
 10
-47.00250885508845
 20
2.001074928723889
 30
0.0
 11
-47.00250885508845
 21
-1.998925071276107
 31
0.0
  0
LINE
  5
E6
330
DD
100
AcDbEntity
  8
치수문자_일반주서
100
AcDbLine
 10
-47.00250885508845
 20
-1.998925071276107
 30
0.0
 11
-47.00250885508845
 21
-8.348925071276106
 31
0.0
  0
MTEXT
  5
E7
330
DD
100
AcDbEntity
  8
치수문자_일반주서
100
AcDbMText
 10
-51.51424594429029
 20
-3.931199483639881
 30
0.0
 40
3.5
 41
0.0
 71
     1
 72
     1
  1
%%c
  7
SLDTEXTSTYLE0
 11
-7.044195017643634E-15
 21
1.0
 31
0.0
 73
     1
 44
1.0
  0
MTEXT
  5
E8
330
DD
100
AcDbEntity
  8
치수문자_일반주서
100
AcDbMText
 10
-51.56771812095018
 20
1.3472379147342
 30
0.0
 40
3.5
 41
0.0
 71
     1
 72
     1
  1
4
  7
SLDTEXTSTYLE0
 11
-7.044195017643634E-15
 21
1.0
 31
0.0
 73
     1
 44
1.0
  0
ENDBLK
  5
DF
330
DD
100
AcDbEntity
  8
0
100
AcDbBlockEnd
  0
BLOCK
  5
EC
330
EB
100
AcDbEntity
  8
0
100
AcDbBlockBegin
  2
_D_1
 70
     0
 10
0.0
 20
0.0
 30
0.0
  3
_D_1
  1
_D_1
  0
SOLID
  5
EE
330
EB
100
AcDbEntity
  8
치수문자_일반주서
100
AcDbTrace
 10
14.49394916652362
 20
19.00107492872356
 30
0.0
 11
17.79594916652361
 21
18.49307492872357
 31
0.0
 12
17.79594916652361
 22
19.50907492872356
 32
0.0
 13
17.79594916652361
 23
19.50907492872356
 33
0.0
  0
SOLID
  5
EF
330
EB
100
AcDbEntity
  8
치수문자_일반주서
100
AcDbTrace
 10
12.69394916652362
 20
19.00107492872356
 30
0.0
 11
9.391949166523617
 21
19.50907492872356
 31
0.0
 12
9.391949166523617
 22
18.49307492872357
 32
0.0
 13
9.391949166523617
 23
18.49307492872357
 33
0.0
  0
LINE
  5
F0
330
EB
100
AcDbEntity
  8
치수문자_일반주서
100
AcDbLine
 10
14.49394916652362
 20
1.501074928723894
 30
0.0
 11
14.49394916652362
 21
20.00107492872356
 31
0.0
  0
LINE
  5
F1
330
EB
100
AcDbEntity
  8
치수문자_일반주서
100
AcDbLine
 10
12.69394916652362
 20
1.475559519172859
 30
0.0
 11
12.69394916652362
 21
20.00107492872356
 31
0.0
  0
LINE
  5
F2
330
EB
100
AcDbEntity
  8
치수문자_일반주서
100
AcDbLine
 10
14.49394916652362
 20
19.00107492872356
 30
0.0
 11
20.98846897557538
 21
19.00107492872356
 31
0.0
  0
LINE
  5
F3
330
EB
100
AcDbEntity
  8
치수문자_일반주서
100
AcDbLine
 10
14.49394916652362
 20
19.00107492872356
 30
0.0
 11
12.69394916652362
 21
19.00107492872356
 31
0.0
  0
LINE
  5
F4
330
EB
100
AcDbEntity
  8
치수문자_일반주서
100
AcDbLine
 10
12.69394916652362
 20
19.00107492872356
 30
0.0
 11
6.343949166523616
 21
19.00107492872356
 31
0.0
  0
MTEXT
  5
F5
330
EB
100
AcDbEntity
  8
치수문자_일반주서
100
AcDbMText
 10
11.93707991466086
 20
23.51281184330246
 30
0.0
 40
3.5
 41
0.0
 71
     1
 72
     1
  1
1.80
  7
SLDTEXTSTYLE0
 73
     1
 44
1.0
  0
ENDBLK
  5
ED
330
EB
100
AcDbEntity
  8
0
100
AcDbBlockEnd
  0
BLOCK
  5
F9
330
F8
100
AcDbEntity
  8
0
100
AcDbBlockBegin
  2
_D_2
 70
     0
 10
0.0
 20
0.0
 30
0.0
  3
_D_2
  1
_D_2
  0
SOLID
  5
FB
330
F8
100
AcDbEntity
  8
치수문자_일반주서
100
AcDbTrace
 10
14.49394916652362
 20
41.05939943376818
 30
0.0
 11
11.19194916652362
 21
41.56739943376819
 31
0.0
 12
11.19194916652362
 22
40.55139943376818
 32
0.0
 13
11.19194916652362
 23
40.55139943376818
 33
0.0
  0
SOLID
  5
FC
330
F8
100
AcDbEntity
  8
치수문자_일반주서
100
AcDbTrace
 10
-35.50605083347638
 20
41.05939943376818
 30
0.0
 11
-32.20405083347638
 21
40.55139943376818
 31
0.0
 12
-32.20405083347638
 22
41.56739943376819
 32
0.0
 13
-32.20405083347638
 23
41.56739943376819
 33
0.0
  0
LINE
  5
FD
330
F8
100
AcDbEntity
  8
치수문자_일반주서
100
AcDbLine
 10
14.49394916652362
 20
1.501074928723894
 30
0.0
 11
14.49394916652362
 21
42.05939943376818
 31
0.0
  0
LINE
  5
FE
330
F8
100
AcDbEntity
  8
치수문자_일반주서
100
AcDbLine
 10
-35.50605083347638
 20
2.001074928723888
 30
0.0
 11
-35.50605083347638
 21
42.05939943376818
 31
0.0
  0
LINE
  5
FF
330
F8
100
AcDbEntity
  8
치수문자_일반주서
100
AcDbLine
 10
14.49394916652362
 20
41.05939943376818
 30
0.0
 11
-35.50605083347638
 21
41.05939943376818
 31
0.0
  0
MTEXT
  5
100
330
F8
100
AcDbEntity
  8
치수문자_일반주서
100
AcDbMText
 10
-13.09216202699921
 20
45.57113634834708
 30
0.0
 40
3.5
 41
0.0
 71
     1
 72
     1
  1
50
  7
SLDTEXTSTYLE0
 73
     1
 44
1.0
  0
ENDBLK
  5
FA
330
F8
100
AcDbEntity
  8
0
100
AcDbBlockEnd
  0
BLOCK
  5
103
330
102
100
AcDbEntity
  8
0
100
AcDbBlockBegin
  2
_D_3
 70
     0
 10
0.0
 20
0.0
 30
0.0
  3
_D_3
  1
_D_3
  0
SOLID
  5
105
330
102
100
AcDbEntity
  8
치수문자_일반주서
100
AcDbTrace
 10
14.49394916652476
 20
30.32107492872395
 30
0.0
 11
17.79594916652475
 21
29.81307492872382
 31
0.0
 12
17.79594916652478
 22
30.82907492872382
 32
0.0
 13
17.79594916652478
 23
30.82907492872382
 33
0.0
  0
SOLID
  5
106
330
102
100
AcDbEntity
  8
치수문자_일반주서
100
AcDbTrace
 10
10.2140453559571
 20
30.32107492872411
 30
0.0
 11
6.912045355957115
 21
30.82907492872424
 31
0.0
 12
6.912045355957076
 22
29.81307492872424
 32
0.0
 13
6.912045355957076
 23
29.81307492872424
 33
0.0
  0
LINE
  5
107
330
102
100
AcDbEntity
  8
치수문자_일반주서
100
AcDbLine
 10
14.49394916652365
 20
1.401074928723893
 30
0.0
 11
14.4939491665248
 21
31.32107492872394
 31
0.0
  0
LINE
  5
108
330
102
100
AcDbEntity
  8
치수문자_일반주서
100
AcDbLine
 10
10.21404535595599
 20
1.551074928723894
 30
0.0
 11
10.21404535595713
 21
31.32107492872411
 31
0.0
  0
LINE
  5
109
330
102
100
AcDbEntity
  8
치수문자_일반주서
100
AcDbLine
 10
14.49394916652476
 20
30.32107492872395
 30
0.0
 11
55.42440269528607
 21
30.32107492872239
 31
0.0
  0
LINE
  5
10A
330
102
100
AcDbEntity
  8
치수문자_일반주서
100
AcDbLine
 10
14.49394916652476
 20
30.32107492872395
 30
0.0
 11
10.2140453559571
 21
30.32107492872411
 31
0.0
  0
LINE
  5
10B
330
102
100
AcDbEntity
  8
치수문자_일반주서
100
AcDbLine
 10
10.2140453559571
 20
30.32107492872411
 30
0.0
 11
3.864045355957095
 21
30.32107492872435
 31
0.0
  0
MTEXT
  5
10C
330
102
100
AcDbEntity
  8
치수문자_일반주서
100
AcDbMText
 10
46.3730136343715
 20
34.83281184330144
 30
0.0
 40
3.5
 41
0.0
 71
     1
 72
     1
  1
4.28
  7
SLDTEXTSTYLE0
 73
     1
 44
1.0
  0
ENDBLK
  5
104
330
102
100
AcDbEntity
  8
0
100
AcDbBlockEnd
  0
BLOCK
  5
110
330
10F
100
AcDbEntity
  8
0
100
AcDbBlockBegin
  2
_D_4
 70
     0
 10
0.0
 20
0.0
 30
0.0
  3
_D_4
  1
_D_4
  0
SOLID
  5
112
330
10F
100
AcDbEntity
  8
치수문자_일반주서
100
AcDbTrace
 10
48.25059833193547
 20
0.5010749287239555
 30
0.0
 11
48.75859833193546
 21
3.803074928723957
 31
0.0
 12
47.74259833193545
 22
3.803074928723953
 32
0.0
 13
47.74259833193545
 23
3.803074928723953
 33
0.0
  0
SOLID
  5
113
330
10F
100
AcDbEntity
  8
치수문자_일반주서
100
AcDbTrace
 10
48.25059833193547
 20
-0.4927529499587014
 30
0.0
 11
47.74259833193548
 21
-3.794752949958703
 31
0.0
 12
48.75859833193549
 22
-3.794752949958699
 32
0.0
 13
48.75859833193549
 23
-3.794752949958699
 33
0.0
  0
LINE
  5
114
330
10F
100
AcDbEntity
  8
치수문자_일반주서
100
AcDbLine
 10
31.39394916652361
 20
0.5010749287238977
 30
0.0
 11
49.25059833193547
 21
0.501074928723959
 31
0.0
  0
LINE
  5
115
330
10F
100
AcDbEntity
  8
치수문자_일반주서
100
AcDbLine
 10
31.39394916652362
 20
-0.4927529499587592
 30
0.0
 11
49.25059833193547
 21
-0.4927529499586979
 31
0.0
  0
LINE
  5
116
330
10F
100
AcDbEntity
  8
치수문자_일반주서
100
AcDbLine
 10
48.25059833193547
 20
0.5010749287239555
 30
0.0
 11
48.25059833193547
 21
6.851074928723955
 31
0.0
  0
LINE
  5
117
330
10F
100
AcDbEntity
  8
치수문자_일반주서
100
AcDbLine
 10
48.25059833193547
 20
0.5010749287239555
 30
0.0
 11
48.25059833193547
 21
-0.4927529499587014
 31
0.0
  0
LINE
  5
118
330
10F
100
AcDbEntity
  8
치수문자_일반주서
100
AcDbLine
 10
48.25059833193547
 20
-0.4927529499587014
 30
0.0
 11
48.25059833193547
 21
-9.549650260960954
 31
0.0
  0
MTEXT
  5
119
330
10F
100
AcDbEntity
  8
치수문자_일반주서
100
AcDbMText
 10
43.73886124273366
 20
-9.549650260960943
 30
0.0
 40
3.5
 41
0.0
 71
     1
 72
     1
  1
%%c
  7
SLDTEXTSTYLE0
 11
-1.059690869644414E-14
 21
1.0
 31
0.0
 73
     1
 44
1.0
  0
MTEXT
  5
11A
330
10F
100
AcDbEntity
  8
치수문자_일반주서
100
AcDbMText
 10
43.68538906607375
 20
-4.271212862586862
 30
0.0
 40
3.5
 41
0.0
 71
     1
 72
     1
  1
0.99
  7
SLDTEXTSTYLE0
 11
-1.059690869644414E-14
 21
1.0
 31
0.0
 73
     1
 44
1.0
  0
ENDBLK
  5
111
330
10F
100
AcDbEntity
  8
0
100
AcDbBlockEnd
  0
BLOCK
  5
11C
330
11B
100
AcDbEntity
  8
0
100
AcDbBlockBegin
  2
SW_DOWELSYMBOL_0
 70
     0
 10
0.0
 20
0.0
 30
0.0
  3
SW_DOWELSYMBOL_0
  1
SW_DOWELSYMBOL_0
  0
CIRCLE
  5
11E
330
11B
100
AcDbEntity
  8
외형선
 62
     0
100
AcDbCircle
 10
0.0
 20
0.0
 30
0.0
 40
3.000000000000004
  0
HATCH
  5
11F
330
11B
100
AcDbEntity
  8
0
  6
Continuous
 62
     0
370
    35
100
AcDbHatch
 10
0.0
 20
0.0
 30
0.0
210
0.0
220
0.0
230
1.0
  2
SOLID
 70
     1
 71
     0
 91
        1
 92
        0
 93
        3
 72
     2
 10
0.0000000000000104
 20
0.0
 40
3.000000000000004
 50
0.0
 51
90.0
 73
     1
 72
     1
 10
0.0000000000000104
 20
3.000000000000004
 11
0.0000000000000104
 21
0.0
 72
     1
 10
0.0000000000000104
 20
0.0
 11
3.000000000000015
 21
0.0
 97
        0
 75
     0
 76
     1
 98
        1
 10
0.0
 20
0.0
  0
HATCH
  5
120
330
11B
100
AcDbEntity
  8
0
  6
Continuous
 62
     0
370
    35
100
AcDbHatch
 10
0.0
 20
0.0
 30
0.0
210
0.0
220
0.0
230
1.0
  2
SOLID
 70
     1
 71
     0
 91
        1
 92
        0
 93
        3
 72
     2
 10
0.0000000000000104
 20
0.0
 40
3.000000000000004
 50
180.0
 51
270.0000000000008
 73
     1
 72
     1
 10
0.0000000000000104
 20
-3.000000000000004
 11
0.0000000000000104
 21
0.0
 72
     1
 10
0.0000000000000104
 20
0.0
 11
-2.999999999999994
 21
0.0
 97
        0
 75
     0
 76
     1
 98
        1
 10
0.0
 20
0.0
  0
ENDBLK
  5
11D
330
11B
100
AcDbEntity
  8
0
100
AcDbBlockEnd
  0
BLOCK
  5
17F
330
17E
100
AcDbEntity
  8
0
100
AcDbBlockBegin
  2
*D9
 70
     1
 10
0.0
 20
0.0
 30
0.0
  3
*D9
  1
*D9
  0
LINE
  5
180
330
17E
100
AcDbEntity
  8
치수문자_일반주서
 62
     0
370
    -2
100
AcDbLine
 10
65.80895802161217
 20
7.760790055695054
 30
0.0
 11
65.80895802161217
 21
26.19829005569468
 31
0.0
  0
LINE
  5
181
330
17E
100
AcDbEntity
  8
치수문자_일반주서
 62
     0
370
    -2
100
AcDbLine
 10
64.00895802161199
 20
7.735274646144006
 30
0.0
 11
64.00895802161199
 21
26.19829005569468
 31
0.0
  0
LINE
  5
182
330
17E
100
AcDbEntity
  8
치수문자_일반주서
 62
     0
370
    -2
100
AcDbLine
 10
65.80895802161217
 20
26.19829005569468
 30
0.0
 11
80.72545802161217
 21
26.19829005569468
 31
0.0
  0
LINE
  5
183
330
17E
100
AcDbEntity
  8
치수문자_일반주서
 62
     0
370
    -2
100
AcDbLine
 10
65.80895802161217
 20
26.19829005569468
 30
0.0
 11
64.00895802161199
 21
26.19829005569468
 31
0.0
  0
LINE
  5
184
330
17E
100
AcDbEntity
  8
치수문자_일반주서
 62
     0
370
    -2
100
AcDbLine
 10
69.11095802161216
 20
26.19829005569468
 30
0.0
 11
72.41295802161216
 21
26.19829005569468
 31
0.0
  0
LINE
  5
185
330
17E
100
AcDbEntity
  8
치수문자_일반주서
 62
     0
370
    -2
100
AcDbLine
 10
60.70695802161199
 20
26.19829005569468
 30
0.0
 11
57.40495802161199
 21
26.19829005569468
 31
0.0
  0
SOLID
  5
186
330
17E
100
AcDbEntity
  8
치수문자_일반주서
 62
     0
100
AcDbTrace
 10
69.11095802161216
 20
26.74862338902802
 30
0.0
 11
69.11095802161216
 21
25.64795672236135
 31
0.0
 12
65.80895802161217
 22
26.19829005569468
 32
0.0
 13
65.80895802161217
 23
26.19829005569468
 33
0.0
  0
SOLID
  5
187
330
17E
100
AcDbEntity
  8
치수문자_일반주서
 62
     0
100
AcDbTrace
 10
60.70695802161199
 20
25.64795672236135
 30
0.0
 11
60.70695802161199
 21
26.74862338902802
 31
0.0
 12
64.00895802161199
 22
26.19829005569468
 32
0.0
 13
64.00895802161199
 23
26.19829005569468
 33
0.0
  0
MTEXT
  5
188
330
17E
100
AcDbEntity
  8
치수문자_일반주서
 62
     0
100
AcDbMText
 10
76.56920802161217
 20
30.57329005569468
 30
0.0
 40
3.5
 41
0.0
 71
     2
 72
     1
  1
\A1;1.80
  7
SLDTEXTSTYLE0
 73
     1
 44
1.0
  0
POINT
  5
189
330
17E
100
AcDbEntity
  8
Defpoints
 62
     0
100
AcDbPoint
 10
65.80895802161217
 20
7.698290055695054
 30
0.0
  0
POINT
  5
18A
330
17E
100
AcDbEntity
  8
Defpoints
 62
     0
100
AcDbPoint
 10
64.00895802161199
 20
7.672774646144006
 30
0.0
  0
POINT
  5
1D6
330
17E
100
AcDbEntity
  8
Defpoints
 62
     0
100
AcDbPoint
 10
64.00895802161199
 20
26.19829005569468
 30
0.0
  0
ENDBLK
  5
18B
330
17E
100
AcDbEntity
  8
0
100
AcDbBlockEnd
  0
BLOCK
  5
18E
330
18D
100
AcDbEntity
  8
0
100
AcDbBlockBegin
  2
*D10
 70
     1
 10
0.0
 20
0.0
 30
0.0
  3
*D10
  1
*D10
  0
LINE
  5
18F
330
18D
100
AcDbEntity
  8
치수문자_일반주서
 62
     0
370
    -2
100
AcDbLine
 10
65.80895802161217
 20
7.760790055695054
 30
0.0
 11
65.80895802161217
 21
48.25661456073934
 31
0.0
  0
LINE
  5
190
330
18D
100
AcDbEntity
  8
치수문자_일반주서
 62
     0
370
    -2
100
AcDbLine
 10
15.80895802161217
 20
8.260790055695026
 30
0.0
 11
15.80895802161217
 21
48.25661456073934
 31
0.0
  0
LINE
  5
191
330
18D
100
AcDbEntity
  8
치수문자_일반주서
 62
     0
370
    -2
100
AcDbLine
 10
62.50695802161217
 20
48.25661456073934
 30
0.0
 11
19.11095802161217
 21
48.25661456073934
 31
0.0
  0
SOLID
  5
192
330
18D
100
AcDbEntity
  8
치수문자_일반주서
 62
     0
100
AcDbTrace
 10
62.50695802161217
 20
47.706281227406
 30
0.0
 11
62.50695802161217
 21
48.80694789407267
 31
0.0
 12
65.80895802161217
 22
48.25661456073934
 32
0.0
 13
65.80895802161217
 23
48.25661456073934
 33
0.0
  0
SOLID
  5
193
330
18D
100
AcDbEntity
  8
치수문자_일반주서
 62
     0
100
AcDbTrace
 10
19.11095802161217
 20
48.80694789407267
 30
0.0
 11
19.11095802161217
 21
47.706281227406
 31
0.0
 12
15.80895802161217
 22
48.25661456073934
 32
0.0
 13
15.80895802161217
 23
48.25661456073934
 33
0.0
  0
MTEXT
  5
194
330
18D
100
AcDbEntity
  8
치수문자_일반주서
 62
     0
100
AcDbMText
 10
40.80895802161217
 20
52.63161456073934
 30
0.0
 40
3.5
 41
0.0
 71
     2
 72
     1
  1
\A1;50
  7
SLDTEXTSTYLE0
 73
     1
 44
1.0
  0
POINT
  5
195
330
18D
100
AcDbEntity
  8
Defpoints
 62
     0
100
AcDbPoint
 10
65.80895802161217
 20
7.698290055695054
 30
0.0
  0
POINT
  5
196
330
18D
100
AcDbEntity
  8
Defpoints
 62
     0
100
AcDbPoint
 10
15.80895802161217
 20
8.198290055695026
 30
0.0
  0
POINT
  5
197
330
18D
100
AcDbEntity
  8
Defpoints
 62
     0
100
AcDbPoint
 10
15.80895802161217
 20
48.25661456073934
 30
0.0
  0
ENDBLK
  5
198
330
18D
100
AcDbEntity
  8
0
100
AcDbBlockEnd
  0
BLOCK
  5
19B
330
19A
100
AcDbEntity
  8
0
100
AcDbBlockBegin
  2
*D11
 70
     1
 10
0.0
 20
0.0
 30
0.0
  3
*D11
  1
*D11
  0
LINE
  5
19C
330
19A
100
AcDbEntity
  8
치수문자_일반주서
 62
     0
370
    -2
100
AcDbLine
 10
65.80895802161217
 20
7.759968173630739
 30
0.0
 11
65.80895802161217
 21
37.51829005569371
 31
0.0
  0
LINE
  5
19D
330
19A
100
AcDbEntity
  8
치수문자_일반주서
 62
     0
370
    -2
100
AcDbLine
 10
61.80895802161217
 20
7.835790055695043
 30
0.0
 11
61.80895802161217
 21
37.51829005569371
 31
0.0
  0
LINE
  5
19E
330
19A
100
AcDbEntity
  8
치수문자_일반주서
 62
     0
370
    -2
100
AcDbLine
 10
65.80895802161217
 20
37.51829005569371
 30
0.0
 11
61.80895802161217
 21
37.51829005569371
 31
0.0
  0
LINE
  5
19F
330
19A
100
AcDbEntity
  8
치수문자_일반주서
 62
     0
370
    -2
100
AcDbLine
 10
69.11095802161216
 20
37.51829005569371
 30
0.0
 11
72.41295802161216
 21
37.51829005569371
 31
0.0
  0
LINE
  5
1A0
330
19A
100
AcDbEntity
  8
치수문자_일반주서
 62
     0
370
    -2
100
AcDbLine
 10
58.50695802161217
 20
37.51829005569371
 30
0.0
 11
55.20495802161217
 21
37.51829005569371
 31
0.0
  0
SOLID
  5
1A1
330
19A
100
AcDbEntity
  8
치수문자_일반주서
 62
     0
100
AcDbTrace
 10
69.11095802161216
 20
38.06862338902705
 30
0.0
 11
69.11095802161216
 21
36.96795672236038
 31
0.0
 12
65.80895802161217
 22
37.51829005569371
 32
0.0
 13
65.80895802161217
 23
37.51829005569371
 33
0.0
  0
SOLID
  5
1A2
330
19A
100
AcDbEntity
  8
치수문자_일반주서
 62
     0
100
AcDbTrace
 10
58.50695802161217
 20
36.96795672236038
 30
0.0
 11
58.50695802161217
 21
38.06862338902705
 31
0.0
 12
61.80895802161217
 22
37.51829005569371
 32
0.0
 13
61.80895802161217
 23
37.51829005569371
 33
0.0
  0
MTEXT
  5
1A3
330
19A
100
AcDbEntity
  8
치수문자_일반주서
 62
     0
100
AcDbMText
 10
63.80895802161217
 20
41.89329005569371
 30
0.0
 40
3.5
 41
0.0
 71
     2
 72
     1
  1
\A1;4
  7
SLDTEXTSTYLE0
 73
     1
 44
1.0
  0
POINT
  5
1A4
330
19A
100
AcDbEntity
  8
Defpoints
 62
     0
100
AcDbPoint
 10
65.80895802161217
 20
7.697468173630739
 30
0.0
  0
POINT
  5
1A5
330
19A
100
AcDbEntity
  8
Defpoints
 62
     0
100
AcDbPoint
 10
61.80895802161217
 20
7.773290055695043
 30
0.0
  0
POINT
  5
1A6
330
19A
100
AcDbEntity
  8
Defpoints
 62
     0
100
AcDbPoint
 10
61.80895802161217
 20
37.51829005569371
 30
0.0
  0
ENDBLK
  5
1A7
330
19A
100
AcDbEntity
  8
0
100
AcDbBlockEnd
  0
BLOCK
  5
1AA
330
1A9
100
AcDbEntity
  8
0
100
AcDbBlockBegin
  2
*D12
 70
     1
 10
0.0
 20
0.0
 30
0.0
  3
*D12
  1
*D12
  0
LINE
  5
1AB
330
1A9
100
AcDbEntity
  8
치수문자_일반주서
 62
     0
370
    -2
100
AcDbLine
 10
65.87145802161217
 20
7.801076949746431
 30
0.0
 11
83.56560718702394
 21
7.801076949746498
 31
0.0
  0
LINE
  5
1AC
330
1A9
100
AcDbEntity
  8
치수문자_일반주서
 62
     0
370
    -2
100
AcDbLine
 10
65.77145802161203
 20
6.603999999999928
 30
0.0
 11
83.56560718702394
 21
6.603999999999996
 31
0.0
  0
LINE
  5
1AD
330
1A9
100
AcDbEntity
  8
치수문자_일반주서
 62
     0
370
    -2
100
AcDbLine
 10
83.56560718702394
 20
7.801076949746498
 30
0.0
 11
83.56560718702394
 21
24.02775308218227
 31
0.0
  0
LINE
  5
1AE
330
1A9
100
AcDbEntity
  8
치수문자_일반주서
 62
     0
370
    -2
100
AcDbLine
 10
83.56560718702394
 20
7.801076949746498
 30
0.0
 11
83.56560718702394
 21
6.603999999999996
 31
0.0
  0
LINE
  5
1AF
330
1A9
100
AcDbEntity
  8
치수문자_일반주서
 62
     0
370
    -2
100
AcDbLine
 10
83.56560718702394
 20
11.1030769497465
 30
0.0
 11
83.56560718702394
 21
14.4050769497465
 31
0.0
  0
LINE
  5
1B0
330
1A9
100
AcDbEntity
  8
치수문자_일반주서
 62
     0
370
    -2
100
AcDbLine
 10
83.56560718702394
 20
3.301999999999996
 30
0.0
 11
83.56560718702394
 21
-0.0000000000000036
 31
0.0
  0
SOLID
  5
1B1
330
1A9
100
AcDbEntity
  8
치수문자_일반주서
 62
     0
100
AcDbTrace
 10
83.01527385369062
 20
11.1030769497465
 30
0.0
 11
84.11594052035727
 21
11.1030769497465
 31
0.0
 12
83.56560718702394
 22
7.801076949746498
 32
0.0
 13
83.56560718702394
 23
7.801076949746498
 33
0.0
  0
SOLID
  5
1B2
330
1A9
100
AcDbEntity
  8
치수문자_일반주서
 62
     0
100
AcDbTrace
 10
84.11594052035727
 20
3.301999999999996
 30
0.0
 11
83.01527385369062
 21
3.301999999999996
 31
0.0
 12
83.56560718702394
 22
6.603999999999996
 32
0.0
 13
83.56560718702394
 23
6.603999999999996
 33
0.0
  0
MTEXT
  5
1B3
330
1A9
100
AcDbEntity
  8
치수문자_일반주서
 62
     0
100
AcDbMText
 10
79.19060718702394
 20
19.65275308218227
 30
0.0
 40
3.5
 41
0.0
 71
     2
 72
     1
  1
\A1;%%c1.2
  7
SLDTEXTSTYLE0
 11
0.0
 21
1.0
 31
0.0
 73
     1
 44
1.0
  0
POINT
  5
1B4
330
1A9
100
AcDbEntity
  8
Defpoints
 62
     0
100
AcDbPoint
 10
65.80895802161217
 20
7.801076949746431
 30
0.0
  0
POINT
  5
1B5
330
1A9
100
AcDbEntity
  8
Defpoints
 62
     0
100
AcDbPoint
 10
65.70895802161203
 20
6.603999999999928
 30
0.0
  0
POINT
  5
1B6
330
1A9
100
AcDbEntity
  8
Defpoints
 62
     0
100
AcDbPoint
 10
83.56560718702394
 20
6.603999999999995
 30
0.0
  0
ENDBLK
  5
1B7
330
1A9
100
AcDbEntity
  8
0
100
AcDbBlockEnd
  0
BLOCK
  5
1C5
330
1C4
100
AcDbEntity
  8
0
100
AcDbBlockBegin
  2
*D13
 70
     1
 10
0.0
 20
0.0
 30
0.0
  3
*D13
  1
*D13
  0
LINE
  5
1C6
330
1C4
100
AcDbEntity
  8
치수문자_일반주서
 62
     0
370
    -2
100
AcDbLine
 10
16.80895802161217
 20
9.198290055695026
 30
0.0
 11
4.374999999999993
 21
9.19829005569498
 31
0.0
  0
LINE
  5
1C7
330
1C4
100
AcDbEntity
  8
치수문자_일반주서
 62
     0
370
    -2
100
AcDbLine
 10
16.80895802161217
 20
5.198290055695054
 30
0.0
 11
4.375000000000007
 21
5.198290055695008
 31
0.0
  0
LINE
  5
1C8
330
1C4
100
AcDbEntity
  8
치수문자_일반주서
 62
     0
370
    -2
100
AcDbLine
 10
4.375000000000004
 20
5.89629005569498
 30
0.0
 11
4.374999999999996
 21
8.500290055695007
 31
0.0
  0
SOLID
  5
1C9
330
1C4
100
AcDbEntity
  8
치수문자_일반주서
 62
     0
100
AcDbTrace
 10
4.925333333333338
 20
5.896290055694982
 30
0.0
 11
3.824666666666671
 21
5.896290055694978
 31
0.0
 12
4.374999999999993
 22
9.19829005569498
 32
0.0
 13
4.374999999999993
 23
9.19829005569498
 33
0.0
  0
SOLID
  5
1CA
330
1C4
100
AcDbEntity
  8
치수문자_일반주서
 62
     0
100
AcDbTrace
 10
3.824666666666662
 20
8.500290055695006
 30
0.0
 11
4.925333333333329
 21
8.50029005569501
 31
0.0
 12
4.375000000000007
 22
5.198290055695008
 32
0.0
 13
4.375000000000007
 23
5.198290055695008
 33
0.0
  0
MTEXT
  5
1CB
330
1C4
100
AcDbEntity
  8
치수문자_일반주서
 62
     0
100
AcDbMText
 10
0.0
 20
7.198290055695038
 30
0.0
 40
3.5
 41
0.0
 71
     2
 72
     1
  1
\A1;%%c4
  7
SLDTEXTSTYLE0
 11
-3.552713678800525E-15
 21
1.0
 31
0.0
 73
     1
 44
1.0
  0
POINT
  5
1CC
330
1C4
100
AcDbEntity
  8
Defpoints
 62
     0
100
AcDbPoint
 10
16.87145802161217
 20
9.198290055695026
 30
0.0
  0
POINT
  5
1CD
330
1C4
100
AcDbEntity
  8
Defpoints
 62
     0
100
AcDbPoint
 10
16.87145802161217
 20
5.198290055695054
 30
0.0
  0
POINT
  5
1CE
330
1C4
100
AcDbEntity
  8
Defpoints
 62
     0
100
AcDbPoint
 10
4.375
 20
5.198290055695007
 30
0.0
  0
ENDBLK
  5
1CF
330
1C4
100
AcDbEntity
  8
0
100
AcDbBlockEnd
  0
BLOCK
  5
1F2
330
1F1
100
AcDbEntity
  8
0
100
AcDbBlockBegin
  2
*D14
 70
     1
 10
0.0
 20
0.0
 30
0.0
  3
*D14
  1
*D14
  0
LINE
  5
1F4
330
1F1
100
AcDbEntity
  8
치수문자_일반주서
 62
     0
370
    -2
100
AcDbLine
 10
9.31817240078567
 20
0.5625000000000284
 30
0.0
 11
9.31817240078567
 21
18.99999999999966
 31
0.0
  0
LINE
  5
1F5
330
1F1
100
AcDbEntity
  8
치수문자_일반주서
 62
     0
370
    -2
100
AcDbLine
 10
7.518172400785488
 20
0.5369845904489807
 30
0.0
 11
7.518172400785488
 21
18.99999999999966
 31
0.0
  0
LINE
  5
1F6
330
1F1
100
AcDbEntity
  8
치수문자_일반주서
 62
     0
370
    -2
100
AcDbLine
 10
9.31817240078567
 20
18.99999999999966
 30
0.0
 11
24.23467240078567
 21
18.99999999999966
 31
0.0
  0
LINE
  5
1F7
330
1F1
100
AcDbEntity
  8
치수문자_일반주서
 62
     0
370
    -2
100
AcDbLine
 10
9.31817240078567
 20
18.99999999999966
 30
0.0
 11
7.518172400785488
 21
18.99999999999966
 31
0.0
  0
LINE
  5
1F8
330
1F1
100
AcDbEntity
  8
치수문자_일반주서
 62
     0
370
    -2
100
AcDbLine
 10
12.62017240078567
 20
18.99999999999966
 30
0.0
 11
15.92217240078567
 21
18.99999999999966
 31
0.0
  0
LINE
  5
1F9
330
1F1
100
AcDbEntity
  8
치수문자_일반주서
 62
     0
370
    -2
100
AcDbLine
 10
4.216172400785489
 20
18.99999999999966
 30
0.0
 11
0.914172400785489
 21
18.99999999999966
 31
0.0
  0
SOLID
  5
1FA
330
1F1
100
AcDbEntity
  8
치수문자_일반주서
 62
     0
100
AcDbTrace
 10
12.62017240078567
 20
19.55033333333299
 30
0.0
 11
12.62017240078567
 21
18.44966666666632
 31
0.0
 12
9.31817240078567
 22
18.99999999999966
 32
0.0
 13
9.31817240078567
 23
18.99999999999966
 33
0.0
  0
SOLID
  5
1FB
330
1F1
100
AcDbEntity
  8
치수문자_일반주서
 62
     0
100
AcDbTrace
 10
4.216172400785489
 20
18.44966666666632
 30
0.0
 11
4.216172400785489
 21
19.55033333333299
 31
0.0
 12
7.518172400785488
 22
18.99999999999966
 32
0.0
 13
7.518172400785488
 23
18.99999999999966
 33
0.0
  0
MTEXT
  5
1FC
330
1F1
100
AcDbEntity
  8
치수문자_일반주서
 62
     0
100
AcDbMText
 10
20.07842240078567
 20
23.37499999999966
 30
0.0
 40
3.5
 41
0.0
 71
     2
 72
     1
  1
\A1;1.80
  7
SLDTEXTSTYLE0
 73
     1
 44
1.0
  0
POINT
  5
1FD
330
1F1
100
AcDbEntity
  8
Defpoints
 62
     0
100
AcDbPoint
 10
9.31817240078567
 20
0.5000000000000284
 30
0.0
  0
POINT
  5
1FE
330
1F1
100
AcDbEntity
  8
Defpoints
 62
     0
100
AcDbPoint
 10
7.518172400785488
 20
0.4744845904489807
 30
0.0
  0
POINT
  5
1FF
330
1F1
100
AcDbEntity
  8
Defpoints
 62
     0
100
AcDbPoint
 10
7.518172400785488
 20
18.99999999999966
 30
0.0
  0
ENDBLK
  5
1F3
330
1F1
100
AcDbEntity
  8
0
100
AcDbBlockEnd
  0
BLOCK
  5
201
330
200
100
AcDbEntity
  8
0
100
AcDbBlockBegin
  2
*D15
 70
     1
 10
0.0
 20
0.0
 30
0.0
  3
*D15
  1
*D15
  0
LINE
  5
203
330
200
100
AcDbEntity
  8
치수문자_일반주서
 62
     0
370
    -2
100
AcDbLine
 10
9.31817240078567
 20
0.5625000000000284
 30
0.0
 11
9.31817240078567
 21
41.05832450504431
 31
0.0
  0
LINE
  5
204
330
200
100
AcDbEntity
  8
치수문자_일반주서
 62
     0
370
    -2
100
AcDbLine
 10
-40.68182759921433
 20
1.0625
 30
0.0
 11
-40.68182759921433
 21
41.05832450504431
 31
0.0
  0
LINE
  5
205
330
200
100
AcDbEntity
  8
치수문자_일반주서
 62
     0
370
    -2
100
AcDbLine
 10
6.016172400785671
 20
41.05832450504431
 30
0.0
 11
-37.37982759921433
 21
41.05832450504431
 31
0.0
  0
SOLID
  5
206
330
200
100
AcDbEntity
  8
치수문자_일반주서
 62
     0
100
AcDbTrace
 10
6.016172400785671
 20
40.50799117171098
 30
0.0
 11
6.016172400785671
 21
41.60865783837765
 31
0.0
 12
9.31817240078567
 22
41.05832450504431
 32
0.0
 13
9.31817240078567
 23
41.05832450504431
 33
0.0
  0
SOLID
  5
207
330
200
100
AcDbEntity
  8
치수문자_일반주서
 62
     0
100
AcDbTrace
 10
-37.37982759921433
 20
41.60865783837765
 30
0.0
 11
-37.37982759921433
 21
40.50799117171098
 31
0.0
 12
-40.68182759921433
 22
41.05832450504431
 32
0.0
 13
-40.68182759921433
 23
41.05832450504431
 33
0.0
  0
MTEXT
  5
208
330
200
100
AcDbEntity
  8
치수문자_일반주서
 62
     0
100
AcDbMText
 10
-15.68182759921433
 20
45.43332450504431
 30
0.0
 40
3.5
 41
0.0
 71
     2
 72
     1
  1
\A1;50
  7
SLDTEXTSTYLE0
 73
     1
 44
1.0
  0
POINT
  5
209
330
200
100
AcDbEntity
  8
Defpoints
 62
     0
100
AcDbPoint
 10
9.31817240078567
 20
0.5000000000000284
 30
0.0
  0
POINT
  5
20A
330
200
100
AcDbEntity
  8
Defpoints
 62
     0
100
AcDbPoint
 10
-40.68182759921433
 20
1.0
 30
0.0
  0
POINT
  5
20B
330
200
100
AcDbEntity
  8
Defpoints
 62
     0
100
AcDbPoint
 10
-40.68182759921433
 20
41.05832450504431
 30
0.0
  0
ENDBLK
  5
202
330
200
100
AcDbEntity
  8
0
100
AcDbBlockEnd
  0
BLOCK
  5
20D
330
20C
100
AcDbEntity
  8
0
100
AcDbBlockBegin
  2
*D16
 70
     1
 10
0.0
 20
0.0
 30
0.0
  3
*D16
  1
*D16
  0
LINE
  5
20F
330
20C
100
AcDbEntity
  8
치수문자_일반주서
 62
     0
370
    -2
100
AcDbLine
 10
9.31817240078567
 20
0.5616781179357133
 30
0.0
 11
9.31817240078567
 21
30.31999999999869
 31
0.0
  0
LINE
  5
210
330
20C
100
AcDbEntity
  8
치수문자_일반주서
 62
     0
370
    -2
100
AcDbLine
 10
5.31817240078567
 20
0.637500000000017
 30
0.0
 11
5.31817240078567
 21
30.31999999999869
 31
0.0
  0
LINE
  5
211
330
20C
100
AcDbEntity
  8
치수문자_일반주서
 62
     0
370
    -2
100
AcDbLine
 10
9.31817240078567
 20
30.31999999999869
 30
0.0
 11
5.31817240078567
 21
30.31999999999869
 31
0.0
  0
LINE
  5
212
330
20C
100
AcDbEntity
  8
치수문자_일반주서
 62
     0
370
    -2
100
AcDbLine
 10
12.62017240078567
 20
30.31999999999869
 30
0.0
 11
15.92217240078567
 21
30.31999999999869
 31
0.0
  0
LINE
  5
213
330
20C
100
AcDbEntity
  8
치수문자_일반주서
 62
     0
370
    -2
100
AcDbLine
 10
2.016172400785671
 20
30.31999999999869
 30
0.0
 11
-1.285827599214329
 21
30.31999999999869
 31
0.0
  0
SOLID
  5
214
330
20C
100
AcDbEntity
  8
치수문자_일반주서
 62
     0
100
AcDbTrace
 10
12.62017240078567
 20
30.87033333333202
 30
0.0
 11
12.62017240078567
 21
29.76966666666535
 31
0.0
 12
9.31817240078567
 22
30.31999999999869
 32
0.0
 13
9.31817240078567
 23
30.31999999999869
 33
0.0
  0
SOLID
  5
215
330
20C
100
AcDbEntity
  8
치수문자_일반주서
 62
     0
100
AcDbTrace
 10
2.016172400785671
 20
29.76966666666535
 30
0.0
 11
2.016172400785671
 21
30.87033333333202
 31
0.0
 12
5.31817240078567
 22
30.31999999999869
 32
0.0
 13
5.31817240078567
 23
30.31999999999869
 33
0.0
  0
MTEXT
  5
216
330
20C
100
AcDbEntity
  8
치수문자_일반주서
 62
     0
100
AcDbMText
 10
7.31817240078567
 20
34.69499999999869
 30
0.0
 40
3.5
 41
0.0
 71
     2
 72
     1
  1
\A1;4
  7
SLDTEXTSTYLE0
 73
     1
 44
1.0
  0
POINT
  5
217
330
20C
100
AcDbEntity
  8
Defpoints
 62
     0
100
AcDbPoint
 10
9.31817240078567
 20
0.4991781179357133
 30
0.0
  0
POINT
  5
218
330
20C
100
AcDbEntity
  8
Defpoints
 62
     0
100
AcDbPoint
 10
5.31817240078567
 20
0.575000000000017
 30
0.0
  0
POINT
  5
219
330
20C
100
AcDbEntity
  8
Defpoints
 62
     0
100
AcDbPoint
 10
5.31817240078567
 20
30.31999999999869
 30
0.0
  0
ENDBLK
  5
20E
330
20C
100
AcDbEntity
  8
0
100
AcDbBlockEnd
  0
BLOCK
  5
21B
330
21A
100
AcDbEntity
  8
0
100
AcDbBlockBegin
  2
*D17
 70
     1
 10
0.0
 20
0.0
 30
0.0
  3
*D17
  1
*D17
  0
LINE
  5
21D
330
21A
100
AcDbEntity
  8
치수문자_일반주서
 62
     0
370
    -2
100
AcDbLine
 10
9.38067240078567
 20
0.6027868940514056
 30
0.0
 11
27.07482156619748
 21
0.6027868940514711
 31
0.0
  0
LINE
  5
21E
330
21A
100
AcDbEntity
  8
치수문자_일반주서
 62
     0
370
    -2
100
AcDbLine
 10
9.280672400785534
 20
-0.5942900556950972
 30
0.0
 11
27.07482156619748
 21
-0.5942900556950299
 31
0.0
  0
LINE
  5
21F
330
21A
100
AcDbEntity
  8
치수문자_일반주서
 62
     0
370
    -2
100
AcDbLine
 10
27.07482156619748
 20
0.6027868940514711
 30
0.0
 11
27.07482156619743
 21
16.82946302648725
 31
0.0
  0
LINE
  5
220
330
21A
100
AcDbEntity
  8
치수문자_일반주서
 62
     0
370
    -2
100
AcDbLine
 10
27.07482156619748
 20
0.6027868940514711
 30
0.0
 11
27.07482156619748
 21
-0.5942900556950299
 31
0.0
  0
LINE
  5
221
330
21A
100
AcDbEntity
  8
치수문자_일반주서
 62
     0
370
    -2
100
AcDbLine
 10
27.07482156619747
 20
3.904786894051471
 30
0.0
 11
27.07482156619746
 21
7.20678689405147
 31
0.0
  0
LINE
  5
222
330
21A
100
AcDbEntity
  8
치수문자_일반주서
 62
     0
370
    -2
100
AcDbLine
 10
27.07482156619749
 20
-3.89629005569503
 30
0.0
 11
27.0748215661975
 21
-7.198290055695029
 31
0.0
  0
SOLID
  5
223
330
21A
100
AcDbEntity
  8
치수문자_일반주서
 62
     0
100
AcDbTrace
 10
26.52448823286413
 20
3.904786894051469
 30
0.0
 11
27.6251548995308
 21
3.904786894051473
 31
0.0
 12
27.07482156619748
 22
0.6027868940514711
 32
0.0
 13
27.07482156619748
 23
0.6027868940514711
 33
0.0
  0
SOLID
  5
224
330
21A
100
AcDbEntity
  8
치수문자_일반주서
 62
     0
100
AcDbTrace
 10
27.62515489953083
 20
-3.896290055695028
 30
0.0
 11
26.52448823286416
 21
-3.896290055695031
 31
0.0
 12
27.07482156619748
 22
-0.5942900556950299
 32
0.0
 13
27.07482156619748
 23
-0.5942900556950299
 33
0.0
  0
MTEXT
  5
225
330
21A
100
AcDbEntity
  8
치수문자_일반주서
 62
     0
100
AcDbMText
 10
22.69982156619744
 20
12.45446302648723
 30
0.0
 40
3.5
 41
0.0
 71
     2
 72
     1
  1
\A1;%%c1.2
  7
SLDTEXTSTYLE0
 11
-2.967823981200905E-15
 21
1.0
 31
0.0
 73
     1
 44
1.0
  0
POINT
  5
226
330
21A
100
AcDbEntity
  8
Defpoints
 62
     0
100
AcDbPoint
 10
9.31817240078567
 20
0.6027868940514054
 30
0.0
  0
POINT
  5
227
330
21A
100
AcDbEntity
  8
Defpoints
 62
     0
100
AcDbPoint
 10
9.218172400785534
 20
-0.5942900556950974
 30
0.0
  0
POINT
  5
228
330
21A
100
AcDbEntity
  8
Defpoints
 62
     0
100
AcDbPoint
 10
27.07482156619744
 20
-0.5942900556950307
 30
0.0
  0
ENDBLK
  5
21C
330
21A
100
AcDbEntity
  8
0
100
AcDbBlockEnd
  0
BLOCK
  5
22A
330
229
100
AcDbEntity
  8
0
100
AcDbBlockBegin
  2
*D18
 70
     1
 10
0.0
 20
0.0
 30
0.0
  3
*D18
  1
*D18
  0
LINE
  5
22C
330
229
100
AcDbEntity
  8
치수문자_일반주서
 62
     0
370
    -2
100
AcDbLine
 10
-39.68182759921433
 20
2.0
 30
0.0
 11
-52.11578562082651
 21
1.999999999999953
 31
0.0
  0
LINE
  5
22D
330
229
100
AcDbEntity
  8
치수문자_일반주서
 62
     0
370
    -2
100
AcDbLine
 10
-39.68182759921433
 20
-1.999999999999972
 30
0.0
 11
-52.11578562082649
 21
-2.000000000000019
 31
0.0
  0
LINE
  5
22E
330
229
100
AcDbEntity
  8
치수문자_일반주서
 62
     0
370
    -2
100
AcDbLine
 10
-52.11578562082649
 20
-1.302000000000047
 30
0.0
 11
-52.11578562082651
 21
1.301999999999981
 31
0.0
  0
SOLID
  5
22F
330
229
100
AcDbEntity
  8
치수문자_일반주서
 62
     0
100
AcDbTrace
 10
-51.56545228749316
 20
-1.302000000000045
 30
0.0
 11
-52.66611895415983
 21
-1.302000000000049
 31
0.0
 12
-52.11578562082651
 22
1.999999999999953
 32
0.0
 13
-52.11578562082651
 23
1.999999999999953
 33
0.0
  0
SOLID
  5
230
330
229
100
AcDbEntity
  8
치수문자_일반주서
 62
     0
100
AcDbTrace
 10
-52.66611895415984
 20
1.301999999999979
 30
0.0
 11
-51.56545228749317
 21
1.301999999999983
 31
0.0
 12
-52.11578562082649
 22
-2.000000000000019
 32
0.0
 13
-52.11578562082649
 23
-2.000000000000019
 33
0.0
  0
MTEXT
  5
231
330
229
100
AcDbEntity
  8
치수문자_일반주서
 62
     0
100
AcDbMText
 10
-56.4907856208265
 20
0.000000000000013
 30
0.0
 40
3.5
 41
0.0
 71
     2
 72
     1
  1
\A1;%%c4
  7
SLDTEXTSTYLE0
 11
-3.552713678800527E-15
 21
1.0
 31
0.0
 73
     1
 44
1.0
  0
POINT
  5
232
330
229
100
AcDbEntity
  8
Defpoints
 62
     0
100
AcDbPoint
 10
-39.61932759921433
 20
2.0
 30
0.0
  0
POINT
  5
233
330
229
100
AcDbEntity
  8
Defpoints
 62
     0
100
AcDbPoint
 10
-39.61932759921433
 20
-1.999999999999972
 30
0.0
  0
POINT
  5
234
330
229
100
AcDbEntity
  8
Defpoints
 62
     0
100
AcDbPoint
 10
-52.11578562082649
 20
-2.000000000000018
 30
0.0
  0
ENDBLK
  5
22B
330
229
100
AcDbEntity
  8
0
100
AcDbBlockEnd
  0
BLOCK
  5
27C
330
27B
100
AcDbEntity
  8
0
100
AcDbBlockBegin
  2
*D20
 70
     1
 10
0.0
 20
0.0
 30
0.0
  3
*D20
  1
*D20
  0
LINE
  5
27D
330
27B
100
AcDbEntity
  8
치수문자_일반주서
 62
     0
370
    -2
100
AcDbLine
 10
2.901618257225467
 20
14.74959560041671
 30
0.0
 11
8.307925696429082
 21
0.0000000000000173
 31
0.0
  0
MTEXT
  5
27E
330
27B
100
AcDbEntity
  8
치수문자_일반주서
 62
     0
100
AcDbMText
 10
9.342206937014343
 20
4.805757107665095
 30
0.0
 40
3.5
 41
0.0
 71
     5
 72
     1
  1
\A1;R0.1
  7
SLDTEXTSTYLE0
 11
0.3441492885622496
 21
-0.9389149413988988
 31
0.0
 73
     1
 44
1.0
  0
LINE
  5
27F
330
27B
100
AcDbEntity
  8
치수문자_일반주서
 62
     0
370
    -2
100
AcDbLine
 10
1.730822377536697
 20
17.94378423105576
 30
0.0
 11
1.765237306392919
 21
17.84989273691588
 31
0.0
  0
SOLID
  5
280
330
27B
100
AcDbEntity
  8
치수문자_일반주서
 62
     0
100
AcDbTrace
 10
3.418334446641994
 20
14.93899242555547
 30
0.0
 11
2.38490206780894
 21
14.56019877527796
 31
0.0
 12
1.765237306392919
 22
17.84989273691588
 32
0.0
 13
1.765237306392919
 23
17.84989273691588
 33
0.0
  0
POINT
  5
281
330
27B
100
AcDbEntity
  8
Defpoints
 62
     0
100
AcDbPoint
 10
1.765237306392919
 20
17.84989273691588
 30
0.0
  0
POINT
  5
282
330
27B
100
AcDbEntity
  8
Defpoints
 62
     0
100
AcDbPoint
 10
1.730822377536697
 20
17.94378423105576
 30
0.0
  0
ENDBLK
  5
283
330
27B
100
AcDbEntity
  8
0
100
AcDbBlockEnd
  0
BLOCK
  5
2A8
330
2A7
100
AcDbEntity
  8
0
100
AcDbBlockBegin
  2
*D21
 70
     1
 10
0.0
 20
0.0
 30
0.0
  3
*D21
  1
*D21
  0
LINE
  5
2AA
330
2A7
100
AcDbEntity
  8
치수문자_일반주서
 62
     0
370
    -2
100
AcDbLine
 10
10.3889682804743
 20
-3.689938351848154
 30
0.0
 11
15.79527571967792
 21
-18.43953395226485
 31
0.0
  0
MTEXT
  5
2AB
330
2A7
100
AcDbEntity
  8
치수문자_일반주서
 62
     0
100
AcDbMText
 10
16.82955696026318
 20
-13.63377684459977
 30
0.0
 40
3.5
 41
0.0
 71
     5
 72
     1
  1
\A1;R0.1
  7
SLDTEXTSTYLE0
 11
0.3441492885622496
 21
-0.9389149413988988
 31
0.0
 73
     1
 44
1.0
  0
LINE
  5
2AC
330
2A7
100
AcDbEntity
  8
치수문자_일반주서
 62
     0
370
    -2
100
AcDbLine
 10
9.218172400785534
 20
-0.4957497212091084
 30
0.0
 11
9.252587329641756
 21
-0.5896412153489905
 31
0.0
  0
SOLID
  5
2AD
330
2A7
100
AcDbEntity
  8
치수문자_일반주서
 62
     0
100
AcDbTrace
 10
10.90568446989083
 20
-3.500541526709396
 30
0.0
 11
9.872252091057776
 21
-3.879335176986912
 31
0.0
 12
9.252587329641756
 22
-0.5896412153489905
 32
0.0
 13
9.252587329641756
 23
-0.5896412153489905
 33
0.0
  0
POINT
  5
2AE
330
2A7
100
AcDbEntity
  8
Defpoints
 62
     0
100
AcDbPoint
 10
9.252587329641756
 20
-0.5896412153489905
 30
0.0
  0
POINT
  5
2AF
330
2A7
100
AcDbEntity
  8
Defpoints
 62
     0
100
AcDbPoint
 10
9.218172400785534
 20
-0.4957497212091084
 30
0.0
  0
ENDBLK
  5
2A9
330
2A7
100
AcDbEntity
  8
0
100
AcDbBlockEnd
  0
ENDSEC
  0
SECTION
  2
ENTITIES
  0
INSERT
  5
D4
330
1F
100
AcDbEntity
  8
0
  6
Continuous
 62
     7
100
AcDbBlockReference
 66
     1
  2
블럭10
 10
-22.93944368806589
 20
-52.04609937292004
 30
0.0
  0
ATTRIB
  5
D5
330
D4
100
AcDbEntity
  8
FORMAT
 62
     2
100
AcDbText
 10
-42.21802657207924
 20
-49.97073246008785
 30
0.0
 40
4.233333333333333
  1
SEME610120104E [ 2 FLUTE ]
 41
0.75
  7
SLDTEXTSTYLE0
 11
-42.21802657207924
 21
-52.08739912675452
 31
0.0
100
AcDbAttribute
  2
AUTOATTR0
 70
     0
 74
     1
  0
SEQEND
  5
D6
330
D4
100
AcDbEntity
  8
0
  6
Continuous
 62
     7
  0
HATCH
  5
D7
330
1F
100
AcDbEntity
  8
중심선
100
AcDbHatch
 10
0.0
 20
0.0
 30
0.0
210
0.0
220
0.0
230
1.0
  2
SOLID
 70
     1
 71
     0
 91
        1
 92
        0
 93
        4
 72
     1
 10
-17.22453438368504
 20
-35.7989250712761
 11
-20.67080962752232
 21
-35.7989250712761
 72
     1
 10
-20.67080962752232
 20
-35.7989250712761
 11
-22.79903948672635
 21
-38.3352506518487
 72
     1
 10
-22.79903948672635
 20
-38.3352506518487
 11
-19.35273115777591
 21
-38.33521122254621
 72
     1
 10
-19.35273115777591
 20
-38.33521122254621
 11
-17.22453438368504
 21
-35.7989250712761
 97
        0
 75
     0
 76
     1
 98
        1
 10
0.0
 20
0.0
  0
HATCH
  5
D8
330
1F
100
AcDbEntity
  8
중심선
100
AcDbHatch
 10
0.0
 20
0.0
 30
0.0
210
0.0
220
0.0
230
1.0
  2
SOLID
 70
     1
 71
     0
 91
        1
 92
        0
 93
        4
 72
     1
 10
-12.21177039264909
 20
-35.7989250712761
 11
-15.65804563648637
 21
-35.7989250712761
 72
     1
 10
-15.65804563648637
 20
-35.7989250712761
 11
-20.18918364484376
 21
-41.19892507127612
 72
     1
 10
-20.18918364484376
 20
-41.19892507127612
 11
-16.74290840100648
 21
-41.19892507127612
 72
     1
 10
-16.74290840100648
 20
-41.19892507127612
 11
-12.21177039264909
 21
-35.7989250712761
 97
        0
 75
     0
 76
     1
 98
        1
 10
0.0
 20
0.0
  0
HATCH
  5
D9
330
1F
100
AcDbEntity
  8
중심선
100
AcDbHatch
 10
0.0
 20
0.0
 30
0.0
210
0.0
220
0.0
230
1.0
  2
SOLID
 70
     1
 71
     0
 91
        1
 92
        0
 93
        4
 72
     1
 10
-7.199006401613195
 20
-35.79892507127613
 11
-10.64528164545031
 21
-35.7989250712761
 72
     1
 10
-10.64528164545031
 20
-35.7989250712761
 11
-17.69371854733956
 21
-44.19892507127612
 72
     1
 10
-17.69371854733956
 20
-44.19892507127612
 11
-14.24744330350228
 21
-44.19892507127612
 72
     1
 10
-14.24744330350228
 20
-44.19892507127612
 11
-7.199006401613195
 21
-35.79892507127613
 97
        0
 75
     0
 76
     1
 98
        1
 10
0.0
 20
0.0
  0
HATCH
  5
DA
330
1F
100
AcDbEntity
  8
중심선
100
AcDbHatch
 10
0.0
 20
0.0
 30
0.0
210
0.0
220
0.0
230
1.0
  2
SOLID
 70
     1
 71
     0
 91
        1
 92
        0
 93
        6
 72
     3
 10
-2.399115970600996
 20
-39.99892507132738
 11
3.960054785062284
 21
1.540850780301639E-10
 40
0.3939339440162633
 50
17.09539180608433
 51
320.0019657685079
 73
     0
 72
     1
 10
-0.7161163149004002
 20
-38.58681907591441
 11
1.589185558800638
 21
-36.65249236586649
 72
     3
 10
-2.399115970653842
 20
-39.99892507127625
 11
6.600054785286829
 21
-1.249000902703301E-13
 40
0.6363583540795982
 50
39.99873849337408
 51
368.4976242363725
 73
     1
 72
     1
 10
4.026216521246767
 20
-39.03892507120613
 11
-3.71904866381792
 21
-39.0389250712061
 72
     1
 10
-3.71904866381792
 20
-39.0389250712061
 11
-3.719073708263854
 21
-40.95892507120602
 72
     1
 10
-3.719073708263854
 20
-40.95892507120602
 11
0.7223060612081831
 21
-40.95892507120599
 97
        0
 75
     0
 76
     1
 98
        1
 10
0.0
 20
0.0
  0
LINE
  5
1D8
330
1F
100
AcDbEntity
  8
0
  6
Continuous
 62
     4
370
    25
100
AcDbLine
 10
-39.68182759921433
 20
-2.0
 30
0.0
 11
0.0
 21
-1.999999999999972
 31
0.0
  0
LINE
  5
1D9
330
1F
100
AcDbEntity
  8
0
  6
Continuous
 62
     4
370
    25
100
AcDbLine
 10
0.0
 20
-2.0
 30
0.0
 11
5.31817240078567
 21
-0.5749999999999886
 31
0.0
  0
LINE
  5
1DA
330
1F
100
AcDbEntity
  8
0
  6
Continuous
 62
     4
370
    25
100
AcDbLine
 10
5.31817240078567
 20
0.575000000000017
 30
0.0
 11
0.0
 21
2.0
 31
0.0
  0
LINE
  5
1DB
330
1F
100
AcDbEntity
  8
0
  6
Continuous
 62
     4
370
    25
100
AcDbLine
 10
-39.68182759921433
 20
2.0
 30
0.0
 11
-40.68182759921433
 21
1.0
 31
0.0
  0
LINE
  5
1DC
330
1F
100
AcDbEntity
  8
0
  6
Continuous
 62
     4
370
    25
100
AcDbLine
 10
-40.68182759921433
 20
-1.0
 30
0.0
 11
-39.68182759921433
 21
-1.999999999999972
 31
0.0
  0
LINE
  5
1DD
330
1F
100
AcDbEntity
  8
0
  6
Continuous
 62
     4
370
    25
100
AcDbLine
 10
6.405897319329824
 20
0.575000000000017
 30
0.0
 11
6.106419028890741
 21
0.575000000000017
 31
0.0
  0
LINE
  5
1DE
330
1F
100
AcDbEntity
  8
0
  6
Continuous
 62
     4
370
    25
100
AcDbLine
 10
0.0
 20
2.0
 30
0.0
 11
0.0
 21
-2.0
 31
0.0
  0
LINE
  5
1DF
330
1F
100
AcDbEntity
  8
0
  6
Continuous
 62
     4
370
    25
100
AcDbLine
 10
-39.68182759921433
 20
2.0
 30
0.0
 11
-39.68182759921433
 21
-1.999999999999972
 31
0.0
  0
LINE
  5
1E0
330
1F
100
AcDbEntity
  8
0
  6
Continuous
 62
     4
370
    25
100
AcDbLine
 10
-40.68182759921433
 20
1.0
 30
0.0
 11
-40.68182759921433
 21
-1.0
 31
0.0
  0
LINE
  5
1E1
330
1F
100
AcDbEntity
  8
중심선
100
AcDbLine
 10
-43.68182759921433
 20
0.0
 30
0.0
 11
10.81817240078567
 21
0.0000000000000284
 31
0.0
  0
CIRCLE
  5
1E2
330
1F
100
AcDbEntity
  8
외형선
100
AcDbCircle
 10
0.0
 20
0.0
 30
0.0
 40
3.000000000000005
  0
DIMENSION
  5
1E3
330
1F
100
AcDbEntity
  8
치수문자_일반주서
100
AcDbDimension
  2
*D14
 10
7.518172400785488
 20
18.99999999999966
 30
0.0
 11
20.07842240078567
 21
18.99999999999966
 31
0.0
 70
   160
  1
<>
 71
     2
 42
1.800000000000182
  3
SLDDIMSTYLE1
100
AcDbAlignedDimension
 13
9.31817240078567
 23
0.5000000000000284
 33
0.0
 14
7.518172400785488
 24
0.4744845904489807
 34
0.0
100
AcDbRotatedDimension
  0
DIMENSION
  5
1E4
330
1F
100
AcDbEntity
  8
치수문자_일반주서
100
AcDbDimension
  2
*D15
 10
-40.68182759921433
 20
41.05832450504431
 30
0.0
 11
-15.68182759921433
 21
41.05832450504431
 31
0.0
 70
   160
  1
<>
 71
     2
 42
50.0
  3
SLDDIMSTYLE2
100
AcDbAlignedDimension
 13
9.31817240078567
 23
0.5000000000000284
 33
0.0
 14
-40.68182759921433
 24
1.0
 34
0.0
100
AcDbRotatedDimension
  0
DIMENSION
  5
1E5
330
1F
100
AcDbEntity
  8
치수문자_일반주서
100
AcDbDimension
  2
*D16
 10
5.31817240078567
 20
30.31999999999869
 30
0.0
 11
7.31817240078567
 21
30.31999999999869
 31
0.0
 70
   160
  1
<>
 71
     2
 42
4.000000000000003
  3
SLDDIMSTYLE0
100
AcDbAlignedDimension
 13
9.31817240078567
 23
0.4991781179357133
 33
0.0
 14
5.31817240078567
 24
0.575000000000017
 34
0.0
 50
-0.0000000000022354
100
AcDbRotatedDimension
1001
ACAD_DSTYLE_DIMFLIPARROW_SYMBOL
1070
   385
1070
     0
1001
ACAD_DSTYLE_DIMFLIPARROW_WHICH_SYMBOL
1070
   386
1070
     3
  0
DIMENSION
  5
1E6
330
1F
100
AcDbEntity
  8
치수문자_일반주서
100
AcDbDimension
  2
*D17
 10
27.07482156619748
 20
-0.5942900556950299
 30
0.0
 11
27.07482156619744
 21
12.45446302648725
 31
0.0
 70
   160
  1
%%c<>
 71
     2
 42
1.197076949746502
 52
-270.0
  3
SLDDIMSTYLE3
100
AcDbAlignedDimension
 13
9.31817240078567
 23
0.6027868940514054
 33
0.0
 14
9.218172400785534
 24
-0.5942900556950974
 34
0.0
 50
90.0000000000002
100
AcDbRotatedDimension
  0
INSERT
  5
1E7
330
1F
100
AcDbEntity
  8
외형선
100
AcDbBlockReference
  2
SW_DOWELSYMBOL_0
 10
0.0
 20
0.0
 30
0.0
  0
SPLINE
  5
1E8
330
1F
100
AcDbEntity
  8
0
  6
Continuous
 62
     4
370
    25
100
AcDbSpline
210
0.0
220
0.0
230
1.0
 70
     8
 71
     3
 72
     8
 73
     4
 74
     0
 42
0.000000001
 43
0.00000001
 40
0.9919025025174141
 40
0.9919025025174141
 40
0.9919025025174141
 40
0.9919025025174141
 40
1.0
 40
1.0
 40
1.0
 40
1.0
 10
7.178374412898165
 20
0.4230323189604519
 30
0.0
 10
7.177450007945936
 20
0.4227823437685458
 30
0.0
 10
7.176525605175812
 20
0.4225321851293984
 30
0.0
 10
7.175601202405687
 20
0.4222820264902225
 30
0.0
  0
SPLINE
  5
1E9
330
1F
100
AcDbEntity
  8
0
  6
Continuous
 62
     4
370
    25
100
AcDbSpline
210
0.0
220
0.0
230
1.0
 70
     8
 71
     3
 72
    10
 73
     6
 74
     0
 42
0.000000001
 43
0.00000001
 40
0.0
 40
0.0
 40
0.0
 40
0.0
 40
0.2808856180743955
 40
0.5614388463153236
 40
0.8725262038838131
 40
0.8725262038838131
 40
0.8725262038838131
 40
0.8725262038838131
 10
7.518172400785488
 20
0.27523357921703
 30
0.0
 10
7.414067768521818
 20
0.3237207874213368
 30
0.0
 10
7.205981697633206
 20
0.4206378258297434
 30
0.0
 10
6.882878360468339
 20
0.5206665622720266
 30
0.0
 10
6.66329136640843
 20
0.5687260823469842
 30
0.0
 10
6.547829688941192
 20
0.575000000000017
 30
0.0
  0
SPLINE
  5
1EA
330
1F
100
AcDbEntity
  8
0
  6
Continuous
 62
     4
370
    25
100
AcDbSpline
210
0.0
220
0.0
230
1.0
 70
     8
 71
     3
 72
     8
 73
     4
 74
     0
 42
0.000000001
 43
0.00000001
 40
0.0
 40
0.0
 40
0.0
 40
0.0
 40
0.8007464826570071
 40
0.8007464826570071
 40
0.8007464826570071
 40
0.8007464826570071
 10
7.518172405293399
 20
0.4723639254698639
 30
0.0
 10
7.382768736169282
 20
0.4678850654668452
 30
0.0
 10
7.247365067045166
 20
0.4634062054638264
 30
0.0
 10
6.843997387685022
 20
0.5256804899696874
 30
0.0
  0
SPLINE
  5
1EB
330
1F
100
AcDbEntity
  8
0
  6
Continuous
 62
     4
370
    25
100
AcDbSpline
210
0.0
220
0.0
230
1.0
 70
     8
 71
     3
 72
     9
 73
     5
 74
     0
 42
0.000000001
 43
0.00000001
 40
0.1058316734457883
 40
0.1058316734457883
 40
0.1058316734457883
 40
0.1058316734457883
 40
0.4596930318182466
 40
1.0
 40
1.0
 40
1.0
 40
1.0
 10
6.557122315084825
 20
-0.5749999999999886
 30
0.0
 10
6.852787845353532
 20
-0.4832478651293002
 30
0.0
 10
7.107687019023615
 20
-0.4641889517975244
 30
0.0
 10
7.363559694044852
 20
-0.4692847541128629
 30
0.0
 10
7.518172405293399
 20
-0.4723639254698355
 30
0.0
  0
DIMENSION
  5
1EC
330
1F
100
AcDbEntity
  8
치수문자_일반주서
100
AcDbDimension
  2
*D18
 10
-52.11578562082649
 20
-2.000000000000019
 30
0.0
 11
-52.1157856208265
 21
0.0000000000000284
 31
0.0
 70
   160
  1
%%c<>
 71
     2
 42
3.999999999999972
 52
-270.0
  3
SLDDIMSTYLE0
100
AcDbAlignedDimension
 13
-39.61932759921433
 23
2.0
 33
0.0
 14
-39.61932759921433
 24
-1.999999999999972
 34
0.0
 50
90.0000000000002
100
AcDbRotatedDimension
  0
LINE
  5
1ED
330
1F
100
AcDbEntity
  8
0
  6
Continuous
 62
     4
370
    25
100
AcDbLine
 10
0.0
 20
2.0
 30
0.0
 11
-39.68182759921433
 21
2.0
 31
0.0
  0
LINE
  5
1EE
330
1F
100
AcDbEntity
  8
0
  6
Continuous
 62
     4
370
    25
100
AcDbLine
 10
5.31817240078567
 20
0.575000000000017
 30
0.0
 11
5.31817240078567
 21
-0.5749999999999886
 31
0.0
  0
LINE
  5
1EF
330
1F
100
AcDbEntity
  8
0
  6
Continuous
 62
     4
370
    25
100
AcDbLine
 10
5.31817240078567
 20
-0.5749999999999886
 30
0.0
 11
6.557122315084825
 21
-0.5749999999999886
 31
0.0
  0
LINE
  5
1F0
330
1F
100
AcDbEntity
  8
0
  6
Continuous
 62
     4
370
    25
100
AcDbLine
 10
6.547829688941192
 20
0.575000000000017
 30
0.0
 11
5.31817240078567
 21
0.575000000000017
 31
0.0
  0
SPLINE
  5
287
330
1F
100
AcDbEntity
  8
0
  6
Continuous
 62
     1
370
    25
100
AcDbSpline
210
0.0
220
0.0
230
1.0
 70
     8
 71
     3
 72
     9
 73
     5
 74
     0
 42
0.000000001
 43
0.00000001
 40
0.0
 40
0.0
 40
0.0
 40
0.0
 40
0.5000385187101397
 40
0.9999999999999999
 40
0.9999999999999999
 40
0.9999999999999999
 40
0.9999999999999999
 10
7.764012728623584
 20
0.1524188340887633
 30
0.0
 10
7.736135893302617
 20
0.1656113630334914
 30
0.0
 10
7.680386517448824
 20
0.19199438844268
 30
0.0
 10
7.624675457007243
 20
0.2209621108446811
 30
0.0
 10
7.596822072704754
 20
0.235444856246346
 30
0.0
  0
LINE
  5
288
330
1F
100
AcDbEntity
  8
0
  6
Continuous
 62
     1
370
    25
100
AcDbLine
 10
7.564637880571127
 20
0.4753241607738801
 30
0.0
 11
7.532708320769871
 21
0.4748768871762934
 31
0.0
  0
SPLINE
  5
289
330
1F
100
AcDbEntity
  8
0
  6
Continuous
 62
     1
370
    25
100
AcDbSpline
210
0.0
220
0.0
230
1.0
 70
     8
 71
     3
 72
    13
 73
     9
 74
     0
 42
0.000000001
 43
0.00000001
 40
0.0
 40
0.0
 40
0.0
 40
0.0
 40
0.2118488848676254
 40
0.3738001693817642
 40
0.4869282129297213
 40
0.6022732170919354
 40
0.771464248258359
 40
1.0
 40
1.0
 40
1.0
 40
1.0
 10
9.063494732580693
 20
0.4060089960902928
 30
0.0
 10
8.991934255418073
 20
0.4014708840783499
 30
0.0
 10
8.865668221489159
 20
0.3934635394100496
 30
0.0
 10
8.702327278831035
 20
0.3928134209025984
 30
0.0
 10
8.569947504808397
 20
0.3962481401165689
 30
0.0
 10
8.434424353765507
 20
0.4037180429289151
 30
0.0
 10
8.260395029135225
 20
0.4191572749878674
 30
0.0
 10
8.124184436069754
 20
0.4386751609686144
 30
0.0
 10
8.04591716411528
 20
0.4498902335679702
 30
0.0
  0
SPLINE
  5
28A
330
1F
100
AcDbEntity
  8
0
  6
Continuous
 62
     1
370
    25
100
AcDbSpline
210
0.0
220
0.0
230
1.0
 70
     8
 71
     3
 72
    10
 73
     6
 74
     0
 42
0.000000001
 43
0.00000001
 40
0.0
 40
0.0
 40
0.0
 40
0.0
 40
0.5204511251081506
 40
0.9057547892297495
 40
1.0
 40
1.0
 40
1.0
 40
1.0
 10
8.04591716411528
 20
-0.4528095645964356
 30
0.0
 10
8.12418406343977
 20
-0.4416994798816063
 30
0.0
 10
8.26039400800778
 20
-0.422364307079107
 30
0.0
 10
8.409339481989264
 20
-0.408299212711114
 30
0.0
 10
8.481012101501847
 20
-0.4045736326199574
 30
0.0
 10
8.495097842259383
 20
-0.4038414484791701
 30
0.0
  0
LINE
  5
28B
330
1F
100
AcDbEntity
  8
0
  6
Continuous
 62
     4
370
    25
100
AcDbLine
 10
7.532727330287344
 20
-0.4777964844926714
 30
0.0
 11
7.564637880571127
 21
-0.4782434918023739
 31
0.0
  0
SPLINE
  5
28C
330
1F
100
AcDbEntity
  8
0
  6
Continuous
 62
     4
370
    25
100
AcDbSpline
210
0.0
220
0.0
230
1.0
 70
    24
 71
     3
 72
     8
 73
     4
 74
     0
 42
0.000000001
 43
0.00000001
 40
0.0
 40
0.0
 40
0.0
 40
0.0
 40
1.0
 40
1.0
 40
1.0
 40
1.0
 10
7.51817240078617
 20
0.1196805338974229
 30
0.0
 10
7.51817240078617
 20
0.1187360596097164
 30
0.0
 10
7.51817240078617
 20
0.097745786433336
 30
0.0
 10
7.51817240078617
 20
0.0657002465249548
 30
0.0
  0
SPLINE
  5
28D
330
1F
100
AcDbEntity
  8
0
  6
Continuous
 62
     4
370
    25
100
AcDbSpline
210
0.0
220
0.0
230
1.0
 70
    24
 71
     3
 72
    10
 73
     6
 74
     0
 42
0.000000001
 43
0.00000001
 40
0.0
 40
0.0
 40
0.0
 40
0.0
 40
0.5
 40
0.5
 40
1.0
 40
1.0
 40
1.0
 40
1.0
 10
7.518172400785488
 20
0.0657002465251821
 30
0.0
 10
7.518172400785488
 20
-0.0404465875558913
 30
0.0
 10
7.518172400785488
 20
-0.1521621109916111
 30
0.0
 10
7.518172400785488
 20
-0.3444588421571666
 30
0.0
 10
7.518172400785488
 20
-0.4235501182278085
 30
0.0
 10
7.518172400785488
 20
-0.4752832561639195
 30
0.0
  0
SPLINE
  5
28E
330
1F
100
AcDbEntity
  8
0
  6
Continuous
 62
     4
370
    25
100
AcDbSpline
210
0.0
220
0.0
230
1.0
 70
    24
 71
     3
 72
    12
 73
     8
 74
     0
 42
0.000000001
 43
0.00000001
 40
0.0
 40
0.0
 40
0.0
 40
0.0
 40
0.1405439503503492
 40
0.3651000088574296
 40
0.5961682082738772
 40
0.7958203202095079
 40
1.0
 40
1.0
 40
1.0
 40
1.0
 10
7.518172400785488
 20
0.4663685475699424
 30
0.0
 10
7.518172400785488
 20
0.4655179382531003
 30
0.0
 10
7.518172400785488
 20
0.4633082560267212
 30
0.0
 10
7.518172400785488
 20
0.4339941321143499
 30
0.0
 10
7.518172400785488
 20
0.3892743970392587
 30
0.0
 10
7.518172400785488
 20
0.3312110170184326
 30
0.0
 10
7.518172400785488
 20
0.2849452599442941
 30
0.0
 10
7.518172400785488
 20
0.2615530266971575
 30
0.0
  0
SPLINE
  5
28F
330
1F
100
AcDbEntity
  8
0
  6
Continuous
 62
     1
370
    25
100
AcDbSpline
210
0.0
220
0.0
230
1.0
 70
     8
 71
     3
 72
    16
 73
    12
 74
     0
 42
0.000000001
 43
0.00000001
 40
0.0
 40
0.0
 40
0.0
 40
0.0
 40
0.125
 40
0.125
 40
0.25
 40
0.25
 40
0.5
 40
0.5
 40
0.75
 40
0.75
 40
1.0
 40
1.0
 40
1.0
 40
1.0
 10
9.218172400785534
 20
-0.595749721209387
 30
0.0
 10
9.147400305694873
 20
-0.5901275163737125
 30
0.0
 10
9.075232187023175
 20
-0.5802932827861014
 30
0.0
 10
8.932592791722072
 20
-0.552750977087868
 30
0.0
 10
8.863690965787328
 20
-0.5352191964836663
 30
0.0
 10
8.653271694191744
 20
-0.4717141770083231
 30
0.0
 10
8.50719238540546
 20
-0.4141869456971108
 30
0.0
 10
8.229819801649
 20
-0.2816851251944001
 30
0.0
 10
8.08212826335739
 20
-0.2041836246259265
 30
0.0
 10
7.804141714114166
 20
-0.0452318286344564
 30
0.0
 10
7.658701295176343
 20
0.0388964062346702
 30
0.0
 10
7.518172400785716
 20
0.1187478712383836
 30
0.0
  0
SPLINE
  5
290
330
1F
100
AcDbEntity
  8
0
  6
Continuous
 62
     1
370
    25
100
AcDbSpline
210
0.0
220
0.0
230
1.0
 70
     8
 71
     3
 72
     9
 73
     5
 74
     0
 42
0.000000001
 43
0.00000001
 40
0.0
 40
0.0
 40
0.0
 40
0.0
 40
0.0484564032461626
 40
1.0
 40
1.0
 40
1.0
 40
1.0
 10
7.828524502935124
 20
-0.0585225216485412
 30
0.0
 10
7.823517651764178
 20
-0.0565687265627162
 30
0.0
 10
7.72019072620742
 20
-0.0162480474582765
 30
0.0
 10
7.616673529653781
 20
0.0257434780110373
 30
0.0
 10
7.518172404119014
 20
0.0657002451892765
 30
0.0
  0
SPLINE
  5
291
330
1F
100
AcDbEntity
  8
0
  6
Continuous
 62
     4
370
    25
100
AcDbSpline
210
0.0
220
0.0
230
1.0
 70
    24
 71
     3
 72
     8
 73
     4
 74
     0
 42
0.000000001
 43
0.00000001
 40
0.0
 40
0.0
 40
0.0
 40
0.0
 40
1.0
 40
1.0
 40
1.0
 40
1.0
 10
7.51817240078617
 20
0.1187478712380425
 30
0.0
 10
7.51817240078617
 20
0.1243174877634203
 30
0.0
 10
7.51817240078617
 20
0.1028620311999759
 30
0.0
 10
7.51817240078617
 20
0.0657002465249263
 30
0.0
  0
SPLINE
  5
292
330
1F
100
AcDbEntity
  8
0
  6
Continuous
 62
     1
370
    25
100
AcDbSpline
210
0.0
220
0.0
230
1.0
 70
     8
 71
     3
 72
    13
 73
     9
 74
     0
 42
0.000000001
 43
0.00000001
 40
0.0
 40
0.0
 40
0.0
 40
0.0
 40
0.1940008301769725
 40
0.3865524152632338
 40
0.5809355094367518
 40
0.7745242004020749
 40
0.9607719483394075
 40
1.0
 40
1.0
 40
1.0
 40
1.0
 10
9.31817240078567
 20
-0.4748430241351684
 30
0.0
 10
9.216811111807601
 20
-0.4525291162641736
 30
0.0
 10
9.01484573344851
 20
-0.4080679921873411
 30
0.0
 10
8.71205222390563
 20
-0.2952357251113256
 30
0.0
 10
8.408569508891105
 20
-0.1615519523423927
 30
0.0
 10
8.108707149203838
 20
-0.0159899610682146
 30
0.0
 10
7.89035984295424
 20
0.0952494750013386
 30
0.0
 10
7.772514573600802
 20
0.1476277087163851
 30
0.0
 10
7.752011972778746
 20
0.1567404208643381
 30
0.0
  0
SPLINE
  5
293
330
1F
100
AcDbEntity
  8
0
  6
Continuous
 62
     1
370
    25
100
AcDbSpline
210
0.0
220
0.0
230
1.0
 70
     8
 71
     3
 72
    20
 73
    16
 74
     0
 42
0.000000001
 43
0.00000001
 40
0.0
 40
0.0
 40
0.0
 40
0.0
 40
0.0000307536697163
 40
0.0000307536697163
 40
0.0000307536697163
 40
0.0000616700201595
 40
0.0000616700201595
 40
0.0000616700201595
 40
0.0000906501531423
 40
0.0000906501531423
 40
0.0000906501531423
 40
0.0001192879503775
 40
0.0001192879503775
 40
0.0001192879503775
 40
0.000152628277785
 40
0.000152628277785
 40
0.000152628277785
 40
0.000152628277785
 10
9.317671144496217
 20
-0.4747498776391978
 30
0.0
 10
9.31668014851789
 20
-0.4848775773936325
 30
0.0
 10
9.314150385225958
 20
-0.4949452758480959
 30
0.0
 10
9.31015645414459
 20
-0.5041085345452245
 30
0.0
 10
9.306149831854782
 20
-0.5133009106263842
 30
0.0
 10
9.300538001439236
 20
-0.52182625765181
 30
0.0
 10
9.293828871557935
 20
-0.5288135414118926
 30
0.0
 10
9.28752827696394
 20
-0.5353753524164233
 30
0.0
 10
9.28009554352252
 20
-0.5407615656491203
 30
0.0
 10
9.2722227239733
 20
-0.5445849034715593
 30
0.0
 10
9.264427461589094
 20
-0.5483705766122
 30
0.0
 10
9.256017333942964
 20
-0.5507362115215528
 30
0.0
 10
9.247606308446393
 20
-0.5516984569139538
 30
0.0
 10
9.237824807764127
 20
-0.5528174885904491
 30
0.0
 10
9.227803704090093
 20
-0.5520845195182744
 30
0.0
 10
9.218172400785534
 20
-0.5498284329490559
 30
0.0
  0
SPLINE
  5
294
330
1F
100
AcDbEntity
  8
0
  6
Continuous
 62
     1
370
    25
100
AcDbSpline
210
0.0
220
0.0
230
1.0
 70
     8
 71
     3
 72
    16
 73
    12
 74
     0
 42
0.000000001
 43
0.00000001
 40
0.0
 40
0.0
 40
0.0
 40
0.0
 40
0.1249999999999983
 40
0.1249999999999983
 40
0.2499999999999965
 40
0.2499999999999965
 40
0.4999999999999977
 40
0.4999999999999977
 40
0.7499999999999988
 40
0.7499999999999988
 40
1.0
 40
1.0
 40
1.0
 40
1.0
 10
9.218172400785534
 20
-0.5498284329490559
 30
0.0
 10
9.147400305694873
 20
-0.5332504093772741
 30
0.0
 10
9.075232187023175
 20
-0.5127117674528279
 30
0.0
 10
8.932592791722072
 20
-0.4649362928612391
 30
0.0
 10
8.863690965787328
 20
-0.4379417038656186
 30
0.0
 10
8.653271694191744
 20
-0.3480778233392527
 30
0.0
 10
8.50719238540546
 20
-0.2757885499080999
 30
0.0
 10
8.229819801649
 20
-0.1225566869159138
 30
0.0
 10
8.08212826335739
 20
-0.038731049178665
 30
0.0
 10
7.804141714114166
 20
0.12325244810188
 30
0.0
 10
7.658701295176343
 20
0.2041852992697955
 30
0.0
 10
7.518172400785716
 20
0.2764212477530634
 30
0.0
  0
LINE
  5
295
330
1F
100
AcDbEntity
  8
0
  6
Continuous
 62
     4
370
    25
100
AcDbLine
 10
7.518172400785488
 20
0.118747871238412
 30
0.0
 11
7.518172400785488
 21
0.2764212477530918
 31
0.0
  0
SPLINE
  5
296
330
1F
100
AcDbEntity
  8
0
  6
Continuous
 62
     1
370
    25
100
AcDbSpline
210
0.0
220
0.0
230
1.0
 70
     8
 71
     3
 72
    13
 73
     9
 74
     0
 42
0.000000001
 43
0.00000001
 40
0.0
 40
0.0
 40
0.0
 40
0.0
 40
0.17329268008995
 40
0.3452727297739875
 40
0.5189115323995499
 40
0.6918310396177969
 40
0.8581765922968494
 40
1.0
 40
1.0
 40
1.0
 40
1.0
 10
9.31817240078567
 20
-0.0014596655142327
 30
0.0
 10
9.216814087275907
 20
0.0451875558345876
 30
0.0
 10
9.014865213424855
 20
0.1381286624244638
 30
0.0
 10
8.712021964494625
 20
0.2671983383512782
 30
0.0
 10
8.408567474596111
 20
0.3722531758987486
 30
0.0
 10
8.108742445377857
 20
0.4446473462937206
 30
0.0
 10
7.827957798765283
 20
0.481803850543514
 30
0.0
 10
7.647611987855043
 20
0.4756187445177886
 30
0.0
 10
7.564614474294558
 20
0.4727722773963592
 30
0.0
  0
SPLINE
  5
297
330
1F
100
AcDbEntity
  8
0
  6
Continuous
 62
     1
370
    25
100
AcDbSpline
210
0.0
220
0.0
230
1.0
 70
    24
 71
     3
 72
    10
 73
     6
 74
     0
 42
0.000000001
 43
0.00000001
 40
0.0
 40
0.0
 40
0.0
 40
0.0
 40
0.5
 40
0.5
 40
1.0
 40
1.0
 40
1.0
 40
1.0
 10
9.31817240078567
 20
-0.4445421775053831
 30
0.0
 10
9.31817240078567
 20
-0.391894316361487
 30
0.0
 10
9.31817240078567
 20
-0.3238104138024198
 30
0.0
 10
9.31817240078567
 20
-0.1700702599657404
 30
0.0
 10
9.31817240078567
 20
-0.0848886183874811
 30
0.0
 10
9.31817240078567
 20
-0.0014596655142327
 30
0.0
  0
SPLINE
  5
298
330
1F
100
AcDbEntity
  8
0
  6
Continuous
 62
     1
370
    25
100
AcDbSpline
210
0.0
220
0.0
230
1.0
 70
     8
 71
     3
 72
     8
 73
     4
 74
     0
 42
0.000000001
 43
0.00000001
 40
0.0
 40
0.0
 40
0.0
 40
0.0
 40
1.0
 40
1.0
 40
1.0
 40
1.0
 10
9.31817240078567
 20
-0.444542177505582
 30
0.0
 10
9.31817240078567
 20
-0.4552284680609375
 30
0.0
 10
9.318005035900114
 20
-0.4653300165258258
 30
0.0
 10
9.317671144496217
 20
-0.4747498776391978
 30
0.0
  0
SPLINE
  5
299
330
1F
100
AcDbEntity
  8
0
  6
Continuous
 62
     4
370
    25
100
AcDbSpline
210
0.0
220
0.0
230
1.0
 70
    24
 71
     3
 72
    10
 73
     6
 74
     0
 42
0.000000001
 43
0.00000001
 40
0.0
 40
0.0
 40
0.0
 40
0.0
 40
0.4999999999999999
 40
0.4999999999999999
 40
1.0
 40
1.0
 40
1.0
 40
1.0
 10
7.518172400785488
 20
0.4723639251354257
 30
0.0
 10
7.518172400785488
 20
0.4765048088083574
 30
0.0
 10
7.518172400785488
 20
0.4604552094880319
 30
0.0
 10
7.518172400785488
 20
0.3867663542687581
 30
0.0
 10
7.518172400785488
 20
0.3294442840096394
 30
0.0
 10
7.518172400785488
 20
0.2615530266971575
 30
0.0
  0
LINE
  5
29A
330
1F
100
AcDbEntity
  8
0
  6
Continuous
 62
     1
370
    25
100
AcDbLine
 10
9.31817240078567
 20
0.4185403344857548
 30
0.0
 11
9.06279782238812
 21
0.403606680257127
 31
0.0
  0
SPLINE
  5
29B
330
1F
100
AcDbEntity
  8
0
  6
Continuous
 62
     1
370
    25
100
AcDbSpline
210
0.0
220
0.0
230
1.0
 70
    24
 71
     3
 72
    10
 73
     6
 74
     0
 42
0.000000001
 43
0.00000001
 40
0.0
 40
0.0
 40
0.0
 40
0.0
 40
0.5
 40
0.5
 40
1.0
 40
1.0
 40
1.0
 40
1.0
 10
9.31817240078567
 20
-0.0014596655142327
 30
0.0
 10
9.31817240078567
 20
0.0984815565274459
 30
0.0
 10
9.31817240078567
 20
0.1957253181774945
 30
0.0
 10
9.31817240078567
 20
0.3450175363099675
 30
0.0
 10
9.31817240078567
 20
0.3959092638094148
 30
0.0
 10
9.31817240078567
 20
0.4185403344857548
 30
0.0
  0
SPLINE
  5
29C
330
1F
100
AcDbEntity
  8
0
  6
Continuous
 62
     1
370
    25
100
AcDbSpline
210
0.0
220
0.0
230
1.0
 70
     8
 71
     3
 72
     9
 73
     5
 74
     0
 42
0.000000001
 43
0.00000001
 40
0.0
 40
0.0
 40
0.0
 40
0.0
 40
0.4425649158341607
 40
1.0
 40
1.0
 40
1.0
 40
1.0
 10
8.047617457581737
 20
-0.4497533954740049
 30
0.0
 10
7.969606316454019
 20
-0.4613556519335589
 30
0.0
 10
7.793335811638372
 20
-0.4875715945997285
 30
0.0
 10
7.616658523998922
 20
-0.4796814820510065
 30
0.0
 10
7.518172405293399
 20
-0.4752832564983578
 30
0.0
  0
SPLINE
  5
29D
330
1F
100
AcDbEntity
  8
0
  6
Continuous
 62
     4
370
    25
100
AcDbSpline
210
0.0
220
0.0
230
1.0
 70
    24
 71
     3
 72
    10
 73
     6
 74
     0
 42
0.000000001
 43
0.00000001
 40
0.0
 40
0.0
 40
0.0
 40
0.0
 40
0.5
 40
0.5
 40
1.0
 40
1.0
 40
1.0
 40
1.0
 10
7.518172400785488
 20
0.0657002465251821
 30
0.0
 10
7.518172400785488
 20
-0.0404465875558913
 30
0.0
 10
7.518172400785488
 20
-0.1521621109916111
 30
0.0
 10
7.518172400785488
 20
-0.3444588421571666
 30
0.0
 10
7.518172400785488
 20
-0.4235501182278085
 30
0.0
 10
7.518172400785488
 20
-0.4752832561639195
 30
0.0
  0
LINE
  5
29E
330
1F
100
AcDbEntity
  8
0
  6
Continuous
 62
     1
370
    25
100
AcDbLine
 10
9.31817240078567
 20
-0.444542177505582
 30
0.0
 11
9.31817240078567
 21
-0.5006377834481555
 31
0.0
  0
SPLINE
  5
29F
330
1F
100
AcDbEntity
  8
0
  6
Continuous
 62
     1
370
    25
100
AcDbSpline
210
0.0
220
0.0
230
1.0
 70
    24
 71
     3
 72
     8
 73
     4
 74
     0
 42
0.000000001
 43
0.00000001
 40
0.0
 40
0.0
 40
0.0
 40
0.0
 40
1.0
 40
1.0
 40
1.0
 40
1.0
 10
9.31817240078567
 20
0.4185403344857548
 30
0.0
 10
9.31817240078567
 20
0.4421057895144429
 30
0.0
 10
9.31817240078567
 20
0.4691881152547239
 30
0.0
 10
9.31817240078567
 20
0.4977184524214806
 30
0.0
  0
SPLINE
  5
2A0
330
1F
100
AcDbEntity
  8
0
  6
Continuous
 62
     4
370
    25
100
AcDbSpline
210
0.0
220
0.0
230
1.0
 70
     8
 71
     3
 72
     9
 73
     5
 74
     0
 42
0.000000001
 43
0.00000001
 40
0.0
 40
0.0
 40
0.0
 40
0.0
 40
0.0578268518538056
 40
0.0900909064882632
 40
0.0900909064882632
 40
0.0900909064882632
 40
0.0900909064882632
 10
7.518172405293399
 20
0.4723639254698639
 30
0.0
 10
7.511578717761495
 20
0.4718482615311643
 30
0.0
 10
7.501306132140598
 20
0.4710448867979267
 30
0.0
 10
7.491030418761056
 20
0.4702174577331562
 30
0.0
 10
7.487350023248837
 20
0.469917385626502
 30
0.0
  0
SPLINE
  5
2A1
330
1F
100
AcDbEntity
  8
0
  6
Continuous
 62
     1
370
    25
100
AcDbSpline
210
0.0
220
0.0
230
1.0
 70
     8
 71
     3
 72
     9
 73
     5
 74
     0
 42
0.000000001
 43
0.00000001
 40
0.0
 40
0.0
 40
0.0
 40
0.0
 40
0.4861862202279953
 40
0.963936054897464
 40
0.963936054897464
 40
0.963936054897464
 40
0.963936054897464
 10
8.495097842259383
 20
0.4009221174506763
 30
0.0
 10
8.612290566728461
 20
0.4478951935300302
 30
0.0
 10
8.844642467681524
 20
0.5410262609245251
 30
0.0
 10
9.076957394834153
 20
0.5740434286254583
 30
0.0
 10
9.192097608736276
 20
0.5893710822207936
 30
0.0
  0
ARC
  5
2A2
330
1F
100
AcDbEntity
  8
0
  6
Continuous
 62
     1
370
    25
100
AcDbCircle
 10
9.218172400785534
 20
0.4928303901806146
 30
0.0
 40
0.1
100
AcDbArc
 50
0.0
 51
105.1144457186266
  0
ARC
  5
2A3
102
{ACAD_REACTORS
102
}
330
1F
100
AcDbEntity
  8
0
  6
Continuous
 62
     1
370
    25
100
AcDbCircle
 10
9.218172400785534
 20
-0.4957497212091084
 30
0.0
 40
0.1
100
AcDbArc
 50
270.0
 51
0.0
  0
DIMENSION
  5
2A4
102
{ACAD_REACTORS
102
}
102
{ACAD_XDICTIONARY
360
2A5
102
}
330
1F
100
AcDbEntity
  8
치수문자_일반주서
100
AcDbDimension
  2
*D21
 10
9.218172400785534
 20
-0.4957497212091084
 30
0.0
 11
14.36490523909107
 21
-14.53716872707568
 31
0.0
 70
   164
  1
<>
 71
     5
 42
0.0999999999999917
  3
SLDDIMSTYLE3
100
AcDbRadialDimension
 15
9.252587329641756
 25
-0.5896412153489905
 35
0.0
 40
0.0
1001
ACAD_DSTYLE_DIMRADIAL_EXTENSION
1070
   387
1070
     1
1070
   388
1040
4.712388980384157
1070
   390
1040
6.283185307179585
  0
ENDSEC
  0
SECTION
  2
OBJECTS
  0
DICTIONARY
  5
C
330
0
100
AcDbDictionary
281
     1
  3
ACAD_GROUP
350
D
  3
ACAD_IMAGE_VARS
350
145
  3
ACAD_LAYOUT
350
1A
  3
ACAD_MLINESTYLE
350
17
  3
ACAD_PLOTSETTINGS
350
19
  3
ACAD_PLOTSTYLENAME
350
E
  3
ACAD_SCALELIST
350
47
  3
APPDATA
350
143
  3
DWGPROPS
350
2B0
  0
DICTIONARY
  5
2A5
330
2A4
100
AcDbDictionary
280
     1
281
     1
  0
DICTIONARY
  5
D
102
{ACAD_REACTORS
330
C
102
}
330
C
100
AcDbDictionary
281
     1
  0
RASTERVARIABLES
  5
145
102
{ACAD_REACTORS
330
C
102
}
330
C
100
AcDbRasterVariables
 90
        0
 70
     1
 71
     1
 72
     1
  0
DICTIONARY
  5
1A
102
{ACAD_REACTORS
330
C
102
}
330
C
100
AcDbDictionary
281
     1
  3
Layout1
350
1E
  3
Layout2
350
26
  3
Model
350
22
  0
DICTIONARY
  5
17
102
{ACAD_REACTORS
330
C
102
}
330
C
100
AcDbDictionary
281
     1
  3
Standard
350
18
  0
DICTIONARY
  5
19
102
{ACAD_REACTORS
330
C
102
}
330
C
100
AcDbDictionary
281
     1
  0
ACDBDICTIONARYWDFLT
  5
E
102
{ACAD_REACTORS
330
C
102
}
330
C
100
AcDbDictionary
281
     1
  3
Normal
350
F
100
AcDbDictionaryWithDefault
340
F
  0
DICTIONARY
  5
47
102
{ACAD_REACTORS
330
C
102
}
330
C
100
AcDbDictionary
281
     1
  3
A0
350
48
  3
A1
350
49
  3
A2
350
4A
  3
A3
350
4B
  3
A4
350
4C
  3
A5
350
4D
  3
A6
350
4E
  3
A7
350
4F
  3
A8
350
50
  3
A9
350
51
  3
B0
350
52
  3
B1
350
53
  3
B2
350
54
  3
B3
350
55
  3
B4
350
56
  3
B5
350
57
  3
B6
350
58
  3
B7
350
59
  3
B8
350
5A
  3
B9
350
5B
  3
C0
350
5C
  3
C1
350
5D
  3
C2
350
5E
  3
C3
350
5F
  3
C4
350
60
  3
C5
350
61
  3
C6
350
62
  3
C7
350
63
  3
C8
350
64
  3
C9
350
65
  3
D0
350
66
  3
D1
350
67
  3
D2
350
68
  0
DICTIONARY
  5
143
102
{ACAD_REACTORS
330
C
102
}
330
C
100
AcDbDictionary
281
     1
  0
XRECORD
  5
2B0
102
{ACAD_REACTORS
330
C
102
}
330
C
100
AcDbXrecord
280
     1
  1
DWGPROPS COOKIE
  2

  3

  4

  6

  7

  8
12016016
  9

300
=
301
=
302
=
303
=
304
=
305
=
306
=
307
=
308
=
309
=
 40
0.0
 41
2458263.378308275
 42
2458269.191351724
  1

 90
        0
  0
LAYOUT
  5
1E
102
{ACAD_REACTORS
330
1A
102
}
330
1A
100
AcDbPlotSettings
  1

  2
none_device
  4

  6

 40
0.0
 41
0.0
 42
0.0
 43
0.0
 44
0.0
 45
0.0
 46
0.0
 47
0.0
 48
0.0
 49
0.0
140
0.0
141
0.0
142
1.0
143
1.0
 70
   688
 72
     1
 73
     0
 74
     5
  7

 75
    16
147
1.0
148
0.0
149
0.0
100
AcDbLayout
  1
Layout1
 70
     1
 71
     1
 10
0.0
 20
0.0
 11
420.0
 21
297.0
 12
0.0
 22
0.0
 32
0.0
 14
1.000000000000000E+20
 24
1.000000000000000E+20
 34
1.000000000000000E+20
 15
-1.000000000000000E+20
 25
-1.000000000000000E+20
 35
-1.000000000000000E+20
146
0.0
 13
0.0
 23
0.0
 33
0.0
 16
1.0
 26
0.0
 36
0.0
 17
0.0
 27
1.0
 37
0.0
 76
     0
330
1B
  0
LAYOUT
  5
26
102
{ACAD_REACTORS
330
1A
102
}
330
1A
100
AcDbPlotSettings
  1

  2
none_device
  4

  6

 40
0.0
 41
0.0
 42
0.0
 43
0.0
 44
0.0
 45
0.0
 46
0.0
 47
0.0
 48
0.0
 49
0.0
140
0.0
141
0.0
142
1.0
143
1.0
 70
   688
 72
     1
 73
     0
 74
     5
  7

 75
    16
147
1.0
148
0.0
149
0.0
100
AcDbLayout
  1
Layout2
 70
     1
 71
     2
 10
0.0
 20
0.0
 11
0.0
 21
0.0
 12
0.0
 22
0.0
 32
0.0
 14
0.0
 24
0.0
 34
0.0
 15
0.0
 25
0.0
 35
0.0
146
0.0
 13
0.0
 23
0.0
 33
0.0
 16
1.0
 26
0.0
 36
0.0
 17
0.0
 27
1.0
 37
0.0
 76
     0
330
23
  0
LAYOUT
  5
22
102
{ACAD_REACTORS
330
1A
102
}
330
1A
100
AcDbPlotSettings
  1

  2
none_device
  4
ANSI_A_(11.00_x_8.50_Inches)
  6

 40
6.35
 41
19.05
 42
6.35000508
 43
19.05000254
 44
279.4
 45
215.9
 46
129.0654642522294
 47
94.60899039257822
 48
0.0
 49
0.0
140
0.0
141
0.0
142
0.087396033275827
143
1.0
 70
  1696
 72
     0
 73
     0
 74
     0
  7

 75
     0
147
0.0235690232323232
148
0.0
149
0.0
100
AcDbLayout
  1
Model
 70
     1
 71
     0
 10
0.0
 20
0.0
 11
420.0
 21
297.0
 12
0.0
 22
0.0
 32
0.0
 14
1.000000000000000E+20
 24
1.000000000000000E+20
 34
1.000000000000000E+20
 15
-1.000000000000000E+20
 25
-1.000000000000000E+20
 35
-1.000000000000000E+20
146
0.0
 13
0.0
 23
0.0
 33
0.0
 16
1.0
 26
0.0
 36
0.0
 17
0.0
 27
1.0
 37
0.0
 76
     0
330
1F
331
29
  0
MLINESTYLE
  5
18
102
{ACAD_REACTORS
330
17
102
}
330
17
100
AcDbMlineStyle
  2
Standard
 70
     0
  3

 62
   256
 51
90.0
 52
90.0
 71
     2
 49
0.5
 62
   256
  6
BYLAYER
 49
-0.5
 62
   256
  6
BYLAYER
  0
ACDBPLACEHOLDER
  5
F
102
{ACAD_REACTORS
330
E
102
}
330
E
  0
SCALE
  5
48
102
{ACAD_REACTORS
330
47
102
}
330
47
100
AcDbScale
 70
     0
300
1:1
140
1.0
141
1.0
290
     1
  0
SCALE
  5
49
102
{ACAD_REACTORS
330
47
102
}
330
47
100
AcDbScale
 70
     0
300
1:2
140
1.0
141
2.0
290
     0
  0
SCALE
  5
4A
102
{ACAD_REACTORS
330
47
102
}
330
47
100
AcDbScale
 70
     0
300
1:4
140
1.0
141
4.0
290
     0
  0
SCALE
  5
4B
102
{ACAD_REACTORS
330
47
102
}
330
47
100
AcDbScale
 70
     0
300
1:5
140
1.0
141
5.0
290
     0
  0
SCALE
  5
4C
102
{ACAD_REACTORS
330
47
102
}
330
47
100
AcDbScale
 70
     0
300
1:8
140
1.0
141
8.0
290
     0
  0
SCALE
  5
4D
102
{ACAD_REACTORS
330
47
102
}
330
47
100
AcDbScale
 70
     0
300
1:10
140
1.0
141
10.0
290
     0
  0
SCALE
  5
4E
102
{ACAD_REACTORS
330
47
102
}
330
47
100
AcDbScale
 70
     0
300
1:16
140
1.0
141
16.0
290
     0
  0
SCALE
  5
4F
102
{ACAD_REACTORS
330
47
102
}
330
47
100
AcDbScale
 70
     0
300
1:20
140
1.0
141
20.0
290
     0
  0
SCALE
  5
50
102
{ACAD_REACTORS
330
47
102
}
330
47
100
AcDbScale
 70
     0
300
1:30
140
1.0
141
30.0
290
     0
  0
SCALE
  5
51
102
{ACAD_REACTORS
330
47
102
}
330
47
100
AcDbScale
 70
     0
300
1:40
140
1.0
141
40.0
290
     0
  0
SCALE
  5
52
102
{ACAD_REACTORS
330
47
102
}
330
47
100
AcDbScale
 70
     0
300
1:50
140
1.0
141
50.0
290
     0
  0
SCALE
  5
53
102
{ACAD_REACTORS
330
47
102
}
330
47
100
AcDbScale
 70
     0
300
1:100
140
1.0
141
100.0
290
     0
  0
SCALE
  5
54
102
{ACAD_REACTORS
330
47
102
}
330
47
100
AcDbScale
 70
     0
300
2:1
140
2.0
141
1.0
290
     0
  0
SCALE
  5
55
102
{ACAD_REACTORS
330
47
102
}
330
47
100
AcDbScale
 70
     0
300
4:1
140
4.0
141
1.0
290
     0
  0
SCALE
  5
56
102
{ACAD_REACTORS
330
47
102
}
330
47
100
AcDbScale
 70
     0
300
8:1
140
8.0
141
1.0
290
     0
  0
SCALE
  5
57
102
{ACAD_REACTORS
330
47
102
}
330
47
100
AcDbScale
 70
     0
300
10:1
140
10.0
141
1.0
290
     0
  0
SCALE
  5
58
102
{ACAD_REACTORS
330
47
102
}
330
47
100
AcDbScale
 70
     0
300
100:1
140
100.0
141
1.0
290
     0
  0
SCALE
  5
59
102
{ACAD_REACTORS
330
47
102
}
330
47
100
AcDbScale
 70
     0
300
1/128" = 1'-0"
140
0.0078125
141
12.0
290
     0
  0
SCALE
  5
5A
102
{ACAD_REACTORS
330
47
102
}
330
47
100
AcDbScale
 70
     0
300
1/64" = 1'-0"
140
0.015625
141
12.0
290
     0
  0
SCALE
  5
5B
102
{ACAD_REACTORS
330
47
102
}
330
47
100
AcDbScale
 70
     0
300
1/32" = 1'-0"
140
0.03125
141
12.0
290
     0
  0
SCALE
  5
5C
102
{ACAD_REACTORS
330
47
102
}
330
47
100
AcDbScale
 70
     0
300
1/16" = 1'-0"
140
0.0625
141
12.0
290
     0
  0
SCALE
  5
5D
102
{ACAD_REACTORS
330
47
102
}
330
47
100
AcDbScale
 70
     0
300
3/32" = 1'-0"
140
0.09375
141
12.0
290
     0
  0
SCALE
  5
5E
102
{ACAD_REACTORS
330
47
102
}
330
47
100
AcDbScale
 70
     0
300
1/8" = 1'-0"
140
0.125
141
12.0
290
     0
  0
SCALE
  5
5F
102
{ACAD_REACTORS
330
47
102
}
330
47
100
AcDbScale
 70
     0
300
3/16" = 1'-0"
140
0.1875
141
12.0
290
     0
  0
SCALE
  5
60
102
{ACAD_REACTORS
330
47
102
}
330
47
100
AcDbScale
 70
     0
300
1/4" = 1'-0"
140
0.25
141
12.0
290
     0
  0
SCALE
  5
61
102
{ACAD_REACTORS
330
47
102
}
330
47
100
AcDbScale
 70
     0
300
3/8" = 1'-0"
140
0.375
141
12.0
290
     0
  0
SCALE
  5
62
102
{ACAD_REACTORS
330
47
102
}
330
47
100
AcDbScale
 70
     0
300
1/2" = 1'-0"
140
0.5
141
12.0
290
     0
  0
SCALE
  5
63
102
{ACAD_REACTORS
330
47
102
}
330
47
100
AcDbScale
 70
     0
300
3/4" = 1'-0"
140
0.75
141
12.0
290
     0
  0
SCALE
  5
64
102
{ACAD_REACTORS
330
47
102
}
330
47
100
AcDbScale
 70
     0
300
1" = 1'-0"
140
1.0
141
12.0
290
     0
  0
SCALE
  5
65
102
{ACAD_REACTORS
330
47
102
}
330
47
100
AcDbScale
 70
     0
300
1-1/2" = 1'-0"
140
1.5
141
12.0
290
     0
  0
SCALE
  5
66
102
{ACAD_REACTORS
330
47
102
}
330
47
100
AcDbScale
 70
     0
300
3" = 1'-0"
140
3.0
141
12.0
290
     0
  0
SCALE
  5
67
102
{ACAD_REACTORS
330
47
102
}
330
47
100
AcDbScale
 70
     0
300
6" = 1'-0"
140
6.0
141
12.0
290
     0
  0
SCALE
  5
68
102
{ACAD_REACTORS
330
47
102
}
330
47
100
AcDbScale
 70
     0
300
1'-0" = 1'-0"
140
12.0
141
12.0
290
     0
  0
ENDSEC
  0
EOF
