  0
SECTION
  2
HEADER
  9
$ACADVER
  1
AC1015
  9
$ACADMAINTVER
 70
     6
  9
$DWGCODEPAGE
  3
ANSI_949
  9
$INSBASE
 10
0.0
 20
0.0
 30
0.0
  9
$EXTMIN
 10
-49.8085323873768
 20
-49.97180738881175
 30
0.0
  9
$EXTMAX
 10
84.33883589310369
 20
34.8570260082852
 30
0.0
  9
$LIMMIN
 10
0.0
 20
0.0
  9
$LIMMAX
 10
420.0
 20
297.0
  9
$ORTHOMODE
 70
     0
  9
$REGENMODE
 70
     1
  9
$FILLMODE
 70
     1
  9
$QTEXTMODE
 70
     0
  9
$MIRRTEXT
 70
     1
  9
$LTSCALE
 40
1.0
  9
$ATTMODE
 70
     1
  9
$TEXTSIZE
 40
3.5
  9
$TRACEWID
 40
1.0
  9
$TEXTSTYLE
  7
Standard
  9
$CLAYER
  8
0
  9
$CELTYPE
  6
ByLayer
  9
$CECOLOR
 62
   256
  9
$CELTSCALE
 40
1.0
  9
$DISPSILH
 70
     0
  9
$DIMSCALE
 40
1.0
  9
$DIMASZ
 40
3.302
  9
$DIMEXO
 40
1.0
  9
$DIMDLI
 40
3.75
  9
$DIMRND
 40
0.0
  9
$DIMDLE
 40
0.0
  9
$DIMEXE
 40
1.0
  9
$DIMTP
 40
0.0
  9
$DIMTM
 40
0.0
  9
$DIMTXT
 40
3.5
  9
$DIMCEN
 40
2.5
  9
$DIMTSZ
 40
0.0
  9
$DIMTOL
 70
     0
  9
$DIMLIM
 70
     0
  9
$DIMTIH
 70
     1
  9
$DIMTOH
 70
     1
  9
$DIMSE1
 70
     0
  9
$DIMSE2
 70
     0
  9
$DIMTAD
 70
     1
  9
$DIMZIN
 70
     0
  9
$DIMBLK
  1

  9
$DIMASO
 70
     1
  9
$DIMSHO
 70
     1
  9
$DIMPOST
  1

  9
$DIMAPOST
  1

  9
$DIMALT
 70
     0
  9
$DIMALTD
 70
     3
  9
$DIMALTF
 40
0.0393700787401575
  9
$DIMLFAC
 40
1.0
  9
$DIMTOFL
 70
     1
  9
$DIMTVP
 40
0.0
  9
$DIMTIX
 70
     0
  9
$DIMSOXD
 70
     0
  9
$DIMSAH
 70
     0
  9
$DIMBLK1
  1

  9
$DIMBLK2
  1

  9
$DIMSTYLE
  2
ISO-25
  9
$DIMCLRD
 70
     0
  9
$DIMCLRE
 70
     0
  9
$DIMCLRT
 70
     0
  9
$DIMTFAC
 40
1.0
  9
$DIMGAP
 40
1.524
  9
$DIMJUST
 70
     0
  9
$DIMSD1
 70
     0
  9
$DIMSD2
 70
     0
  9
$DIMTOLJ
 70
     0
  9
$DIMTZIN
 70
     0
  9
$DIMALTZ
 70
     0
  9
$DIMALTTZ
 70
     0
  9
$DIMUPT
 70
     0
  9
$DIMDEC
 70
     2
  9
$DIMTDEC
 70
     2
  9
$DIMALTU
 70
     2
  9
$DIMALTTD
 70
     3
  9
$DIMTXSTY
  7
Standard
  9
$DIMAUNIT
 70
     0
  9
$DIMADEC
 70
     2
  9
$DIMALTRND
 40
0.0
  9
$DIMAZIN
 70
     0
  9
$DIMDSEP
 70
    44
  9
$DIMATFIT
 70
     3
  9
$DIMFRAC
 70
     0
  9
$DIMLDRBLK
  1

  9
$DIMLUNIT
 70
     2
  9
$DIMLWD
 70
    -2
  9
$DIMLWE
 70
    -2
  9
$DIMTMOVE
 70
     0
  9
$LUNITS
 70
     2
  9
$LUPREC
 70
     2
  9
$SKETCHINC
 40
1.0
  9
$FILLETRAD
 40
10.0
  9
$AUNITS
 70
     0
  9
$AUPREC
 70
     2
  9
$MENU
  1
.
  9
$ELEVATION
 40
0.0
  9
$PELEVATION
 40
0.0
  9
$THICKNESS
 40
0.0
  9
$LIMCHECK
 70
     0
  9
$CHAMFERA
 40
0.0
  9
$CHAMFERB
 40
0.0
  9
$CHAMFERC
 40
0.0
  9
$CHAMFERD
 40
0.0
  9
$SKPOLY
 70
     0
  9
$TDCREATE
 40
2458274.592450822
  9
$TDUCREATE
 40
2458274.217450822
  9
$TDUPDATE
 40
2458275.648356447
  9
$TDUUPDATE
 40
2458275.273356447
  9
$TDINDWG
 40
0.001494213
  9
$TDUSRTIMER
 40
2458275.273035602
  9
$USRTIMER
 70
     1
  9
$ANGBASE
 50
0.0
  9
$ANGDIR
 70
     0
  9
$PDMODE
 70
     0
  9
$PDSIZE
 40
-1.0
  9
$PLINEWID
 40
0.0
  9
$SPLFRAME
 70
     0
  9
$SPLINETYPE
 70
     6
  9
$SPLINESEGS
 70
     8
  9
$HANDSEED
  5
1B8
  9
$SURFTAB1
 70
     6
  9
$SURFTAB2
 70
     6
  9
$SURFTYPE
 70
     6
  9
$SURFU
 70
     6
  9
$SURFV
 70
     6
  9
$UCSBASE
  2

  9
$UCSNAME
  2

  9
$UCSORG
 10
0.0
 20
0.0
 30
0.0
  9
$UCSXDIR
 10
1.0
 20
0.0
 30
0.0
  9
$UCSYDIR
 10
0.0
 20
1.0
 30
0.0
  9
$UCSORTHOREF
  2

  9
$UCSORTHOVIEW
 70
     0
  9
$UCSORGTOP
 10
0.0
 20
0.0
 30
0.0
  9
$UCSORGBOTTOM
 10
0.0
 20
0.0
 30
0.0
  9
$UCSORGLEFT
 10
0.0
 20
0.0
 30
0.0
  9
$UCSORGRIGHT
 10
0.0
 20
0.0
 30
0.0
  9
$UCSORGFRONT
 10
0.0
 20
0.0
 30
0.0
  9
$UCSORGBACK
 10
0.0
 20
0.0
 30
0.0
  9
$PUCSBASE
  2

  9
$PUCSNAME
  2

  9
$PUCSORG
 10
0.0
 20
0.0
 30
0.0
  9
$PUCSXDIR
 10
1.0
 20
0.0
 30
0.0
  9
$PUCSYDIR
 10
0.0
 20
1.0
 30
0.0
  9
$PUCSORTHOREF
  2

  9
$PUCSORTHOVIEW
 70
     0
  9
$PUCSORGTOP
 10
0.0
 20
0.0
 30
0.0
  9
$PUCSORGBOTTOM
 10
0.0
 20
0.0
 30
0.0
  9
$PUCSORGLEFT
 10
0.0
 20
0.0
 30
0.0
  9
$PUCSORGRIGHT
 10
0.0
 20
0.0
 30
0.0
  9
$PUCSORGFRONT
 10
0.0
 20
0.0
 30
0.0
  9
$PUCSORGBACK
 10
0.0
 20
0.0
 30
0.0
  9
$USERI1
 70
     0
  9
$USERI2
 70
     0
  9
$USERI3
 70
     0
  9
$USERI4
 70
     0
  9
$USERI5
 70
     0
  9
$USERR1
 40
0.0
  9
$USERR2
 40
0.0
  9
$USERR3
 40
0.0
  9
$USERR4
 40
0.0
  9
$USERR5
 40
0.0
  9
$WORLDVIEW
 70
     1
  9
$SHADEDGE
 70
     3
  9
$SHADEDIF
 70
    70
  9
$TILEMODE
 70
     1
  9
$MAXACTVP
 70
    64
  9
$PINSBASE
 10
0.0
 20
0.0
 30
0.0
  9
$PLIMCHECK
 70
     0
  9
$PEXTMIN
 10
1.000000000000000E+20
 20
1.000000000000000E+20
 30
1.000000000000000E+20
  9
$PEXTMAX
 10
-1.000000000000000E+20
 20
-1.000000000000000E+20
 30
-1.000000000000000E+20
  9
$PLIMMIN
 10
0.0
 20
0.0
  9
$PLIMMAX
 10
0.0
 20
0.0
  9
$UNITMODE
 70
     0
  9
$VISRETAIN
 70
     1
  9
$PLINEGEN
 70
     0
  9
$PSLTSCALE
 70
     1
  9
$TREEDEPTH
 70
  3020
  9
$CMLSTYLE
  2
Standard
  9
$CMLJUST
 70
     0
  9
$CMLSCALE
 40
20.0
  9
$PROXYGRAPHICS
 70
     1
  9
$MEASUREMENT
 70
     1
  9
$CELWEIGHT
370
    -1
  9
$ENDCAPS
280
     0
  9
$JOINSTYLE
280
     0
  9
$LWDISPLAY
290
     1
  9
$INSUNITS
 70
     4
  9
$HYPERLINKBASE
  1

  9
$STYLESHEET
  1

  9
$XEDIT
290
     1
  9
$CEPSNTYPE
380
     0
  9
$PSTYLEMODE
290
     1
  9
$FINGERPRINTGUID
  2
{9D18CEC3-D1B8-4506-85B0-972C05903732}
  9
$VERSIONGUID
  2
{FAEB1C32-E019-11D5-929B-00C0DF256EC4}
  9
$EXTNAMES
290
     1
  9
$PSVPSCALE
 40
0.0
  9
$OLESTARTUP
290
     0
  0
ENDSEC
  0
SECTION
  2
CLASSES
  0
CLASS
  1
ACDBDICTIONARYWDFLT
  2
AcDbDictionaryWithDefault
  3
ObjectDBX Classes
 90
        0
280
     0
281
     0
  0
CLASS
  1
VISUALSTYLE
  2
AcDbVisualStyle
  3
ObjectDBX Classes
 90
     4095
280
     0
281
     0
  0
CLASS
  1
MATERIAL
  2
AcDbMaterial
  3
ObjectDBX Classes
 90
     1153
280
     0
281
     0
  0
CLASS
  1
SCALE
  2
AcDbScale
  3
ObjectDBX Classes
 90
     1153
280
     0
281
     0
  0
CLASS
  1
SUN
  2
AcDbSun
  3
SCENEOE
 90
     1153
280
     0
281
     0
  0
CLASS
  1
ACDBPLACEHOLDER
  2
AcDbPlaceHolder
  3
ObjectDBX Classes
 90
        0
280
     0
281
     0
  0
CLASS
  1
LAYOUT
  2
AcDbLayout
  3
ObjectDBX Classes
 90
        0
280
     0
281
     0
  0
CLASS
  1
TABLESTYLE
  2
AcDbTableStyle
  3
ObjectDBX Classes
 90
     4095
280
     0
281
     0
  0
CLASS
  1
MLEADERSTYLE
  2
AcDbMLeaderStyle
  3
ACDB_MLEADERSTYLE_CLASS
 90
     4095
280
     0
281
     0
  0
CLASS
  1
DIMASSOC
  2
AcDbDimAssoc
  3
"AcDbDimAssoc|Product Desc:     AcDim ARX App For Dimension|Company:          Autodesk, Inc.|WEB Address:      www.autodesk.com"
 90
        0
280
     0
281
     0
  0
CLASS
  1
RASTERVARIABLES
  2
AcDbRasterVariables
  3
ISM
 90
        0
280
     0
281
     0
  0
ENDSEC
  0
SECTION
  2
TABLES
  0
TABLE
  2
VPORT
  5
8
330
0
100
AcDbSymbolTable
 70
     1
  0
VPORT
  5
29
330
8
100
AcDbSymbolTableRecord
100
AcDbViewportTableRecord
  2
*Active
 70
     0
 10
0.0
 20
0.0
 11
1.0
 21
1.0
 12
12.78360925579478
 22
-0.5783501520728835
 13
0.0
 23
0.0
 14
10.0
 24
10.0
 15
10.0
 25
10.0
 16
0.0
 26
0.0
 36
1.0
 17
0.0
 27
0.0
 37
0.0
 40
5.235432253325293
 41
1.395752895752896
 42
50.0
 43
0.0
 44
0.0
 50
0.0
 51
0.0
 71
    16
 72
  2000
 73
     1
 74
     3
 75
     0
 76
     0
 77
     0
 78
     0
281
     0
 65
     1
110
0.0
120
0.0
130
0.0
111
1.0
121
0.0
131
0.0
112
0.0
122
1.0
132
0.0
 79
     0
146
0.0
  0
ENDTAB
  0
TABLE
  2
LTYPE
  5
5
330
0
100
AcDbSymbolTable
 70
     6
  0
LTYPE
  5
14
330
5
100
AcDbSymbolTableRecord
100
AcDbLinetypeTableRecord
  2
ByBlock
 70
     0
  3

 72
    65
 73
     0
 40
0.0
  0
LTYPE
  5
15
330
5
100
AcDbSymbolTableRecord
100
AcDbLinetypeTableRecord
  2
ByLayer
 70
     0
  3

 72
    65
 73
     0
 40
0.0
  0
LTYPE
  5
16
330
5
100
AcDbSymbolTableRecord
100
AcDbLinetypeTableRecord
  2
Continuous
 70
     0
  3
Solid line
 72
    65
 73
     0
 40
0.0
  0
LTYPE
  5
6A
330
5
100
AcDbSymbolTableRecord
100
AcDbLinetypeTableRecord
  2
HIDDEN
 70
     0
  3
Hidden __ __ __ __ __ __ __ __ __ __ __ __ __ __
 72
    65
 73
     2
 40
1.905
 49
1.27
 74
     0
 49
-0.635
 74
     0
  0
LTYPE
  5
6B
330
5
100
AcDbSymbolTableRecord
100
AcDbLinetypeTableRecord
  2
PHANTOM
 70
     0
  3
Phantom ______  __  __  ______  __  __  ______
 72
    65
 73
     6
 40
12.7
 49
6.35
 74
     0
 49
-1.27
 74
     0
 49
1.27
 74
     0
 49
-1.27
 74
     0
 49
1.27
 74
     0
 49
-1.27
 74
     0
  0
LTYPE
  5
6C
330
5
100
AcDbSymbolTableRecord
100
AcDbLinetypeTableRecord
  2
CENTER
 70
     0
  3
Center ____ _ ____ _ ____ _ ____ _ ____ _ ____
 72
    65
 73
     4
 40
10.16
 49
6.35
 74
     0
 49
-1.27
 74
     0
 49
1.27
 74
     0
 49
-1.27
 74
     0
  0
LTYPE
  5
6D
330
5
100
AcDbSymbolTableRecord
100
AcDbLinetypeTableRecord
  2
CENTERX2
 70
     0
  3
Center (2x) ________  __  ________  __  _____
 72
    65
 73
     4
 40
20.32
 49
12.7
 74
     0
 49
-2.54
 74
     0
 49
2.54
 74
     0
 49
-2.54
 74
     0
  0
LTYPE
  5
6E
330
5
100
AcDbSymbolTableRecord
100
AcDbLinetypeTableRecord
  2
DOT2
 70
     0
  3
Dot (.5x) ........................................
 72
    65
 73
     2
 40
0.635
 49
0.0
 74
     0
 49
-0.635
 74
     0
  0
ENDTAB
  0
TABLE
  2
LAYER
  5
2
330
0
100
AcDbSymbolTable
 70
    18
  0
LAYER
  5
10
330
2
100
AcDbSymbolTableRecord
100
AcDbLayerTableRecord
  2
0
 70
     0
 62
     7
  6
Continuous
370
    -3
390
F
  0
LAYER
  5
6F
330
2
100
AcDbSymbolTableRecord
100
AcDbLayerTableRecord
  2
FORMAT
 70
     0
 62
     2
  6
Continuous
370
    -3
390
F
  0
LAYER
  5
70
330
2
100
AcDbSymbolTableRecord
100
AcDbLayerTableRecord
  2
외형선
 70
     0
 62
     4
  6
Continuous
370
    30
390
F
  0
LAYER
  5
71
330
2
100
AcDbSymbolTableRecord
100
AcDbLayerTableRecord
  2
숨은선
 70
     0
 62
     2
  6
HIDDEN
370
    15
390
F
  0
LAYER
  5
72
330
2
100
AcDbSymbolTableRecord
100
AcDbLayerTableRecord
  2
중심선
 70
     0
 62
     1
  6
CENTERX2
370
    -3
390
F
  0
LAYER
  5
73
330
2
100
AcDbSymbolTableRecord
100
AcDbLayerTableRecord
  2
파단선
 70
     0
 62
     4
  6
Continuous
370
    -3
390
F
  0
LAYER
  5
74
330
2
100
AcDbSymbolTableRecord
100
AcDbLayerTableRecord
  2
해칭선
 70
     0
 62
   100
  6
Continuous
370
    -3
390
F
  0
LAYER
  5
75
330
2
100
AcDbSymbolTableRecord
100
AcDbLayerTableRecord
  2
가는실선
 70
     0
 62
     4
  6
Continuous
370
    -3
390
F
  0
LAYER
  5
76
330
2
100
AcDbSymbolTableRecord
100
AcDbLayerTableRecord
  2
치수_보조선
 70
     0
 62
     4
  6
Continuous
370
    -3
390
F
  0
LAYER
  5
77
330
2
100
AcDbSymbolTableRecord
100
AcDbLayerTableRecord
  2
치수문자_일반주서
 70
     0
 62
     7
  6
Continuous
370
    15
390
F
  0
LAYER
  5
78
330
2
100
AcDbSymbolTableRecord
100
AcDbLayerTableRecord
  2
개별주서
 70
     0
 62
   100
  6
Continuous
370
    30
390
F
  0
LAYER
  5
79
330
2
100
AcDbSymbolTableRecord
100
AcDbLayerTableRecord
  2
중간선
 70
     0
 62
     2
  6
Continuous
370
    15
390
F
  0
LAYER
  5
7A
330
2
100
AcDbSymbolTableRecord
100
AcDbLayerTableRecord
  2
윤곽선
 70
     0
 62
     3
  6
Continuous
370
    40
390
F
  0
LAYER
  5
7B
330
2
100
AcDbSymbolTableRecord
100
AcDbLayerTableRecord
  2
중심마크
 70
     0
 62
   100
  6
Continuous
370
    30
390
F
  0
LAYER
  5
7C
330
2
100
AcDbSymbolTableRecord
100
AcDbLayerTableRecord
  2
가상선
 70
     0
 62
     4
  6
PHANTOM
370
    -3
390
F
  0
LAYER
  5
7D
330
2
100
AcDbSymbolTableRecord
100
AcDbLayerTableRecord
  2
특수지정선
 70
     0
 62
     5
  6
CENTERX2
370
    60
390
F
  0
LAYER
  5
7E
330
2
100
AcDbSymbolTableRecord
100
AcDbLayerTableRecord
  2
참조1
 70
     0
 62
    -4
  6
Continuous
370
    -3
390
F
  0
LAYER
  5
13A
330
2
100
AcDbSymbolTableRecord
100
AcDbLayerTableRecord
  2
Defpoints
 70
     0
 62
     7
  6
Continuous
290
     0
370
    -3
390
F
  0
ENDTAB
  0
TABLE
  2
STYLE
  5
3
330
0
100
AcDbSymbolTable
 70
     2
  0
STYLE
  5
11
330
3
100
AcDbSymbolTableRecord
100
AcDbTextStyleTableRecord
  2
Standard
 70
     0
 40
0.0
 41
1.0
 50
0.0
 71
     0
 42
3.5
  3
txt
  4

  0
STYLE
  5
94
330
3
100
AcDbSymbolTableRecord
100
AcDbTextStyleTableRecord
  2
SLDTEXTSTYLE0
 70
     0
 40
0.0
 41
0.75
 50
0.0
 71
     0
 42
3.5
  3
TXT
  4

  0
ENDTAB
  0
TABLE
  2
VIEW
  5
6
330
0
100
AcDbSymbolTable
 70
     0
  0
ENDTAB
  0
TABLE
  2
UCS
  5
7
330
0
100
AcDbSymbolTable
 70
     0
  0
ENDTAB
  0
TABLE
  2
APPID
  5
9
330
0
100
AcDbSymbolTable
 70
     5
  0
APPID
  5
12
330
9
100
AcDbSymbolTableRecord
100
AcDbRegAppTableRecord
  2
ACAD
 70
     0
  0
APPID
  5
13E
330
9
100
AcDbSymbolTableRecord
100
AcDbRegAppTableRecord
  2
PE_URL
 70
     0
  0
APPID
  5
148
330
9
100
AcDbSymbolTableRecord
100
AcDbRegAppTableRecord
  2
ACAD_DSTYLE_DIMRADIAL_EXTENSION
 70
     0
  0
APPID
  5
18F
330
9
100
AcDbSymbolTableRecord
100
AcDbRegAppTableRecord
  2
ACAD_DSTYLE_DIMFLIPARROW_SYMBOL
 70
     0
  0
APPID
  5
190
330
9
100
AcDbSymbolTableRecord
100
AcDbRegAppTableRecord
  2
ACAD_DSTYLE_DIMFLIPARROW_WHICH_SYMBOL
 70
     0
  0
ENDTAB
  0
TABLE
  2
DIMSTYLE
  5
A
330
0
100
AcDbSymbolTable
 70
     3
100
AcDbDimStyleTable
  0
DIMSTYLE
105
27
330
A
100
AcDbSymbolTableRecord
100
AcDbDimStyleTableRecord
  2
ISO-25
 70
     0
 41
2.5
 42
0.625
 43
3.75
 44
1.25
 73
     0
 74
     0
 77
     1
 78
     8
140
2.5
141
2.5
143
0.03937007874016
147
0.625
171
     3
172
     1
178
     0
271
     2
272
     2
274
     3
278
    44
283
     0
284
     8
340
11
  0
DIMSTYLE
105
C8
102
{ACAD_REACTORS
330
C7
330
D5
330
E2
330
EE
330
177
102
}
330
A
100
AcDbSymbolTableRecord
100
AcDbDimStyleTableRecord
  2
SLDDIMSTYLE0
 70
     0
 41
3.302
 44
0.0
 45
0.000000001
 73
     0
 74
     0
 77
     1
 78
    12
 79
     3
140
3.5
147
0.875
172
     1
173
     1
178
     0
271
     2
272
     2
276
     2
284
    12
289
     0
340
94
  0
DIMSTYLE
105
FB
102
{ACAD_REACTORS
330
FA
102
}
330
A
100
AcDbSymbolTableRecord
100
AcDbDimStyleTableRecord
  2
SLDDIMSTYLE1
 70
     0
 41
3.302
 44
0.0
 45
0.000000001
 73
     0
 74
     0
 77
     1
 78
    12
 79
     3
140
3.5
147
0.875
173
     1
178
     0
271
     2
272
     2
276
     2
284
    12
340
94
  0
ENDTAB
  0
TABLE
  2
BLOCK_RECORD
  5
1
330
0
100
AcDbSymbolTable
 70
    10
  0
BLOCK_RECORD
  5
1F
330
1
100
AcDbSymbolTableRecord
100
AcDbBlockTableRecord
  2
*Model_Space
340
22
  0
BLOCK_RECORD
  5
1B
330
1
100
AcDbSymbolTableRecord
100
AcDbBlockTableRecord
  2
*Paper_Space
340
1E
  0
BLOCK_RECORD
  5
23
330
1
100
AcDbSymbolTableRecord
100
AcDbBlockTableRecord
  2
*Paper_Space0
340
26
  0
BLOCK_RECORD
  5
7F
330
1
100
AcDbSymbolTableRecord
100
AcDbBlockTableRecord
  2
블럭10
340
0
102
{BLKREFS
331
C0
102
}
  0
BLOCK_RECORD
  5
C9
330
1
100
AcDbSymbolTableRecord
100
AcDbBlockTableRecord
  2
_D
340
0
  0
BLOCK_RECORD
  5
D6
330
1
100
AcDbSymbolTableRecord
100
AcDbBlockTableRecord
  2
_D_1
340
0
  0
BLOCK_RECORD
  5
E3
330
1
100
AcDbSymbolTableRecord
100
AcDbBlockTableRecord
  2
_D_2
340
0
  0
BLOCK_RECORD
  5
EF
330
1
100
AcDbSymbolTableRecord
100
AcDbBlockTableRecord
  2
_D_3
340
0
  0
BLOCK_RECORD
  5
FC
330
1
100
AcDbSymbolTableRecord
100
AcDbBlockTableRecord
  2
_D_4
340
0
  0
BLOCK_RECORD
  5
10C
330
1
100
AcDbSymbolTableRecord
100
AcDbBlockTableRecord
  2
SW_DOWELSYMBOL_0
340
0
102
{BLKREFS
331
112
102
}
  0
BLOCK_RECORD
  5
16B
330
1
100
AcDbSymbolTableRecord
100
AcDbBlockTableRecord
  2
*D8
340
0
  0
BLOCK_RECORD
  5
17B
330
1
100
AcDbSymbolTableRecord
100
AcDbBlockTableRecord
  2
*D9
340
0
  0
ENDTAB
  0
ENDSEC
  0
SECTION
  2
BLOCKS
  0
BLOCK
  5
20
330
1F
100
AcDbEntity
  8
0
100
AcDbBlockBegin
  2
*Model_Space
 70
     0
 10
0.0
 20
0.0
 30
0.0
  3
*Model_Space
  1
*Model_Space
  0
ENDBLK
  5
21
330
1F
100
AcDbEntity
  8
0
100
AcDbBlockEnd
  0
BLOCK
  5
1C
330
1B
100
AcDbEntity
 67
     1
  8
0
100
AcDbBlockBegin
  2
*Paper_Space
 70
     0
 10
0.0
 20
0.0
 30
0.0
  3
*Paper_Space
  1
*Paper_Space
  0
ENDBLK
  5
1D
330
1B
100
AcDbEntity
 67
     1
  8
0
100
AcDbBlockEnd
  0
BLOCK
  5
24
330
23
100
AcDbEntity
  8
0
100
AcDbBlockBegin
  2
*Paper_Space0
 70
     0
 10
0.0
 20
0.0
 30
0.0
  3
*Paper_Space0
  1
*Paper_Space0
  0
ENDBLK
  5
25
330
23
100
AcDbEntity
  8
0
100
AcDbBlockEnd
  0
BLOCK
  5
80
330
7F
100
AcDbEntity
  8
0
100
AcDbBlockBegin
  2
블럭10
 70
     2
 10
0.0
 20
0.0
 30
0.0
  3
블럭10
  1
블럭10
  0
ELLIPSE
  5
82
330
7F
100
AcDbEntity
  8
중심선
100
AcDbEllipse
 10
20.54032771741204
 20
12.0471743016438
 30
0.0
 11
6.600054785286829
 21
-1.261213355974178E-13
 31
0.0
210
0.0
220
0.0
230
1.0
 40
0.636358354079598
 41
0.9219305317359503
 42
6.513795318482858
  0
ELLIPSE
  5
83
330
7F
100
AcDbEntity
  8
중심선
100
AcDbEllipse
 10
20.54032771746488
 20
12.04717430159265
 30
0.0
 11
3.960054785062283
 21
1.540847449632565E-10
 31
0.0
210
0.0
220
0.0
230
1.0
 40
0.3939339440162632
 41
1.131841032648279
 42
5.62031148352944
  0
LINE
  5
84
330
7F
100
AcDbEntity
  8
중심선
100
AcDbLine
 10
2.268634060543552
 20
16.24717430164393
 30
0.0
 11
5.714909304380834
 21
16.24717430164393
 31
0.0
  0
LINE
  5
85
330
7F
100
AcDbEntity
  8
중심선
100
AcDbLine
 10
5.245725140726316
 20
7.84717430164391
 30
0.0
 11
8.692000384563599
 21
7.84717430164391
 31
0.0
  0
LINE
  5
86
330
7F
100
AcDbEntity
  8
중심선
100
AcDbLine
 10
15.74043728645272
 20
16.24717430164393
 30
0.0
 11
8.692000384563599
 21
7.84717430164391
 31
0.0
  0
LINE
  5
87
330
7F
100
AcDbEntity
  8
중심선
100
AcDbLine
 10
0.1404042013395286
 20
13.71084872107135
 30
0.0
 11
3.58671253028996
 21
13.71088815037384
 31
0.0
  0
LINE
  5
88
330
7F
100
AcDbEntity
  8
중심선
100
AcDbLine
 10
2.750260043222114
 20
10.84717430164391
 30
0.0
 11
6.196535287059397
 21
10.84717430164391
 31
0.0
  0
LINE
  5
89
330
7F
100
AcDbEntity
  8
중심선
100
AcDbLine
 10
12.29416204261559
 20
16.24717430164393
 30
0.0
 11
5.245725140726316
 21
7.84717430164391
 31
0.0
  0
LINE
  5
8A
330
7F
100
AcDbEntity
  8
중심선
100
AcDbLine
 10
10.72767329541681
 20
16.24717430164393
 30
0.0
 11
6.196535287059397
 21
10.84717430164391
 31
0.0
  0
LINE
  5
8B
330
7F
100
AcDbEntity
  8
중심선
100
AcDbLine
 10
7.28139805157953
 20
16.24717430164393
 30
0.0
 11
2.750260043222114
 21
10.84717430164391
 31
0.0
  0
LINE
  5
8C
330
7F
100
AcDbEntity
  8
중심선
100
AcDbLine
 10
5.714909304380834
 20
16.24717430164393
 30
0.0
 11
3.58671253028996
 21
13.71088815037384
 31
0.0
  0
LINE
  5
8D
330
7F
100
AcDbEntity
  8
중심선
100
AcDbLine
 10
2.268634060543552
 20
16.24717430164393
 30
0.0
 11
0.1404042013395286
 21
13.71084872107135
 31
0.0
  0
LINE
  5
8E
330
7F
100
AcDbEntity
  8
중심선
100
AcDbLine
 10
7.28139805157953
 20
16.24717430164393
 30
0.0
 11
10.72767329541681
 21
16.24717430164393
 31
0.0
  0
LINE
  5
8F
330
7F
100
AcDbEntity
  8
중심선
100
AcDbLine
 10
12.29416204261559
 20
16.24717430164393
 30
0.0
 11
15.74043728645272
 21
16.24717430164393
 31
0.0
  0
LINE
  5
90
330
7F
100
AcDbEntity
  8
중심선
100
AcDbLine
 10
19.22036997980202
 20
11.08717430171403
 30
0.0
 11
23.66174974927406
 21
11.08717430171406
 31
0.0
  0
LINE
  5
91
330
7F
100
AcDbEntity
  8
중심선
100
AcDbLine
 10
19.22039502424796
 20
13.00717430171391
 30
0.0
 11
19.22036997980202
 21
11.08717430171403
 31
0.0
  0
LINE
  5
92
330
7F
100
AcDbEntity
  8
중심선
100
AcDbLine
 10
19.22039502424796
 20
13.00717430171391
 30
0.0
 11
26.96566020931264
 21
13.00717430171391
 31
0.0
  0
LINE
  5
93
330
7F
100
AcDbEntity
  8
중심선
100
AcDbLine
 10
22.22332737316547
 20
13.45928029700563
 30
0.0
 11
24.52862924686651
 21
15.39360700705356
 31
0.0
  0
ATTDEF
  5
95
330
7F
100
AcDbEntity
  8
FORMAT
 62
     2
100
AcDbText
 10
-5.688798381030251
 20
2.075366912832191
 30
0.0
 40
4.233333333333333
  1
SEME610200510E
 41
0.75
  7
SLDTEXTSTYLE0
 11
-5.688798381030251
 21
-0.0412997538344756
 31
0.0
100
AcDbAttributeDefinition
  3

  2
AUTOATTR0
 70
     0
 74
     1
  0
ENDBLK
  5
81
330
7F
100
AcDbEntity
  8
0
100
AcDbBlockEnd
  0
BLOCK
  5
CA
330
C9
100
AcDbEntity
  8
0
100
AcDbBlockBegin
  2
_D
 70
     0
 10
0.0
 20
0.0
 30
0.0
  3
_D
  1
_D
  0
LINE
  5
CC
330
C9
100
AcDbEntity
  8
치수문자_일반주서
 62
     0
370
    -2
100
AcDbLine
 10
11.92477918494926
 20
0.9999999999999991
 30
0.0
 11
30.67524256512419
 21
1.000000000000069
 31
0.0
  0
LINE
  5
CD
330
C9
100
AcDbEntity
  8
치수문자_일반주서
 62
     0
370
    -2
100
AcDbLine
 10
11.92477918494926
 20
-1.000000000000002
 30
0.0
 11
30.67524256512419
 21
-0.9999999999999307
 31
0.0
  0
LINE
  5
CE
330
C9
100
AcDbEntity
  8
치수문자_일반주서
 62
     0
370
    -2
100
AcDbLine
 10
30.67524256512419
 20
1.000000000000069
 30
0.0
 11
30.67524256512414
 21
13.72900000000007
 31
0.0
  0
LINE
  5
CF
330
C9
100
AcDbEntity
  8
치수문자_일반주서
 62
     0
370
    -2
100
AcDbLine
 10
30.67524256512419
 20
1.000000000000069
 30
0.0
 11
30.67524256512419
 21
-0.9999999999999307
 31
0.0
  0
LINE
  5
D0
330
C9
100
AcDbEntity
  8
치수문자_일반주서
 62
     0
370
    -2
100
AcDbLine
 10
30.67524256512418
 20
4.302000000000069
 30
0.0
 11
30.67524256512417
 21
7.604000000000068
 31
0.0
  0
LINE
  5
D1
330
C9
100
AcDbEntity
  8
치수문자_일반주서
 62
     0
370
    -2
100
AcDbLine
 10
30.6752425651242
 20
-4.30199999999993
 30
0.0
 11
30.67524256512421
 21
-7.60399999999993
 31
0.0
  0
SOLID
  5
D2
330
C9
100
AcDbEntity
  8
치수문자_일반주서
 62
     0
100
AcDbTrace
 10
30.12490923179084
 20
4.302000000000067
 30
0.0
 11
31.22557589845751
 21
4.302000000000071
 31
0.0
 12
30.67524256512419
 22
1.000000000000069
 32
0.0
 13
30.67524256512419
 23
1.000000000000069
 33
0.0
  0
SOLID
  5
D3
330
C9
100
AcDbEntity
  8
치수문자_일반주서
 62
     0
100
AcDbTrace
 10
31.22557589845754
 20
-4.301999999999929
 30
0.0
 11
30.12490923179087
 21
-4.301999999999932
 31
0.0
 12
30.67524256512419
 22
-0.9999999999999307
 32
0.0
 13
30.67524256512419
 23
-0.9999999999999307
 33
0.0
  0
MTEXT
  5
D4
330
C9
100
AcDbEntity
  8
치수문자_일반주서
 62
     0
100
AcDbMText
 10
26.30024256512415
 20
10.66650000000005
 30
0.0
 40
3.5
 41
0.0
 71
     2
 72
     1
  1
\A1;%%c2
  7
SLDTEXTSTYLE0
 11
-3.552713678800499E-15
 21
1.0
 31
0.0
 73
     1
 44
1.0
  0
POINT
  5
13B
330
C9
100
AcDbEntity
  8
Defpoints
 62
     0
100
AcDbPoint
 10
11.86227918494926
 20
0.9999999999999989
 30
0.0
  0
POINT
  5
13C
330
C9
100
AcDbEntity
  8
Defpoints
 62
     0
100
AcDbPoint
 10
11.86227918494926
 20
-1.000000000000002
 30
0.0
  0
POINT
  5
13D
330
C9
100
AcDbEntity
  8
Defpoints
 62
     0
100
AcDbPoint
 10
30.67524256512419
 20
-0.9999999999999317
 30
0.0
  0
ENDBLK
  5
CB
330
C9
100
AcDbEntity
  8
0
100
AcDbBlockEnd
  0
BLOCK
  5
D7
330
D6
100
AcDbEntity
  8
0
100
AcDbBlockBegin
  2
_D_1
 70
     0
 10
0.0
 20
0.0
 30
0.0
  3
_D_1
  1
_D_1
  0
LINE
  5
D9
330
D6
100
AcDbEntity
  8
치수문자_일반주서
 62
     0
370
    -2
100
AcDbLine
 10
-35.8371479222419
 20
2.000000000000001
 30
0.0
 11
-45.4335323873768
 21
1.999999999999965
 31
0.0
  0
LINE
  5
DA
330
D6
100
AcDbEntity
  8
치수문자_일반주서
 62
     0
370
    -2
100
AcDbLine
 10
-35.8371479222419
 20
-2.000000000000002
 30
0.0
 11
-45.43353238737679
 21
-2.000000000000039
 31
0.0
  0
LINE
  5
DB
330
D6
100
AcDbEntity
  8
치수문자_일반주서
 62
     0
370
    -2
100
AcDbLine
 10
-45.4335323873768
 20
1.999999999999965
 30
0.0
 11
-45.43353238737679
 21
-2.000000000000039
 31
0.0
  0
LINE
  5
DC
330
D6
100
AcDbEntity
  8
치수문자_일반주서
 62
     0
370
    -2
100
AcDbLine
 10
-45.43353238737681
 20
5.301999999999964
 30
0.0
 11
-45.43353238737683
 21
8.603999999999964
 31
0.0
  0
LINE
  5
DD
330
D6
100
AcDbEntity
  8
치수문자_일반주서
 62
     0
370
    -2
100
AcDbLine
 10
-45.43353238737677
 20
-5.302000000000039
 30
0.0
 11
-45.43353238737676
 21
-8.604000000000038
 31
0.0
  0
SOLID
  5
DE
330
D6
100
AcDbEntity
  8
치수문자_일반주서
 62
     0
100
AcDbTrace
 10
-45.98386572071015
 20
5.301999999999962
 30
0.0
 11
-44.88319905404348
 21
5.301999999999966
 31
0.0
 12
-45.4335323873768
 22
1.999999999999965
 32
0.0
 13
-45.4335323873768
 23
1.999999999999965
 33
0.0
  0
SOLID
  5
DF
330
D6
100
AcDbEntity
  8
치수문자_일반주서
 62
     0
100
AcDbTrace
 10
-44.88319905404344
 20
-5.302000000000037
 30
0.0
 11
-45.98386572071011
 21
-5.30200000000004
 31
0.0
 12
-45.43353238737679
 22
-2.000000000000039
 32
0.0
 13
-45.43353238737679
 23
-2.000000000000039
 33
0.0
  0
MTEXT
  5
E0
330
D6
100
AcDbEntity
  8
치수문자_일반주서
 62
     0
100
AcDbMText
 10
-49.80853238737679
 20
-0.0000000000000143
 30
0.0
 40
3.5
 41
0.0
 71
     2
 72
     1
  1
\A1;%%c4
  7
SLDTEXTSTYLE0
 11
-3.552713678800499E-15
 21
1.0
 31
0.0
 73
     1
 44
1.0
  0
POINT
  5
E1
330
D6
100
AcDbEntity
  8
Defpoints
 62
     0
100
AcDbPoint
 10
-35.7746479222419
 20
2.000000000000002
 30
0.0
  0
POINT
  5
18C
330
D6
100
AcDbEntity
  8
Defpoints
 62
     0
100
AcDbPoint
 10
-35.7746479222419
 20
-2.000000000000002
 30
0.0
  0
POINT
  5
18D
330
D6
100
AcDbEntity
  8
Defpoints
 62
     0
100
AcDbPoint
 10
-45.43353238737679
 20
-2.000000000000038
 30
0.0
  0
ENDBLK
  5
D8
330
D6
100
AcDbEntity
  8
0
100
AcDbBlockEnd
  0
BLOCK
  5
E4
330
E3
100
AcDbEntity
  8
0
100
AcDbBlockBegin
  2
_D_2
 70
     0
 10
0.0
 20
0.0
 30
0.0
  3
_D_2
  1
_D_2
  0
LINE
  5
E6
330
E3
100
AcDbEntity
  8
치수문자_일반주서
 62
     0
370
    -2
100
AcDbLine
 10
10.82535207775809
 20
1.062499999999998
 30
0.0
 11
10.82535207775809
 21
12.99892507127612
 31
0.0
  0
LINE
  5
E7
330
E3
100
AcDbEntity
  8
치수문자_일반주서
 62
     0
370
    -2
100
AcDbLine
 10
13.82535207775809
 20
0.561871435835857
 30
0.0
 11
13.82535207775809
 21
12.99892507127612
 31
0.0
  0
LINE
  5
E8
330
E3
100
AcDbEntity
  8
치수문자_일반주서
 62
     0
370
    -2
100
AcDbLine
 10
13.82535207775809
 20
12.99892507127612
 30
0.0
 11
23.92935207775809
 21
12.99892507127612
 31
0.0
  0
LINE
  5
E9
330
E3
100
AcDbEntity
  8
치수문자_일반주서
 62
     0
370
    -2
100
AcDbLine
 10
10.82535207775809
 20
12.99892507127612
 30
0.0
 11
13.82535207775809
 21
12.99892507127612
 31
0.0
  0
LINE
  5
EA
330
E3
100
AcDbEntity
  8
치수문자_일반주서
 62
     0
370
    -2
100
AcDbLine
 10
7.523352077758089
 20
12.99892507127612
 30
0.0
 11
4.221352077758089
 21
12.99892507127612
 31
0.0
  0
LINE
  5
EB
330
E3
100
AcDbEntity
  8
치수문자_일반주서
 62
     0
370
    -2
100
AcDbLine
 10
17.12735207775809
 20
12.99892507127612
 30
0.0
 11
20.42935207775809
 21
12.99892507127612
 31
0.0
  0
SOLID
  5
EC
330
E3
100
AcDbEntity
  8
치수문자_일반주서
 62
     0
100
AcDbTrace
 10
7.523352077758089
 20
12.44859173794278
 30
0.0
 11
7.523352077758089
 21
13.54925840460945
 31
0.0
 12
10.82535207775809
 22
12.99892507127612
 32
0.0
 13
10.82535207775809
 23
12.99892507127612
 33
0.0
  0
SOLID
  5
ED
330
E3
100
AcDbEntity
  8
치수문자_일반주서
 62
     0
100
AcDbTrace
 10
17.12735207775809
 20
13.54925840460945
 30
0.0
 11
17.12735207775809
 21
12.44859173794278
 31
0.0
 12
13.82535207775809
 22
12.99892507127612
 32
0.0
 13
13.82535207775809
 23
12.99892507127612
 33
0.0
  0
MTEXT
  5
184
330
E3
100
AcDbEntity
  8
치수문자_일반주서
 62
     0
100
AcDbMText
 10
22.17935207775809
 20
17.37392507127612
 30
0.0
 40
3.5
 41
0.0
 71
     2
 72
     1
  1
\A1;3
  7
SLDTEXTSTYLE0
 73
     1
 44
1.0
  0
POINT
  5
185
330
E3
100
AcDbEntity
  8
Defpoints
 62
     0
100
AcDbPoint
 10
10.82535207775809
 20
0.9999999999999984
 30
0.0
  0
POINT
  5
186
330
E3
100
AcDbEntity
  8
Defpoints
 62
     0
100
AcDbPoint
 10
13.82535207775809
 20
0.499371435835857
 30
0.0
  0
POINT
  5
187
330
E3
100
AcDbEntity
  8
Defpoints
 62
     0
100
AcDbPoint
 10
13.82535207775809
 20
12.99892507127615
 30
0.0
  0
ENDBLK
  5
E5
330
E3
100
AcDbEntity
  8
0
100
AcDbBlockEnd
  0
BLOCK
  5
F0
330
EF
100
AcDbEntity
  8
0
100
AcDbBlockBegin
  2
_D_3
 70
     0
 10
0.0
 20
0.0
 30
0.0
  3
_D_3
  1
_D_3
  0
LINE
  5
F2
330
EF
100
AcDbEntity
  8
치수문자_일반주서
 62
     0
370
    -2
100
AcDbLine
 10
13.82535207775809
 20
0.561871435835857
 30
0.0
 11
13.82535207775809
 21
22.42179033899513
 31
0.0
  0
LINE
  5
F3
330
EF
100
AcDbEntity
  8
치수문자_일반주서
 62
     0
370
    -2
100
AcDbLine
 10
3.825352077758089
 20
1.0375
 30
0.0
 11
3.825352077758088
 21
22.42179033899513
 31
0.0
  0
LINE
  5
F4
330
EF
100
AcDbEntity
  8
치수문자_일반주서
 62
     0
370
    -2
100
AcDbLine
 10
10.52335207775809
 20
22.42179033899513
 30
0.0
 11
7.127352077758088
 21
22.42179033899513
 31
0.0
  0
SOLID
  5
F5
330
EF
100
AcDbEntity
  8
치수문자_일반주서
 62
     0
100
AcDbTrace
 10
10.52335207775809
 20
21.8714570056618
 30
0.0
 11
10.52335207775809
 21
22.97212367232847
 31
0.0
 12
13.82535207775809
 22
22.42179033899513
 32
0.0
 13
13.82535207775809
 23
22.42179033899513
 33
0.0
  0
SOLID
  5
F6
330
EF
100
AcDbEntity
  8
치수문자_일반주서
 62
     0
100
AcDbTrace
 10
7.127352077758088
 20
22.97212367232847
 30
0.0
 11
7.127352077758088
 21
21.8714570056618
 31
0.0
 12
3.825352077758088
 22
22.42179033899513
 32
0.0
 13
3.825352077758088
 23
22.42179033899513
 33
0.0
  0
MTEXT
  5
F7
330
EF
100
AcDbEntity
  8
치수문자_일반주서
 62
     0
100
AcDbMText
 10
8.825352077758087
 20
26.79679033899513
 30
0.0
 40
3.5
 41
0.0
 71
     2
 72
     1
  1
\A1;10
  7
SLDTEXTSTYLE0
 73
     1
 44
1.0
  0
POINT
  5
F8
330
EF
100
AcDbEntity
  8
Defpoints
 62
     0
100
AcDbPoint
 10
13.82535207775809
 20
0.499371435835857
 30
0.0
  0
POINT
  5
F9
330
EF
100
AcDbEntity
  8
Defpoints
 62
     0
100
AcDbPoint
 10
3.825352077758089
 20
0.975
 30
0.0
  0
POINT
  5
188
330
EF
100
AcDbEntity
  8
Defpoints
 62
     0
100
AcDbPoint
 10
3.825352077758089
 20
22.42179033899513
 30
0.0
  0
ENDBLK
  5
F1
330
EF
100
AcDbEntity
  8
0
100
AcDbBlockEnd
  0
BLOCK
  5
FD
330
FC
100
AcDbEntity
  8
0
100
AcDbBlockBegin
  2
_D_4
 70
     0
 10
0.0
 20
0.0
 30
0.0
  3
_D_4
  1
_D_4
  0
LINE
  5
FF
330
FC
100
AcDbEntity
  8
치수문자_일반주서
 62
     0
370
    -2
100
AcDbLine
 10
13.82535207775809
 20
0.561871435835857
 30
0.0
 11
13.82535207775809
 21
30.4820260082852
 31
0.0
  0
LINE
  5
100
330
FC
100
AcDbEntity
  8
치수문자_일반주서
 62
     0
370
    -2
100
AcDbLine
 10
-36.17464792224191
 20
1.662500000000004
 30
0.0
 11
-36.17464792224191
 21
30.4820260082852
 31
0.0
  0
LINE
  5
101
330
FC
100
AcDbEntity
  8
치수문자_일반주서
 62
     0
370
    -2
100
AcDbLine
 10
10.52335207775809
 20
30.4820260082852
 30
0.0
 11
-32.87264792224191
 21
30.4820260082852
 31
0.0
  0
SOLID
  5
102
330
FC
100
AcDbEntity
  8
치수문자_일반주서
 62
     0
100
AcDbTrace
 10
10.52335207775809
 20
29.93169267495187
 30
0.0
 11
10.52335207775809
 21
31.03235934161853
 31
0.0
 12
13.82535207775809
 22
30.4820260082852
 32
0.0
 13
13.82535207775809
 23
30.4820260082852
 33
0.0
  0
SOLID
  5
103
330
FC
100
AcDbEntity
  8
치수문자_일반주서
 62
     0
100
AcDbTrace
 10
-32.87264792224191
 20
31.03235934161853
 30
0.0
 11
-32.87264792224191
 21
29.93169267495187
 31
0.0
 12
-36.17464792224191
 22
30.4820260082852
 32
0.0
 13
-36.17464792224191
 23
30.4820260082852
 33
0.0
  0
MTEXT
  5
104
330
FC
100
AcDbEntity
  8
치수문자_일반주서
 62
     0
100
AcDbMText
 10
-11.17464792224191
 20
34.8570260082852
 30
0.0
 40
3.5
 41
0.0
 71
     2
 72
     1
  1
\A1;50
  7
SLDTEXTSTYLE0
 73
     1
 44
1.0
  0
POINT
  5
189
330
FC
100
AcDbEntity
  8
Defpoints
 62
     0
100
AcDbPoint
 10
13.82535207775809
 20
0.499371435835857
 30
0.0
  0
POINT
  5
18A
330
FC
100
AcDbEntity
  8
Defpoints
 62
     0
100
AcDbPoint
 10
-36.17464792224191
 20
1.600000000000004
 30
0.0
  0
POINT
  5
18B
330
FC
100
AcDbEntity
  8
Defpoints
 62
     0
100
AcDbPoint
 10
-36.17464792224191
 20
30.4820260082852
 30
0.0
  0
ENDBLK
  5
FE
330
FC
100
AcDbEntity
  8
0
100
AcDbBlockEnd
  0
BLOCK
  5
10D
330
10C
100
AcDbEntity
  8
0
100
AcDbBlockBegin
  2
SW_DOWELSYMBOL_0
 70
     0
 10
0.0
 20
0.0
 30
0.0
  3
SW_DOWELSYMBOL_0
  1
SW_DOWELSYMBOL_0
  0
CIRCLE
  5
10F
330
10C
100
AcDbEntity
  8
해칭선
 62
     0
100
AcDbCircle
 10
0.0
 20
0.0
 30
0.0
 40
3.000000000000001
  0
HATCH
  5
110
330
10C
100
AcDbEntity
  8
0
  6
Continuous
 62
     0
370
     0
100
AcDbHatch
 10
0.0
 20
0.0
 30
0.0
210
0.0
220
0.0
230
1.0
  2
SOLID
 70
     1
 71
     0
 91
        1
 92
        0
 93
        3
 72
     2
 10
0.0
 20
0.0
 40
3.000000000000001
 50
0.0
 51
90.0
 73
     1
 72
     1
 10
0.0
 20
3.000000000000001
 11
0.0
 21
0.0
 72
     1
 10
0.0
 20
0.0
 11
3.000000000000001
 21
0.0
 97
        0
 75
     0
 76
     1
 98
        1
 10
0.0
 20
0.0
  0
HATCH
  5
111
330
10C
100
AcDbEntity
  8
0
  6
Continuous
 62
     0
370
     0
100
AcDbHatch
 10
0.0
 20
0.0
 30
0.0
210
0.0
220
0.0
230
1.0
  2
SOLID
 70
     1
 71
     0
 91
        1
 92
        0
 93
        3
 72
     2
 10
0.0
 20
0.0
 40
3.000000000000001
 50
180.0
 51
270.0000000000007
 73
     1
 72
     1
 10
0.0
 20
-3.000000000000001
 11
0.0
 21
0.0
 72
     1
 10
0.0
 20
0.0
 11
-3.000000000000001
 21
0.0
 97
        0
 75
     0
 76
     1
 98
        1
 10
0.0
 20
0.0
  0
ENDBLK
  5
10E
330
10C
100
AcDbEntity
  8
0
100
AcDbBlockEnd
  0
BLOCK
  5
16C
330
16B
100
AcDbEntity
  8
0
100
AcDbBlockBegin
  2
*D8
 70
     1
 10
0.0
 20
0.0
 30
0.0
  3
*D8
  1
*D8
  0
LINE
  5
16D
330
16B
100
AcDbEntity
  8
치수문자_일반주서
 62
     0
370
    -2
100
AcDbLine
 10
2.517683995371131
 20
15.76954310498442
 30
0.0
 11
19.87039465070746
 21
-0.0000000000000009
 31
0.0
  0
MTEXT
  5
16E
330
16B
100
AcDbEntity
  8
치수문자_일반주서
 62
     0
100
AcDbMText
 10
18.23616403395426
 20
5.032142123764634
 30
0.0
 40
3.5
 41
0.0
 71
     5
 72
     1
  1
\A1;R0.5
  7
SLDTEXTSTYLE0
 11
0.7400599633660002
 21
-0.6725408914130905
 31
0.0
 73
     1
 44
1.0
  0
LINE
  5
16F
330
16B
100
AcDbEntity
  8
치수문자_일반주서
 62
     0
370
    -2
100
AcDbLine
 10
0.0
 20
18.05752721757175
 30
0.0
 11
0.0740059963365987
 21
17.99027312843044
 31
0.0
  0
SOLID
  5
170
330
16B
100
AcDbEntity
  8
치수문자_일반주서
 62
     0
100
AcDbTrace
 10
2.887805665945469
 20
16.17682277149017
 30
0.0
 11
2.147562324796794
 21
15.36226343847866
 31
0.0
 12
0.0740059963365987
 22
17.99027312843044
 32
0.0
 13
0.0740059963365987
 23
17.99027312843044
 33
0.0
  0
POINT
  5
171
330
16B
100
AcDbEntity
  8
Defpoints
 62
     0
100
AcDbPoint
 10
0.0740059963365987
 20
17.99027312843044
 30
0.0
  0
POINT
  5
172
330
16B
100
AcDbEntity
  8
Defpoints
 62
     0
100
AcDbPoint
 10
0.0
 20
18.05752721757175
 30
0.0
  0
ENDBLK
  5
173
330
16B
100
AcDbEntity
  8
0
100
AcDbBlockEnd
  0
BLOCK
  5
17C
330
17B
100
AcDbEntity
  8
0
100
AcDbBlockBegin
  2
*D9
 70
     1
 10
0.0
 20
0.0
 30
0.0
  3
*D9
  1
*D9
  0
LINE
  5
17E
330
17B
100
AcDbEntity
  8
치수문자_일반주서
 62
     0
370
    -2
100
AcDbLine
 10
16.12258346738589
 20
-3.073654849875151
 30
0.0
 11
33.47529412272223
 21
-18.84319795485957
 31
0.0
  0
MTEXT
  5
17F
330
17B
100
AcDbEntity
  8
치수문자_일반주서
 62
     0
100
AcDbMText
 10
31.84106350596903
 20
-13.81105583109493
 30
0.0
 40
3.5
 41
0.0
 71
     5
 72
     1
  1
\A1;R0.5
  7
SLDTEXTSTYLE0
 11
0.7400599633660002
 21
-0.6725408914130905
 31
0.0
 73
     1
 44
1.0
  0
LINE
  5
180
330
17B
100
AcDbEntity
  8
치수문자_일반주서
 62
     0
370
    -2
100
AcDbLine
 10
13.60489947201476
 20
-0.7856707372878184
 30
0.0
 11
13.67890546835136
 21
-0.8529248264291263
 31
0.0
  0
SOLID
  5
181
330
17B
100
AcDbEntity
  8
치수문자_일반주서
 62
     0
100
AcDbTrace
 10
16.49270513796023
 20
-2.666375183369395
 30
0.0
 11
15.75246179681156
 21
-3.480934516380906
 31
0.0
 12
13.67890546835136
 22
-0.8529248264291263
 32
0.0
 13
13.67890546835136
 23
-0.8529248264291263
 33
0.0
  0
POINT
  5
182
330
17B
100
AcDbEntity
  8
Defpoints
 62
     0
100
AcDbPoint
 10
13.67890546835136
 20
-0.8529248264291263
 30
0.0
  0
POINT
  5
183
330
17B
100
AcDbEntity
  8
Defpoints
 62
     0
100
AcDbPoint
 10
13.60489947201476
 20
-0.7856707372878184
 30
0.0
  0
ENDBLK
  5
17D
330
17B
100
AcDbEntity
  8
0
100
AcDbBlockEnd
  0
ENDSEC
  0
SECTION
  2
ENTITIES
  0
ARC
  5
96
330
1F
100
AcDbEntity
  8
외형선
  6
Continuous
 62
     1
370
    15
100
AcDbCircle
 10
13.32535207775809
 20
-0.500000000000002
 30
0.0
 40
0.5000000000000036
100
AcDbArc
 50
355.4780884824295
 51
0.0
  0
LINE
  5
97
330
1F
100
AcDbEntity
  8
외형선
  6
Continuous
 62
     1
370
    15
100
AcDbLine
 10
11.8625281825492
 20
0.9999999999999989
 30
0.0
 11
10.82535207775809
 21
0.9999999999999989
 31
0.0
  0
LINE
  5
98
330
1F
100
AcDbEntity
  8
외형선
  6
Continuous
 62
     1
370
    15
100
AcDbLine
 10
10.82535207775809
 20
-1.000000000000002
 30
0.0
 11
11.8625281825492
 21
-1.000000000000002
 31
0.0
  0
ARC
  5
99
330
1F
100
AcDbEntity
  8
외형선
  6
Continuous
 62
     1
370
    15
100
AcDbCircle
 10
13.32535207775809
 20
0.4999999999999996
 30
0.0
 40
0.5000000000000002
100
AcDbArc
 50
0.0
 51
4.498241561617507
  0
LINE
  5
9A
330
1F
100
AcDbEntity
  8
외형선
  6
Continuous
370
    15
100
AcDbLine
 10
0.0
 20
-2.0
 30
0.0
 11
3.825352077758089
 21
-0.975
 31
0.0
  0
LINE
  5
9B
330
1F
100
AcDbEntity
  8
외형선
  6
Continuous
370
    15
100
AcDbLine
 10
3.825352077758089
 20
0.975
 30
0.0
 11
0.0
 21
2.0
 31
0.0
  0
LINE
  5
9C
330
1F
100
AcDbEntity
  8
외형선
  6
Continuous
370
    15
100
AcDbLine
 10
-35.77464792224191
 20
-2.0
 30
0.0
 11
0.0
 21
-2.0
 31
0.0
  0
LINE
  5
9D
330
1F
100
AcDbEntity
  8
외형선
  6
Continuous
370
    15
100
AcDbLine
 10
0.0
 20
2.0
 30
0.0
 11
-35.77464792224191
 21
2.0
 31
0.0
  0
LINE
  5
9E
330
1F
100
AcDbEntity
  8
외형선
  6
Continuous
370
    15
100
AcDbLine
 10
-35.77464792224191
 20
2.0
 30
0.0
 11
-36.17464792224191
 21
1.600000000000004
 31
0.0
  0
LINE
  5
9F
330
1F
100
AcDbEntity
  8
외형선
  6
Continuous
370
    15
100
AcDbLine
 10
-36.17464792224191
 20
-1.600000000000004
 30
0.0
 11
-35.77464792224191
 21
-2.0
 31
0.0
  0
LINE
  5
A0
330
1F
100
AcDbEntity
  8
외형선
  6
Continuous
370
    15
100
AcDbLine
 10
3.825352077758089
 20
-0.975
 30
0.0
 11
10.82535207775809
 21
-0.975
 31
0.0
  0
LINE
  5
A1
330
1F
100
AcDbEntity
  8
외형선
  6
Continuous
370
    15
100
AcDbLine
 10
10.82535207775809
 20
0.975
 30
0.0
 11
3.825352077758089
 21
0.975
 31
0.0
  0
SPLINE
  5
A3
330
1F
100
AcDbEntity
  8
외형선
  6
Continuous
 62
     1
370
    15
100
AcDbSpline
210
0.0
220
0.0
230
1.0
 70
     8
 71
     3
 72
    12
 73
     8
 74
     0
 42
0.000000001
 43
0.00000001
 40
0.0
 40
0.0
 40
0.0
 40
0.0
 40
0.0314143885351766
 40
0.2535669148150486
 40
0.4767972081092382
 40
0.7385162184497411
 40
1.0
 40
1.0
 40
1.0
 40
1.0
 10
12.92601378497745
 20
-0.814124669077602
 30
0.0
 10
12.90403339273465
 20
-0.822546140635534
 30
0.0
 10
12.72661468406905
 20
-0.8905215703898443
 30
0.0
 10
12.39291884011245
 20
-0.9621754827419389
 30
0.0
 10
11.89720949372053
 20
-1.01450190175932
 30
0.0
 10
11.37470560132995
 20
-0.9804055559518879
 30
0.0
 10
11.00841502494171
 20
-0.8772792498532382
 30
0.0
 10
10.82535207775425
 20
-0.8257392792836344
 30
0.0
  0
SPLINE
  5
A4
330
1F
100
AcDbEntity
  8
외형선
  6
Continuous
370
    15
100
AcDbSpline
210
0.0
220
0.0
230
1.0
 70
    24
 71
     3
 72
    22
 73
    18
 74
     0
 42
0.000000001
 43
0.00000001
 40
0.0
 40
0.0
 40
0.0
 40
0.0
 40
0.0527721578302455
 40
0.1063414812921162
 40
0.1785928221854476
 40
0.2529394568593362
 40
0.3251907977527106
 40
0.3995374324266466
 40
0.4717887733200008
 40
0.546135407993916
 40
0.6183867488872707
 40
0.6927333835611864
 40
0.7649847244545577
 40
0.8393313591284437
 40
0.9115827000217951
 40
0.9859293346957071
 40
1.0
 40
1.0
 40
1.0
 40
1.0
 10
10.82535207775807
 20
-0.8257392792848743
 30
0.0
 10
10.82535207775809
 20
-0.8100538223843565
 30
0.0
 10
10.82535207775814
 20
-0.7784459672174278
 30
0.0
 10
10.82535207775807
 20
-0.7161993235638824
 30
0.0
 10
10.82535207775806
 20
-0.6388262028297924
 30
0.0
 10
10.82535207775811
 20
-0.5459591375131458
 30
0.0
 10
10.82535207775805
 20
-0.4468327759548403
 30
0.0
 10
10.82535207775807
 20
-0.3459710207386013
 30
0.0
 10
10.82535207775812
 20
-0.2444316102741187
 30
0.0
 10
10.82535207775808
 20
-0.1469094869143072
 30
0.0
 10
10.82535207775808
 20
-0.05441824739612
 30
0.0
 10
10.82535207775811
 20
0.0287866222313745
 30
0.0
 10
10.82535207775809
 20
0.1017472078967831
 30
0.0
 10
10.82535207775808
 20
0.1614586807458337
 30
0.0
 10
10.82535207775814
 20
0.2059089854649678
 30
0.0
 10
10.8253520777581
 20
0.229646577148086
 30
0.0
 10
10.82535207775811
 20
0.2349340495995385
 30
0.0
 10
10.8253520777581
 20
0.235775494149286
 30
0.0
  0
SPLINE
  5
A5
330
1F
100
AcDbEntity
  8
외형선
  6
Continuous
 62
     1
370
    15
100
AcDbSpline
210
0.0
220
0.0
230
1.0
 70
     8
 71
     3
 72
    18
 73
    14
 74
     0
 42
0.000000001
 43
0.00000001
 40
0.0
 40
0.0
 40
0.0
 40
0.0
 40
0.125
 40
0.125
 40
0.25
 40
0.25
 40
0.375
 40
0.375
 40
0.5
 40
0.5
 40
0.75
 40
0.75
 40
1.0
 40
1.0
 40
1.0
 40
1.0
 10
13.32535207775809
 20
-0.9993714358358523
 30
0.0
 10
13.22111440146042
 20
-0.9754504617370489
 30
0.0
 10
13.12062263734214
 20
-0.9260021333613836
 30
0.0
 10
12.91098581216987
 20
-0.8187348945413229
 30
0.0
 10
12.80516404560313
 20
-0.7822558326264945
 30
0.0
 10
12.59523281910126
 20
-0.7013489609541467
 30
0.0
 10
12.49283770300095
 20
-0.6571993219185654
 30
0.0
 10
12.28597617241233
 20
-0.5620316195890268
 30
0.0
 10
12.18038981066013
 20
-0.510797122913643
 30
0.0
 10
11.86482791871239
 20
-0.3497291973802616
 30
0.0
 10
11.66078287239497
 20
-0.2334705134327972
 30
0.0
 10
11.23978006842519
 20
0.0064774366351866
 30
0.0
 10
11.03566308989548
 20
0.1277008298256107
 30
0.0
 10
10.82535207775095
 20
0.2447472565517192
 30
0.0
  0
SPLINE
  5
A6
330
1F
100
AcDbEntity
  8
외형선
  6
Continuous
 62
     1
370
    15
100
AcDbSpline
210
0.0
220
0.0
230
1.0
 70
     8
 71
     3
 72
    10
 73
     6
 74
     0
 42
0.000000001
 43
0.00000001
 40
0.565105576195634
 40
0.565105576195634
 40
0.565105576195634
 40
0.565105576195634
 40
0.6446255670273783
 40
0.8482115433704006
 40
1.0
 40
1.0
 40
1.0
 40
1.0
 10
13.60419741659184
 20
0.4733967362642878
 30
0.0
 10
13.58881896084046
 20
0.4872770297549536
 30
0.0
 10
13.53266140419198
 20
0.5364739591031935
 30
0.0
 10
13.44032336332981
 20
0.6072472829322122
 30
0.0
 10
13.35976176023172
 20
0.6469457598877316
 30
0.0
 10
13.325352077758
 20
0.6639018771222212
 30
0.0
  0
LINE
  5
A7
330
1F
100
AcDbEntity
  8
외형선
  6
Continuous
 62
     1
370
    15
100
AcDbLine
 10
13.82535207775809
 20
0.2713911735322618
 30
0.0
 11
13.82535207775809
 21
-0.500000000000002
 31
0.0
  0
SPLINE
  5
A8
330
1F
100
AcDbEntity
  8
외형선
  6
Continuous
 62
     1
370
    15
100
AcDbSpline
210
0.0
220
0.0
230
1.0
 70
     8
 71
     3
 72
    11
 73
     7
 74
     0
 42
0.000000001
 43
0.00000001
 40
0.0
 40
0.0
 40
0.0
 40
0.0
 40
0.3182690256991703
 40
0.6372492302062134
 40
0.9577769586077401
 40
0.9999999999999999
 40
0.9999999999999999
 40
0.9999999999999999
 40
0.9999999999999999
 10
13.32535207775808
 20
0.6639018771221841
 30
0.0
 10
13.17026253249395
 20
0.7268135992552186
 30
0.0
 10
12.85973689112661
 20
0.852777621082832
 30
0.0
 10
12.3929516157744
 20
0.9595134136812656
 30
0.0
 10
12.06000343293056
 20
1.010720591148868
 30
0.0
 10
11.88311718223385
 20
0.9966371731026951
 30
0.0
 10
11.86252818254921
 20
0.9949979078202368
 30
0.0
  0
LINE
  5
A9
330
1F
100
AcDbEntity
  8
외형선
  6
Continuous
370
    15
100
AcDbLine
 10
10.82535207775809
 20
0.9999999999999989
 30
0.0
 11
10.82535207775494
 21
0.2447472565498736
 31
0.0
  0
LINE
  5
AB
330
1F
100
AcDbEntity
  8
외형선
  6
Continuous
 62
     1
370
    15
100
AcDbLine
 10
13.82535207775809
 20
0.2713911735322618
 30
0.0
 11
13.82535207775809
 21
0.499371435835857
 31
0.0
  0
LINE
  5
AC
330
1F
100
AcDbEntity
  8
외형선
  6
Continuous
 62
     1
370
    15
100
AcDbLine
 10
12.92601378497739
 20
0.8141246690776238
 30
0.0
 11
13.32535207775809
 21
0.999371435835857
 31
0.0
  0
LINE
  5
AD
330
1F
100
AcDbEntity
  8
외형선
  6
Continuous
370
    15
100
AcDbLine
 10
10.82535207775807
 20
-0.8257392792848743
 30
0.0
 11
10.82535207775809
 21
-1.000000000000002
 31
0.0
  0
LINE
  5
AE
330
1F
100
AcDbEntity
  8
외형선
  6
Continuous
 62
     1
370
    15
100
AcDbLine
 10
13.82535207775809
 20
0.4999999999999997
 30
0.0
 11
13.82535207775809
 21
0.499371435835857
 31
0.0
  0
LINE
  5
AF
330
1F
100
AcDbEntity
  8
외형선
  6
Continuous
370
    15
100
AcDbLine
 10
3.825352077758089
 20
0.0
 30
0.0
 11
3.825352077758089
 21
0.975
 31
0.0
  0
LINE
  5
B0
330
1F
100
AcDbEntity
  8
외형선
  6
Continuous
370
    15
100
AcDbLine
 10
3.825352077758089
 20
-0.975
 30
0.0
 11
3.825352077758089
 21
0.0
 31
0.0
  0
LINE
  5
B1
330
1F
100
AcDbEntity
  8
외형선
  6
Continuous
370
    15
100
AcDbLine
 10
0.0
 20
0.0
 30
0.0
 11
0.0
 21
2.0
 31
0.0
  0
LINE
  5
B2
330
1F
100
AcDbEntity
  8
외형선
  6
Continuous
370
    15
100
AcDbLine
 10
0.0
 20
-2.0
 30
0.0
 11
0.0
 21
0.0
 31
0.0
  0
LINE
  5
B3
330
1F
100
AcDbEntity
  8
외형선
  6
Continuous
370
    15
100
AcDbLine
 10
-35.77464792224191
 20
0.0
 30
0.0
 11
-35.77464792224191
 21
2.0
 31
0.0
  0
LINE
  5
B4
330
1F
100
AcDbEntity
  8
외형선
  6
Continuous
370
    15
100
AcDbLine
 10
-35.77464792224191
 20
-2.0
 30
0.0
 11
-35.77464792224191
 21
0.0
 31
0.0
  0
LINE
  5
B5
330
1F
100
AcDbEntity
  8
외형선
  6
Continuous
370
    15
100
AcDbLine
 10
-36.17464792224191
 20
0.0
 30
0.0
 11
-36.17464792224191
 21
1.600000000000004
 31
0.0
  0
LINE
  5
B6
330
1F
100
AcDbEntity
  8
외형선
  6
Continuous
370
    15
100
AcDbLine
 10
-36.17464792224191
 20
-1.600000000000004
 30
0.0
 11
-36.17464792224191
 21
0.0
 31
0.0
  0
LINE
  5
B7
330
1F
100
AcDbEntity
  8
외형선
  6
Continuous
370
    15
100
AcDbLine
 10
10.82535207775809
 20
-0.8264167425062003
 30
0.0
 11
10.82535207775782
 21
-0.8091781164342672
 31
0.0
  0
SPLINE
  5
B8
330
1F
100
AcDbEntity
  8
외형선
  6
Continuous
370
    15
100
AcDbSpline
210
0.0
220
0.0
230
1.0
 70
     8
 71
     3
 72
    10
 73
     6
 74
     0
 42
0.000000001
 43
0.00000001
 40
0.0
 40
0.0
 40
0.0
 40
0.0
 40
0.5
 40
0.5
 40
1.0
 40
1.0
 40
1.0
 40
1.0
 10
10.82535207775397
 20
0.2456778504815663
 30
0.0
 10
10.7412448006191
 20
0.291229405669825
 30
0.0
 10
10.65682062224672
 20
0.3359735211812426
 30
0.0
 10
10.4899726533136
 20
0.4224665225298916
 30
0.0
 10
10.40866944653671
 20
0.4640389520925237
 30
0.0
 10
10.32569715592826
 20
0.5041466707851623
 30
0.0
  0
LINE
  5
B9
330
1F
100
AcDbEntity
  8
외형선
  6
Continuous
370
    15
100
AcDbLine
 10
10.32569715592824
 20
-0.6208232287093334
 30
0.0
 11
10.32569715592824
 21
0.5041881629665467
 31
0.0
  0
SPLINE
  5
BA
330
1F
100
AcDbEntity
  8
외형선
  6
Continuous
370
    15
100
AcDbSpline
210
0.0
220
0.0
230
1.0
 70
     8
 71
     3
 72
    10
 73
     6
 74
     0
 42
0.000000001
 43
0.00000001
 40
0.0
 40
0.0
 40
0.0
 40
0.0
 40
0.5
 40
0.5
 40
1.0
 40
1.0
 40
1.0
 40
1.0
 10
10.82535207775399
 20
-0.8091781164330902
 30
0.0
 10
10.74124480061912
 20
-0.7829188251115955
 30
0.0
 10
10.65682062224672
 20
-0.7537836251910285
 30
0.0
 10
10.4899726533136
 20
-0.6907151488178727
 30
0.0
 10
10.40866944653673
 20
-0.6569578319972194
 30
0.0
 10
10.32569715592824
 20
-0.6208268107611815
 30
0.0
  0
SPLINE
  5
BB
330
1F
100
AcDbEntity
  8
외형선
  6
Continuous
370
    15
100
AcDbSpline
210
0.0
220
0.0
230
1.0
 70
    24
 71
     3
 72
    14
 73
    10
 74
     0
 42
0.000000001
 43
0.00000001
 40
0.0
 40
0.0
 40
0.0
 40
0.0
 40
0.108335880174096
 40
0.2580581568424745
 40
0.4077804335109907
 40
0.557502710179432
 40
0.7072249868478713
 40
0.8569472635163209
 40
1.0
 40
1.0
 40
1.0
 40
1.0
 10
10.82535207775782
 20
-0.8091781164342672
 30
0.0
 10
10.82535207775794
 20
-0.7747734415817451
 30
0.0
 10
10.82535207775823
 20
-0.6928208422680291
 30
0.0
 10
10.82535207775802
 20
-0.5224536446387661
 30
0.0
 10
10.82535207775809
 20
-0.3191740177348364
 30
0.0
 10
10.82535207775811
 20
-0.1186022886462548
 30
0.0
 10
10.82535207775807
 20
0.0537483925970093
 30
0.0
 10
10.82535207775808
 20
0.1835031091045342
 30
0.0
 10
10.82535207775811
 20
0.217964031120521
 30
0.0
 10
10.82535207775812
 20
0.2348019748475564
 30
0.0
  0
LINE
  5
BC
330
1F
100
AcDbEntity
  8
중심선
 62
     1
100
AcDbLine
 10
-37.67464792224192
 20
-0.0000000000000039
 30
0.0
 11
15.32535207775808
 21
0.0000000000000026
 31
0.0
  0
LINE
  5
BD
330
1F
100
AcDbEntity
  8
참조1
100
AcDbLine
 10
-11.17464792224192
 20
-0.0000000000000039
 30
0.0
 11
-11.17464792224192
 21
-40.00000000000001
 31
0.0
  0
LINE
  5
BE
330
1F
100
AcDbEntity
  8
참조1
100
AcDbLine
 10
-11.17464792224192
 20
-40.00000000000001
 30
0.0
 11
-26.33350473655058
 21
-40.0
 31
0.0
  0
CIRCLE
  5
BF
330
1F
100
AcDbEntity
  8
해칭선
100
AcDbCircle
 10
-0.0000000000000138
 20
-0.0010749287238931
 30
0.0
 40
3.000000000000001
  0
INSERT
  5
C0
330
1F
100
AcDbEntity
  8
0
  6
Continuous
 62
     7
100
AcDbBlockReference
 66
     1
  2
블럭10
 10
-25.11492085436713
 20
-52.04717430164393
 30
0.0
  0
ATTRIB
  5
C1
330
C0
100
AcDbEntity
  8
FORMAT
 62
     2
100
AcDbText
 10
-44.39350373838047
 20
-49.97180738881174
 30
0.0
 40
4.233333333333333
  1
SEME610200510E [ 2 FLUTE ]
 41
0.75
  7
SLDTEXTSTYLE0
 11
-44.39350373838047
 21
-52.08847405547841
 31
0.0
100
AcDbAttribute
  2
AUTOATTR0
 70
     0
 74
     1
  0
SEQEND
  5
C2
330
C0
100
AcDbEntity
  8
0
  6
Continuous
 62
     7
  0
HATCH
  5
C3
330
1F
100
AcDbEntity
  8
중심선
100
AcDbHatch
 10
0.0
 20
0.0
 30
0.0
210
0.0
220
0.0
230
1.0
  2
SOLID
 70
     1
 71
     0
 91
        1
 92
        0
 93
        4
 72
     1
 10
-19.40001154998627
 20
-35.8
 11
-22.84628679382356
 21
-35.8
 72
     1
 10
-22.84628679382356
 20
-35.8
 11
-24.97451665302758
 21
-38.3363255805726
 72
     1
 10
-24.97451665302758
 20
-38.3363255805726
 11
-21.52820832407715
 21
-38.33628615127011
 72
     1
 10
-21.52820832407715
 20
-38.33628615127011
 11
-19.40001154998627
 21
-35.8
 97
        0
 75
     0
 76
     1
 98
        1
 10
3.999999999999976
 20
-0.0010749287238931
  0
HATCH
  5
C4
330
1F
100
AcDbEntity
  8
중심선
100
AcDbHatch
 10
0.0
 20
0.0
 30
0.0
210
0.0
220
0.0
230
1.0
  2
SOLID
 70
     1
 71
     0
 91
        1
 92
        0
 93
        4
 72
     1
 10
-14.3872475589503
 20
-35.8
 11
-17.83352280278758
 21
-35.8
 72
     1
 10
-17.83352280278758
 20
-35.8
 11
-22.36466081114499
 21
-41.20000000000002
 72
     1
 10
-22.36466081114499
 20
-41.20000000000002
 11
-18.91838556730771
 21
-41.20000000000002
 72
     1
 10
-18.91838556730771
 20
-41.20000000000002
 11
-14.3872475589503
 21
-35.8
 97
        0
 75
     0
 76
     1
 98
        1
 10
3.999999999999976
 20
-0.0010749287238931
  0
HATCH
  5
C5
330
1F
100
AcDbEntity
  8
중심선
100
AcDbHatch
 10
0.0
 20
0.0
 30
0.0
210
0.0
220
0.0
230
1.0
  2
SOLID
 70
     1
 71
     0
 91
        1
 92
        0
 93
        4
 72
     1
 10
-9.374483567914428
 20
-35.8
 11
-12.82075881175154
 21
-35.8
 72
     1
 10
-12.82075881175154
 20
-35.8
 11
-19.86919571364079
 21
-44.20000000000002
 72
     1
 10
-19.86919571364079
 20
-44.20000000000002
 11
-16.42292046980351
 21
-44.20000000000002
 72
     1
 10
-16.42292046980351
 20
-44.20000000000002
 11
-9.374483567914428
 21
-35.8
 97
        0
 75
     0
 76
     1
 98
        1
 10
3.999999999999976
 20
-0.0010749287238931
  0
HATCH
  5
C6
330
1F
100
AcDbEntity
  8
중심선
100
AcDbHatch
 10
0.0
 20
0.0
 30
0.0
210
0.0
220
0.0
230
1.0
  2
SOLID
 70
     1
 71
     0
 91
        1
 92
        0
 93
        6
 72
     3
 10
-4.574593136902227
 20
-40.00000000005127
 11
3.960054785062283
 21
1.540882976769353E-10
 40
0.3939339440162628
 50
17.09539180608436
 51
320.0019657685075
 73
     0
 72
     1
 10
-2.891593481201632
 20
-38.58789400463827
 11
-0.586291607500594
 21
-36.65356729459038
 72
     3
 10
-4.574593136955074
 20
-40.00000000000015
 11
6.600054785286829
 21
-1.278976924368180E-13
 40
0.636358354079598
 50
39.99873849337411
 51
368.4976242363724
 73
     1
 72
     1
 10
1.850739354945536
 20
-39.03999999993002
 11
-5.894525830119152
 21
-39.03999999993
 72
     1
 10
-5.894525830119151
 20
-39.03999999993
 11
-5.894550874565085
 21
-40.95999999992991
 72
     1
 10
-5.894550874565085
 20
-40.95999999992991
 11
-1.453171105093048
 21
-40.95999999992988
 97
        0
 75
     0
 76
     1
 98
        1
 10
3.999999999999976
 20
-0.0010749287238931
  0
DIMENSION
  5
C7
330
1F
100
AcDbEntity
  8
치수문자_일반주서
100
AcDbDimension
  2
_D
 10
30.67524256512419
 20
-0.9999999999999307
 30
0.0
 11
30.67524256512415
 21
10.66650000000007
 31
0.0
 70
   160
  1
%%c<>
 71
     2
 42
2.000000000000001
 52
-270.0
  3
SLDDIMSTYLE0
100
AcDbAlignedDimension
 13
11.86227918494926
 23
0.9999999999999989
 33
0.0
 14
11.86227918494926
 24
-1.000000000000002
 34
0.0
 50
90.0000000000002
100
AcDbRotatedDimension
1001
PE_URL
1000

  0
DIMENSION
  5
D5
330
1F
100
AcDbEntity
  8
치수문자_일반주서
100
AcDbDimension
  2
_D_1
 10
-45.43353238737679
 20
-2.000000000000039
 30
0.0
 11
-45.43353238737679
 21
0.0000000000000011
 31
0.0
 70
   160
  1
%%c<>
 71
     2
 42
4.000000000000004
 52
-270.0
  3
SLDDIMSTYLE0
100
AcDbAlignedDimension
 13
-35.7746479222419
 23
2.000000000000002
 33
0.0
 14
-35.7746479222419
 24
-2.000000000000002
 34
0.0
 50
90.0000000000002
100
AcDbRotatedDimension
1001
ACAD_DSTYLE_DIMFLIPARROW_SYMBOL
1070
   385
1070
     0
1001
ACAD_DSTYLE_DIMFLIPARROW_WHICH_SYMBOL
1070
   386
1070
     3
  0
DIMENSION
  5
E2
330
1F
100
AcDbEntity
  8
치수문자_일반주서
100
AcDbDimension
  2
_D_2
 10
13.82535207775809
 20
12.99892507127612
 30
0.0
 11
22.17935207775809
 21
12.99892507127612
 31
0.0
 70
   160
  1
<>
 71
     2
 42
3.000000000000006
  3
SLDDIMSTYLE0
100
AcDbAlignedDimension
 13
10.82535207775809
 23
0.9999999999999984
 33
0.0
 14
13.82535207775809
 24
0.499371435835857
 34
0.0
 50
-0.000000000000441
100
AcDbRotatedDimension
  0
DIMENSION
  5
EE
330
1F
100
AcDbEntity
  8
치수문자_일반주서
100
AcDbDimension
  2
_D_3
 10
3.825352077758088
 20
22.42179033899513
 30
0.0
 11
8.825352077758087
 21
22.42179033899513
 31
0.0
 70
   160
  1
<>
 71
     2
 42
10.0
  3
SLDDIMSTYLE0
100
AcDbAlignedDimension
 13
13.82535207775809
 23
0.499371435835857
 33
0.0
 14
3.825352077758089
 24
0.975
 34
0.0
100
AcDbRotatedDimension
  0
DIMENSION
  5
FA
330
1F
100
AcDbEntity
  8
치수문자_일반주서
100
AcDbDimension
  2
_D_4
 10
-36.17464792224191
 20
30.4820260082852
 30
0.0
 11
-11.17464792224191
 21
30.4820260082852
 31
0.0
 70
   160
  1
<>
 71
     2
 42
50.0
  3
SLDDIMSTYLE1
100
AcDbAlignedDimension
 13
13.82535207775809
 23
0.499371435835857
 33
0.0
 14
-36.17464792224191
 24
1.600000000000004
 34
0.0
100
AcDbRotatedDimension
  0
LINE
  5
105
330
1F
100
AcDbEntity
  8
참조1
100
AcDbLine
 10
71.63883589310367
 20
7.440000000000002
 30
0.0
 11
71.63883589310367
 21
-7.440000000000002
 31
0.0
  0
LINE
  5
106
330
1F
100
AcDbEntity
  8
참조1
100
AcDbLine
 10
84.33883589310369
 20
5.440000000000002
 30
0.0
 11
71.63883589310367
 21
5.440000000000002
 31
0.0
  0
SOLID
  5
107
330
1F
100
AcDbEntity
  8
참조1
100
AcDbTrace
 10
71.63883589310367
 20
5.440000000000002
 30
0.0
 11
77.98883589310367
 21
4.424000000000002
 31
0.0
 12
77.98883589310367
 22
6.456000000000002
 32
0.0
 13
77.98883589310367
 23
6.456000000000002
 33
0.0
  0
LINE
  5
108
330
1F
100
AcDbEntity
  8
참조1
100
AcDbLine
 10
84.33883589310369
 20
-5.440000000000002
 30
0.0
 11
71.63883589310367
 21
-5.440000000000002
 31
0.0
  0
SOLID
  5
109
330
1F
100
AcDbEntity
  8
참조1
100
AcDbTrace
 10
71.63883589310367
 20
-5.440000000000002
 30
0.0
 11
77.98883589310367
 21
-6.456000000000002
 31
0.0
 12
77.98883589310367
 22
-4.424000000000002
 32
0.0
 13
77.98883589310367
 23
-4.424000000000002
 33
0.0
  0
MTEXT
  5
10A
330
1F
100
AcDbEntity
  8
참조1
100
AcDbMText
 10
81.03632598557395
 20
10.98821664464994
 30
0.0
 40
3.5
 41
0.0
 71
     1
 72
     1
  1
A
  7
SLDTEXTSTYLE0
 73
     1
 44
1.0
  0
MTEXT
  5
10B
330
1F
100
AcDbEntity
  8
참조1
100
AcDbMText
 10
81.03632598557395
 20
0.1082166446499328
 30
0.0
 40
3.5
 41
0.0
 71
     1
 72
     1
  1
A
  7
SLDTEXTSTYLE0
 73
     1
 44
1.0
  0
INSERT
  5
112
330
1F
100
AcDbEntity
  8
해칭선
100
AcDbBlockReference
  2
SW_DOWELSYMBOL_0
 10
-0.0000000000000138
 20
-0.0010749287238931
 30
0.0
  0
ARC
  5
137
330
1F
100
AcDbEntity
  8
0
 62
     1
100
AcDbCircle
 10
13.32535207775809
 20
0.499371435835857
 30
0.0
 40
0.5
100
AcDbArc
 50
0.0
 51
90.0
  0
ARC
  5
138
330
1F
100
AcDbEntity
  8
0
 62
     1
100
AcDbCircle
 10
13.32535207775809
 20
0.499371435835857
 30
0.0
 40
0.5
100
AcDbArc
 50
139.7716908457024
 51
141.056789131082
  0
ARC
  5
139
330
1F
100
AcDbEntity
  8
0
 62
     1
100
AcDbCircle
 10
13.32535207775809
 20
-0.4993714358358524
 30
0.0
 40
0.5
100
AcDbArc
 50
270.0
 51
0.0000000000000254
  0
DIMENSION
  5
177
102
{ACAD_XDICTIONARY
360
178
102
}
330
1F
100
AcDbEntity
  8
치수문자_일반주서
100
AcDbDimension
  2
*D9
 10
13.60489947201476
 20
-0.7856707372878184
 30
0.0
 11
30.07564366600966
 21
-15.75371323493068
 31
0.0
 70
   164
  1
R0.5
 71
     5
 42
0.0999999999999982
  3
SLDDIMSTYLE0
100
AcDbRadialDimension
 15
13.67890546835136
 25
-0.8529248264291263
 35
0.0
 40
0.0
1001
ACAD_DSTYLE_DIMRADIAL_EXTENSION
1070
   387
1070
     1
1070
   388
1040
4.71238898038469
1070
   390
1040
0.0
1001
PE_URL
1000

  0
SPLINE
  5
1B4
330
1F
100
AcDbEntity
  8
외형선
  6
Continuous
 62
     1
370
    15
100
AcDbSpline
210
0.0
220
0.0
230
1.0
 70
     8
 71
     3
 72
    11
 73
     7
 74
     0
 42
0.000000001
 43
0.0000000001
 40
0.0769598725515603
 40
0.0769598725515603
 40
0.0769598725515603
 40
0.0769598725515603
 40
0.871397121997713
 40
1.886903074196963
 40
2.911009927202107
 40
3.120700193529556
 40
3.120700193529556
 40
3.120700193529556
 40
3.120700193529556
 10
13.56444265852338
 20
-0.938502047601093
 30
0.0
 10
13.3104572792641
 20
-0.8607511453464175
 30
0.0
 10
12.73382662668739
 20
-0.6788790574528001
 30
0.0
 10
11.91238970285455
 20
-0.2028627466683787
 30
0.0
 10
11.24229205809124
 20
0.132253619842622
 30
0.0
 10
10.8858453665029
 20
0.3374303214069956
 30
0.0
 10
10.82535207775543
 20
0.3724676986137084
 30
0.0
  0
SPLINE
  5
1B5
330
1F
100
AcDbEntity
  8
외형선
  6
Continuous
 62
     1
370
    15
100
AcDbSpline
210
0.0
220
0.0
230
1.0
 70
     8
 71
     3
 72
     9
 73
     5
 74
     3
 42
0.000000001
 43
0.0000000001
 44
0.0
 40
0.0
 40
0.0
 40
0.0
 40
0.0
 40
0.578329268534371
 40
1.007876966555118
 40
1.007876966555118
 40
1.007876966555118
 40
1.007876966555118
 10
13.8253520777581
 20
0.0000000000000024
 30
0.0
 10
13.59230296235314
 20
0.1586963118090218
 30
0.0
 10
13.18615918185943
 20
0.4352625623031445
 30
0.0
 10
13.63434113729569
 20
0.4802136881449162
 30
0.0
 10
13.82535207775809
 20
0.499371435835857
 30
0.0
 11
13.8253520777581
 21
0.0000000000000024
 31
0.0
 11
13.40749764608597
 21
0.399827983982439
 31
0.0
 11
13.82535207775809
 21
0.499371435835857
 31
0.0
  0
SPLINE
  5
1B6
330
1F
100
AcDbEntity
  8
외형선
  6
Continuous
 62
     1
370
    15
100
AcDbSpline
210
0.0
220
0.0
230
1.0
 70
     8
 71
     3
 72
     9
 73
     5
 74
     0
 42
0.000000001
 43
0.0000000001
 40
0.2363425119802076
 40
0.2363425119802076
 40
0.2363425119802076
 40
0.2363425119802076
 40
0.3979544867240442
 40
0.6491662653876785
 40
0.6491662653876785
 40
0.6491662653876785
 40
0.6491662653876785
 10
13.44328960956548
 20
0.5999804412742987
 30
0.0
 10
13.49576137141517
 20
0.6112712775633273
 30
0.0
 10
13.62769230322173
 20
0.6204702697859847
 30
0.0
 10
13.75057526065515
 20
0.545184426257951
 30
0.0
 10
13.82535207775809
 20
0.499371435835857
 30
0.0
  0
ENDSEC
  0
SECTION
  2
OBJECTS
  0
DICTIONARY
  5
C
330
0
100
AcDbDictionary
281
     1
  3
ACAD_GROUP
350
D
  3
ACAD_IMAGE_VARS
350
1B3
  3
ACAD_LAYOUT
350
1A
  3
ACAD_MLINESTYLE
350
17
  3
ACAD_PLOTSETTINGS
350
19
  3
ACAD_PLOTSTYLENAME
350
E
  3
ACAD_SCALELIST
350
47
  3
APPDATA
350
134
  3
DWGPROPS
350
1B7
  0
DICTIONARY
  5
178
330
177
100
AcDbDictionary
280
     1
281
     1
  3
*A1
360
17A
  0
DICTIONARY
  5
D
102
{ACAD_REACTORS
330
C
102
}
330
C
100
AcDbDictionary
281
     1
  0
RASTERVARIABLES
  5
1B3
102
{ACAD_REACTORS
330
C
102
}
330
C
100
AcDbRasterVariables
 90
        0
 70
     1
 71
     1
 72
     1
  0
DICTIONARY
  5
1A
102
{ACAD_REACTORS
330
C
102
}
330
C
100
AcDbDictionary
281
     1
  3
Layout1
350
1E
  3
Layout2
350
26
  3
Model
350
22
  0
DICTIONARY
  5
17
102
{ACAD_REACTORS
330
C
102
}
330
C
100
AcDbDictionary
281
     1
  3
Standard
350
18
  0
DICTIONARY
  5
19
102
{ACAD_REACTORS
330
C
102
}
330
C
100
AcDbDictionary
281
     1
  0
ACDBDICTIONARYWDFLT
  5
E
102
{ACAD_REACTORS
330
C
102
}
330
C
100
AcDbDictionary
281
     1
  3
Normal
350
F
100
AcDbDictionaryWithDefault
340
F
  0
DICTIONARY
  5
47
102
{ACAD_REACTORS
330
C
102
}
330
C
100
AcDbDictionary
281
     1
  3
A0
350
48
  3
A1
350
49
  3
A2
350
4A
  3
A3
350
4B
  3
A4
350
4C
  3
A5
350
4D
  3
A6
350
4E
  3
A7
350
4F
  3
A8
350
50
  3
A9
350
51
  3
B0
350
52
  3
B1
350
53
  3
B2
350
54
  3
B3
350
55
  3
B4
350
56
  3
B5
350
57
  3
B6
350
58
  3
B7
350
59
  3
B8
350
5A
  3
B9
350
5B
  3
C0
350
5C
  3
C1
350
5D
  3
C2
350
5E
  3
C3
350
5F
  3
C4
350
60
  3
C5
350
61
  3
C6
350
62
  3
C7
350
63
  3
C8
350
64
  3
C9
350
65
  3
D0
350
66
  3
D1
350
67
  3
D2
350
68
  0
DICTIONARY
  5
134
102
{ACAD_REACTORS
330
C
102
}
330
C
100
AcDbDictionary
281
     1
  0
XRECORD
  5
1B7
102
{ACAD_REACTORS
330
C
102
}
330
C
100
AcDbXrecord
280
     1
  1
DWGPROPS COOKIE
  2

  3

  4

  6

  7

  8
12016016
  9

300
=
301
=
302
=
303
=
304
=
305
=
306
=
307
=
308
=
309
=
 40
0.0
 41
2458274.217450822
 42
2458275.273356447
  1

 90
        0
  0
ARC
  5
17A
102
{ACAD_REACTORS
330
178
102
}
330
178
100
AcDbEntity
  8
외형선
  6
Continuous
 62
     1
370
    15
100
AcDbCircle
 10
11.72535207775809
 20
-0.8945025303399865
 30
0.0
 40
0.1
100
AcDbArc
 50
270.0
 51
0.0
1001
PE_URL
1000

  0
LAYOUT
  5
1E
102
{ACAD_REACTORS
330
1A
102
}
330
1A
100
AcDbPlotSettings
  1

  2
none_device
  4

  6

 40
0.0
 41
0.0
 42
0.0
 43
0.0
 44
0.0
 45
0.0
 46
0.0
 47
0.0
 48
0.0
 49
0.0
140
0.0
141
0.0
142
1.0
143
1.0
 70
   688
 72
     1
 73
     0
 74
     5
  7

 75
    16
147
1.0
148
0.0
149
0.0
100
AcDbLayout
  1
Layout1
 70
     1
 71
     1
 10
0.0
 20
0.0
 11
420.0
 21
297.0
 12
0.0
 22
0.0
 32
0.0
 14
1.000000000000000E+20
 24
1.000000000000000E+20
 34
1.000000000000000E+20
 15
-1.000000000000000E+20
 25
-1.000000000000000E+20
 35
-1.000000000000000E+20
146
0.0
 13
0.0
 23
0.0
 33
0.0
 16
1.0
 26
0.0
 36
0.0
 17
0.0
 27
1.0
 37
0.0
 76
     0
330
1B
  0
LAYOUT
  5
26
102
{ACAD_REACTORS
330
1A
102
}
330
1A
100
AcDbPlotSettings
  1

  2
none_device
  4

  6

 40
0.0
 41
0.0
 42
0.0
 43
0.0
 44
0.0
 45
0.0
 46
0.0
 47
0.0
 48
0.0
 49
0.0
140
0.0
141
0.0
142
1.0
143
1.0
 70
   688
 72
     1
 73
     0
 74
     5
  7

 75
    16
147
1.0
148
0.0
149
0.0
100
AcDbLayout
  1
Layout2
 70
     1
 71
     2
 10
0.0
 20
0.0
 11
0.0
 21
0.0
 12
0.0
 22
0.0
 32
0.0
 14
0.0
 24
0.0
 34
0.0
 15
0.0
 25
0.0
 35
0.0
146
0.0
 13
0.0
 23
0.0
 33
0.0
 16
1.0
 26
0.0
 36
0.0
 17
0.0
 27
1.0
 37
0.0
 76
     0
330
23
  0
LAYOUT
  5
22
102
{ACAD_REACTORS
330
1A
102
}
330
1A
100
AcDbPlotSettings
  1

  2
none_device
  4
ANSI_A_(11.00_x_8.50_Inches)
  6

 40
6.35
 41
19.05
 42
6.35000508
 43
19.05000254
 44
279.4
 45
215.9
 46
106.2280773880124
 47
105.084304940273
 48
0.0
 49
0.0
140
0.0
141
0.0
142
0.0810665484061049
143
1.0
 70
  1696
 72
     0
 73
     0
 74
     0
  7

 75
     0
147
0.0235690232323232
148
0.0
149
0.0
100
AcDbLayout
  1
Model
 70
     1
 71
     0
 10
0.0
 20
0.0
 11
420.0
 21
297.0
 12
0.0
 22
0.0
 32
0.0
 14
-49.8085323873768
 24
-49.97180738881175
 34
0.0
 15
84.33883589310369
 25
34.8570260082852
 35
0.0
146
0.0
 13
0.0
 23
0.0
 33
0.0
 16
1.0
 26
0.0
 36
0.0
 17
0.0
 27
1.0
 37
0.0
 76
     0
330
1F
331
29
  0
MLINESTYLE
  5
18
102
{ACAD_REACTORS
330
17
102
}
330
17
100
AcDbMlineStyle
  2
Standard
 70
     0
  3

 62
   256
 51
90.0
 52
90.0
 71
     2
 49
0.5
 62
   256
  6
BYLAYER
 49
-0.5
 62
   256
  6
BYLAYER
  0
ACDBPLACEHOLDER
  5
F
102
{ACAD_REACTORS
330
E
102
}
330
E
  0
SCALE
  5
48
102
{ACAD_REACTORS
330
47
102
}
330
47
100
AcDbScale
 70
     0
300
1:1
140
1.0
141
1.0
290
     1
  0
SCALE
  5
49
102
{ACAD_REACTORS
330
47
102
}
330
47
100
AcDbScale
 70
     0
300
1:2
140
1.0
141
2.0
290
     0
  0
SCALE
  5
4A
102
{ACAD_REACTORS
330
47
102
}
330
47
100
AcDbScale
 70
     0
300
1:4
140
1.0
141
4.0
290
     0
  0
SCALE
  5
4B
102
{ACAD_REACTORS
330
47
102
}
330
47
100
AcDbScale
 70
     0
300
1:5
140
1.0
141
5.0
290
     0
  0
SCALE
  5
4C
102
{ACAD_REACTORS
330
47
102
}
330
47
100
AcDbScale
 70
     0
300
1:8
140
1.0
141
8.0
290
     0
  0
SCALE
  5
4D
102
{ACAD_REACTORS
330
47
102
}
330
47
100
AcDbScale
 70
     0
300
1:10
140
1.0
141
10.0
290
     0
  0
SCALE
  5
4E
102
{ACAD_REACTORS
330
47
102
}
330
47
100
AcDbScale
 70
     0
300
1:16
140
1.0
141
16.0
290
     0
  0
SCALE
  5
4F
102
{ACAD_REACTORS
330
47
102
}
330
47
100
AcDbScale
 70
     0
300
1:20
140
1.0
141
20.0
290
     0
  0
SCALE
  5
50
102
{ACAD_REACTORS
330
47
102
}
330
47
100
AcDbScale
 70
     0
300
1:30
140
1.0
141
30.0
290
     0
  0
SCALE
  5
51
102
{ACAD_REACTORS
330
47
102
}
330
47
100
AcDbScale
 70
     0
300
1:40
140
1.0
141
40.0
290
     0
  0
SCALE
  5
52
102
{ACAD_REACTORS
330
47
102
}
330
47
100
AcDbScale
 70
     0
300
1:50
140
1.0
141
50.0
290
     0
  0
SCALE
  5
53
102
{ACAD_REACTORS
330
47
102
}
330
47
100
AcDbScale
 70
     0
300
1:100
140
1.0
141
100.0
290
     0
  0
SCALE
  5
54
102
{ACAD_REACTORS
330
47
102
}
330
47
100
AcDbScale
 70
     0
300
2:1
140
2.0
141
1.0
290
     0
  0
SCALE
  5
55
102
{ACAD_REACTORS
330
47
102
}
330
47
100
AcDbScale
 70
     0
300
4:1
140
4.0
141
1.0
290
     0
  0
SCALE
  5
56
102
{ACAD_REACTORS
330
47
102
}
330
47
100
AcDbScale
 70
     0
300
8:1
140
8.0
141
1.0
290
     0
  0
SCALE
  5
57
102
{ACAD_REACTORS
330
47
102
}
330
47
100
AcDbScale
 70
     0
300
10:1
140
10.0
141
1.0
290
     0
  0
SCALE
  5
58
102
{ACAD_REACTORS
330
47
102
}
330
47
100
AcDbScale
 70
     0
300
100:1
140
100.0
141
1.0
290
     0
  0
SCALE
  5
59
102
{ACAD_REACTORS
330
47
102
}
330
47
100
AcDbScale
 70
     0
300
1/128" = 1'-0"
140
0.0078125
141
12.0
290
     0
  0
SCALE
  5
5A
102
{ACAD_REACTORS
330
47
102
}
330
47
100
AcDbScale
 70
     0
300
1/64" = 1'-0"
140
0.015625
141
12.0
290
     0
  0
SCALE
  5
5B
102
{ACAD_REACTORS
330
47
102
}
330
47
100
AcDbScale
 70
     0
300
1/32" = 1'-0"
140
0.03125
141
12.0
290
     0
  0
SCALE
  5
5C
102
{ACAD_REACTORS
330
47
102
}
330
47
100
AcDbScale
 70
     0
300
1/16" = 1'-0"
140
0.0625
141
12.0
290
     0
  0
SCALE
  5
5D
102
{ACAD_REACTORS
330
47
102
}
330
47
100
AcDbScale
 70
     0
300
3/32" = 1'-0"
140
0.09375
141
12.0
290
     0
  0
SCALE
  5
5E
102
{ACAD_REACTORS
330
47
102
}
330
47
100
AcDbScale
 70
     0
300
1/8" = 1'-0"
140
0.125
141
12.0
290
     0
  0
SCALE
  5
5F
102
{ACAD_REACTORS
330
47
102
}
330
47
100
AcDbScale
 70
     0
300
3/16" = 1'-0"
140
0.1875
141
12.0
290
     0
  0
SCALE
  5
60
102
{ACAD_REACTORS
330
47
102
}
330
47
100
AcDbScale
 70
     0
300
1/4" = 1'-0"
140
0.25
141
12.0
290
     0
  0
SCALE
  5
61
102
{ACAD_REACTORS
330
47
102
}
330
47
100
AcDbScale
 70
     0
300
3/8" = 1'-0"
140
0.375
141
12.0
290
     0
  0
SCALE
  5
62
102
{ACAD_REACTORS
330
47
102
}
330
47
100
AcDbScale
 70
     0
300
1/2" = 1'-0"
140
0.5
141
12.0
290
     0
  0
SCALE
  5
63
102
{ACAD_REACTORS
330
47
102
}
330
47
100
AcDbScale
 70
     0
300
3/4" = 1'-0"
140
0.75
141
12.0
290
     0
  0
SCALE
  5
64
102
{ACAD_REACTORS
330
47
102
}
330
47
100
AcDbScale
 70
     0
300
1" = 1'-0"
140
1.0
141
12.0
290
     0
  0
SCALE
  5
65
102
{ACAD_REACTORS
330
47
102
}
330
47
100
AcDbScale
 70
     0
300
1-1/2" = 1'-0"
140
1.5
141
12.0
290
     0
  0
SCALE
  5
66
102
{ACAD_REACTORS
330
47
102
}
330
47
100
AcDbScale
 70
     0
300
3" = 1'-0"
140
3.0
141
12.0
290
     0
  0
SCALE
  5
67
102
{ACAD_REACTORS
330
47
102
}
330
47
100
AcDbScale
 70
     0
300
6" = 1'-0"
140
6.0
141
12.0
290
     0
  0
SCALE
  5
68
102
{ACAD_REACTORS
330
47
102
}
330
47
100
AcDbScale
 70
     0
300
1'-0" = 1'-0"
140
12.0
141
12.0
290
     0
  0
ENDSEC
  0
EOF
