  0
SECTION
  2
HEADER
  9
$ACADVER
  1
AC1015
  9
$ACADMAINTVER
 70
     6
  9
$DWGCODEPAGE
  3
ANSI_949
  9
$INSBASE
 10
0.0
 20
0.0
 30
0.0
  9
$EXTMIN
 10
1.000000000000000E+20
 20
1.000000000000000E+20
 30
1.000000000000000E+20
  9
$EXTMAX
 10
-1.000000000000000E+20
 20
-1.000000000000000E+20
 30
-1.000000000000000E+20
  9
$LIMMIN
 10
0.0
 20
0.0
  9
$LIMMAX
 10
420.0
 20
297.0
  9
$ORTHOMODE
 70
     1
  9
$REGENMODE
 70
     1
  9
$FILLMODE
 70
     1
  9
$QTEXTMODE
 70
     0
  9
$MIRRTEXT
 70
     1
  9
$LTSCALE
 40
1.0
  9
$ATTMODE
 70
     1
  9
$TEXTSIZE
 40
3.5
  9
$TRACEWID
 40
1.0
  9
$TEXTSTYLE
  7
Standard
  9
$CLAYER
  8
0
  9
$CELTYPE
  6
ByLayer
  9
$CECOLOR
 62
   256
  9
$CELTSCALE
 40
1.0
  9
$DISPSILH
 70
     0
  9
$DIMSCALE
 40
1.0
  9
$DIMASZ
 40
3.302
  9
$DIMEXO
 40
1.0
  9
$DIMDLI
 40
3.75
  9
$DIMRND
 40
0.0
  9
$DIMDLE
 40
0.0
  9
$DIMEXE
 40
1.0
  9
$DIMTP
 40
0.0
  9
$DIMTM
 40
0.0
  9
$DIMTXT
 40
3.5
  9
$DIMCEN
 40
2.5
  9
$DIMTSZ
 40
0.0
  9
$DIMTOL
 70
     0
  9
$DIMLIM
 70
     0
  9
$DIMTIH
 70
     1
  9
$DIMTOH
 70
     1
  9
$DIMSE1
 70
     0
  9
$DIMSE2
 70
     0
  9
$DIMTAD
 70
     1
  9
$DIMZIN
 70
     0
  9
$DIMBLK
  1

  9
$DIMASO
 70
     1
  9
$DIMSHO
 70
     1
  9
$DIMPOST
  1

  9
$DIMAPOST
  1

  9
$DIMALT
 70
     0
  9
$DIMALTD
 70
     3
  9
$DIMALTF
 40
0.0393700787401575
  9
$DIMLFAC
 40
1.0
  9
$DIMTOFL
 70
     1
  9
$DIMTVP
 40
0.0
  9
$DIMTIX
 70
     0
  9
$DIMSOXD
 70
     0
  9
$DIMSAH
 70
     0
  9
$DIMBLK1
  1

  9
$DIMBLK2
  1

  9
$DIMSTYLE
  2
ISO-25
  9
$DIMCLRD
 70
     0
  9
$DIMCLRE
 70
     0
  9
$DIMCLRT
 70
     0
  9
$DIMTFAC
 40
1.0
  9
$DIMGAP
 40
1.524
  9
$DIMJUST
 70
     0
  9
$DIMSD1
 70
     0
  9
$DIMSD2
 70
     0
  9
$DIMTOLJ
 70
     0
  9
$DIMTZIN
 70
     0
  9
$DIMALTZ
 70
     0
  9
$DIMALTTZ
 70
     0
  9
$DIMUPT
 70
     0
  9
$DIMDEC
 70
     2
  9
$DIMTDEC
 70
     2
  9
$DIMALTU
 70
     2
  9
$DIMALTTD
 70
     3
  9
$DIMTXSTY
  7
Standard
  9
$DIMAUNIT
 70
     0
  9
$DIMADEC
 70
     2
  9
$DIMALTRND
 40
0.0
  9
$DIMAZIN
 70
     0
  9
$DIMDSEP
 70
    44
  9
$DIMATFIT
 70
     3
  9
$DIMFRAC
 70
     0
  9
$DIMLDRBLK
  1

  9
$DIMLUNIT
 70
     2
  9
$DIMLWD
 70
    -2
  9
$DIMLWE
 70
    -2
  9
$DIMTMOVE
 70
     0
  9
$LUNITS
 70
     2
  9
$LUPREC
 70
     2
  9
$SKETCHINC
 40
1.0
  9
$FILLETRAD
 40
10.0
  9
$AUNITS
 70
     0
  9
$AUPREC
 70
     2
  9
$MENU
  1
.
  9
$ELEVATION
 40
0.0
  9
$PELEVATION
 40
0.0
  9
$THICKNESS
 40
0.0
  9
$LIMCHECK
 70
     0
  9
$CHAMFERA
 40
0.0
  9
$CHAMFERB
 40
0.0
  9
$CHAMFERC
 40
0.0
  9
$CHAMFERD
 40
0.0
  9
$SKPOLY
 70
     0
  9
$TDCREATE
 40
2458263.787912523
  9
$TDUCREATE
 40
2458263.412912523
  9
$TDUPDATE
 40
2458268.862798542
  9
$TDUUPDATE
 40
2458268.487798542
  9
$TDINDWG
 40
0.0000063773
  9
$TDUSRTIMER
 40
2458268.487792511
  9
$USRTIMER
 70
     1
  9
$ANGBASE
 50
0.0
  9
$ANGDIR
 70
     0
  9
$PDMODE
 70
     0
  9
$PDSIZE
 40
-1.0
  9
$PLINEWID
 40
0.0
  9
$SPLFRAME
 70
     0
  9
$SPLINETYPE
 70
     6
  9
$SPLINESEGS
 70
     8
  9
$HANDSEED
  5
27E
  9
$SURFTAB1
 70
     6
  9
$SURFTAB2
 70
     6
  9
$SURFTYPE
 70
     6
  9
$SURFU
 70
     6
  9
$SURFV
 70
     6
  9
$UCSBASE
  2

  9
$UCSNAME
  2

  9
$UCSORG
 10
0.0
 20
0.0
 30
0.0
  9
$UCSXDIR
 10
1.0
 20
0.0
 30
0.0
  9
$UCSYDIR
 10
0.0
 20
1.0
 30
0.0
  9
$UCSORTHOREF
  2

  9
$UCSORTHOVIEW
 70
     0
  9
$UCSORGTOP
 10
0.0
 20
0.0
 30
0.0
  9
$UCSORGBOTTOM
 10
0.0
 20
0.0
 30
0.0
  9
$UCSORGLEFT
 10
0.0
 20
0.0
 30
0.0
  9
$UCSORGRIGHT
 10
0.0
 20
0.0
 30
0.0
  9
$UCSORGFRONT
 10
0.0
 20
0.0
 30
0.0
  9
$UCSORGBACK
 10
0.0
 20
0.0
 30
0.0
  9
$PUCSBASE
  2

  9
$PUCSNAME
  2

  9
$PUCSORG
 10
0.0
 20
0.0
 30
0.0
  9
$PUCSXDIR
 10
1.0
 20
0.0
 30
0.0
  9
$PUCSYDIR
 10
0.0
 20
1.0
 30
0.0
  9
$PUCSORTHOREF
  2

  9
$PUCSORTHOVIEW
 70
     0
  9
$PUCSORGTOP
 10
0.0
 20
0.0
 30
0.0
  9
$PUCSORGBOTTOM
 10
0.0
 20
0.0
 30
0.0
  9
$PUCSORGLEFT
 10
0.0
 20
0.0
 30
0.0
  9
$PUCSORGRIGHT
 10
0.0
 20
0.0
 30
0.0
  9
$PUCSORGFRONT
 10
0.0
 20
0.0
 30
0.0
  9
$PUCSORGBACK
 10
0.0
 20
0.0
 30
0.0
  9
$USERI1
 70
     0
  9
$USERI2
 70
     0
  9
$USERI3
 70
     0
  9
$USERI4
 70
     0
  9
$USERI5
 70
     0
  9
$USERR1
 40
0.0
  9
$USERR2
 40
0.0
  9
$USERR3
 40
0.0
  9
$USERR4
 40
0.0
  9
$USERR5
 40
0.0
  9
$WORLDVIEW
 70
     1
  9
$SHADEDGE
 70
     3
  9
$SHADEDIF
 70
    70
  9
$TILEMODE
 70
     1
  9
$MAXACTVP
 70
    64
  9
$PINSBASE
 10
0.0
 20
0.0
 30
0.0
  9
$PLIMCHECK
 70
     0
  9
$PEXTMIN
 10
1.000000000000000E+20
 20
1.000000000000000E+20
 30
1.000000000000000E+20
  9
$PEXTMAX
 10
-1.000000000000000E+20
 20
-1.000000000000000E+20
 30
-1.000000000000000E+20
  9
$PLIMMIN
 10
0.0
 20
0.0
  9
$PLIMMAX
 10
0.0
 20
0.0
  9
$UNITMODE
 70
     0
  9
$VISRETAIN
 70
     1
  9
$PLINEGEN
 70
     0
  9
$PSLTSCALE
 70
     1
  9
$TREEDEPTH
 70
  3020
  9
$CMLSTYLE
  2
Standard
  9
$CMLJUST
 70
     0
  9
$CMLSCALE
 40
20.0
  9
$PROXYGRAPHICS
 70
     1
  9
$MEASUREMENT
 70
     1
  9
$CELWEIGHT
370
    -1
  9
$ENDCAPS
280
     0
  9
$JOINSTYLE
280
     0
  9
$LWDISPLAY
290
     1
  9
$INSUNITS
 70
     4
  9
$HYPERLINKBASE
  1

  9
$STYLESHEET
  1

  9
$XEDIT
290
     1
  9
$CEPSNTYPE
380
     0
  9
$PSTYLEMODE
290
     1
  9
$FINGERPRINTGUID
  2
{2919400B-58AF-4E0D-89A3-2E9194EDF600}
  9
$VERSIONGUID
  2
{FAEB1C32-E019-11D5-929B-00C0DF256EC4}
  9
$EXTNAMES
290
     1
  9
$PSVPSCALE
 40
0.0
  9
$OLESTARTUP
290
     0
  0
ENDSEC
  0
SECTION
  2
CLASSES
  0
CLASS
  1
ACDBDICTIONARYWDFLT
  2
AcDbDictionaryWithDefault
  3
ObjectDBX Classes
 90
        0
280
     0
281
     0
  0
CLASS
  1
VISUALSTYLE
  2
AcDbVisualStyle
  3
ObjectDBX Classes
 90
     4095
280
     0
281
     0
  0
CLASS
  1
MATERIAL
  2
AcDbMaterial
  3
ObjectDBX Classes
 90
     1153
280
     0
281
     0
  0
CLASS
  1
SCALE
  2
AcDbScale
  3
ObjectDBX Classes
 90
     1153
280
     0
281
     0
  0
CLASS
  1
TABLESTYLE
  2
AcDbTableStyle
  3
ObjectDBX Classes
 90
     4095
280
     0
281
     0
  0
CLASS
  1
MLEADERSTYLE
  2
AcDbMLeaderStyle
  3
ACDB_MLEADERSTYLE_CLASS
 90
     4095
280
     0
281
     0
  0
CLASS
  1
SUN
  2
AcDbSun
  3
SCENEOE
 90
     1153
280
     0
281
     0
  0
CLASS
  1
ACDBPLACEHOLDER
  2
AcDbPlaceHolder
  3
ObjectDBX Classes
 90
        0
280
     0
281
     0
  0
CLASS
  1
LAYOUT
  2
AcDbLayout
  3
ObjectDBX Classes
 90
        0
280
     0
281
     0
  0
CLASS
  1
RASTERVARIABLES
  2
AcDbRasterVariables
  3
ISM
 90
        0
280
     0
281
     0
  0
CLASS
  1
DIMASSOC
  2
AcDbDimAssoc
  3
"AcDbDimAssoc|Product Desc:     AcDim ARX App For Dimension|Company:          Autodesk, Inc.|WEB Address:      www.autodesk.com"
 90
        0
280
     0
281
     0
  0
ENDSEC
  0
SECTION
  2
TABLES
  0
TABLE
  2
VPORT
  5
8
330
0
100
AcDbSymbolTable
 70
     1
  0
VPORT
  5
29
330
8
100
AcDbSymbolTableRecord
100
AcDbViewportTableRecord
  2
*Active
 70
     0
 10
0.0
 20
0.0
 11
1.0
 21
1.0
 12
44.93155823254376
 22
-10.39841623735806
 13
0.0
 23
0.0
 14
10.0
 24
10.0
 15
10.0
 25
10.0
 16
0.0
 26
0.0
 36
1.0
 17
0.0
 27
0.0
 37
0.0
 40
32.87442317756037
 41
1.730844793713163
 42
50.0
 43
0.0
 44
0.0
 50
0.0
 51
0.0
 71
    16
 72
  2000
 73
     1
 74
     3
 75
     0
 76
     0
 77
     0
 78
     0
281
     0
 65
     1
110
0.0
120
0.0
130
0.0
111
1.0
121
0.0
131
0.0
112
0.0
122
1.0
132
0.0
 79
     0
146
0.0
  0
ENDTAB
  0
TABLE
  2
LTYPE
  5
5
330
0
100
AcDbSymbolTable
 70
     6
  0
LTYPE
  5
14
330
5
100
AcDbSymbolTableRecord
100
AcDbLinetypeTableRecord
  2
ByBlock
 70
     0
  3

 72
    65
 73
     0
 40
0.0
  0
LTYPE
  5
15
330
5
100
AcDbSymbolTableRecord
100
AcDbLinetypeTableRecord
  2
ByLayer
 70
     0
  3

 72
    65
 73
     0
 40
0.0
  0
LTYPE
  5
16
330
5
100
AcDbSymbolTableRecord
100
AcDbLinetypeTableRecord
  2
Continuous
 70
     0
  3
Solid line
 72
    65
 73
     0
 40
0.0
  0
LTYPE
  5
6E
330
5
100
AcDbSymbolTableRecord
100
AcDbLinetypeTableRecord
  2
HIDDEN
 70
     0
  3
Hidden __ __ __ __ __ __ __ __ __ __ __ __ __ __
 72
    65
 73
     2
 40
1.905
 49
1.27
 74
     0
 49
-0.635
 74
     0
  0
LTYPE
  5
6F
330
5
100
AcDbSymbolTableRecord
100
AcDbLinetypeTableRecord
  2
PHANTOM
 70
     0
  3
Phantom ______  __  __  ______  __  __  ______
 72
    65
 73
     6
 40
12.7
 49
6.35
 74
     0
 49
-1.27
 74
     0
 49
1.27
 74
     0
 49
-1.27
 74
     0
 49
1.27
 74
     0
 49
-1.27
 74
     0
  0
LTYPE
  5
70
330
5
100
AcDbSymbolTableRecord
100
AcDbLinetypeTableRecord
  2
CENTER
 70
     0
  3
Center ____ _ ____ _ ____ _ ____ _ ____ _ ____
 72
    65
 73
     4
 40
10.16
 49
6.35
 74
     0
 49
-1.27
 74
     0
 49
1.27
 74
     0
 49
-1.27
 74
     0
  0
LTYPE
  5
71
330
5
100
AcDbSymbolTableRecord
100
AcDbLinetypeTableRecord
  2
CENTERX2
 70
     0
  3
Center (2x) ________  __  ________  __  _____
 72
    65
 73
     4
 40
20.32
 49
12.7
 74
     0
 49
-2.54
 74
     0
 49
2.54
 74
     0
 49
-2.54
 74
     0
  0
LTYPE
  5
72
330
5
100
AcDbSymbolTableRecord
100
AcDbLinetypeTableRecord
  2
DOT2
 70
     0
  3
Dot (.5x) ........................................
 72
    65
 73
     2
 40
0.635
 49
0.0
 74
     0
 49
-0.635
 74
     0
  0
ENDTAB
  0
TABLE
  2
LAYER
  5
2
330
0
100
AcDbSymbolTable
 70
    17
  0
LAYER
  5
10
330
2
100
AcDbSymbolTableRecord
100
AcDbLayerTableRecord
  2
0
 70
     0
 62
     7
  6
Continuous
370
    -3
390
F
  0
LAYER
  5
73
330
2
100
AcDbSymbolTableRecord
100
AcDbLayerTableRecord
  2
FORMAT
 70
     0
 62
     2
  6
Continuous
370
    -3
390
F
  0
LAYER
  5
74
330
2
100
AcDbSymbolTableRecord
100
AcDbLayerTableRecord
  2
외형선
 70
     0
 62
   100
  6
Continuous
370
    35
390
F
  0
LAYER
  5
75
330
2
100
AcDbSymbolTableRecord
100
AcDbLayerTableRecord
  2
숨은선
 70
     0
 62
     2
  6
HIDDEN
370
    25
390
F
  0
LAYER
  5
76
330
2
100
AcDbSymbolTableRecord
100
AcDbLayerTableRecord
  2
중심선
 70
     0
 62
     1
  6
CENTERX2
370
    -3
390
F
  0
LAYER
  5
77
330
2
100
AcDbSymbolTableRecord
100
AcDbLayerTableRecord
  2
파단선
 70
     0
 62
     4
  6
Continuous
370
    -3
390
F
  0
LAYER
  5
78
330
2
100
AcDbSymbolTableRecord
100
AcDbLayerTableRecord
  2
해칭선
 70
     0
 62
     4
  6
Continuous
370
    -3
390
F
  0
LAYER
  5
79
330
2
100
AcDbSymbolTableRecord
100
AcDbLayerTableRecord
  2
가는실선
 70
     0
 62
     4
  6
Continuous
370
    -3
390
F
  0
LAYER
  5
7A
330
2
100
AcDbSymbolTableRecord
100
AcDbLayerTableRecord
  2
치수_보조선
 70
     0
 62
     4
  6
Continuous
370
    -3
390
F
  0
LAYER
  5
7B
330
2
100
AcDbSymbolTableRecord
100
AcDbLayerTableRecord
  2
치수문자_일반주서
 70
     0
 62
     7
  6
Continuous
370
    25
390
F
  0
LAYER
  5
7C
330
2
100
AcDbSymbolTableRecord
100
AcDbLayerTableRecord
  2
개별주서
 70
     0
 62
   100
  6
Continuous
370
    35
390
F
  0
LAYER
  5
7D
330
2
100
AcDbSymbolTableRecord
100
AcDbLayerTableRecord
  2
중간선
 70
     0
 62
     2
  6
Continuous
370
    25
390
F
  0
LAYER
  5
7E
330
2
100
AcDbSymbolTableRecord
100
AcDbLayerTableRecord
  2
윤곽선
 70
     0
 62
     3
  6
Continuous
370
    50
390
F
  0
LAYER
  5
7F
330
2
100
AcDbSymbolTableRecord
100
AcDbLayerTableRecord
  2
중심마크
 70
     0
 62
   100
  6
Continuous
370
    35
390
F
  0
LAYER
  5
80
330
2
100
AcDbSymbolTableRecord
100
AcDbLayerTableRecord
  2
가상선
 70
     0
 62
     4
  6
PHANTOM
370
    -3
390
F
  0
LAYER
  5
81
330
2
100
AcDbSymbolTableRecord
100
AcDbLayerTableRecord
  2
특수지정선
 70
     0
 62
     5
  6
CENTERX2
370
    70
390
F
  0
LAYER
  5
12D
330
2
100
AcDbSymbolTableRecord
100
AcDbLayerTableRecord
  2
Defpoints
 70
     0
 62
     7
  6
Continuous
290
     0
370
    -3
390
F
  0
ENDTAB
  0
TABLE
  2
STYLE
  5
3
330
0
100
AcDbSymbolTable
 70
     2
  0
STYLE
  5
11
330
3
100
AcDbSymbolTableRecord
100
AcDbTextStyleTableRecord
  2
Standard
 70
     0
 40
0.0
 41
1.0
 50
0.0
 71
     0
 42
3.5
  3
txt
  4

  0
STYLE
  5
97
330
3
100
AcDbSymbolTableRecord
100
AcDbTextStyleTableRecord
  2
SLDTEXTSTYLE0
 70
     0
 40
0.0
 41
0.75
 50
0.0
 71
     0
 42
3.5
  3
TXT
  4

  0
ENDTAB
  0
TABLE
  2
VIEW
  5
6
330
0
100
AcDbSymbolTable
 70
     0
  0
ENDTAB
  0
TABLE
  2
UCS
  5
7
330
0
100
AcDbSymbolTable
 70
     0
  0
ENDTAB
  0
TABLE
  2
APPID
  5
9
330
0
100
AcDbSymbolTable
 70
     2
  0
APPID
  5
12
330
9
100
AcDbSymbolTableRecord
100
AcDbRegAppTableRecord
  2
ACAD
 70
     0
  0
APPID
  5
13B
330
9
100
AcDbSymbolTableRecord
100
AcDbRegAppTableRecord
  2
ACAD_DSTYLE_DIMRADIAL_EXTENSION
 70
     0
  0
ENDTAB
  0
TABLE
  2
DIMSTYLE
  5
A
330
0
100
AcDbSymbolTable
 70
     5
100
AcDbDimStyleTable
  0
DIMSTYLE
105
27
330
A
100
AcDbSymbolTableRecord
100
AcDbDimStyleTableRecord
  2
ISO-25
 70
     0
 41
2.5
 42
0.625
 43
3.75
 44
1.25
 73
     0
 74
     0
 77
     1
 78
     8
140
2.5
141
2.5
143
0.03937007874016
147
0.625
171
     3
172
     1
178
     0
271
     2
272
     2
274
     3
278
    44
283
     0
284
     8
340
11
  0
DIMSTYLE
105
C4
102
{ACAD_REACTORS
330
186
330
1AD
330
213
330
216
102
}
330
A
100
AcDbSymbolTableRecord
100
AcDbDimStyleTableRecord
  2
SLDDIMSTYLE0
 70
     0
 41
3.302
 44
0.0
 45
0.000000001
 73
     0
 74
     0
 77
     1
 78
    12
 79
     3
140
3.5
147
0.875
172
     1
173
     1
178
     0
271
     2
272
     2
276
     2
284
    12
289
     0
340
97
  0
DIMSTYLE
105
D2
102
{ACAD_REACTORS
330
193
330
214
102
}
330
A
100
AcDbSymbolTableRecord
100
AcDbDimStyleTableRecord
  2
SLDDIMSTYLE1
 70
     0
 41
3.302
 44
0.0
 45
0.000000001
 73
     0
 74
     0
 77
     1
 78
     4
 79
     1
140
3.5
147
0.875
172
     1
173
     1
178
     0
271
     2
272
     2
276
     2
284
    12
289
     0
340
97
  0
DIMSTYLE
105
DF
102
{ACAD_REACTORS
330
1A0
330
215
102
}
330
A
100
AcDbSymbolTableRecord
100
AcDbDimStyleTableRecord
  2
SLDDIMSTYLE2
 70
     0
 41
3.302
 44
0.0
 45
0.000000001
 73
     0
 74
     0
 77
     1
 78
    12
 79
     3
140
3.5
147
0.875
173
     1
178
     0
271
     2
272
     2
276
     2
284
    12
340
97
  0
DIMSTYLE
105
13A
102
{ACAD_REACTORS
330
1BA
330
1D8
330
217
330
270
102
}
330
A
100
AcDbSymbolTableRecord
100
AcDbDimStyleTableRecord
  2
SLDDIMSTYLE3
 70
     0
 41
3.302
 44
0.0
 45
0.000000001
 73
     0
 74
     0
 77
     1
 78
     8
 79
     2
140
3.5
147
0.875
172
     1
173
     1
178
     0
271
     2
272
     2
276
     2
284
    12
289
     0
340
97
  0
ENDTAB
  0
TABLE
  2
BLOCK_RECORD
  5
1
330
0
100
AcDbSymbolTable
 70
    22
  0
BLOCK_RECORD
  5
1F
330
1
100
AcDbSymbolTableRecord
100
AcDbBlockTableRecord
  2
*Model_Space
340
22
  0
BLOCK_RECORD
  5
1B
330
1
100
AcDbSymbolTableRecord
100
AcDbBlockTableRecord
  2
*Paper_Space
340
1E
  0
BLOCK_RECORD
  5
23
330
1
100
AcDbSymbolTableRecord
100
AcDbBlockTableRecord
  2
*Paper_Space0
340
26
  0
BLOCK_RECORD
  5
82
330
1
100
AcDbSymbolTableRecord
100
AcDbBlockTableRecord
  2
블럭10
340
0
102
{BLKREFS
331
BC
102
}
  0
BLOCK_RECORD
  5
C5
330
1
100
AcDbSymbolTableRecord
100
AcDbBlockTableRecord
  2
_D
340
0
  0
BLOCK_RECORD
  5
D3
330
1
100
AcDbSymbolTableRecord
100
AcDbBlockTableRecord
  2
_D_1
340
0
  0
BLOCK_RECORD
  5
E0
330
1
100
AcDbSymbolTableRecord
100
AcDbBlockTableRecord
  2
_D_2
340
0
  0
BLOCK_RECORD
  5
EA
330
1
100
AcDbSymbolTableRecord
100
AcDbBlockTableRecord
  2
_D_3
340
0
  0
BLOCK_RECORD
  5
F6
330
1
100
AcDbSymbolTableRecord
100
AcDbBlockTableRecord
  2
_D_4
340
0
  0
BLOCK_RECORD
  5
102
330
1
100
AcDbSymbolTableRecord
100
AcDbBlockTableRecord
  2
SW_DOWELSYMBOL_0
340
0
102
{BLKREFS
331
0
331
1CA
331
218
102
}
  0
BLOCK_RECORD
  5
187
330
1
100
AcDbSymbolTableRecord
100
AcDbBlockTableRecord
  2
*D9
340
0
  0
BLOCK_RECORD
  5
194
330
1
100
AcDbSymbolTableRecord
100
AcDbBlockTableRecord
  2
*D10
340
0
  0
BLOCK_RECORD
  5
1A1
330
1
100
AcDbSymbolTableRecord
100
AcDbBlockTableRecord
  2
*D11
340
0
  0
BLOCK_RECORD
  5
1AE
330
1
100
AcDbSymbolTableRecord
100
AcDbBlockTableRecord
  2
*D12
340
0
  0
BLOCK_RECORD
  5
1BB
330
1
100
AcDbSymbolTableRecord
100
AcDbBlockTableRecord
  2
*D13
340
0
  0
BLOCK_RECORD
  5
1DB
330
1
100
AcDbSymbolTableRecord
100
AcDbBlockTableRecord
  2
*D14
340
0
  0
BLOCK_RECORD
  5
223
330
1
100
AcDbSymbolTableRecord
100
AcDbBlockTableRecord
  2
*D15
340
0
  0
BLOCK_RECORD
  5
22F
330
1
100
AcDbSymbolTableRecord
100
AcDbBlockTableRecord
  2
*D16
340
0
  0
BLOCK_RECORD
  5
23B
330
1
100
AcDbSymbolTableRecord
100
AcDbBlockTableRecord
  2
*D17
340
0
  0
BLOCK_RECORD
  5
247
330
1
100
AcDbSymbolTableRecord
100
AcDbBlockTableRecord
  2
*D18
340
0
  0
BLOCK_RECORD
  5
253
330
1
100
AcDbSymbolTableRecord
100
AcDbBlockTableRecord
  2
*D19
340
0
  0
BLOCK_RECORD
  5
262
330
1
100
AcDbSymbolTableRecord
100
AcDbBlockTableRecord
  2
*D20
340
0
  0
BLOCK_RECORD
  5
273
330
1
100
AcDbSymbolTableRecord
100
AcDbBlockTableRecord
  2
*D21
340
0
  0
ENDTAB
  0
ENDSEC
  0
SECTION
  2
BLOCKS
  0
BLOCK
  5
20
330
1F
100
AcDbEntity
  8
0
100
AcDbBlockBegin
  2
*Model_Space
 70
     0
 10
0.0
 20
0.0
 30
0.0
  3
*Model_Space
  1
*Model_Space
  0
ENDBLK
  5
21
330
1F
100
AcDbEntity
  8
0
100
AcDbBlockEnd
  0
BLOCK
  5
1C
330
1B
100
AcDbEntity
 67
     1
  8
0
100
AcDbBlockBegin
  2
*Paper_Space
 70
     0
 10
0.0
 20
0.0
 30
0.0
  3
*Paper_Space
  1
*Paper_Space
  0
ENDBLK
  5
1D
330
1B
100
AcDbEntity
 67
     1
  8
0
100
AcDbBlockEnd
  0
BLOCK
  5
24
330
23
100
AcDbEntity
  8
0
100
AcDbBlockBegin
  2
*Paper_Space0
 70
     0
 10
0.0
 20
0.0
 30
0.0
  3
*Paper_Space0
  1
*Paper_Space0
  0
ENDBLK
  5
25
330
23
100
AcDbEntity
  8
0
100
AcDbBlockEnd
  0
BLOCK
  5
83
330
82
100
AcDbEntity
  8
0
100
AcDbBlockBegin
  2
블럭10
 70
     2
 10
0.0
 20
0.0
 30
0.0
  3
블럭10
  1
블럭10
  0
ELLIPSE
  5
85
330
82
100
AcDbEntity
  8
중심선
100
AcDbEllipse
 10
20.54032771741204
 20
12.0471743016438
 30
0.0
 11
6.600054785286829
 21
-1.261213355974178E-13
 31
0.0
210
0.0
220
0.0
230
1.0
 40
0.636358354079598
 41
0.9219305317359503
 42
6.513795318482858
  0
ELLIPSE
  5
86
330
82
100
AcDbEntity
  8
중심선
100
AcDbEllipse
 10
20.54032771746488
 20
12.04717430159265
 30
0.0
 11
3.960054785062283
 21
1.540847449632565E-10
 31
0.0
210
0.0
220
0.0
230
1.0
 40
0.3939339440162632
 41
1.131841032648279
 42
5.62031148352944
  0
LINE
  5
87
330
82
100
AcDbEntity
  8
중심선
100
AcDbLine
 10
2.268634060543552
 20
16.24717430164393
 30
0.0
 11
5.714909304380834
 21
16.24717430164393
 31
0.0
  0
LINE
  5
88
330
82
100
AcDbEntity
  8
중심선
100
AcDbLine
 10
5.245725140726316
 20
7.84717430164391
 30
0.0
 11
8.692000384563599
 21
7.84717430164391
 31
0.0
  0
LINE
  5
89
330
82
100
AcDbEntity
  8
중심선
100
AcDbLine
 10
15.74043728645272
 20
16.24717430164393
 30
0.0
 11
8.692000384563599
 21
7.84717430164391
 31
0.0
  0
LINE
  5
8A
330
82
100
AcDbEntity
  8
중심선
100
AcDbLine
 10
0.1404042013395286
 20
13.71084872107135
 30
0.0
 11
3.58671253028996
 21
13.71088815037384
 31
0.0
  0
LINE
  5
8B
330
82
100
AcDbEntity
  8
중심선
100
AcDbLine
 10
2.750260043222114
 20
10.84717430164391
 30
0.0
 11
6.196535287059397
 21
10.84717430164391
 31
0.0
  0
LINE
  5
8C
330
82
100
AcDbEntity
  8
중심선
100
AcDbLine
 10
12.29416204261559
 20
16.24717430164393
 30
0.0
 11
5.245725140726316
 21
7.84717430164391
 31
0.0
  0
LINE
  5
8D
330
82
100
AcDbEntity
  8
중심선
100
AcDbLine
 10
10.72767329541681
 20
16.24717430164393
 30
0.0
 11
6.196535287059397
 21
10.84717430164391
 31
0.0
  0
LINE
  5
8E
330
82
100
AcDbEntity
  8
중심선
100
AcDbLine
 10
7.28139805157953
 20
16.24717430164393
 30
0.0
 11
2.750260043222114
 21
10.84717430164391
 31
0.0
  0
LINE
  5
8F
330
82
100
AcDbEntity
  8
중심선
100
AcDbLine
 10
5.714909304380834
 20
16.24717430164393
 30
0.0
 11
3.58671253028996
 21
13.71088815037384
 31
0.0
  0
LINE
  5
90
330
82
100
AcDbEntity
  8
중심선
100
AcDbLine
 10
2.268634060543552
 20
16.24717430164393
 30
0.0
 11
0.1404042013395286
 21
13.71084872107135
 31
0.0
  0
LINE
  5
91
330
82
100
AcDbEntity
  8
중심선
100
AcDbLine
 10
7.28139805157953
 20
16.24717430164393
 30
0.0
 11
10.72767329541681
 21
16.24717430164393
 31
0.0
  0
LINE
  5
92
330
82
100
AcDbEntity
  8
중심선
100
AcDbLine
 10
12.29416204261559
 20
16.24717430164393
 30
0.0
 11
15.74043728645272
 21
16.24717430164393
 31
0.0
  0
LINE
  5
93
330
82
100
AcDbEntity
  8
중심선
100
AcDbLine
 10
19.22036997980202
 20
11.08717430171403
 30
0.0
 11
23.66174974927406
 21
11.08717430171406
 31
0.0
  0
LINE
  5
94
330
82
100
AcDbEntity
  8
중심선
100
AcDbLine
 10
19.22039502424796
 20
13.00717430171391
 30
0.0
 11
19.22036997980202
 21
11.08717430171403
 31
0.0
  0
LINE
  5
95
330
82
100
AcDbEntity
  8
중심선
100
AcDbLine
 10
19.22039502424796
 20
13.00717430171391
 30
0.0
 11
26.96566020931264
 21
13.00717430171391
 31
0.0
  0
LINE
  5
96
330
82
100
AcDbEntity
  8
중심선
100
AcDbLine
 10
22.22332737316547
 20
13.45928029700563
 30
0.0
 11
24.52862924686651
 21
15.39360700705356
 31
0.0
  0
ATTDEF
  5
98
330
82
100
AcDbEntity
  8
FORMAT
 62
     2
100
AcDbText
 10
-19.27858288401334
 20
2.075366912832191
 30
0.0
 40
4.233333333333333
  1
SEME610300340E [ 2 FLUTE ]
 41
0.75
  7
SLDTEXTSTYLE0
 11
-19.27858288401334
 21
-0.0412997538344756
 31
0.0
100
AcDbAttributeDefinition
  3

  2
AUTOATTR0
 70
     0
 74
     1
  0
ENDBLK
  5
84
330
82
100
AcDbEntity
  8
0
100
AcDbBlockEnd
  0
BLOCK
  5
C6
330
C5
100
AcDbEntity
  8
0
100
AcDbBlockBegin
  2
_D
 70
     0
 10
0.0
 20
0.0
 30
0.0
  3
_D
  1
_D
  0
SOLID
  5
C8
330
C5
100
AcDbEntity
  8
치수문자_일반주서
100
AcDbTrace
 10
-41.00250885508846
 20
3.001074928723889
 30
0.0
 11
-40.49450885508846
 21
6.303074928723889
 31
0.0
 12
-41.51050885508847
 22
6.303074928723889
 32
0.0
 13
-41.51050885508847
 23
6.303074928723889
 33
0.0
  0
SOLID
  5
C9
330
C5
100
AcDbEntity
  8
치수문자_일반주서
100
AcDbTrace
 10
-41.00250885508846
 20
-2.998925071276108
 30
0.0
 11
-41.51050885508847
 21
-6.300925071276107
 31
0.0
 12
-40.49450885508846
 22
-6.300925071276107
 32
0.0
 13
-40.49450885508846
 23
-6.300925071276107
 33
0.0
  0
LINE
  5
CA
330
C5
100
AcDbEntity
  8
치수문자_일반주서
100
AcDbLine
 10
-29.50605083347638
 20
3.001074928723889
 30
0.0
 11
-42.00250885508846
 21
3.001074928723889
 31
0.0
  0
LINE
  5
CB
330
C5
100
AcDbEntity
  8
치수문자_일반주서
100
AcDbLine
 10
-29.50605083347638
 20
-2.998925071276108
 30
0.0
 11
-42.00250885508846
 21
-2.998925071276108
 31
0.0
  0
LINE
  5
CC
330
C5
100
AcDbEntity
  8
치수문자_일반주서
100
AcDbLine
 10
-41.00250885508846
 20
3.001074928723889
 30
0.0
 11
-41.00250885508846
 21
9.35107492872389
 31
0.0
  0
LINE
  5
CD
330
C5
100
AcDbEntity
  8
치수문자_일반주서
100
AcDbLine
 10
-41.00250885508846
 20
3.001074928723889
 30
0.0
 11
-41.00250885508846
 21
-2.998925071276108
 31
0.0
  0
LINE
  5
CE
330
C5
100
AcDbEntity
  8
치수문자_일반주서
100
AcDbLine
 10
-41.00250885508846
 20
-2.998925071276108
 30
0.0
 11
-41.00250885508846
 21
-9.348925071276108
 31
0.0
  0
MTEXT
  5
CF
330
C5
100
AcDbEntity
  8
치수문자_일반주서
100
AcDbMText
 10
-45.51424594429033
 20
-3.931199483639909
 30
0.0
 40
3.5
 41
0.0
 71
     1
 72
     1
  1
%%c
  7
SLDTEXTSTYLE0
 11
-7.044195017643634E-15
 21
1.0
 31
0.0
 73
     1
 44
1.0
  0
MTEXT
  5
D0
330
C5
100
AcDbEntity
  8
치수문자_일반주서
100
AcDbMText
 10
-45.56771812095022
 20
1.347237914734172
 30
0.0
 40
3.5
 41
0.0
 71
     1
 72
     1
  1
6
  7
SLDTEXTSTYLE0
 11
-7.044195017643634E-15
 21
1.0
 31
0.0
 73
     1
 44
1.0
  0
ENDBLK
  5
C7
330
C5
100
AcDbEntity
  8
0
100
AcDbBlockEnd
  0
BLOCK
  5
D4
330
D3
100
AcDbEntity
  8
0
100
AcDbBlockBegin
  2
_D_1
 70
     0
 10
0.0
 20
0.0
 30
0.0
  3
_D_1
  1
_D_1
  0
SOLID
  5
D6
330
D3
100
AcDbEntity
  8
치수문자_일반주서
100
AcDbTrace
 10
50.49394916652246
 20
19.70107492872356
 30
0.0
 11
53.79594916652249
 21
19.19307492872376
 31
0.0
 12
53.79594916652243
 22
20.20907492872376
 32
0.0
 13
53.79594916652243
 23
20.20907492872376
 33
0.0
  0
SOLID
  5
D7
330
D3
100
AcDbEntity
  8
치수문자_일반주서
100
AcDbTrace
 10
45.99394916652248
 20
19.70107492872327
 30
0.0
 11
42.69194916652246
 21
20.20907492872307
 31
0.0
 12
42.69194916652251
 22
19.19307492872307
 32
0.0
 13
42.69194916652251
 23
19.19307492872307
 33
0.0
  0
LINE
  5
D8
330
D3
100
AcDbEntity
  8
치수문자_일반주서
100
AcDbLine
 10
50.49394916652356
 20
2.201074928723895
 30
0.0
 11
50.49394916652241
 21
20.70107492872356
 31
0.0
  0
LINE
  5
D9
330
D3
100
AcDbEntity
  8
치수문자_일반주서
100
AcDbLine
 10
45.99394916652355
 20
2.501074928723895
 30
0.0
 11
45.99394916652242
 21
20.70107492872328
 31
0.0
  0
LINE
  5
DA
330
D3
100
AcDbEntity
  8
치수문자_일반주서
100
AcDbLine
 10
50.49394916652246
 20
19.70107492872356
 30
0.0
 11
59.94170690579266
 21
19.70107492872415
 31
0.0
  0
LINE
  5
DB
330
D3
100
AcDbEntity
  8
치수문자_일반주서
100
AcDbLine
 10
50.49394916652246
 20
19.70107492872356
 30
0.0
 11
45.99394916652248
 21
19.70107492872327
 31
0.0
  0
LINE
  5
DC
330
D3
100
AcDbEntity
  8
치수문자_일반주서
100
AcDbLine
 10
45.99394916652248
 20
19.70107492872327
 30
0.0
 11
39.64394916652248
 21
19.70107492872288
 31
0.0
  0
MTEXT
  5
DD
330
D3
100
AcDbEntity
  8
치수문자_일반주서
100
AcDbMText
 10
50.89031784487822
 20
24.21281184330276
 30
0.0
 40
3.5
 41
0.0
 71
     1
 72
     1
  1
4.50
  7
SLDTEXTSTYLE0
 73
     1
 44
1.0
  0
ENDBLK
  5
D5
330
D3
100
AcDbEntity
  8
0
100
AcDbBlockEnd
  0
BLOCK
  5
E1
330
E0
100
AcDbEntity
  8
0
100
AcDbBlockBegin
  2
_D_2
 70
     0
 10
0.0
 20
0.0
 30
0.0
  3
_D_2
  1
_D_2
  0
SOLID
  5
E3
330
E0
100
AcDbEntity
  8
치수문자_일반주서
100
AcDbTrace
 10
50.49394916652362
 20
41.75939943376817
 30
0.0
 11
47.19194916652362
 21
42.26739943376818
 31
0.0
 12
47.19194916652362
 22
41.25139943376817
 32
0.0
 13
47.19194916652362
 23
41.25139943376817
 33
0.0
  0
SOLID
  5
E4
330
E0
100
AcDbEntity
  8
치수문자_일반주서
100
AcDbTrace
 10
-29.50605083347639
 20
41.75939943376817
 30
0.0
 11
-26.20405083347639
 21
41.25139943376817
 31
0.0
 12
-26.20405083347639
 22
42.26739943376818
 32
0.0
 13
-26.20405083347639
 23
42.26739943376818
 33
0.0
  0
LINE
  5
E5
330
E0
100
AcDbEntity
  8
치수문자_일반주서
100
AcDbLine
 10
50.49394916652362
 20
2.201074928723895
 30
0.0
 11
50.49394916652362
 21
42.75939943376818
 31
0.0
  0
LINE
  5
E6
330
E0
100
AcDbEntity
  8
치수문자_일반주서
100
AcDbLine
 10
-29.50605083347638
 20
3.001074928723888
 30
0.0
 11
-29.50605083347639
 21
42.75939943376818
 31
0.0
  0
LINE
  5
E7
330
E0
100
AcDbEntity
  8
치수문자_일반주서
100
AcDbLine
 10
50.49394916652362
 20
41.75939943376817
 30
0.0
 11
-29.50605083347639
 21
41.75939943376817
 31
0.0
  0
MTEXT
  5
E8
330
E0
100
AcDbEntity
  8
치수문자_일반주서
100
AcDbMText
 10
7.90783797300079
 20
46.27113634834708
 30
0.0
 40
3.5
 41
0.0
 71
     1
 72
     1
  1
80
  7
SLDTEXTSTYLE0
 73
     1
 44
1.0
  0
ENDBLK
  5
E2
330
E0
100
AcDbEntity
  8
0
100
AcDbBlockEnd
  0
BLOCK
  5
EB
330
EA
100
AcDbEntity
  8
0
100
AcDbBlockBegin
  2
_D_3
 70
     0
 10
0.0
 20
0.0
 30
0.0
  3
_D_3
  1
_D_3
  0
SOLID
  5
ED
330
EA
100
AcDbEntity
  8
치수문자_일반주서
100
AcDbTrace
 10
14.49394916652476
 20
30.32107492872395
 30
0.0
 11
17.79594916652475
 21
29.81307492872382
 31
0.0
 12
17.79594916652478
 22
30.82907492872382
 32
0.0
 13
17.79594916652478
 23
30.82907492872382
 33
0.0
  0
SOLID
  5
EE
330
EA
100
AcDbEntity
  8
치수문자_일반주서
100
AcDbTrace
 10
10.2140453559571
 20
30.32107492872411
 30
0.0
 11
6.912045355957115
 21
30.82907492872424
 31
0.0
 12
6.912045355957076
 22
29.81307492872424
 32
0.0
 13
6.912045355957076
 23
29.81307492872424
 33
0.0
  0
LINE
  5
EF
330
EA
100
AcDbEntity
  8
치수문자_일반주서
100
AcDbLine
 10
14.49394916652365
 20
1.401074928723893
 30
0.0
 11
14.4939491665248
 21
31.32107492872394
 31
0.0
  0
LINE
  5
F0
330
EA
100
AcDbEntity
  8
치수문자_일반주서
100
AcDbLine
 10
10.21404535595599
 20
1.551074928723894
 30
0.0
 11
10.21404535595713
 21
31.32107492872411
 31
0.0
  0
LINE
  5
F1
330
EA
100
AcDbEntity
  8
치수문자_일반주서
100
AcDbLine
 10
14.49394916652476
 20
30.32107492872395
 30
0.0
 11
55.42440269528608
 21
30.32107492872239
 31
0.0
  0
LINE
  5
F2
330
EA
100
AcDbEntity
  8
치수문자_일반주서
100
AcDbLine
 10
14.49394916652476
 20
30.32107492872395
 30
0.0
 11
10.2140453559571
 21
30.32107492872411
 31
0.0
  0
LINE
  5
F3
330
EA
100
AcDbEntity
  8
치수문자_일반주서
100
AcDbLine
 10
10.2140453559571
 20
30.32107492872411
 30
0.0
 11
3.864045355957095
 21
30.32107492872435
 31
0.0
  0
MTEXT
  5
F4
330
EA
100
AcDbEntity
  8
치수문자_일반주서
100
AcDbMText
 10
46.3730136343715
 20
34.83281184330144
 30
0.0
 40
3.5
 41
0.0
 71
     1
 72
     1
  1
4.28
  7
SLDTEXTSTYLE0
 73
     1
 44
1.0
  0
ENDBLK
  5
EC
330
EA
100
AcDbEntity
  8
0
100
AcDbBlockEnd
  0
BLOCK
  5
F7
330
F6
100
AcDbEntity
  8
0
100
AcDbBlockBegin
  2
_D_4
 70
     0
 10
0.0
 20
0.0
 30
0.0
  3
_D_4
  1
_D_4
  0
SOLID
  5
F9
330
F6
100
AcDbEntity
  8
치수문자_일반주서
100
AcDbTrace
 10
68.05059833193548
 20
1.501074928723896
 30
0.0
 11
68.55859833193547
 21
4.803074928723896
 31
0.0
 12
67.54259833193548
 22
4.803074928723896
 32
0.0
 13
67.54259833193548
 23
4.803074928723896
 33
0.0
  0
SOLID
  5
FA
330
F6
100
AcDbEntity
  8
치수문자_일반주서
100
AcDbTrace
 10
68.05059833193548
 20
-1.480510821134722
 30
0.0
 11
67.54259833193548
 21
-4.782510821134721
 31
0.0
 12
68.55859833193547
 22
-4.782510821134721
 32
0.0
 13
68.55859833193547
 23
-4.782510821134721
 33
0.0
  0
LINE
  5
FB
330
F6
100
AcDbEntity
  8
치수문자_일반주서
100
AcDbLine
 10
51.19394916652362
 20
1.501074928723897
 30
0.0
 11
69.05059833193548
 21
1.501074928723896
 31
0.0
  0
LINE
  5
FC
330
F6
100
AcDbEntity
  8
치수문자_일반주서
100
AcDbLine
 10
51.19394916652362
 20
-1.480510821134721
 30
0.0
 11
69.05059833193548
 21
-1.480510821134722
 31
0.0
  0
LINE
  5
FD
330
F6
100
AcDbEntity
  8
치수문자_일반주서
100
AcDbLine
 10
68.05059833193548
 20
1.501074928723896
 30
0.0
 11
68.05059833193548
 21
7.851074928723896
 31
0.0
  0
LINE
  5
FE
330
F6
100
AcDbEntity
  8
치수문자_일반주서
100
AcDbLine
 10
68.05059833193548
 20
1.501074928723896
 30
0.0
 11
68.05059833193548
 21
-1.480510821134722
 31
0.0
  0
LINE
  5
FF
330
F6
100
AcDbEntity
  8
치수문자_일반주서
100
AcDbLine
 10
68.05059833193548
 20
-1.480510821134722
 30
0.0
 11
68.05059833193548
 21
-14.32156976103179
 31
0.0
  0
MTEXT
  5
100
330
F6
100
AcDbEntity
  8
치수문자_일반주서
100
AcDbMText
 10
63.53886124273361
 20
-14.32156976103178
 30
0.0
 40
3.5
 41
0.0
 71
     1
 72
     1
  1
%%c
  7
SLDTEXTSTYLE0
 11
-7.044195017643634E-15
 21
1.0
 31
0.0
 73
     1
 44
1.0
  0
MTEXT
  5
101
330
F6
100
AcDbEntity
  8
치수문자_일반주서
100
AcDbMText
 10
63.48538906607372
 20
-9.043132362657696
 30
0.0
 40
3.5
 41
0.0
 71
     1
 72
     1
  1
2.98
  7
SLDTEXTSTYLE0
 11
-7.044195017643634E-15
 21
1.0
 31
0.0
 73
     1
 44
1.0
  0
ENDBLK
  5
F8
330
F6
100
AcDbEntity
  8
0
100
AcDbBlockEnd
  0
BLOCK
  5
103
330
102
100
AcDbEntity
  8
0
100
AcDbBlockBegin
  2
SW_DOWELSYMBOL_0
 70
     0
 10
0.0
 20
0.0
 30
0.0
  3
SW_DOWELSYMBOL_0
  1
SW_DOWELSYMBOL_0
  0
CIRCLE
  5
105
330
102
100
AcDbEntity
  8
외형선
 62
     0
100
AcDbCircle
 10
0.0
 20
0.0
 30
0.0
 40
3.000000000000004
  0
HATCH
  5
106
330
102
100
AcDbEntity
  8
0
  6
Continuous
 62
     0
370
    35
100
AcDbHatch
 10
0.0
 20
0.0
 30
0.0
210
0.0
220
0.0
230
1.0
  2
SOLID
 70
     1
 71
     0
 91
        1
 92
        0
 93
        3
 72
     2
 10
0.0000000000000104
 20
0.0
 40
3.000000000000004
 50
0.0
 51
90.0
 73
     1
 72
     1
 10
0.0000000000000104
 20
3.000000000000004
 11
0.0000000000000104
 21
0.0
 72
     1
 10
0.0000000000000104
 20
0.0
 11
3.000000000000015
 21
0.0
 97
        0
 75
     0
 76
     1
 98
        1
 10
0.0
 20
0.0
  0
HATCH
  5
107
330
102
100
AcDbEntity
  8
0
  6
Continuous
 62
     0
370
    35
100
AcDbHatch
 10
0.0
 20
0.0
 30
0.0
210
0.0
220
0.0
230
1.0
  2
SOLID
 70
     1
 71
     0
 91
        1
 92
        0
 93
        3
 72
     2
 10
0.0000000000000104
 20
0.0
 40
3.000000000000004
 50
180.0
 51
270.0000000000008
 73
     1
 72
     1
 10
0.0000000000000104
 20
-3.000000000000004
 11
0.0000000000000104
 21
0.0
 72
     1
 10
0.0000000000000104
 20
0.0
 11
-2.999999999999994
 21
0.0
 97
        0
 75
     0
 76
     1
 98
        1
 10
0.0
 20
0.0
  0
ENDBLK
  5
104
330
102
100
AcDbEntity
  8
0
100
AcDbBlockEnd
  0
BLOCK
  5
188
330
187
100
AcDbEntity
  8
0
100
AcDbBlockBegin
  2
*D9
 70
     1
 10
0.0
 20
0.0
 30
0.0
  3
*D9
  1
*D9
  0
LINE
  5
189
330
187
100
AcDbEntity
  8
치수문자_일반주서
 62
     0
370
    -2
100
AcDbLine
 10
16.80895802161209
 20
26.81079174299578
 30
0.0
 11
4.374999999999996
 21
26.81079174299573
 31
0.0
  0
LINE
  5
18A
330
187
100
AcDbEntity
  8
치수문자_일반주서
 62
     0
370
    -2
100
AcDbLine
 10
16.80895802161209
 20
20.81079174299578
 30
0.0
 11
4.375000000000018
 21
20.81079174299573
 31
0.0
  0
LINE
  5
18B
330
187
100
AcDbEntity
  8
치수문자_일반주서
 62
     0
370
    -2
100
AcDbLine
 10
4.375000000000008
 20
23.50879174299573
 30
0.0
 11
4.375000000000006
 21
24.11279174299573
 31
0.0
  0
SOLID
  5
18C
330
187
100
AcDbEntity
  8
치수문자_일반주서
 62
     0
100
AcDbTrace
 10
4.925333333333342
 20
23.50879174299573
 30
0.0
 11
3.824666666666675
 21
23.50879174299573
 31
0.0
 12
4.374999999999996
 22
26.81079174299573
 32
0.0
 13
4.374999999999996
 23
26.81079174299573
 33
0.0
  0
SOLID
  5
18D
330
187
100
AcDbEntity
  8
치수문자_일반주서
 62
     0
100
AcDbTrace
 10
3.824666666666673
 20
24.11279174299573
 30
0.0
 11
4.92533333333334
 21
24.11279174299573
 31
0.0
 12
4.375000000000018
 22
20.81079174299573
 32
0.0
 13
4.375000000000018
 23
20.81079174299573
 33
0.0
  0
MTEXT
  5
18E
330
187
100
AcDbEntity
  8
치수문자_일반주서
 62
     0
100
AcDbMText
 10
0.0000000000000071
 20
23.81079174299576
 30
0.0
 40
3.5
 41
0.0
 71
     2
 72
     1
  1
\A1;%%c6
  7
SLDTEXTSTYLE0
 11
-3.552713678800501E-15
 21
1.0
 31
0.0
 73
     1
 44
1.0
  0
POINT
  5
18F
330
187
100
AcDbEntity
  8
Defpoints
 62
     0
100
AcDbPoint
 10
16.87145802161209
 20
26.81079174299578
 30
0.0
  0
POINT
  5
190
330
187
100
AcDbEntity
  8
Defpoints
 62
     0
100
AcDbPoint
 10
16.87145802161209
 20
20.81079174299578
 30
0.0
  0
POINT
  5
191
330
187
100
AcDbEntity
  8
Defpoints
 62
     0
100
AcDbPoint
 10
4.375000000000021
 20
20.81079174299573
 30
0.0
  0
ENDBLK
  5
192
330
187
100
AcDbEntity
  8
0
100
AcDbBlockEnd
  0
BLOCK
  5
195
330
194
100
AcDbEntity
  8
0
100
AcDbBlockBegin
  2
*D10
 70
     1
 10
0.0
 20
0.0
 30
0.0
  3
*D10
  1
*D10
  0
LINE
  5
196
330
194
100
AcDbEntity
  8
치수문자_일반주서
 62
     0
370
    -2
100
AcDbLine
 10
95.87145802161209
 20
25.27329174299578
 30
0.0
 11
95.87145802161209
 21
43.71079174299543
 31
0.0
  0
LINE
  5
197
330
194
100
AcDbEntity
  8
치수문자_일반주서
 62
     0
370
    -2
100
AcDbLine
 10
91.37145802161209
 20
25.0594395994738
 30
0.0
 11
91.37145802161209
 21
43.71079174299543
 31
0.0
  0
LINE
  5
198
330
194
100
AcDbEntity
  8
치수문자_일반주서
 62
     0
370
    -2
100
AcDbLine
 10
92.56945802161209
 20
43.71079174299543
 30
0.0
 11
94.67345802161208
 21
43.71079174299543
 31
0.0
  0
SOLID
  5
199
330
194
100
AcDbEntity
  8
치수문자_일반주서
 62
     0
100
AcDbTrace
 10
92.56945802161209
 20
43.1604584096621
 30
0.0
 11
92.56945802161209
 21
44.26112507632877
 31
0.0
 12
95.87145802161209
 22
43.71079174299543
 32
0.0
 13
95.87145802161209
 23
43.71079174299543
 33
0.0
  0
SOLID
  5
19A
330
194
100
AcDbEntity
  8
치수문자_일반주서
 62
     0
100
AcDbTrace
 10
94.67345802161208
 20
44.26112507632877
 30
0.0
 11
94.67345802161208
 21
43.1604584096621
 31
0.0
 12
91.37145802161209
 22
43.71079174299543
 32
0.0
 13
91.37145802161209
 23
43.71079174299543
 33
0.0
  0
MTEXT
  5
19B
330
194
100
AcDbEntity
  8
치수문자_일반주서
 62
     0
100
AcDbMText
 10
93.62145802161209
 20
48.08579174299543
 30
0.0
 40
3.5
 41
0.0
 71
     2
 72
     1
  1
\A1;4.50
  7
SLDTEXTSTYLE0
 73
     1
 44
1.0
  0
POINT
  5
19C
330
194
100
AcDbEntity
  8
Defpoints
 62
     0
100
AcDbPoint
 10
95.87145802161209
 20
25.21079174299578
 30
0.0
  0
POINT
  5
19D
330
194
100
AcDbEntity
  8
Defpoints
 62
     0
100
AcDbPoint
 10
91.37145802161209
 20
24.9969395994738
 30
0.0
  0
POINT
  5
19E
330
194
100
AcDbEntity
  8
Defpoints
 62
     0
100
AcDbPoint
 10
91.37145802161209
 20
43.71079174299543
 30
0.0
  0
ENDBLK
  5
19F
330
194
100
AcDbEntity
  8
0
100
AcDbBlockEnd
  0
BLOCK
  5
1A2
330
1A1
100
AcDbEntity
  8
0
100
AcDbBlockBegin
  2
*D11
 70
     1
 10
0.0
 20
0.0
 30
0.0
  3
*D11
  1
*D11
  0
LINE
  5
1A3
330
1A1
100
AcDbEntity
  8
치수문자_일반주서
 62
     0
370
    -2
100
AcDbLine
 10
95.87145802161209
 20
25.27329174299578
 30
0.0
 11
95.87145802161209
 21
65.76911624804006
 31
0.0
  0
LINE
  5
1A4
330
1A1
100
AcDbEntity
  8
치수문자_일반주서
 62
     0
370
    -2
100
AcDbLine
 10
15.87145802161209
 20
25.87329174299578
 30
0.0
 11
15.87145802161209
 21
65.76911624804006
 31
0.0
  0
LINE
  5
1A5
330
1A1
100
AcDbEntity
  8
치수문자_일반주서
 62
     0
370
    -2
100
AcDbLine
 10
92.56945802161209
 20
65.76911624804006
 30
0.0
 11
19.17345802161208
 21
65.76911624804006
 31
0.0
  0
SOLID
  5
1A6
330
1A1
100
AcDbEntity
  8
치수문자_일반주서
 62
     0
100
AcDbTrace
 10
92.56945802161209
 20
65.21878291470674
 30
0.0
 11
92.56945802161209
 21
66.31944958137339
 31
0.0
 12
95.87145802161209
 22
65.76911624804006
 32
0.0
 13
95.87145802161209
 23
65.76911624804006
 33
0.0
  0
SOLID
  5
1A7
330
1A1
100
AcDbEntity
  8
치수문자_일반주서
 62
     0
100
AcDbTrace
 10
19.17345802161208
 20
66.31944958137339
 30
0.0
 11
19.17345802161208
 21
65.21878291470674
 31
0.0
 12
15.87145802161209
 22
65.76911624804006
 32
0.0
 13
15.87145802161209
 23
65.76911624804006
 33
0.0
  0
MTEXT
  5
1A8
330
1A1
100
AcDbEntity
  8
치수문자_일반주서
 62
     0
100
AcDbMText
 10
55.87145802161208
 20
70.14411624804006
 30
0.0
 40
3.5
 41
0.0
 71
     2
 72
     1
  1
\A1;80
  7
SLDTEXTSTYLE0
 73
     1
 44
1.0
  0
POINT
  5
1A9
330
1A1
100
AcDbEntity
  8
Defpoints
 62
     0
100
AcDbPoint
 10
95.87145802161209
 20
25.21079174299578
 30
0.0
  0
POINT
  5
1AA
330
1A1
100
AcDbEntity
  8
Defpoints
 62
     0
100
AcDbPoint
 10
15.87145802161209
 20
25.81079174299578
 30
0.0
  0
POINT
  5
1AB
330
1A1
100
AcDbEntity
  8
Defpoints
 62
     0
100
AcDbPoint
 10
15.87145802161209
 20
65.76911624804006
 30
0.0
  0
ENDBLK
  5
1AC
330
1A1
100
AcDbEntity
  8
0
100
AcDbBlockEnd
  0
BLOCK
  5
1AF
330
1AE
100
AcDbEntity
  8
0
100
AcDbBlockBegin
  2
*D12
 70
     1
 10
0.0
 20
0.0
 30
0.0
  3
*D12
  1
*D12
  0
LINE
  5
1B0
330
1AE
100
AcDbEntity
  8
치수문자_일반주서
 62
     0
370
    -2
100
AcDbLine
 10
95.87145802161209
 20
25.27109045361995
 30
0.0
 11
95.87145802161209
 21
54.13079174299443
 31
0.0
  0
LINE
  5
1B1
330
1AE
100
AcDbEntity
  8
치수문자_일반주서
 62
     0
370
    -2
100
AcDbLine
 10
55.87145802161209
 20
25.29829174299578
 30
0.0
 11
55.87145802161209
 21
54.13079174299443
 31
0.0
  0
LINE
  5
1B2
330
1AE
100
AcDbEntity
  8
치수문자_일반주서
 62
     0
370
    -2
100
AcDbLine
 10
92.56945802161209
 20
54.13079174299443
 30
0.0
 11
59.17345802161208
 21
54.13079174299443
 31
0.0
  0
SOLID
  5
1B3
330
1AE
100
AcDbEntity
  8
치수문자_일반주서
 62
     0
100
AcDbTrace
 10
92.56945802161209
 20
53.5804584096611
 30
0.0
 11
92.56945802161209
 21
54.68112507632777
 31
0.0
 12
95.87145802161209
 22
54.13079174299443
 32
0.0
 13
95.87145802161209
 23
54.13079174299443
 33
0.0
  0
SOLID
  5
1B4
330
1AE
100
AcDbEntity
  8
치수문자_일반주서
 62
     0
100
AcDbTrace
 10
59.17345802161208
 20
54.68112507632777
 30
0.0
 11
59.17345802161208
 21
53.5804584096611
 31
0.0
 12
55.87145802161209
 22
54.13079174299443
 32
0.0
 13
55.87145802161209
 23
54.13079174299443
 33
0.0
  0
MTEXT
  5
1B5
330
1AE
100
AcDbEntity
  8
치수문자_일반주서
 62
     0
100
AcDbMText
 10
75.87145802161209
 20
58.50579174299443
 30
0.0
 40
3.5
 41
0.0
 71
     2
 72
     1
  1
\A1;40
  7
SLDTEXTSTYLE0
 73
     1
 44
1.0
  0
POINT
  5
1B6
330
1AE
100
AcDbEntity
  8
Defpoints
 62
     0
100
AcDbPoint
 10
95.87145802161209
 20
25.20859045361995
 30
0.0
  0
POINT
  5
1B7
330
1AE
100
AcDbEntity
  8
Defpoints
 62
     0
100
AcDbPoint
 10
55.87145802161209
 20
25.23579174299578
 30
0.0
  0
POINT
  5
1B8
330
1AE
100
AcDbEntity
  8
Defpoints
 62
     0
100
AcDbPoint
 10
55.87145802161209
 20
54.13079174299443
 30
0.0
  0
ENDBLK
  5
1B9
330
1AE
100
AcDbEntity
  8
0
100
AcDbBlockEnd
  0
BLOCK
  5
1BC
330
1BB
100
AcDbEntity
  8
0
100
AcDbBlockBegin
  2
*D13
 70
     1
 10
0.0
 20
0.0
 30
0.0
  3
*D13
  1
*D13
  0
LINE
  5
1BD
330
1BB
100
AcDbEntity
  8
치수문자_일반주서
 62
     0
370
    -2
100
AcDbLine
 10
95.93395802161209
 20
25.31416414748612
 30
0.0
 11
106.1945893795888
 21
25.31416414748616
 31
0.0
  0
LINE
  5
1BE
330
1BB
100
AcDbEntity
  8
치수문자_일반주서
 62
     0
370
    -2
100
AcDbLine
 10
95.83395802161206
 20
22.3155747995979
 30
0.0
 11
106.1945893795888
 21
22.31557479959794
 31
0.0
  0
LINE
  5
1BF
330
1BB
100
AcDbEntity
  8
치수문자_일반주서
 62
     0
370
    -2
100
AcDbLine
 10
106.1945893795888
 20
25.31416414748616
 30
0.0
 11
106.1945893795887
 21
41.09750868639369
 31
0.0
  0
LINE
  5
1C0
330
1BB
100
AcDbEntity
  8
치수문자_일반주서
 62
     0
370
    -2
100
AcDbLine
 10
106.1945893795888
 20
25.31416414748616
 30
0.0
 11
106.1945893795888
 21
22.31557479959794
 31
0.0
  0
LINE
  5
1C1
330
1BB
100
AcDbEntity
  8
치수문자_일반주서
 62
     0
370
    -2
100
AcDbLine
 10
106.1945893795888
 20
28.61616414748616
 30
0.0
 11
106.1945893795888
 21
31.91816414748616
 31
0.0
  0
LINE
  5
1C2
330
1BB
100
AcDbEntity
  8
치수문자_일반주서
 62
     0
370
    -2
100
AcDbLine
 10
106.1945893795888
 20
19.01357479959794
 30
0.0
 11
106.1945893795888
 21
15.71157479959794
 31
0.0
  0
SOLID
  5
1C3
330
1BB
100
AcDbEntity
  8
치수문자_일반주서
 62
     0
100
AcDbTrace
 10
105.6442560462554
 20
28.61616414748615
 30
0.0
 11
106.7449227129221
 21
28.61616414748616
 31
0.0
 12
106.1945893795888
 22
25.31416414748616
 32
0.0
 13
106.1945893795888
 23
25.31416414748616
 33
0.0
  0
SOLID
  5
1C4
330
1BB
100
AcDbEntity
  8
치수문자_일반주서
 62
     0
100
AcDbTrace
 10
106.7449227129221
 20
19.01357479959795
 30
0.0
 11
105.6442560462555
 21
19.01357479959794
 31
0.0
 12
106.1945893795888
 22
22.31557479959794
 32
0.0
 13
106.1945893795888
 23
22.31557479959794
 33
0.0
  0
MTEXT
  5
1C5
330
1BB
100
AcDbEntity
  8
치수문자_일반주서
 62
     0
100
AcDbMText
 10
101.8195893795887
 20
38.03500868639367
 30
0.0
 40
3.5
 41
0.0
 71
     2
 72
     1
  1
\A1;%%c3
  7
SLDTEXTSTYLE0
 11
-4.739180016500139E-15
 21
1.0
 31
0.0
 73
     1
 44
1.0
  0
POINT
  5
1C6
330
1BB
100
AcDbEntity
  8
Defpoints
 62
     0
100
AcDbPoint
 10
95.87145802161209
 20
25.31416414748612
 30
0.0
  0
POINT
  5
1C7
330
1BB
100
AcDbEntity
  8
Defpoints
 62
     0
100
AcDbPoint
 10
95.77145802161206
 20
22.3155747995979
 30
0.0
  0
POINT
  5
1C8
330
1BB
100
AcDbEntity
  8
Defpoints
 62
     0
100
AcDbPoint
 10
106.1945893795888
 20
22.31557479959794
 30
0.0
  0
ENDBLK
  5
1C9
330
1BB
100
AcDbEntity
  8
0
100
AcDbBlockEnd
  0
BLOCK
  5
1DC
330
1DB
100
AcDbEntity
  8
0
100
AcDbBlockBegin
  2
*D14
 70
     1
 10
0.0
 20
0.0
 30
0.0
  3
*D14
  1
*D14
  0
LINE
  5
1DD
330
1DB
100
AcDbEntity
  8
치수문자_일반주서
 62
     0
370
    -2
100
AcDbLine
 10
96.97679088943813
 20
19.26594249667917
 30
0.0
 11
104.7156565906358
 21
0.000000000000008
 31
0.0
  0
MTEXT
  5
1DE
330
1DB
100
AcDbEntity
  8
치수문자_일반주서
 62
     0
100
AcDbMText
 10
105.4392179651606
 20
5.241147107246264
 30
0.0
 40
3.5
 41
0.0
 71
     5
 72
     1
  1
\A1;R0.2
  7
SLDTEXTSTYLE0
 11
0.3727392540908189
 21
-0.9279361230493293
 31
0.0
 73
     1
 44
1.0
  0
LINE
  5
1DF
330
1DB
100
AcDbEntity
  8
치수문자_일반주서
 62
     0
370
    -2
100
AcDbLine
 10
95.67145802161208
 20
22.51557479959791
 30
0.0
 11
95.74600587243025
 21
22.32998757498805
 31
0.0
  0
SOLID
  5
1E0
330
1DB
100
AcDbEntity
  8
치수문자_일반주서
 62
     0
100
AcDbTrace
 10
97.48746506915629
 20
19.47107333284715
 30
0.0
 11
96.46611670971998
 21
19.06081166051118
 31
0.0
 12
95.74600587243025
 22
22.32998757498805
 32
0.0
 13
95.74600587243025
 23
22.32998757498805
 33
0.0
  0
POINT
  5
1E1
330
1DB
100
AcDbEntity
  8
Defpoints
 62
     0
100
AcDbPoint
 10
95.74600587243025
 20
22.32998757498805
 30
0.0
  0
POINT
  5
1E2
330
1DB
100
AcDbEntity
  8
Defpoints
 62
     0
100
AcDbPoint
 10
95.67145802161208
 20
22.51557479959791
 30
0.0
  0
ENDBLK
  5
1E3
330
1DB
100
AcDbEntity
  8
0
100
AcDbBlockEnd
  0
BLOCK
  5
224
330
223
100
AcDbEntity
  8
0
100
AcDbBlockBegin
  2
*D15
 70
     1
 10
0.0
 20
0.0
 30
0.0
  3
*D15
  1
*D15
  0
LINE
  5
226
330
223
100
AcDbEntity
  8
치수문자_일반주서
 62
     0
370
    -2
100
AcDbLine
 10
-33.18451997807903
 20
3.0
 30
0.0
 11
-45.61847799969112
 21
2.999999999999952
 31
0.0
  0
LINE
  5
227
330
223
100
AcDbEntity
  8
치수문자_일반주서
 62
     0
370
    -2
100
AcDbLine
 10
-33.18451997807903
 20
-3.0
 30
0.0
 11
-45.61847799969109
 21
-3.000000000000048
 31
0.0
  0
LINE
  5
228
330
223
100
AcDbEntity
  8
치수문자_일반주서
 62
     0
370
    -2
100
AcDbLine
 10
-45.6184779996911
 20
-0.3020000000000471
 30
0.0
 11
-45.61847799969111
 21
0.3019999999999521
 31
0.0
  0
SOLID
  5
229
330
223
100
AcDbEntity
  8
치수문자_일반주서
 62
     0
100
AcDbTrace
 10
-45.06814466635777
 20
-0.3020000000000452
 30
0.0
 11
-46.16881133302444
 21
-0.3020000000000491
 31
0.0
 12
-45.61847799969112
 22
2.999999999999952
 32
0.0
 13
-45.61847799969112
 23
2.999999999999952
 33
0.0
  0
SOLID
  5
22A
330
223
100
AcDbEntity
  8
치수문자_일반주서
 62
     0
100
AcDbTrace
 10
-46.16881133302444
 20
0.3019999999999501
 30
0.0
 11
-45.06814466635777
 21
0.301999999999954
 31
0.0
 12
-45.61847799969109
 22
-3.000000000000048
 32
0.0
 13
-45.61847799969109
 23
-3.000000000000048
 33
0.0
  0
MTEXT
  5
22B
330
223
100
AcDbEntity
  8
치수문자_일반주서
 62
     0
100
AcDbMText
 10
-49.99347799969111
 20
-0.0000000000000154
 30
0.0
 40
3.5
 41
0.0
 71
     2
 72
     1
  1
\A1;%%c6
  7
SLDTEXTSTYLE0
 11
-3.552713678800502E-15
 21
1.0
 31
0.0
 73
     1
 44
1.0
  0
POINT
  5
22C
330
223
100
AcDbEntity
  8
Defpoints
 62
     0
100
AcDbPoint
 10
-33.12201997807903
 20
3.0
 30
0.0
  0
POINT
  5
22D
330
223
100
AcDbEntity
  8
Defpoints
 62
     0
100
AcDbPoint
 10
-33.12201997807903
 20
-3.0
 30
0.0
  0
POINT
  5
22E
330
223
100
AcDbEntity
  8
Defpoints
 62
     0
100
AcDbPoint
 10
-45.61847799969109
 20
-3.000000000000047
 30
0.0
  0
ENDBLK
  5
225
330
223
100
AcDbEntity
  8
0
100
AcDbBlockEnd
  0
BLOCK
  5
230
330
22F
100
AcDbEntity
  8
0
100
AcDbBlockBegin
  2
*D16
 70
     1
 10
0.0
 20
0.0
 30
0.0
  3
*D16
  1
*D16
  0
LINE
  5
232
330
22F
100
AcDbEntity
  8
치수문자_일반주서
 62
     0
370
    -2
100
AcDbLine
 10
45.87798002192097
 20
1.462500000000006
 30
0.0
 11
45.87798002192097
 21
19.89999999999965
 31
0.0
  0
LINE
  5
233
330
22F
100
AcDbEntity
  8
치수문자_일반주서
 62
     0
370
    -2
100
AcDbLine
 10
41.37798002192097
 20
1.248647856478023
 30
0.0
 11
41.37798002192097
 21
19.89999999999965
 31
0.0
  0
LINE
  5
234
330
22F
100
AcDbEntity
  8
치수문자_일반주서
 62
     0
370
    -2
100
AcDbLine
 10
42.57598002192097
 20
19.89999999999965
 30
0.0
 11
44.67998002192097
 21
19.89999999999965
 31
0.0
  0
SOLID
  5
235
330
22F
100
AcDbEntity
  8
치수문자_일반주서
 62
     0
100
AcDbTrace
 10
42.57598002192097
 20
19.34966666666632
 30
0.0
 11
42.57598002192097
 21
20.45033333333299
 31
0.0
 12
45.87798002192097
 22
19.89999999999965
 32
0.0
 13
45.87798002192097
 23
19.89999999999965
 33
0.0
  0
SOLID
  5
236
330
22F
100
AcDbEntity
  8
치수문자_일반주서
 62
     0
100
AcDbTrace
 10
44.67998002192097
 20
20.45033333333299
 30
0.0
 11
44.67998002192097
 21
19.34966666666632
 31
0.0
 12
41.37798002192097
 22
19.89999999999965
 32
0.0
 13
41.37798002192097
 23
19.89999999999965
 33
0.0
  0
MTEXT
  5
237
330
22F
100
AcDbEntity
  8
치수문자_일반주서
 62
     0
100
AcDbMText
 10
43.62798002192097
 20
24.27499999999965
 30
0.0
 40
3.5
 41
0.0
 71
     2
 72
     1
  1
\A1;4.50
  7
SLDTEXTSTYLE0
 73
     1
 44
1.0
  0
POINT
  5
238
330
22F
100
AcDbEntity
  8
Defpoints
 62
     0
100
AcDbPoint
 10
45.87798002192097
 20
1.400000000000006
 30
0.0
  0
POINT
  5
239
330
22F
100
AcDbEntity
  8
Defpoints
 62
     0
100
AcDbPoint
 10
41.37798002192097
 20
1.186147856478023
 30
0.0
  0
POINT
  5
23A
330
22F
100
AcDbEntity
  8
Defpoints
 62
     0
100
AcDbPoint
 10
41.37798002192097
 20
19.89999999999965
 30
0.0
  0
ENDBLK
  5
231
330
22F
100
AcDbEntity
  8
0
100
AcDbBlockEnd
  0
BLOCK
  5
23C
330
23B
100
AcDbEntity
  8
0
100
AcDbBlockBegin
  2
*D17
 70
     1
 10
0.0
 20
0.0
 30
0.0
  3
*D17
  1
*D17
  0
LINE
  5
23E
330
23B
100
AcDbEntity
  8
치수문자_일반주서
 62
     0
370
    -2
100
AcDbLine
 10
45.87798002192097
 20
1.462500000000006
 30
0.0
 11
45.87798002192097
 21
41.95832450504429
 31
0.0
  0
LINE
  5
23F
330
23B
100
AcDbEntity
  8
치수문자_일반주서
 62
     0
370
    -2
100
AcDbLine
 10
-34.12201997807903
 20
2.0625
 30
0.0
 11
-34.12201997807903
 21
41.95832450504429
 31
0.0
  0
LINE
  5
240
330
23B
100
AcDbEntity
  8
치수문자_일반주서
 62
     0
370
    -2
100
AcDbLine
 10
42.57598002192097
 20
41.95832450504429
 30
0.0
 11
-30.82001997807903
 21
41.95832450504429
 31
0.0
  0
SOLID
  5
241
330
23B
100
AcDbEntity
  8
치수문자_일반주서
 62
     0
100
AcDbTrace
 10
42.57598002192097
 20
41.40799117171095
 30
0.0
 11
42.57598002192097
 21
42.50865783837762
 31
0.0
 12
45.87798002192097
 22
41.95832450504429
 32
0.0
 13
45.87798002192097
 23
41.95832450504429
 33
0.0
  0
SOLID
  5
242
330
23B
100
AcDbEntity
  8
치수문자_일반주서
 62
     0
100
AcDbTrace
 10
-30.82001997807903
 20
42.50865783837762
 30
0.0
 11
-30.82001997807903
 21
41.40799117171095
 31
0.0
 12
-34.12201997807903
 22
41.95832450504429
 32
0.0
 13
-34.12201997807903
 23
41.95832450504429
 33
0.0
  0
MTEXT
  5
243
330
23B
100
AcDbEntity
  8
치수문자_일반주서
 62
     0
100
AcDbMText
 10
5.877980021920962
 20
46.33332450504429
 30
0.0
 40
3.5
 41
0.0
 71
     2
 72
     1
  1
\A1;80
  7
SLDTEXTSTYLE0
 73
     1
 44
1.0
  0
POINT
  5
244
330
23B
100
AcDbEntity
  8
Defpoints
 62
     0
100
AcDbPoint
 10
45.87798002192097
 20
1.400000000000006
 30
0.0
  0
POINT
  5
245
330
23B
100
AcDbEntity
  8
Defpoints
 62
     0
100
AcDbPoint
 10
-34.12201997807903
 20
2.0
 30
0.0
  0
POINT
  5
246
330
23B
100
AcDbEntity
  8
Defpoints
 62
     0
100
AcDbPoint
 10
-34.12201997807903
 20
41.95832450504429
 30
0.0
  0
ENDBLK
  5
23D
330
23B
100
AcDbEntity
  8
0
100
AcDbBlockEnd
  0
BLOCK
  5
248
330
247
100
AcDbEntity
  8
0
100
AcDbBlockBegin
  2
*D18
 70
     1
 10
0.0
 20
0.0
 30
0.0
  3
*D18
  1
*D18
  0
LINE
  5
24A
330
247
100
AcDbEntity
  8
치수문자_일반주서
 62
     0
370
    -2
100
AcDbLine
 10
45.87798002192097
 20
1.460298710624173
 30
0.0
 11
45.87798002192097
 21
30.31999999999866
 31
0.0
  0
LINE
  5
24B
330
247
100
AcDbEntity
  8
치수문자_일반주서
 62
     0
370
    -2
100
AcDbLine
 10
5.877980021920969
 20
1.487500000000004
 30
0.0
 11
5.877980021920969
 21
30.31999999999866
 31
0.0
  0
LINE
  5
24C
330
247
100
AcDbEntity
  8
치수문자_일반주서
 62
     0
370
    -2
100
AcDbLine
 10
42.57598002192097
 20
30.31999999999866
 30
0.0
 11
9.179980021920969
 21
30.31999999999866
 31
0.0
  0
SOLID
  5
24D
330
247
100
AcDbEntity
  8
치수문자_일반주서
 62
     0
100
AcDbTrace
 10
42.57598002192097
 20
29.76966666666533
 30
0.0
 11
42.57598002192097
 21
30.870333333332
 31
0.0
 12
45.87798002192097
 22
30.31999999999866
 32
0.0
 13
45.87798002192097
 23
30.31999999999866
 33
0.0
  0
SOLID
  5
24E
330
247
100
AcDbEntity
  8
치수문자_일반주서
 62
     0
100
AcDbTrace
 10
9.179980021920969
 20
30.870333333332
 30
0.0
 11
9.179980021920969
 21
29.76966666666533
 31
0.0
 12
5.877980021920969
 22
30.31999999999866
 32
0.0
 13
5.877980021920969
 23
30.31999999999866
 33
0.0
  0
MTEXT
  5
24F
330
247
100
AcDbEntity
  8
치수문자_일반주서
 62
     0
100
AcDbMText
 10
25.87798002192097
 20
34.69499999999866
 30
0.0
 40
3.5
 41
0.0
 71
     2
 72
     1
  1
\A1;40
  7
SLDTEXTSTYLE0
 73
     1
 44
1.0
  0
POINT
  5
250
330
247
100
AcDbEntity
  8
Defpoints
 62
     0
100
AcDbPoint
 10
45.87798002192097
 20
1.397798710624173
 30
0.0
  0
POINT
  5
251
330
247
100
AcDbEntity
  8
Defpoints
 62
     0
100
AcDbPoint
 10
5.877980021920969
 20
1.425000000000004
 30
0.0
  0
POINT
  5
252
330
247
100
AcDbEntity
  8
Defpoints
 62
     0
100
AcDbPoint
 10
5.877980021920969
 20
30.31999999999866
 30
0.0
  0
ENDBLK
  5
249
330
247
100
AcDbEntity
  8
0
100
AcDbBlockEnd
  0
BLOCK
  5
254
330
253
100
AcDbEntity
  8
0
100
AcDbBlockBegin
  2
*D19
 70
     1
 10
0.0
 20
0.0
 30
0.0
  3
*D19
  1
*D19
  0
LINE
  5
256
330
253
100
AcDbEntity
  8
치수문자_일반주서
 62
     0
370
    -2
100
AcDbLine
 10
45.94048002192097
 20
1.503372404490342
 30
0.0
 11
56.20111137989765
 21
1.503372404490381
 31
0.0
  0
LINE
  5
257
330
253
100
AcDbEntity
  8
치수문자_일반주서
 62
     0
370
    -2
100
AcDbLine
 10
45.84048002192095
 20
-1.495216943397871
 30
0.0
 11
56.20111137989765
 21
-1.495216943397832
 31
0.0
  0
LINE
  5
258
330
253
100
AcDbEntity
  8
치수문자_일반주서
 62
     0
370
    -2
100
AcDbLine
 10
56.20111137989765
 20
1.503372404490381
 30
0.0
 11
56.20111137989761
 21
17.28671694339791
 31
0.0
  0
LINE
  5
259
330
253
100
AcDbEntity
  8
치수문자_일반주서
 62
     0
370
    -2
100
AcDbLine
 10
56.20111137989765
 20
1.503372404490381
 30
0.0
 11
56.20111137989765
 21
-1.495216943397832
 31
0.0
  0
LINE
  5
25A
330
253
100
AcDbEntity
  8
치수문자_일반주서
 62
     0
370
    -2
100
AcDbLine
 10
56.20111137989764
 20
4.805372404490381
 30
0.0
 11
56.20111137989763
 21
8.10737240449038
 31
0.0
  0
LINE
  5
25B
330
253
100
AcDbEntity
  8
치수문자_일반주서
 62
     0
370
    -2
100
AcDbLine
 10
56.20111137989766
 20
-4.797216943397832
 30
0.0
 11
56.20111137989767
 21
-8.099216943397831
 31
0.0
  0
SOLID
  5
25C
330
253
100
AcDbEntity
  8
치수문자_일반주서
 62
     0
100
AcDbTrace
 10
55.65077804656431
 20
4.80537240449038
 30
0.0
 11
56.75144471323097
 21
4.805372404490382
 31
0.0
 12
56.20111137989765
 22
1.503372404490381
 32
0.0
 13
56.20111137989765
 23
1.503372404490381
 33
0.0
  0
SOLID
  5
25D
330
253
100
AcDbEntity
  8
치수문자_일반주서
 62
     0
100
AcDbTrace
 10
56.751444713231
 20
-4.797216943397831
 30
0.0
 11
55.65077804656433
 21
-4.797216943397832
 31
0.0
 12
56.20111137989765
 22
-1.495216943397832
 32
0.0
 13
56.20111137989765
 23
-1.495216943397832
 33
0.0
  0
MTEXT
  5
25E
330
253
100
AcDbEntity
  8
치수문자_일반주서
 62
     0
100
AcDbMText
 10
51.82611137989762
 20
14.2242169433979
 30
0.0
 40
3.5
 41
0.0
 71
     2
 72
     1
  1
\A1;%%c3
  7
SLDTEXTSTYLE0
 11
-2.369590008250070E-15
 21
1.0
 31
0.0
 73
     1
 44
1.0
  0
POINT
  5
25F
330
253
100
AcDbEntity
  8
Defpoints
 62
     0
100
AcDbPoint
 10
45.87798002192097
 20
1.503372404490342
 30
0.0
  0
POINT
  5
260
330
253
100
AcDbEntity
  8
Defpoints
 62
     0
100
AcDbPoint
 10
45.77798002192095
 20
-1.495216943397871
 30
0.0
  0
POINT
  5
261
330
253
100
AcDbEntity
  8
Defpoints
 62
     0
100
AcDbPoint
 10
56.20111137989769
 20
-1.495216943397832
 30
0.0
  0
ENDBLK
  5
255
330
253
100
AcDbEntity
  8
0
100
AcDbBlockEnd
  0
BLOCK
  5
263
330
262
100
AcDbEntity
  8
0
100
AcDbBlockBegin
  2
*D20
 70
     1
 10
0.0
 20
0.0
 30
0.0
  3
*D20
  1
*D20
  0
LINE
  5
265
330
262
100
AcDbEntity
  8
치수문자_일반주서
 62
     0
370
    -2
100
AcDbLine
 10
46.98331288974701
 20
-4.544849246316611
 30
0.0
 11
54.72217859094469
 21
-23.81079174299577
 31
0.0
  0
MTEXT
  5
266
330
262
100
AcDbEntity
  8
치수문자_일반주서
 62
     0
100
AcDbMText
 10
55.44573996546948
 20
-18.56964463574951
 30
0.0
 40
3.5
 41
0.0
 71
     5
 72
     1
  1
\A1;R0.2
  7
SLDTEXTSTYLE0
 11
0.3727392540908189
 21
-0.9279361230493293
 31
0.0
 73
     1
 44
1.0
  0
LINE
  5
267
330
262
100
AcDbEntity
  8
치수문자_일반주서
 62
     0
370
    -2
100
AcDbLine
 10
45.67798002192097
 20
-1.295216943397861
 30
0.0
 11
45.75252787273913
 21
-1.480804168007726
 31
0.0
  0
SOLID
  5
268
330
262
100
AcDbEntity
  8
치수문자_일반주서
 62
     0
100
AcDbTrace
 10
47.49398706946516
 20
-4.33971841014863
 30
0.0
 11
46.47263871002887
 21
-4.749980082484591
 31
0.0
 12
45.75252787273913
 22
-1.480804168007726
 32
0.0
 13
45.75252787273913
 23
-1.480804168007726
 33
0.0
  0
POINT
  5
269
330
262
100
AcDbEntity
  8
Defpoints
 62
     0
100
AcDbPoint
 10
45.75252787273913
 20
-1.480804168007726
 30
0.0
  0
POINT
  5
26A
330
262
100
AcDbEntity
  8
Defpoints
 62
     0
100
AcDbPoint
 10
45.67798002192097
 20
-1.295216943397861
 30
0.0
  0
ENDBLK
  5
264
330
262
100
AcDbEntity
  8
0
100
AcDbBlockEnd
  0
BLOCK
  5
274
330
273
100
AcDbEntity
  8
0
100
AcDbBlockBegin
  2
*D21
 70
     1
 10
0.0
 20
0.0
 30
0.0
  3
*D21
  1
*D21
  0
LINE
  5
276
330
273
100
AcDbEntity
  8
치수문자_일반주서
 62
     0
370
    -2
100
AcDbLine
 10
46.59538158073854
 20
-4.645729869573689
 30
0.0
 11
51.65086992883828
 21
-21.81532729381497
 31
0.0
  0
MTEXT
  5
277
330
273
100
AcDbEntity
  8
치수문자_일반주서
 62
     0
100
AcDbMText
 10
52.87145572861605
 20
-16.66718837107008
 30
0.0
 40
3.5
 41
0.0
 71
     5
 72
     1
  1
\A1;R0.3
  7
SLDTEXTSTYLE0
 11
0.2824546248799457
 21
-0.9592806601219109
 31
0.0
 73
     1
 44
1.0
  0
LINE
  5
278
330
273
100
AcDbEntity
  8
치수문자_일반주서
 62
     0
370
    -2
100
AcDbLine
 10
45.57798002192097
 20
-1.190400931814565
 30
0.0
 11
45.66271640938496
 21
-1.478185129851139
 31
0.0
  0
SOLID
  5
279
330
273
100
AcDbEntity
  8
치수문자_일반주서
 62
     0
100
AcDbTrace
 10
47.12330570402563
 20
-4.490285674348092
 30
0.0
 11
46.06745745745145
 21
-4.801174064799286
 31
0.0
 12
45.66271640938496
 22
-1.478185129851139
 32
0.0
 13
45.66271640938496
 23
-1.478185129851139
 33
0.0
  0
POINT
  5
27A
330
273
100
AcDbEntity
  8
Defpoints
 62
     0
100
AcDbPoint
 10
45.66271640938496
 20
-1.478185129851139
 30
0.0
  0
POINT
  5
27B
330
273
100
AcDbEntity
  8
Defpoints
 62
     0
100
AcDbPoint
 10
45.57798002192097
 20
-1.190400931814565
 30
0.0
  0
ENDBLK
  5
275
330
273
100
AcDbEntity
  8
0
100
AcDbBlockEnd
  0
ENDSEC
  0
SECTION
  2
ENTITIES
  0
INSERT
  5
BC
330
1F
100
AcDbEntity
  8
0
  6
Continuous
 62
     7
100
AcDbBlockReference
 66
     1
  2
블럭10
 10
-22.93944368806589
 20
-52.04609937292004
 30
0.0
  0
ATTRIB
  5
BD
330
BC
100
AcDbEntity
  8
FORMAT
 62
     2
100
AcDbText
 10
-42.21802657207924
 20
-49.97073246008785
 30
0.0
 40
4.233333333333333
  1
SEME610300340E [ 2 FLUTE ]
 41
0.75
  7
SLDTEXTSTYLE0
 11
-42.21802657207924
 21
-52.08739912675452
 31
0.0
100
AcDbAttribute
  2
AUTOATTR0
 70
     0
 74
     1
  0
SEQEND
  5
BE
330
BC
100
AcDbEntity
  8
0
  6
Continuous
 62
     7
  0
HATCH
  5
BF
330
1F
100
AcDbEntity
  8
중심선
100
AcDbHatch
 10
0.0
 20
0.0
 30
0.0
210
0.0
220
0.0
230
1.0
  2
SOLID
 70
     1
 71
     0
 91
        1
 92
        0
 93
        4
 72
     1
 10
-17.22453438368504
 20
-35.7989250712761
 11
-20.67080962752232
 21
-35.7989250712761
 72
     1
 10
-20.67080962752232
 20
-35.7989250712761
 11
-22.79903948672635
 21
-38.3352506518487
 72
     1
 10
-22.79903948672635
 20
-38.3352506518487
 11
-19.35273115777591
 21
-38.33521122254621
 72
     1
 10
-19.35273115777591
 20
-38.33521122254621
 11
-17.22453438368504
 21
-35.7989250712761
 97
        0
 75
     0
 76
     1
 98
        1
 10
0.0
 20
0.0
  0
HATCH
  5
C0
330
1F
100
AcDbEntity
  8
중심선
100
AcDbHatch
 10
0.0
 20
0.0
 30
0.0
210
0.0
220
0.0
230
1.0
  2
SOLID
 70
     1
 71
     0
 91
        1
 92
        0
 93
        4
 72
     1
 10
-12.21177039264909
 20
-35.7989250712761
 11
-15.65804563648637
 21
-35.7989250712761
 72
     1
 10
-15.65804563648637
 20
-35.7989250712761
 11
-20.18918364484376
 21
-41.19892507127612
 72
     1
 10
-20.18918364484376
 20
-41.19892507127612
 11
-16.74290840100648
 21
-41.19892507127612
 72
     1
 10
-16.74290840100648
 20
-41.19892507127612
 11
-12.21177039264909
 21
-35.7989250712761
 97
        0
 75
     0
 76
     1
 98
        1
 10
0.0
 20
0.0
  0
HATCH
  5
C1
330
1F
100
AcDbEntity
  8
중심선
100
AcDbHatch
 10
0.0
 20
0.0
 30
0.0
210
0.0
220
0.0
230
1.0
  2
SOLID
 70
     1
 71
     0
 91
        1
 92
        0
 93
        4
 72
     1
 10
-7.199006401613195
 20
-35.79892507127613
 11
-10.64528164545031
 21
-35.7989250712761
 72
     1
 10
-10.64528164545031
 20
-35.7989250712761
 11
-17.69371854733956
 21
-44.19892507127612
 72
     1
 10
-17.69371854733956
 20
-44.19892507127612
 11
-14.24744330350228
 21
-44.19892507127612
 72
     1
 10
-14.24744330350228
 20
-44.19892507127612
 11
-7.199006401613195
 21
-35.79892507127613
 97
        0
 75
     0
 76
     1
 98
        1
 10
0.0
 20
0.0
  0
HATCH
  5
C2
330
1F
100
AcDbEntity
  8
중심선
100
AcDbHatch
 10
0.0
 20
0.0
 30
0.0
210
0.0
220
0.0
230
1.0
  2
SOLID
 70
     1
 71
     0
 91
        1
 92
        0
 93
        6
 72
     3
 10
-2.399115970600996
 20
-39.99892507132738
 11
3.960054785062284
 21
1.540850780301639E-10
 40
0.3939339440162633
 50
17.09539180608433
 51
320.0019657685079
 73
     0
 72
     1
 10
-0.7161163149004002
 20
-38.58681907591441
 11
1.589185558800638
 21
-36.65249236586649
 72
     3
 10
-2.399115970653842
 20
-39.99892507127625
 11
6.600054785286829
 21
-1.249000902703301E-13
 40
0.6363583540795982
 50
39.99873849337408
 51
368.4976242363725
 73
     1
 72
     1
 10
4.026216521246767
 20
-39.03892507120613
 11
-3.71904866381792
 21
-39.0389250712061
 72
     1
 10
-3.71904866381792
 20
-39.0389250712061
 11
-3.719073708263854
 21
-40.95892507120602
 72
     1
 10
-3.719073708263854
 20
-40.95892507120602
 11
0.7223060612081831
 21
-40.95892507120599
 97
        0
 75
     0
 76
     1
 98
        1
 10
0.0
 20
0.0
  0
LINE
  5
1E7
330
1F
100
AcDbEntity
  8
0
  6
Continuous
 62
     4
370
    25
100
AcDbLine
 10
0.0
 20
3.0
 30
0.0
 11
-33.12201997807904
 21
3.0
 31
0.0
  0
LINE
  5
1E8
330
1F
100
AcDbEntity
  8
0
  6
Continuous
 62
     4
370
    25
100
AcDbLine
 10
-33.12201997807903
 20
-3.0
 30
0.0
 11
0.0000000000000071
 21
-2.999999999999993
 31
0.0
  0
LINE
  5
1E9
330
1F
100
AcDbEntity
  8
0
  6
Continuous
 62
     4
370
    25
100
AcDbLine
 10
0.0
 20
-3.0
 30
0.0
 11
5.877980021920969
 21
-1.424999999999997
 31
0.0
  0
LINE
  5
1EA
330
1F
100
AcDbEntity
  8
0
  6
Continuous
 62
     4
370
    25
100
AcDbLine
 10
5.877980021920969
 20
1.425000000000004
 30
0.0
 11
0.0
 21
3.0
 31
0.0
  0
LINE
  5
1EB
330
1F
100
AcDbEntity
  8
0
  6
Continuous
 62
     4
370
    25
100
AcDbLine
 10
-33.12201997807903
 20
3.0
 30
0.0
 11
-34.12201997807903
 21
2.0
 31
0.0
  0
LINE
  5
1EC
330
1F
100
AcDbEntity
  8
0
  6
Continuous
 62
     4
370
    25
100
AcDbLine
 10
-34.12201997807903
 20
-2.0
 30
0.0
 11
-33.12201997807903
 21
-3.0
 31
0.0
  0
LINE
  5
1ED
330
1F
100
AcDbEntity
  8
0
  6
Continuous
 62
     4
370
    25
100
AcDbLine
 10
38.60449281086884
 20
1.425000000000004
 30
0.0
 11
5.877980021920969
 21
1.425000000000004
 31
0.0
  0
LINE
  5
1EE
330
1F
100
AcDbEntity
  8
0
  6
Continuous
 62
     4
370
    25
100
AcDbLine
 10
5.877980021920969
 20
-1.424999999999997
 30
0.0
 11
38.60449281086884
 21
-1.42499999999999
 31
0.0
  0
SPLINE
  5
1EF
330
1F
100
AcDbEntity
  8
0
  6
Continuous
 62
     4
370
    25
100
AcDbSpline
210
0.0
220
0.0
230
1.0
 70
     8
 71
     3
 72
    11
 73
     7
 74
     0
 42
0.000000001
 43
0.00000001
 40
0.0
 40
0.0
 40
0.0
 40
0.0
 40
0.4620818500225735
 40
0.6382717798947241
 40
0.7622377342304608
 40
0.9999999999999999
 40
0.9999999999999999
 40
0.9999999999999999
 40
0.9999999999999999
 10
39.22872731925954
 20
-1.249385338095223
 30
0.0
 10
39.55944570739046
 20
-1.221409739855297
 30
0.0
 10
40.01626567170181
 20
-1.182767159798651
 30
0.0
 10
40.55898300469327
 20
-1.171422626580302
 30
0.0
 10
40.94503628667886
 20
-1.170786841335541
 30
0.0
 10
41.20627140290811
 20
-1.179686844256729
 30
0.0
 10
41.3779800219237
 20
-1.185536774514539
 30
0.0
  0
SPLINE
  5
1F0
330
1F
100
AcDbEntity
  8
0
  6
Continuous
 62
     4
370
    25
100
AcDbSpline
210
0.0
220
0.0
230
1.0
 70
     8
 71
     3
 72
    10
 73
     6
 74
     0
 42
0.000000001
 43
0.00000001
 40
0.0
 40
0.0
 40
0.0
 40
0.0
 40
0.3870787935437824
 40
0.8756474541412704
 40
1.0
 40
1.0
 40
1.0
 40
1.0
 10
41.37798002192371
 20
1.185536774514553
 30
0.0
 10
41.20616199767259
 20
1.180275927980297
 30
0.0
 10
40.81747623647741
 20
1.168374870750647
 30
0.0
 10
40.37962593413781
 20
1.168006935698152
 30
0.0
 10
40.11045252005909
 20
1.188020771136657
 30
0.0
 10
40.05584126013597
 20
1.192081279017543
 30
0.0
  0
LINE
  5
1F1
330
1F
100
AcDbEntity
  8
0
  6
Continuous
 62
     1
370
    25
100
AcDbLine
 10
41.99249794115185
 20
0.3844318085131988
 30
0.0
 11
41.5746414079716
 21
0.592632421334855
 31
0.0
  0
LINE
  5
1F2
330
1F
100
AcDbEntity
  8
0
  6
Continuous
 62
     1
370
    25
100
AcDbLine
 10
41.49480478408051
 20
1.191941168532964
 30
0.0
 11
41.37786938278999
 21
1.188078535739976
 31
0.0
  0
SPLINE
  5
1F3
330
1F
100
AcDbEntity
  8
0
  6
Continuous
 62
     1
370
    25
100
AcDbSpline
210
0.0
220
0.0
230
1.0
 70
     8
 71
     3
 72
    17
 73
    13
 74
     0
 42
0.000000001
 43
0.00000001
 40
0.0
 40
0.0
 40
0.0
 40
0.0
 40
0.1334917817438933
 40
0.2244732328187496
 40
0.280576081778084
 40
0.3344890092336326
 40
0.3906446422435726
 40
0.4540663663752953
 40
0.5662789782755091
 40
0.6765438931706219
 40
0.8112577588028519
 40
1.0
 40
1.0
 40
1.0
 40
1.0
 10
45.34264462612325
 20
1.027822092131913
 30
0.0
 10
45.22427547888567
 20
1.018510390142573
 30
0.0
 10
45.02523172653395
 20
1.002852288787679
 30
0.0
 10
44.77773884409309
 20
0.9925089072445346
 30
0.0
 10
44.60088794684447
 20
0.9882301569679939
 30
0.0
 10
44.45470254067161
 20
0.9867999721465495
 30
0.0
 10
44.30210141886881
 20
0.9874483259138032
 30
0.0
 10
44.09832375308651
 20
0.9914712998936679
 30
0.0
 10
43.84710634231499
 20
1.002237632605343
 30
0.0
 10
43.5325524474238
 20
1.024427595581628
 30
0.0
 10
43.15182233838357
 20
1.062029795874395
 30
0.0
 10
42.86684016634124
 20
1.103782703442022
 30
0.0
 10
42.70054813253254
 20
1.128146248245862
 30
0.0
  0
SPLINE
  5
1F4
330
1F
100
AcDbEntity
  8
0
  6
Continuous
 62
     1
370
    25
100
AcDbSpline
210
0.0
220
0.0
230
1.0
 70
     8
 71
     3
 72
    12
 73
     8
 74
     0
 42
0.000000001
 43
0.00000001
 40
0.0
 40
0.0
 40
0.0
 40
0.0
 40
0.3542329868263014
 40
0.571646713658965
 40
0.720892684207345
 40
0.8779634366905859
 40
1.0
 40
1.0
 40
1.0
 40
1.0
 10
42.70054813253254
 20
-1.128146248245848
 30
0.0
 10
42.83264368074524
 20
-1.10856812827199
 30
0.0
 10
43.0458140765949
 20
-1.076973758580586
 30
0.0
 10
43.31326300747339
 20
-1.046322140598626
 30
0.0
 10
43.50827508285604
 20
-1.027676013295782
 30
0.0
 10
43.66769352159603
 20
-1.014627202901956
 30
0.0
 10
43.77154021054768
 20
-1.00840899132745
 30
0.0
 10
43.81694601796884
 20
-1.005690147615567
 30
0.0
  0
LINE
  5
1F5
330
1F
100
AcDbEntity
  8
0
  6
Continuous
 62
     4
370
    25
100
AcDbLine
 10
41.37782875705701
 20
-1.188077193782895
 30
0.0
 11
41.49480478408051
 21
-1.191941168532949
 31
0.0
  0
LINE
  5
1F6
330
1F
100
AcDbEntity
  8
0
  6
Continuous
 62
     4
370
    25
100
AcDbLine
 10
0.0
 20
3.0
 30
0.0
 11
0.0
 21
-3.0
 31
0.0
  0
LINE
  5
1F7
330
1F
100
AcDbEntity
  8
0
  6
Continuous
 62
     4
370
    25
100
AcDbLine
 10
-33.12201997807903
 20
3.0
 30
0.0
 11
-33.12201997807903
 21
-3.0
 31
0.0
  0
LINE
  5
1F8
330
1F
100
AcDbEntity
  8
0
  6
Continuous
 62
     4
370
    25
100
AcDbLine
 10
5.877980021920969
 20
1.425000000000004
 30
0.0
 11
5.877980021920969
 21
-1.424999999999997
 31
0.0
  0
LINE
  5
1F9
330
1F
100
AcDbEntity
  8
0
  6
Continuous
 62
     4
370
    25
100
AcDbLine
 10
-34.12201997807903
 20
2.0
 30
0.0
 11
-34.12201997807903
 21
-2.0
 31
0.0
  0
SPLINE
  5
1FA
330
1F
100
AcDbEntity
  8
0
  6
Continuous
 62
     4
370
    25
100
AcDbSpline
210
0.0
220
0.0
230
1.0
 70
     8
 71
     3
 72
    11
 73
     7
 74
     0
 42
0.000000001
 43
0.00000001
 40
0.0
 40
0.0
 40
0.0
 40
0.0
 40
0.3081407231476794
 40
0.616213264044521
 40
0.8580955921815012
 40
1.0
 40
1.0
 40
1.0
 40
1.0
 10
41.37798002192097
 20
0.6870816828002617
 30
0.0
 10
41.09303182059839
 20
0.8170536809851257
 30
0.0
 10
40.52319846839834
 20
1.076968918470634
 30
0.0
 10
39.72953459722317
 20
1.308085052999047
 30
0.0
 10
39.09020492457393
 20
1.418469883284182
 30
0.0
 10
38.73560532946822
 20
1.414847141716244
 30
0.0
 10
38.60449281086884
 20
1.413507639985944
 30
0.0
  0
SPLINE
  5
1FB
330
1F
100
AcDbEntity
  8
0
  6
Continuous
 62
     4
370
    25
100
AcDbSpline
210
0.0
220
0.0
230
1.0
 70
     8
 71
     3
 72
    18
 73
    14
 74
     0
 42
0.000000001
 43
0.00000001
 40
0.0
 40
0.0
 40
0.0
 40
0.0
 40
0.2500000000000053
 40
0.2500000000000053
 40
0.3750000000000053
 40
0.3750000000000053
 40
0.5000000000000053
 40
0.5000000000000053
 40
0.7500000000000052
 40
0.7500000000000052
 40
0.8750000000000027
 40
0.8750000000000027
 40
1.0
 40
1.0
 40
1.0
 40
1.0
 10
41.37798002192097
 20
0.3032447619949821
 30
0.0
 10
41.12670489585253
 20
0.4389837875922851
 30
0.0
 10
40.86835353958163
 20
0.5715685439736902
 30
0.0
 10
40.48722262630928
 20
0.7542920151552934
 30
0.0
 10
40.36271216619838
 20
0.8123249286890086
 30
0.0
 10
40.10827595588089
 20
0.9229845021539163
 30
0.0
 10
39.97969371295247
 20
0.9753759845842396
 30
0.0
 10
39.59607410078898
 20
1.121147706454281
 30
0.0
 10
39.34620871943847
 20
1.202864090467507
 30
0.0
 10
38.96186803364777
 20
1.29888896286424
 30
0.0
 10
38.83368678535587
 20
1.326303126157484
 30
0.0
 10
38.58129275300782
 20
1.371202433780731
 30
0.0
 10
38.45584006210503
 20
1.388804689393226
 30
0.0
 10
38.32807904923681
 20
1.401450687878366
 30
0.0
  0
SPLINE
  5
1FC
330
1F
100
AcDbEntity
  8
0
  6
Continuous
 62
     4
370
    25
100
AcDbSpline
210
0.0
220
0.0
230
1.0
 70
     8
 71
     3
 72
    10
 73
     6
 74
     0
 42
0.000000001
 43
0.00000001
 40
0.0
 40
0.0
 40
0.0
 40
0.0
 40
0.2240999494045292
 40
0.6122868968086919
 40
1.0
 40
1.0
 40
1.0
 40
1.0
 10
40.05584126013597
 20
-1.192081279017529
 30
0.0
 10
39.92669988744002
 20
-1.233204133550515
 30
0.0
 10
39.57385924402296
 20
-1.345560182968747
 30
0.0
 10
38.99810377870242
 20
-1.425625308224539
 30
0.0
 10
38.5513989448102
 20
-1.419816081103605
 30
0.0
 10
38.32818292977579
 20
-1.416913241398326
 30
0.0
  0
LINE
  5
1FD
330
1F
100
AcDbEntity
  8
0
  6
Continuous
 62
     4
370
    25
100
AcDbLine
 10
38.32807904923674
 20
-1.416906676168871
 30
0.0
 11
38.32807904923681
 21
1.40150919271224
 31
0.0
  0
SPLINE
  5
1FE
330
1F
100
AcDbEntity
  8
0
  6
Continuous
 62
     4
370
    25
100
AcDbSpline
210
0.0
220
0.0
230
1.0
 70
    24
 71
     3
 72
     8
 73
     4
 74
     0
 42
0.000000001
 43
0.00000001
 40
0.0
 40
0.0
 40
0.0
 40
0.0
 40
1.0
 40
1.0
 40
1.0
 40
1.0
 10
41.37798002192097
 20
0.3032447619946552
 30
0.0
 10
41.37798002192097
 20
0.2981059589711066
 30
0.0
 10
41.37798002192097
 20
0.2461132019004211
 30
0.0
 10
41.37798002192097
 20
0.1684588969662073
 30
0.0
  0
SPLINE
  5
1FF
330
1F
100
AcDbEntity
  8
0
  6
Continuous
 62
     4
370
    25
100
AcDbSpline
210
0.0
220
0.0
230
1.0
 70
     8
 71
     3
 72
    18
 73
    14
 74
     0
 42
0.000000001
 43
0.00000001
 40
0.0
 40
0.0
 40
0.0
 40
0.0
 40
0.2500000000000044
 40
0.2500000000000044
 40
0.3750000000000066
 40
0.3750000000000066
 40
0.5000000000000088
 40
0.5000000000000088
 40
0.7500000000000073
 40
0.7500000000000073
 40
0.8750000000000037
 40
0.8750000000000037
 40
1.0
 40
1.0
 40
1.0
 40
1.0
 10
41.37798002192117
 20
0.1684588969661149
 30
0.0
 10
41.12670694554617
 20
0.2694949173841579
 30
0.0
 10
40.86835778167504
 20
0.3690133813019258
 30
0.0
 10
40.48722983211133
 20
0.5074552679981679
 30
0.0
 10
40.36272040158193
 20
0.5516526252168461
 30
0.0
 10
40.10828639980313
 20
0.6364097993249658
 30
0.0
 10
39.97970523320851
 20
0.6767927362175925
 30
0.0
 10
39.59608861127985
 20
0.7899640885451475
 30
0.0
 10
39.34622542555203
 20
0.8545619772436197
 30
0.0
 10
38.96188789677441
 20
0.9325380152804712
 30
0.0
 10
38.83370759898137
 20
0.9552430824706022
 30
0.0
 10
38.58131517465237
 20
0.9934504157311679
 30
0.0
 10
38.45586391998237
 20
1.009046753500307
 30
0.0
 10
38.32810406125916
 20
1.021049093310324
 30
0.0
  0
LINE
  5
200
330
1F
100
AcDbEntity
  8
0
  6
Continuous
 62
     4
370
    25
100
AcDbLine
 10
39.22972082024472
 20
-1.245711639347896
 30
0.0
 11
38.32818292977579
 21
-1.26146455557592
 31
0.0
  0
SPLINE
  5
201
330
1F
100
AcDbEntity
  8
0
  6
Continuous
 62
     4
370
    25
100
AcDbSpline
210
0.0
220
0.0
230
1.0
 70
     8
 71
     3
 72
    18
 73
    14
 74
     0
 42
0.000000001
 43
0.00000001
 40
0.0
 40
0.0
 40
0.0
 40
0.0
 40
0.2500000000000028
 40
0.2500000000000028
 40
0.3750000000000042
 40
0.3750000000000042
 40
0.5000000000000056
 40
0.5000000000000056
 40
0.7500000000000028
 40
0.7500000000000028
 40
0.8750000000000013
 40
0.8750000000000013
 40
1.0
 40
1.0
 40
1.0
 40
1.0
 10
41.37798002192113
 20
-1.184455290307284
 30
0.0
 10
41.12670800290496
 20
-1.165686616819777
 30
0.0
 10
40.86835997000895
 20
-1.129571594195305
 30
0.0
 10
40.48723354931192
 20
-1.052191909342497
 30
0.0
 10
40.36272464990032
 20
-1.022727742945641
 30
0.0
 10
40.10829178742366
 20
-0.9562690105397849
 30
0.0
 10
39.97971117606982
 20
-0.9193463227553167
 30
0.0
 10
39.59609609669558
 20
-0.7992335106609474
 30
0.0
 10
39.34623404359201
 20
-0.7071341988890936
 30
0.0
 10
38.96189814340891
 20
-0.5546450904828859
 30
0.0
 10
38.83371833594722
 20
-0.501610593315462
 30
0.0
 10
38.58132674114706
 20
-0.3928945802449633
 30
0.0
 10
38.45587622733857
 20
-0.3370485483402348
 30
0.0
 10
38.32811696400102
 20
-0.2798512126845054
 30
0.0
  0
SPLINE
  5
202
330
1F
100
AcDbEntity
  8
0
  6
Continuous
 62
     4
370
    25
100
AcDbSpline
210
0.0
220
0.0
230
1.0
 70
    24
 71
     3
 72
    10
 73
     6
 74
     0
 42
0.000000001
 43
0.00000001
 40
0.0
 40
0.0
 40
0.0
 40
0.0
 40
0.5
 40
0.5
 40
1.0
 40
1.0
 40
1.0
 40
1.0
 10
41.37798002192097
 20
0.1684588969662002
 30
0.0
 10
41.37798002192097
 20
-0.0969158793119931
 30
0.0
 10
41.37798002192097
 20
-0.3762497707282009
 30
0.0
 10
41.37798002192097
 20
-0.8571534849209286
 30
0.0
 10
41.37798002192097
 20
-1.054997224240637
 30
0.0
 10
41.37798002192097
 20
-1.18445529030727
 30
0.0
  0
SPLINE
  5
203
330
1F
100
AcDbEntity
  8
0
  6
Continuous
 62
     4
370
    25
100
AcDbSpline
210
0.0
220
0.0
230
1.0
 70
    24
 71
     3
 72
    12
 73
     8
 74
     0
 42
0.000000001
 43
0.00000001
 40
0.0
 40
0.0
 40
0.0
 40
0.0
 40
0.1973647600354508
 40
0.4062980397748442
 40
0.6212903987808261
 40
0.8084883287724897
 40
1.0
 40
1.0
 40
1.0
 40
1.0
 10
41.37798002192097
 20
1.17616790464146
 30
0.0
 10
41.37798002192097
 20
1.173796843674069
 30
0.0
 10
41.37798002192095
 20
1.16891574218937
 30
0.0
 10
41.37798002192097
 20
1.090994399500183
 30
0.0
 10
41.37798002192097
 20
0.9787096680725753
 30
0.0
 10
41.37798002192097
 20
0.8335428558528619
 30
0.0
 10
41.37798002192098
 20
0.7170372578195483
 30
0.0
 10
41.37798002192098
 20
0.65812092267808
 30
0.0
  0
SPLINE
  5
204
330
1F
100
AcDbEntity
  8
0
  6
Continuous
 62
     1
370
    25
100
AcDbSpline
210
0.0
220
0.0
230
1.0
 70
     8
 71
     3
 72
    12
 73
     8
 74
     0
 42
0.000000001
 43
0.00000001
 40
0.0
 40
0.0
 40
0.0
 40
0.0
 40
0.2412210240886674
 40
0.4824699611798129
 40
0.7237444244961632
 40
0.9650420024851548
 40
1.0
 40
1.0
 40
1.0
 40
1.0
 10
45.87798002192097
 20
-1.183458396552318
 30
0.0
 10
45.56352751838077
 20
-1.110896439772901
 30
0.0
 10
44.93458612428334
 20
-0.9657641296736585
 30
0.0
 10
43.99109607552665
 20
-0.5795564710161614
 30
0.0
 10
43.04751533440706
 20
-0.1331927803884057
 30
0.0
 10
42.37278719266417
 20
0.2123087867764326
 30
0.0
 10
42.01268646402008
 20
0.3730942260969314
 30
0.0
 10
41.96711851356668
 20
0.3934403746875574
 30
0.0
  0
SPLINE
  5
205
330
1F
100
AcDbEntity
  8
0
  6
Continuous
 62
     1
370
    25
100
AcDbSpline
210
0.0
220
0.0
230
1.0
 70
     8
 71
     3
 72
    22
 73
    18
 74
     0
 42
0.000000001
 43
0.00000001
 40
0.0089642393855831
 40
0.0089642393855831
 40
0.0089642393855831
 40
0.0089642393855831
 40
0.125
 40
0.125
 40
0.25
 40
0.25
 40
0.375
 40
0.375
 40
0.5
 40
0.5
 40
0.625
 40
0.625
 40
0.75
 40
0.75
 40
0.875
 40
0.875
 40
1.0
 40
1.0
 40
1.0
 40
1.0
 10
45.78360077772999
 20
-1.408850250377295
 30
0.0
 10
45.56916971234256
 20
-1.35990663501036
 30
0.0
 10
45.39656983867829
 20
-1.314740167331803
 30
0.0
 10
45.04201534451952
 20
-1.204239813772062
 30
0.0
 10
44.8625172418629
 20
-1.138018763191667
 30
0.0
 10
44.49422285868807
 20
-0.9885100854430959
 30
0.0
 10
44.30828352945506
 20
-0.9054722884174637
 30
0.0
 10
43.94515859336588
 20
-0.7285470507287428
 30
0.0
 10
43.76208231941848
 20
-0.6337548114796121
 30
0.0
 10
43.39278305539087
 20
-0.4355370969499006
 30
0.0
 10
43.21160572007472
 20
-0.3330541735950732
 30
0.0
 10
42.84656455330077
 20
-0.1241892789443639
 30
0.0
 10
42.66039517996553
 20
-0.0173490313868996
 30
0.0
 10
42.29314658490417
 20
0.1940416475267952
 30
0.0
 10
42.11349718079013
 20
0.2983220626105094
 30
0.0
 10
41.74486351781794
 20
0.5026493558552332
 30
0.0
 10
41.55907932568216
 20
0.6020372039737794
 30
0.0
 10
41.37798002192097
 20
0.6954193533337545
 30
0.0
  0
SPLINE
  5
206
330
1F
100
AcDbEntity
  8
0
  6
Continuous
 62
     1
370
    25
100
AcDbSpline
210
0.0
220
0.0
230
1.0
 70
     8
 71
     3
 72
    22
 73
    18
 74
     0
 42
0.000000001
 43
0.00000001
 40
0.0
 40
0.0
 40
0.0
 40
0.0
 40
0.125
 40
0.125
 40
0.25
 40
0.25
 40
0.375
 40
0.375
 40
0.5
 40
0.5
 40
0.625
 40
0.625
 40
0.75
 40
0.75
 40
0.875
 40
0.875
 40
1.0
 40
1.0
 40
1.0
 40
1.0
 10
45.64214763176534
 20
-1.48345812392365
 30
0.0
 10
45.59584924451767
 20
-1.486791236247889
 30
0.0
 10
45.40975589602002
 20
-1.467065850794512
 30
0.0
 10
45.04201534451949
 20
-1.406121960180585
 30
0.0
 10
44.86251724186287
 20
-1.36522179132669
 30
0.0
 10
44.49422285868807
 20
-1.263023087627573
 30
0.0
 10
44.30828352945506
 20
-1.201814919951048
 30
0.0
 10
43.94515859336587
 20
-1.063506117327478
 30
0.0
 10
43.76208231941846
 20
-0.9857259203044464
 30
0.0
 10
43.39278305539083
 20
-0.8161017808956714
 30
0.0
 10
43.21160572007471
 20
-0.725083418548401
 30
0.0
 10
42.84656455330076
 20
-0.5332380584711984
 30
0.0
 10
42.6603951799655
 20
-0.43194852375332
 30
0.0
 10
42.29314658490417
 20
-0.2253351977465812
 30
0.0
 10
42.1134971807901
 20
-0.1203308100965899
 30
0.0
 10
41.74486351781793
 20
0.0916834614201321
 30
0.0
 10
41.55907932568216
 20
0.1980668444217812
 30
0.0
 10
41.37798002192095
 20
0.3013115775959534
 30
0.0
  0
SPLINE
  5
207
330
1F
100
AcDbEntity
  8
0
  6
Continuous
 62
     1
370
    25
100
AcDbSpline
210
0.0
220
0.0
230
1.0
 70
     8
 71
     3
 72
     9
 73
     5
 74
     0
 42
0.000000001
 43
0.00000001
 40
0.0
 40
0.0
 40
0.0
 40
0.0
 40
0.0560631360298127
 40
1.0
 40
1.0
 40
1.0
 40
1.0
 10
42.14689521107076
 20
-0.1399427173955985
 30
0.0
 10
42.13252487567565
 20
-0.1344305378216859
 30
0.0
 10
41.87620073092098
 20
-0.0361096095921667
 30
0.0
 10
41.61990603419803
 20
0.0691245213870033
 30
0.0
 10
41.37798002192118
 20
0.1684588969661149
 30
0.0
  0
SPLINE
  5
208
330
1F
100
AcDbEntity
  8
0
  6
Continuous
 62
     4
370
    25
100
AcDbSpline
210
0.0
220
0.0
230
1.0
 70
    24
 71
     3
 72
    11
 73
     7
 74
     0
 42
0.000000001
 43
0.00000001
 40
0.0
 40
0.0
 40
0.0
 40
0.0
 40
0.2360693181082624
 40
0.4811108144576596
 40
0.7332585308014953
 40
1.0
 40
1.0
 40
1.0
 40
1.0
 10
41.37798002192097
 20
0.303171403586262
 30
0.0
 10
41.37798002192098
 20
0.3017183407673585
 30
0.0
 10
41.377980021921
 20
0.2987569892377948
 30
0.0
 10
41.37798002192094
 20
0.2728014799601652
 30
0.0
 10
41.377980021921
 20
0.2316588014802505
 30
0.0
 10
41.37798002192098
 20
0.1899168623373981
 30
0.0
 10
41.37798002192097
 20
0.168458896967536
 30
0.0
  0
LINE
  5
209
330
1F
100
AcDbEntity
  8
0
  6
Continuous
 62
     4
370
    25
100
AcDbLine
 10
41.37798002192097
 20
0.3013115775959463
 30
0.0
 11
41.37798002192097
 21
0.6954193533337545
 31
0.0
  0
SPLINE
  5
20A
330
1F
100
AcDbEntity
  8
0
  6
Continuous
 62
     1
370
    25
100
AcDbSpline
210
0.0
220
0.0
230
1.0
 70
     8
 71
     3
 72
    12
 73
     8
 74
     0
 42
0.000000001
 43
0.00000001
 40
0.0
 40
0.0
 40
0.0
 40
0.0
 40
0.2152126109729702
 40
0.430450483078558
 40
0.6457114560085063
 40
0.8609933469573069
 40
1.0
 40
1.0
 40
1.0
 40
1.0
 10
45.87798002192097
 20
0.0000000000000071
 30
0.0
 10
45.56352458610028
 20
0.1452279950644382
 30
0.0
 10
44.93457680444499
 20
0.4357010317019956
 30
0.0
 10
43.99108055551032
 20
0.8154500669548668
 30
0.0
 10
43.04748479217793
 20
1.085132830670098
 30
0.0
 10
42.21521869122311
 20
1.210171131974128
 30
0.0
 10
41.69759056042411
 20
1.192535464968749
 30
0.0
 10
41.49449690920844
 20
1.185616034221781
 30
0.0
  0
SPLINE
  5
20B
330
1F
100
AcDbEntity
  8
0
  6
Continuous
 62
     1
370
    25
100
AcDbSpline
210
0.0
220
0.0
230
1.0
 70
    24
 71
     3
 72
    10
 73
     6
 74
     0
 42
0.000000001
 43
0.00000001
 40
0.0
 40
0.0
 40
0.0
 40
0.0
 40
0.5000000000000001
 40
0.5000000000000001
 40
1.0
 40
1.0
 40
1.0
 40
1.0
 10
45.87798002192097
 20
-1.183458396552318
 30
0.0
 10
45.87798002192097
 20
-1.055388850753467
 30
0.0
 10
45.87798002192098
 20
-0.8785891223866997
 30
0.0
 10
45.87798002192097
 20
-0.4649117694241269
 30
0.0
 10
45.87798002192097
 20
-0.2298147738733007
 30
0.0
 10
45.87798002192097
 20
0.0000000000000071
 30
0.0
  0
SPLINE
  5
20C
330
1F
100
AcDbEntity
  8
0
  6
Continuous
 62
     4
370
    25
100
AcDbSpline
210
0.0
220
0.0
230
1.0
 70
    24
 71
     3
 72
    13
 73
     9
 74
     0
 42
0.000000001
 43
0.00000001
 40
0.0
 40
0.0
 40
0.0
 40
0.0
 40
0.0835506619152463
 40
0.2240614790798895
 40
0.4260453591536491
 40
0.633886785432908
 40
0.814858262493214
 40
1.0
 40
1.0
 40
1.0
 40
1.0
 10
41.37798002192097
 20
1.183577477043883
 30
0.0
 10
41.37798002192098
 20
1.183825112140831
 30
0.0
 10
41.37798002192101
 20
1.184489206054899
 30
0.0
 10
41.37798002192094
 20
1.157395704236393
 30
0.0
 10
41.37798002192097
 20
1.092586397086684
 30
0.0
 10
41.37798002192095
 20
0.9783418210506056
 30
0.0
 10
41.37798002192093
 20
0.8336318037346402
 30
0.0
 10
41.37798002192094
 20
0.7170671314112838
 30
0.0
 10
41.37798002192097
 20
0.65812092267808
 30
0.0
  0
LINE
  5
20D
330
1F
100
AcDbEntity
  8
0
  6
Continuous
 62
     1
370
    25
100
AcDbLine
 10
45.87798002192097
 20
1.050000000000011
 30
0.0
 11
45.33824268018325
 21
1.010803748198413
 31
0.0
  0
SPLINE
  5
20E
330
1F
100
AcDbEntity
  8
0
  6
Continuous
 62
     1
370
    25
100
AcDbSpline
210
0.0
220
0.0
230
1.0
 70
    24
 71
     3
 72
    10
 73
     6
 74
     0
 42
0.000000001
 43
0.00000001
 40
0.0
 40
0.0
 40
0.0
 40
0.0
 40
0.5
 40
0.5
 40
1.0
 40
1.0
 40
1.0
 40
1.0
 10
45.87798002192097
 20
0.0000000000000071
 30
0.0
 10
45.87798002192097
 20
0.2498530551041966
 30
0.0
 10
45.87798002192097
 20
0.4929624592293607
 30
0.0
 10
45.87798002192095
 20
0.866193004560543
 30
0.0
 10
45.87798002192097
 20
0.9934223233091757
 30
0.0
 10
45.87798002192097
 20
1.050000000000011
 30
0.0
  0
SPLINE
  5
20F
330
1F
100
AcDbEntity
  8
0
  6
Continuous
 62
     1
370
    25
100
AcDbSpline
210
0.0
220
0.0
230
1.0
 70
     8
 71
     3
 72
     9
 73
     5
 74
     0
 42
0.000000001
 43
0.00000001
 40
0.0
 40
0.0
 40
0.0
 40
0.0
 40
0.4548294405691402
 40
1.0
 40
1.0
 40
1.0
 40
1.0
 10
42.70938418475877
 20
-1.109624277391703
 30
0.0
 10
42.50751528545178
 20
-1.143656080124359
 30
0.0
 10
42.06368100099036
 20
-1.218479298889768
 30
0.0
 10
41.61991058685445
 20
-1.196459717701906
 30
0.0
 10
41.37798002192113
 20
-1.184455290307284
 30
0.0
  0
SPLINE
  5
210
330
1F
100
AcDbEntity
  8
0
  6
Continuous
 62
     4
370
    25
100
AcDbSpline
210
0.0
220
0.0
230
1.0
 70
    24
 71
     3
 72
    10
 73
     6
 74
     0
 42
0.000000001
 43
0.00000001
 40
0.0
 40
0.0
 40
0.0
 40
0.0
 40
0.5
 40
0.5
 40
1.0
 40
1.0
 40
1.0
 40
1.0
 10
41.37798002192097
 20
0.1684588969662002
 30
0.0
 10
41.37798002192097
 20
-0.0969158793119931
 30
0.0
 10
41.37798002192097
 20
-0.3762497707282009
 30
0.0
 10
41.37798002192097
 20
-0.8571534849209286
 30
0.0
 10
41.37798002192097
 20
-1.054997224240637
 30
0.0
 10
41.37798002192097
 20
-1.18445529030727
 30
0.0
  0
LINE
  5
211
330
1F
100
AcDbEntity
  8
중심선
100
AcDbLine
 10
-37.12201997807902
 20
0.0
 30
0.0
 11
48.87798002192097
 21
0.0000000000000071
 31
0.0
  0
CIRCLE
  5
212
330
1F
100
AcDbEntity
  8
외형선
100
AcDbCircle
 10
0.0
 20
0.0
 30
0.0
 40
3.000000000000005
  0
DIMENSION
  5
213
330
1F
100
AcDbEntity
  8
치수문자_일반주서
100
AcDbDimension
  2
*D15
 10
-45.61847799969109
 20
-3.000000000000048
 30
0.0
 11
-45.61847799969111
 21
0.0
 31
0.0
 70
   160
  1
%%c<>
 71
     2
 42
6.0
 52
-270.0
  3
SLDDIMSTYLE0
100
AcDbAlignedDimension
 13
-33.12201997807903
 23
3.0
 33
0.0
 14
-33.12201997807903
 24
-3.0
 34
0.0
 50
90.0000000000002
100
AcDbRotatedDimension
  0
DIMENSION
  5
214
330
1F
100
AcDbEntity
  8
치수문자_일반주서
100
AcDbDimension
  2
*D16
 10
41.37798002192097
 20
19.89999999999965
 30
0.0
 11
43.62798002192097
 21
19.89999999999965
 31
0.0
 70
   160
  1
<>
 71
     2
 42
4.5
  3
SLDDIMSTYLE1
100
AcDbAlignedDimension
 13
45.87798002192097
 23
1.400000000000006
 33
0.0
 14
41.37798002192097
 24
1.186147856478023
 34
0.0
100
AcDbRotatedDimension
  0
DIMENSION
  5
215
330
1F
100
AcDbEntity
  8
치수문자_일반주서
100
AcDbDimension
  2
*D17
 10
-34.12201997807903
 20
41.95832450504429
 30
0.0
 11
5.877980021920962
 21
41.95832450504429
 31
0.0
 70
   160
  1
<>
 71
     2
 42
80.0
  3
SLDDIMSTYLE2
100
AcDbAlignedDimension
 13
45.87798002192097
 23
1.400000000000006
 33
0.0
 14
-34.12201997807903
 24
2.0
 34
0.0
100
AcDbRotatedDimension
  0
DIMENSION
  5
216
330
1F
100
AcDbEntity
  8
치수문자_일반주서
100
AcDbDimension
  2
*D18
 10
5.877980021920969
 20
30.31999999999866
 30
0.0
 11
25.87798002192097
 21
30.31999999999866
 31
0.0
 70
   160
  1
<>
 71
     2
 42
40.0
  3
SLDDIMSTYLE0
100
AcDbAlignedDimension
 13
45.87798002192097
 23
1.397798710624173
 33
0.0
 14
5.877980021920969
 24
1.425000000000004
 34
0.0
 50
-0.0000000000022354
100
AcDbRotatedDimension
  0
DIMENSION
  5
217
330
1F
100
AcDbEntity
  8
치수문자_일반주서
100
AcDbDimension
  2
*D19
 10
56.20111137989765
 20
-1.495216943397832
 30
0.0
 11
56.20111137989762
 21
14.22421694339791
 31
0.0
 70
   160
  1
%%c<>
 71
     2
 42
2.998589347888213
 52
-270.0
  3
SLDDIMSTYLE3
100
AcDbAlignedDimension
 13
45.87798002192097
 23
1.503372404490342
 33
0.0
 14
45.77798002192095
 24
-1.495216943397871
 34
0.0
 50
90.0000000000002
100
AcDbRotatedDimension
  0
INSERT
  5
218
330
1F
100
AcDbEntity
  8
외형선
100
AcDbBlockReference
  2
SW_DOWELSYMBOL_0
 10
0.0
 20
0.0
 30
0.0
  0
SPLINE
  5
219
330
1F
100
AcDbEntity
  8
0
  6
Continuous
 62
     1
370
    25
100
AcDbSpline
210
0.0
220
0.0
230
1.0
 70
     8
 71
     3
 72
    11
 73
     7
 74
     0
 42
0.000000001
 43
0.00000001
 40
0.0
 40
0.0
 40
0.0
 40
0.0
 40
0.0132331356419757
 40
0.3415344459744827
 40
0.6700375518903243
 40
0.930790976231331
 40
0.930790976231331
 40
0.930790976231331
 40
0.930790976231331
 10
43.8169367903831
 20
1.005685733569486
 30
0.0
 10
43.82559088002979
 20
1.009841501211298
 30
0.0
 10
44.04894457282504
 20
1.117097849029776
 30
0.0
 10
44.48653897021729
 20
1.264292489647048
 30
0.0
 10
45.0861076982452
 20
1.427794912023836
 30
0.0
 10
45.47156226182129
 20
1.468221223326009
 30
0.0
 10
45.64214763176573
 20
1.483458123923696
 30
0.0
  0
SPLINE
  5
21B
330
1F
100
AcDbEntity
  8
0
  6
Continuous
 62
     1
370
    25
100
AcDbSpline
210
0.0
220
0.0
230
1.0
 70
    24
 71
     3
 72
     8
 73
     4
 74
     0
 42
0.000000001
 43
0.00000001
 40
0.9929789949741769
 40
0.9929789949741769
 40
0.9929789949741769
 40
0.9929789949741769
 40
1.0
 40
1.0
 40
1.0
 40
1.0
 10
45.87798002192097
 20
1.395216943397877
 30
0.0
 10
45.87798002192097
 20
1.396077683354356
 30
0.0
 10
45.87798002192097
 20
1.396938275827516
 30
0.0
 10
45.87798002192097
 20
1.397798710624173
 30
0.0
  0
SPLINE
  5
21D
330
1F
100
AcDbEntity
  8
0
  6
Continuous
 62
     1
370
    25
100
AcDbSpline
210
0.0
220
0.0
230
1.0
 70
    24
 71
     3
 72
     8
 73
     4
 74
     0
 42
0.000000001
 43
0.00000001
 40
0.0
 40
0.0
 40
0.0
 40
0.0
 40
0.4295107304220688
 40
0.4295107304220688
 40
0.4295107304220688
 40
0.4295107304220688
 10
45.87798002192097
 20
1.050000000000011
 30
0.0
 10
45.87798002192096
 20
1.092735037681844
 30
0.0
 10
45.87798002192096
 20
1.140313243740171
 30
0.0
 10
45.87798002192098
 20
1.190400976452882
 30
0.0
  0
LINE
  5
21E
330
1F
100
AcDbEntity
  8
0
  6
Continuous
 62
     1
370
    25
100
AcDbLine
 10
45.87798002192097
 20
-1.395216943397845
 30
0.0
 11
45.87798002192097
 21
-1.39779871062477
 31
0.0
  0
SPLINE
  5
21F
330
1F
100
AcDbEntity
  8
0
  6
Continuous
 62
     1
370
    25
100
AcDbSpline
210
0.0
220
0.0
230
1.0
 70
    24
 71
     3
 72
     8
 73
     4
 74
     0
 42
0.000000001
 43
0.00000001
 40
0.9472872567923301
 40
0.9472872567923301
 40
0.9472872567923301
 40
0.9472872567923301
 40
1.0
 40
1.0
 40
1.0
 40
1.0
 10
45.87798002192098
 20
-1.190400976453295
 30
0.0
 10
45.87798002192098
 20
-1.188086039133281
 30
0.0
 10
45.87798002192097
 20
-1.185771833332244
 30
0.0
 10
45.87798002192097
 20
-1.183458396552318
 30
0.0
  0
ARC
  5
26E
330
1F
100
AcDbEntity
  8
0
  6
Continuous
 62
     1
370
    25
100
AcDbCircle
 10
45.57798002192097
 20
1.19040093181458
 30
0.0
 40
0.2999999999999999
100
AcDbArc
 50
0.0000085252877715
 51
77.6494665703006
  0
ARC
  5
26F
102
{ACAD_REACTORS
102
}
330
1F
100
AcDbEntity
  8
0
  6
Continuous
 62
     1
370
    25
100
AcDbCircle
 10
45.57798002192097
 20
-1.190400931814565
 30
0.0
 40
0.2999999999999999
100
AcDbArc
 50
282.3505334296994
 51
359.9999914747123
  0
DIMENSION
  5
270
102
{ACAD_REACTORS
102
}
102
{ACAD_XDICTIONARY
360
271
102
}
330
1F
100
AcDbEntity
  8
치수문자_일반주서
100
AcDbDimension
  2
*D21
 10
45.57798002192097
 20
-1.190400931814565
 30
0.0
 11
50.35334399579603
 21
-17.40863176137994
 31
0.0
 70
   164
  1
<>
 71
     5
 42
0.3000000000000008
  3
SLDDIMSTYLE3
100
AcDbRadialDimension
 15
45.66271640938496
 25
-1.478185129851139
 35
0.0
 40
0.0
1001
ACAD_DSTYLE_DIMRADIAL_EXTENSION
1070
   387
1070
     1
1070
   388
1040
4.927946453110572
1070
   390
1040
6.283185158385245
  0
ENDSEC
  0
SECTION
  2
OBJECTS
  0
DICTIONARY
  5
C
330
0
100
AcDbDictionary
281
     1
  3
ACAD_GROUP
350
D
  3
ACAD_IMAGE_VARS
350
12C
  3
ACAD_LAYOUT
350
1A
  3
ACAD_MLINESTYLE
350
17
  3
ACAD_PLOTSETTINGS
350
19
  3
ACAD_PLOTSTYLENAME
350
E
  3
ACAD_SCALELIST
350
47
  3
APPDATA
350
12A
  3
DWGPROPS
350
27D
  0
DICTIONARY
  5
271
330
270
100
AcDbDictionary
280
     1
281
     1
  0
DICTIONARY
  5
D
102
{ACAD_REACTORS
330
C
102
}
330
C
100
AcDbDictionary
281
     1
  0
RASTERVARIABLES
  5
12C
102
{ACAD_REACTORS
330
C
102
}
330
C
100
AcDbRasterVariables
 90
        0
 70
     1
 71
     1
 72
     1
  0
DICTIONARY
  5
1A
102
{ACAD_REACTORS
330
C
102
}
330
C
100
AcDbDictionary
281
     1
  3
Layout1
350
1E
  3
Layout2
350
26
  3
Model
350
22
  0
DICTIONARY
  5
17
102
{ACAD_REACTORS
330
C
102
}
330
C
100
AcDbDictionary
281
     1
  3
Standard
350
18
  0
DICTIONARY
  5
19
102
{ACAD_REACTORS
330
C
102
}
330
C
100
AcDbDictionary
281
     1
  0
ACDBDICTIONARYWDFLT
  5
E
102
{ACAD_REACTORS
330
C
102
}
330
C
100
AcDbDictionary
281
     1
  3
Normal
350
F
100
AcDbDictionaryWithDefault
340
F
  0
DICTIONARY
  5
47
102
{ACAD_REACTORS
330
C
102
}
330
C
100
AcDbDictionary
281
     1
  3
A0
350
48
  3
A1
350
49
  3
A2
350
4A
  3
A3
350
4B
  3
A4
350
4C
  3
A5
350
4D
  3
A6
350
4E
  3
A7
350
4F
  3
A8
350
50
  3
A9
350
51
  3
B0
350
52
  3
B1
350
53
  3
B2
350
54
  3
B3
350
55
  3
B4
350
56
  3
B5
350
57
  3
B6
350
58
  3
B7
350
59
  3
B8
350
5A
  3
B9
350
5B
  3
C0
350
5C
  3
C1
350
5D
  3
C2
350
5E
  3
C3
350
5F
  3
C4
350
60
  3
C5
350
61
  3
C6
350
62
  3
C7
350
63
  3
C8
350
64
  3
C9
350
65
  3
D0
350
66
  3
D1
350
67
  3
D2
350
68
  0
DICTIONARY
  5
12A
102
{ACAD_REACTORS
330
C
102
}
330
C
100
AcDbDictionary
281
     1
  0
XRECORD
  5
27D
102
{ACAD_REACTORS
330
C
102
}
330
C
100
AcDbXrecord
280
     1
  1
DWGPROPS COOKIE
  2

  3

  4

  6

  7

  8
12016016
  9

300
=
301
=
302
=
303
=
304
=
305
=
306
=
307
=
308
=
309
=
 40
0.0
 41
2458263.412912523
 42
2458268.487798542
  1

 90
        0
  0
LAYOUT
  5
1E
102
{ACAD_REACTORS
330
1A
102
}
330
1A
100
AcDbPlotSettings
  1

  2
none_device
  4

  6

 40
0.0
 41
0.0
 42
0.0
 43
0.0
 44
0.0
 45
0.0
 46
0.0
 47
0.0
 48
0.0
 49
0.0
140
0.0
141
0.0
142
1.0
143
1.0
 70
   688
 72
     1
 73
     0
 74
     5
  7

 75
    16
147
1.0
148
0.0
149
0.0
100
AcDbLayout
  1
Layout1
 70
     1
 71
     1
 10
0.0
 20
0.0
 11
420.0
 21
297.0
 12
0.0
 22
0.0
 32
0.0
 14
1.000000000000000E+20
 24
1.000000000000000E+20
 34
1.000000000000000E+20
 15
-1.000000000000000E+20
 25
-1.000000000000000E+20
 35
-1.000000000000000E+20
146
0.0
 13
0.0
 23
0.0
 33
0.0
 16
1.0
 26
0.0
 36
0.0
 17
0.0
 27
1.0
 37
0.0
 76
     0
330
1B
  0
LAYOUT
  5
26
102
{ACAD_REACTORS
330
1A
102
}
330
1A
100
AcDbPlotSettings
  1

  2
none_device
  4

  6

 40
0.0
 41
0.0
 42
0.0
 43
0.0
 44
0.0
 45
0.0
 46
0.0
 47
0.0
 48
0.0
 49
0.0
140
0.0
141
0.0
142
1.0
143
1.0
 70
   688
 72
     1
 73
     0
 74
     5
  7

 75
    16
147
1.0
148
0.0
149
0.0
100
AcDbLayout
  1
Layout2
 70
     1
 71
     2
 10
0.0
 20
0.0
 11
0.0
 21
0.0
 12
0.0
 22
0.0
 32
0.0
 14
0.0
 24
0.0
 34
0.0
 15
0.0
 25
0.0
 35
0.0
146
0.0
 13
0.0
 23
0.0
 33
0.0
 16
1.0
 26
0.0
 36
0.0
 17
0.0
 27
1.0
 37
0.0
 76
     0
330
23
  0
LAYOUT
  5
22
102
{ACAD_REACTORS
330
1A
102
}
330
1A
100
AcDbPlotSettings
  1

  2
none_device
  4
ANSI_A_(11.00_x_8.50_Inches)
  6

 40
6.35
 41
19.05
 42
6.35000508
 43
19.05000254
 44
279.4
 45
215.9
 46
107.4737737689021
 47
93.79644241036566
 48
0.0
 49
0.0
140
0.0
141
0.0
142
0.0867652481350974
143
1.0
 70
  1696
 72
     0
 73
     0
 74
     0
  7

 75
     0
147
0.0235690232323232
148
0.0
149
0.0
100
AcDbLayout
  1
Model
 70
     1
 71
     0
 10
0.0
 20
0.0
 11
420.0
 21
297.0
 12
0.0
 22
0.0
 32
0.0
 14
1.000000000000000E+20
 24
1.000000000000000E+20
 34
1.000000000000000E+20
 15
-1.000000000000000E+20
 25
-1.000000000000000E+20
 35
-1.000000000000000E+20
146
0.0
 13
0.0
 23
0.0
 33
0.0
 16
1.0
 26
0.0
 36
0.0
 17
0.0
 27
1.0
 37
0.0
 76
     0
330
1F
331
29
  0
MLINESTYLE
  5
18
102
{ACAD_REACTORS
330
17
102
}
330
17
100
AcDbMlineStyle
  2
Standard
 70
     0
  3

 62
   256
 51
90.0
 52
90.0
 71
     2
 49
0.5
 62
   256
  6
BYLAYER
 49
-0.5
 62
   256
  6
BYLAYER
  0
ACDBPLACEHOLDER
  5
F
102
{ACAD_REACTORS
330
E
102
}
330
E
  0
SCALE
  5
48
102
{ACAD_REACTORS
330
47
102
}
330
47
100
AcDbScale
 70
     0
300
1:1
140
1.0
141
1.0
290
     1
  0
SCALE
  5
49
102
{ACAD_REACTORS
330
47
102
}
330
47
100
AcDbScale
 70
     0
300
1:2
140
1.0
141
2.0
290
     0
  0
SCALE
  5
4A
102
{ACAD_REACTORS
330
47
102
}
330
47
100
AcDbScale
 70
     0
300
1:4
140
1.0
141
4.0
290
     0
  0
SCALE
  5
4B
102
{ACAD_REACTORS
330
47
102
}
330
47
100
AcDbScale
 70
     0
300
1:5
140
1.0
141
5.0
290
     0
  0
SCALE
  5
4C
102
{ACAD_REACTORS
330
47
102
}
330
47
100
AcDbScale
 70
     0
300
1:8
140
1.0
141
8.0
290
     0
  0
SCALE
  5
4D
102
{ACAD_REACTORS
330
47
102
}
330
47
100
AcDbScale
 70
     0
300
1:10
140
1.0
141
10.0
290
     0
  0
SCALE
  5
4E
102
{ACAD_REACTORS
330
47
102
}
330
47
100
AcDbScale
 70
     0
300
1:16
140
1.0
141
16.0
290
     0
  0
SCALE
  5
4F
102
{ACAD_REACTORS
330
47
102
}
330
47
100
AcDbScale
 70
     0
300
1:20
140
1.0
141
20.0
290
     0
  0
SCALE
  5
50
102
{ACAD_REACTORS
330
47
102
}
330
47
100
AcDbScale
 70
     0
300
1:30
140
1.0
141
30.0
290
     0
  0
SCALE
  5
51
102
{ACAD_REACTORS
330
47
102
}
330
47
100
AcDbScale
 70
     0
300
1:40
140
1.0
141
40.0
290
     0
  0
SCALE
  5
52
102
{ACAD_REACTORS
330
47
102
}
330
47
100
AcDbScale
 70
     0
300
1:50
140
1.0
141
50.0
290
     0
  0
SCALE
  5
53
102
{ACAD_REACTORS
330
47
102
}
330
47
100
AcDbScale
 70
     0
300
1:100
140
1.0
141
100.0
290
     0
  0
SCALE
  5
54
102
{ACAD_REACTORS
330
47
102
}
330
47
100
AcDbScale
 70
     0
300
2:1
140
2.0
141
1.0
290
     0
  0
SCALE
  5
55
102
{ACAD_REACTORS
330
47
102
}
330
47
100
AcDbScale
 70
     0
300
4:1
140
4.0
141
1.0
290
     0
  0
SCALE
  5
56
102
{ACAD_REACTORS
330
47
102
}
330
47
100
AcDbScale
 70
     0
300
8:1
140
8.0
141
1.0
290
     0
  0
SCALE
  5
57
102
{ACAD_REACTORS
330
47
102
}
330
47
100
AcDbScale
 70
     0
300
10:1
140
10.0
141
1.0
290
     0
  0
SCALE
  5
58
102
{ACAD_REACTORS
330
47
102
}
330
47
100
AcDbScale
 70
     0
300
100:1
140
100.0
141
1.0
290
     0
  0
SCALE
  5
59
102
{ACAD_REACTORS
330
47
102
}
330
47
100
AcDbScale
 70
     0
300
1/128" = 1'-0"
140
0.0078125
141
12.0
290
     0
  0
SCALE
  5
5A
102
{ACAD_REACTORS
330
47
102
}
330
47
100
AcDbScale
 70
     0
300
1/64" = 1'-0"
140
0.015625
141
12.0
290
     0
  0
SCALE
  5
5B
102
{ACAD_REACTORS
330
47
102
}
330
47
100
AcDbScale
 70
     0
300
1/32" = 1'-0"
140
0.03125
141
12.0
290
     0
  0
SCALE
  5
5C
102
{ACAD_REACTORS
330
47
102
}
330
47
100
AcDbScale
 70
     0
300
1/16" = 1'-0"
140
0.0625
141
12.0
290
     0
  0
SCALE
  5
5D
102
{ACAD_REACTORS
330
47
102
}
330
47
100
AcDbScale
 70
     0
300
3/32" = 1'-0"
140
0.09375
141
12.0
290
     0
  0
SCALE
  5
5E
102
{ACAD_REACTORS
330
47
102
}
330
47
100
AcDbScale
 70
     0
300
1/8" = 1'-0"
140
0.125
141
12.0
290
     0
  0
SCALE
  5
5F
102
{ACAD_REACTORS
330
47
102
}
330
47
100
AcDbScale
 70
     0
300
3/16" = 1'-0"
140
0.1875
141
12.0
290
     0
  0
SCALE
  5
60
102
{ACAD_REACTORS
330
47
102
}
330
47
100
AcDbScale
 70
     0
300
1/4" = 1'-0"
140
0.25
141
12.0
290
     0
  0
SCALE
  5
61
102
{ACAD_REACTORS
330
47
102
}
330
47
100
AcDbScale
 70
     0
300
3/8" = 1'-0"
140
0.375
141
12.0
290
     0
  0
SCALE
  5
62
102
{ACAD_REACTORS
330
47
102
}
330
47
100
AcDbScale
 70
     0
300
1/2" = 1'-0"
140
0.5
141
12.0
290
     0
  0
SCALE
  5
63
102
{ACAD_REACTORS
330
47
102
}
330
47
100
AcDbScale
 70
     0
300
3/4" = 1'-0"
140
0.75
141
12.0
290
     0
  0
SCALE
  5
64
102
{ACAD_REACTORS
330
47
102
}
330
47
100
AcDbScale
 70
     0
300
1" = 1'-0"
140
1.0
141
12.0
290
     0
  0
SCALE
  5
65
102
{ACAD_REACTORS
330
47
102
}
330
47
100
AcDbScale
 70
     0
300
1-1/2" = 1'-0"
140
1.5
141
12.0
290
     0
  0
SCALE
  5
66
102
{ACAD_REACTORS
330
47
102
}
330
47
100
AcDbScale
 70
     0
300
3" = 1'-0"
140
3.0
141
12.0
290
     0
  0
SCALE
  5
67
102
{ACAD_REACTORS
330
47
102
}
330
47
100
AcDbScale
 70
     0
300
6" = 1'-0"
140
6.0
141
12.0
290
     0
  0
SCALE
  5
68
102
{ACAD_REACTORS
330
47
102
}
330
47
100
AcDbScale
 70
     0
300
1'-0" = 1'-0"
140
12.0
141
12.0
290
     0
  0
ENDSEC
  0
EOF
