  0
SECTION
  2
HEADER
  9
$ACADVER
  1
AC1015
  9
$ACADMAINTVER
 70
     6
  9
$DWGCODEPAGE
  3
ANSI_949
  9
$INSBASE
 10
0.0
 20
0.0
 30
0.0
  9
$EXTMIN
 10
-59.85950340347554
 20
-49.97180738881175
 30
0.0
  9
$EXTMAX
 10
70.58926825519815
 20
46.83332450504429
 30
0.0
  9
$LIMMIN
 10
0.0
 20
0.0
  9
$LIMMAX
 10
420.0
 20
297.0
  9
$ORTHOMODE
 70
     0
  9
$REGENMODE
 70
     1
  9
$FILLMODE
 70
     1
  9
$QTEXTMODE
 70
     0
  9
$MIRRTEXT
 70
     1
  9
$LTSCALE
 40
1.0
  9
$ATTMODE
 70
     1
  9
$TEXTSIZE
 40
3.5
  9
$TRACEWID
 40
1.0
  9
$TEXTSTYLE
  7
Standard
  9
$CLAYER
  8
0
  9
$CELTYPE
  6
ByLayer
  9
$CECOLOR
 62
   256
  9
$CELTSCALE
 40
1.0
  9
$DISPSILH
 70
     0
  9
$DIMSCALE
 40
1.0
  9
$DIMASZ
 40
3.302
  9
$DIMEXO
 40
1.0
  9
$DIMDLI
 40
3.75
  9
$DIMRND
 40
0.0
  9
$DIMDLE
 40
0.0
  9
$DIMEXE
 40
1.0
  9
$DIMTP
 40
0.0
  9
$DIMTM
 40
0.0
  9
$DIMTXT
 40
3.5
  9
$DIMCEN
 40
2.5
  9
$DIMTSZ
 40
0.0
  9
$DIMTOL
 70
     0
  9
$DIMLIM
 70
     0
  9
$DIMTIH
 70
     1
  9
$DIMTOH
 70
     1
  9
$DIMSE1
 70
     0
  9
$DIMSE2
 70
     0
  9
$DIMTAD
 70
     1
  9
$DIMZIN
 70
     0
  9
$DIMBLK
  1

  9
$DIMASO
 70
     1
  9
$DIMSHO
 70
     1
  9
$DIMPOST
  1

  9
$DIMAPOST
  1

  9
$DIMALT
 70
     0
  9
$DIMALTD
 70
     3
  9
$DIMALTF
 40
0.0393700787401575
  9
$DIMLFAC
 40
1.0
  9
$DIMTOFL
 70
     1
  9
$DIMTVP
 40
0.0
  9
$DIMTIX
 70
     0
  9
$DIMSOXD
 70
     0
  9
$DIMSAH
 70
     0
  9
$DIMBLK1
  1

  9
$DIMBLK2
  1

  9
$DIMSTYLE
  2
ISO-25
  9
$DIMCLRD
 70
     0
  9
$DIMCLRE
 70
     0
  9
$DIMCLRT
 70
     0
  9
$DIMTFAC
 40
1.0
  9
$DIMGAP
 40
1.524
  9
$DIMJUST
 70
     0
  9
$DIMSD1
 70
     0
  9
$DIMSD2
 70
     0
  9
$DIMTOLJ
 70
     0
  9
$DIMTZIN
 70
     0
  9
$DIMALTZ
 70
     0
  9
$DIMALTTZ
 70
     0
  9
$DIMUPT
 70
     0
  9
$DIMDEC
 70
     2
  9
$DIMTDEC
 70
     2
  9
$DIMALTU
 70
     2
  9
$DIMALTTD
 70
     3
  9
$DIMTXSTY
  7
Standard
  9
$DIMAUNIT
 70
     0
  9
$DIMADEC
 70
     2
  9
$DIMALTRND
 40
0.0
  9
$DIMAZIN
 70
     0
  9
$DIMDSEP
 70
    44
  9
$DIMATFIT
 70
     3
  9
$DIMFRAC
 70
     0
  9
$DIMLDRBLK
  1

  9
$DIMLUNIT
 70
     2
  9
$DIMLWD
 70
    -2
  9
$DIMLWE
 70
    -2
  9
$DIMTMOVE
 70
     0
  9
$LUNITS
 70
     2
  9
$LUPREC
 70
     2
  9
$SKETCHINC
 40
1.0
  9
$FILLETRAD
 40
10.0
  9
$AUNITS
 70
     0
  9
$AUPREC
 70
     2
  9
$MENU
  1
.
  9
$ELEVATION
 40
0.0
  9
$PELEVATION
 40
0.0
  9
$THICKNESS
 40
0.0
  9
$LIMCHECK
 70
     0
  9
$CHAMFERA
 40
0.0
  9
$CHAMFERB
 40
0.0
  9
$CHAMFERC
 40
0.0
  9
$CHAMFERD
 40
0.0
  9
$SKPOLY
 70
     0
  9
$TDCREATE
 40
2458263.793772824
  9
$TDUCREATE
 40
2458263.418772824
  9
$TDUPDATE
 40
2458264.802389074
  9
$TDUUPDATE
 40
2458264.427389074
  9
$TDINDWG
 40
0.0009618634
  9
$TDUSRTIMER
 40
2458264.423036609
  9
$USRTIMER
 70
     1
  9
$ANGBASE
 50
0.0
  9
$ANGDIR
 70
     0
  9
$PDMODE
 70
     0
  9
$PDSIZE
 40
-1.0
  9
$PLINEWID
 40
0.0
  9
$SPLFRAME
 70
     0
  9
$SPLINETYPE
 70
     6
  9
$SPLINESEGS
 70
     8
  9
$HANDSEED
  5
15E
  9
$SURFTAB1
 70
     6
  9
$SURFTAB2
 70
     6
  9
$SURFTYPE
 70
     6
  9
$SURFU
 70
     6
  9
$SURFV
 70
     6
  9
$UCSBASE
  2

  9
$UCSNAME
  2

  9
$UCSORG
 10
0.0
 20
0.0
 30
0.0
  9
$UCSXDIR
 10
1.0
 20
0.0
 30
0.0
  9
$UCSYDIR
 10
0.0
 20
1.0
 30
0.0
  9
$UCSORTHOREF
  2

  9
$UCSORTHOVIEW
 70
     0
  9
$UCSORGTOP
 10
0.0
 20
0.0
 30
0.0
  9
$UCSORGBOTTOM
 10
0.0
 20
0.0
 30
0.0
  9
$UCSORGLEFT
 10
0.0
 20
0.0
 30
0.0
  9
$UCSORGRIGHT
 10
0.0
 20
0.0
 30
0.0
  9
$UCSORGFRONT
 10
0.0
 20
0.0
 30
0.0
  9
$UCSORGBACK
 10
0.0
 20
0.0
 30
0.0
  9
$PUCSBASE
  2

  9
$PUCSNAME
  2

  9
$PUCSORG
 10
0.0
 20
0.0
 30
0.0
  9
$PUCSXDIR
 10
1.0
 20
0.0
 30
0.0
  9
$PUCSYDIR
 10
0.0
 20
1.0
 30
0.0
  9
$PUCSORTHOREF
  2

  9
$PUCSORTHOVIEW
 70
     0
  9
$PUCSORGTOP
 10
0.0
 20
0.0
 30
0.0
  9
$PUCSORGBOTTOM
 10
0.0
 20
0.0
 30
0.0
  9
$PUCSORGLEFT
 10
0.0
 20
0.0
 30
0.0
  9
$PUCSORGRIGHT
 10
0.0
 20
0.0
 30
0.0
  9
$PUCSORGFRONT
 10
0.0
 20
0.0
 30
0.0
  9
$PUCSORGBACK
 10
0.0
 20
0.0
 30
0.0
  9
$USERI1
 70
     0
  9
$USERI2
 70
     0
  9
$USERI3
 70
     0
  9
$USERI4
 70
     0
  9
$USERI5
 70
     0
  9
$USERR1
 40
0.0
  9
$USERR2
 40
0.0
  9
$USERR3
 40
0.0
  9
$USERR4
 40
0.0
  9
$USERR5
 40
0.0
  9
$WORLDVIEW
 70
     1
  9
$SHADEDGE
 70
     3
  9
$SHADEDIF
 70
    70
  9
$TILEMODE
 70
     1
  9
$MAXACTVP
 70
    64
  9
$PINSBASE
 10
0.0
 20
0.0
 30
0.0
  9
$PLIMCHECK
 70
     0
  9
$PEXTMIN
 10
1.000000000000000E+20
 20
1.000000000000000E+20
 30
1.000000000000000E+20
  9
$PEXTMAX
 10
-1.000000000000000E+20
 20
-1.000000000000000E+20
 30
-1.000000000000000E+20
  9
$PLIMMIN
 10
0.0
 20
0.0
  9
$PLIMMAX
 10
0.0
 20
0.0
  9
$UNITMODE
 70
     0
  9
$VISRETAIN
 70
     1
  9
$PLINEGEN
 70
     0
  9
$PSLTSCALE
 70
     1
  9
$TREEDEPTH
 70
  3020
  9
$CMLSTYLE
  2
Standard
  9
$CMLJUST
 70
     0
  9
$CMLSCALE
 40
20.0
  9
$PROXYGRAPHICS
 70
     1
  9
$MEASUREMENT
 70
     1
  9
$CELWEIGHT
370
    -1
  9
$ENDCAPS
280
     0
  9
$JOINSTYLE
280
     0
  9
$LWDISPLAY
290
     1
  9
$INSUNITS
 70
     4
  9
$HYPERLINKBASE
  1

  9
$STYLESHEET
  1

  9
$XEDIT
290
     1
  9
$CEPSNTYPE
380
     0
  9
$PSTYLEMODE
290
     1
  9
$FINGERPRINTGUID
  2
{F091A9B2-1A7C-47C3-9EFA-244116E79413}
  9
$VERSIONGUID
  2
{FAEB1C32-E019-11D5-929B-00C0DF256EC4}
  9
$EXTNAMES
290
     1
  9
$PSVPSCALE
 40
0.0
  9
$OLESTARTUP
290
     0
  0
ENDSEC
  0
SECTION
  2
CLASSES
  0
CLASS
  1
ACDBDICTIONARYWDFLT
  2
AcDbDictionaryWithDefault
  3
ObjectDBX Classes
 90
        0
280
     0
281
     0
  0
CLASS
  1
VISUALSTYLE
  2
AcDbVisualStyle
  3
ObjectDBX Classes
 90
     4095
280
     0
281
     0
  0
CLASS
  1
MATERIAL
  2
AcDbMaterial
  3
ObjectDBX Classes
 90
     1153
280
     0
281
     0
  0
CLASS
  1
SCALE
  2
AcDbScale
  3
ObjectDBX Classes
 90
     1153
280
     0
281
     0
  0
CLASS
  1
TABLESTYLE
  2
AcDbTableStyle
  3
ObjectDBX Classes
 90
     4095
280
     0
281
     0
  0
CLASS
  1
MLEADERSTYLE
  2
AcDbMLeaderStyle
  3
ACDB_MLEADERSTYLE_CLASS
 90
     4095
280
     0
281
     0
  0
CLASS
  1
SUN
  2
AcDbSun
  3
SCENEOE
 90
     1153
280
     0
281
     0
  0
CLASS
  1
ACDBPLACEHOLDER
  2
AcDbPlaceHolder
  3
ObjectDBX Classes
 90
        0
280
     0
281
     0
  0
CLASS
  1
LAYOUT
  2
AcDbLayout
  3
ObjectDBX Classes
 90
        0
280
     0
281
     0
  0
CLASS
  1
RASTERVARIABLES
  2
AcDbRasterVariables
  3
ISM
 90
        0
280
     0
281
     0
  0
CLASS
  1
DIMASSOC
  2
AcDbDimAssoc
  3
"AcDbDimAssoc|Product Desc:     AcDim ARX App For Dimension|Company:          Autodesk, Inc.|WEB Address:      www.autodesk.com"
 90
        0
280
     0
281
     0
  0
ENDSEC
  0
SECTION
  2
TABLES
  0
TABLE
  2
VPORT
  5
8
330
0
100
AcDbSymbolTable
 70
     1
  0
VPORT
  5
29
330
8
100
AcDbSymbolTableRecord
100
AcDbViewportTableRecord
  2
*Active
 70
     0
 10
0.0
 20
0.0
 11
1.0
 21
1.0
 12
-2.545475900249585
 22
-18.86614940290688
 13
0.0
 23
0.0
 14
10.0
 24
10.0
 15
10.0
 25
10.0
 16
0.0
 26
0.0
 36
1.0
 17
0.0
 27
0.0
 37
0.0
 40
126.2984722044386
 41
1.730844793713163
 42
50.0
 43
0.0
 44
0.0
 50
0.0
 51
0.0
 71
    16
 72
  2000
 73
     1
 74
     3
 75
     0
 76
     0
 77
     0
 78
     0
281
     0
 65
     1
110
0.0
120
0.0
130
0.0
111
1.0
121
0.0
131
0.0
112
0.0
122
1.0
132
0.0
 79
     0
146
0.0
  0
ENDTAB
  0
TABLE
  2
LTYPE
  5
5
330
0
100
AcDbSymbolTable
 70
     6
  0
LTYPE
  5
14
330
5
100
AcDbSymbolTableRecord
100
AcDbLinetypeTableRecord
  2
ByBlock
 70
     0
  3

 72
    65
 73
     0
 40
0.0
  0
LTYPE
  5
15
330
5
100
AcDbSymbolTableRecord
100
AcDbLinetypeTableRecord
  2
ByLayer
 70
     0
  3

 72
    65
 73
     0
 40
0.0
  0
LTYPE
  5
16
330
5
100
AcDbSymbolTableRecord
100
AcDbLinetypeTableRecord
  2
Continuous
 70
     0
  3
Solid line
 72
    65
 73
     0
 40
0.0
  0
LTYPE
  5
6E
330
5
100
AcDbSymbolTableRecord
100
AcDbLinetypeTableRecord
  2
HIDDEN
 70
     0
  3
Hidden __ __ __ __ __ __ __ __ __ __ __ __ __ __
 72
    65
 73
     2
 40
1.905
 49
1.27
 74
     0
 49
-0.635
 74
     0
  0
LTYPE
  5
6F
330
5
100
AcDbSymbolTableRecord
100
AcDbLinetypeTableRecord
  2
PHANTOM
 70
     0
  3
Phantom ______  __  __  ______  __  __  ______
 72
    65
 73
     6
 40
12.7
 49
6.35
 74
     0
 49
-1.27
 74
     0
 49
1.27
 74
     0
 49
-1.27
 74
     0
 49
1.27
 74
     0
 49
-1.27
 74
     0
  0
LTYPE
  5
70
330
5
100
AcDbSymbolTableRecord
100
AcDbLinetypeTableRecord
  2
CENTER
 70
     0
  3
Center ____ _ ____ _ ____ _ ____ _ ____ _ ____
 72
    65
 73
     4
 40
10.16
 49
6.35
 74
     0
 49
-1.27
 74
     0
 49
1.27
 74
     0
 49
-1.27
 74
     0
  0
LTYPE
  5
71
330
5
100
AcDbSymbolTableRecord
100
AcDbLinetypeTableRecord
  2
CENTERX2
 70
     0
  3
Center (2x) ________  __  ________  __  _____
 72
    65
 73
     4
 40
20.32
 49
12.7
 74
     0
 49
-2.54
 74
     0
 49
2.54
 74
     0
 49
-2.54
 74
     0
  0
LTYPE
  5
72
330
5
100
AcDbSymbolTableRecord
100
AcDbLinetypeTableRecord
  2
DOT2
 70
     0
  3
Dot (.5x) ........................................
 72
    65
 73
     2
 40
0.635
 49
0.0
 74
     0
 49
-0.635
 74
     0
  0
ENDTAB
  0
TABLE
  2
LAYER
  5
2
330
0
100
AcDbSymbolTable
 70
    17
  0
LAYER
  5
10
330
2
100
AcDbSymbolTableRecord
100
AcDbLayerTableRecord
  2
0
 70
     0
 62
     7
  6
Continuous
370
    -3
390
F
  0
LAYER
  5
73
330
2
100
AcDbSymbolTableRecord
100
AcDbLayerTableRecord
  2
FORMAT
 70
     0
 62
     2
  6
Continuous
370
    -3
390
F
  0
LAYER
  5
74
330
2
100
AcDbSymbolTableRecord
100
AcDbLayerTableRecord
  2
외형선
 70
     0
 62
   100
  6
Continuous
370
    35
390
F
  0
LAYER
  5
75
330
2
100
AcDbSymbolTableRecord
100
AcDbLayerTableRecord
  2
숨은선
 70
     0
 62
     2
  6
HIDDEN
370
    25
390
F
  0
LAYER
  5
76
330
2
100
AcDbSymbolTableRecord
100
AcDbLayerTableRecord
  2
중심선
 70
     0
 62
     1
  6
CENTERX2
370
    -3
390
F
  0
LAYER
  5
77
330
2
100
AcDbSymbolTableRecord
100
AcDbLayerTableRecord
  2
파단선
 70
     0
 62
     4
  6
Continuous
370
    -3
390
F
  0
LAYER
  5
78
330
2
100
AcDbSymbolTableRecord
100
AcDbLayerTableRecord
  2
해칭선
 70
     0
 62
     4
  6
Continuous
370
    -3
390
F
  0
LAYER
  5
79
330
2
100
AcDbSymbolTableRecord
100
AcDbLayerTableRecord
  2
가는실선
 70
     0
 62
     4
  6
Continuous
370
    -3
390
F
  0
LAYER
  5
7A
330
2
100
AcDbSymbolTableRecord
100
AcDbLayerTableRecord
  2
치수_보조선
 70
     0
 62
     4
  6
Continuous
370
    -3
390
F
  0
LAYER
  5
7B
330
2
100
AcDbSymbolTableRecord
100
AcDbLayerTableRecord
  2
치수문자_일반주서
 70
     0
 62
     7
  6
Continuous
370
    25
390
F
  0
LAYER
  5
7C
330
2
100
AcDbSymbolTableRecord
100
AcDbLayerTableRecord
  2
개별주서
 70
     0
 62
   100
  6
Continuous
370
    35
390
F
  0
LAYER
  5
7D
330
2
100
AcDbSymbolTableRecord
100
AcDbLayerTableRecord
  2
중간선
 70
     0
 62
     2
  6
Continuous
370
    25
390
F
  0
LAYER
  5
7E
330
2
100
AcDbSymbolTableRecord
100
AcDbLayerTableRecord
  2
윤곽선
 70
     0
 62
     3
  6
Continuous
370
    50
390
F
  0
LAYER
  5
7F
330
2
100
AcDbSymbolTableRecord
100
AcDbLayerTableRecord
  2
중심마크
 70
     0
 62
   100
  6
Continuous
370
    35
390
F
  0
LAYER
  5
80
330
2
100
AcDbSymbolTableRecord
100
AcDbLayerTableRecord
  2
가상선
 70
     0
 62
     4
  6
PHANTOM
370
    -3
390
F
  0
LAYER
  5
81
330
2
100
AcDbSymbolTableRecord
100
AcDbLayerTableRecord
  2
특수지정선
 70
     0
 62
     5
  6
CENTERX2
370
    70
390
F
  0
LAYER
  5
13D
330
2
100
AcDbSymbolTableRecord
100
AcDbLayerTableRecord
  2
Defpoints
 70
     0
 62
     7
  6
Continuous
290
     0
370
    -3
390
F
  0
ENDTAB
  0
TABLE
  2
STYLE
  5
3
330
0
100
AcDbSymbolTable
 70
     2
  0
STYLE
  5
11
330
3
100
AcDbSymbolTableRecord
100
AcDbTextStyleTableRecord
  2
Standard
 70
     0
 40
0.0
 41
1.0
 50
0.0
 71
     0
 42
3.5
  3
txt
  4

  0
STYLE
  5
97
330
3
100
AcDbSymbolTableRecord
100
AcDbTextStyleTableRecord
  2
SLDTEXTSTYLE0
 70
     0
 40
0.0
 41
0.75
 50
0.0
 71
     0
 42
3.5
  3
TXT
  4

  0
ENDTAB
  0
TABLE
  2
VIEW
  5
6
330
0
100
AcDbSymbolTable
 70
     0
  0
ENDTAB
  0
TABLE
  2
UCS
  5
7
330
0
100
AcDbSymbolTable
 70
     0
  0
ENDTAB
  0
TABLE
  2
APPID
  5
9
330
0
100
AcDbSymbolTable
 70
     2
  0
APPID
  5
12
330
9
100
AcDbSymbolTableRecord
100
AcDbRegAppTableRecord
  2
ACAD
 70
     0
  0
APPID
  5
14F
330
9
100
AcDbSymbolTableRecord
100
AcDbRegAppTableRecord
  2
ACAD_DSTYLE_DIMRADIAL_EXTENSION
 70
     0
  0
ENDTAB
  0
TABLE
  2
DIMSTYLE
  5
A
330
0
100
AcDbSymbolTable
 70
     3
100
AcDbDimStyleTable
  0
DIMSTYLE
105
27
330
A
100
AcDbSymbolTableRecord
100
AcDbDimStyleTableRecord
  2
ISO-25
 70
     0
 41
2.5
 42
0.625
 43
3.75
 44
1.25
 73
     0
 74
     0
 77
     1
 78
     8
140
2.5
141
2.5
143
0.03937007874016
147
0.625
171
     3
172
     1
178
     0
271
     2
272
     2
274
     3
278
    44
283
     0
284
     8
340
11
  0
DIMSTYLE
105
D5
102
{ACAD_REACTORS
330
D4
330
E2
330
F9
330
105
330
150
102
}
330
A
100
AcDbSymbolTableRecord
100
AcDbDimStyleTableRecord
  2
SLDDIMSTYLE0
 70
     0
 41
3.302
 44
0.0
 45
0.000000001
 73
     0
 74
     0
 77
     1
 78
    12
 79
     3
140
3.5
147
0.875
172
     1
173
     1
178
     0
271
     2
272
     2
276
     2
284
    12
289
     0
340
97
  0
DIMSTYLE
105
EF
102
{ACAD_REACTORS
330
EE
102
}
330
A
100
AcDbSymbolTableRecord
100
AcDbDimStyleTableRecord
  2
SLDDIMSTYLE1
 70
     0
 41
3.302
 44
0.0
 45
0.000000001
 73
     0
 74
     0
 77
     1
 78
    12
 79
     3
140
3.5
147
0.875
173
     1
178
     0
271
     2
272
     2
276
     2
284
    12
340
97
  0
ENDTAB
  0
TABLE
  2
BLOCK_RECORD
  5
1
330
0
100
AcDbSymbolTable
 70
     9
  0
BLOCK_RECORD
  5
1F
330
1
100
AcDbSymbolTableRecord
100
AcDbBlockTableRecord
  2
*Model_Space
340
22
  0
BLOCK_RECORD
  5
1B
330
1
100
AcDbSymbolTableRecord
100
AcDbBlockTableRecord
  2
*Paper_Space
340
1E
  0
BLOCK_RECORD
  5
23
330
1
100
AcDbSymbolTableRecord
100
AcDbBlockTableRecord
  2
*Paper_Space0
340
26
  0
BLOCK_RECORD
  5
82
330
1
100
AcDbSymbolTableRecord
100
AcDbBlockTableRecord
  2
블럭10
340
0
102
{BLKREFS
331
CD
102
}
  0
BLOCK_RECORD
  5
D6
330
1
100
AcDbSymbolTableRecord
100
AcDbBlockTableRecord
  2
_D
340
0
  0
BLOCK_RECORD
  5
E3
330
1
100
AcDbSymbolTableRecord
100
AcDbBlockTableRecord
  2
_D_1
340
0
  0
BLOCK_RECORD
  5
F0
330
1
100
AcDbSymbolTableRecord
100
AcDbBlockTableRecord
  2
_D_2
340
0
  0
BLOCK_RECORD
  5
FA
330
1
100
AcDbSymbolTableRecord
100
AcDbBlockTableRecord
  2
_D_3
340
0
  0
BLOCK_RECORD
  5
106
330
1
100
AcDbSymbolTableRecord
100
AcDbBlockTableRecord
  2
_D_4
340
0
  0
BLOCK_RECORD
  5
112
330
1
100
AcDbSymbolTableRecord
100
AcDbBlockTableRecord
  2
SW_DOWELSYMBOL_0
340
0
102
{BLKREFS
331
118
102
}
  0
BLOCK_RECORD
  5
153
330
1
100
AcDbSymbolTableRecord
100
AcDbBlockTableRecord
  2
*D8
340
0
  0
ENDTAB
  0
ENDSEC
  0
SECTION
  2
BLOCKS
  0
BLOCK
  5
20
330
1F
100
AcDbEntity
  8
0
100
AcDbBlockBegin
  2
*Model_Space
 70
     0
 10
0.0
 20
0.0
 30
0.0
  3
*Model_Space
  1
*Model_Space
  0
ENDBLK
  5
21
330
1F
100
AcDbEntity
  8
0
100
AcDbBlockEnd
  0
BLOCK
  5
1C
330
1B
100
AcDbEntity
 67
     1
  8
0
100
AcDbBlockBegin
  2
*Paper_Space
 70
     0
 10
0.0
 20
0.0
 30
0.0
  3
*Paper_Space
  1
*Paper_Space
  0
ENDBLK
  5
1D
330
1B
100
AcDbEntity
 67
     1
  8
0
100
AcDbBlockEnd
  0
BLOCK
  5
24
330
23
100
AcDbEntity
  8
0
100
AcDbBlockBegin
  2
*Paper_Space0
 70
     0
 10
0.0
 20
0.0
 30
0.0
  3
*Paper_Space0
  1
*Paper_Space0
  0
ENDBLK
  5
25
330
23
100
AcDbEntity
  8
0
100
AcDbBlockEnd
  0
BLOCK
  5
83
330
82
100
AcDbEntity
  8
0
100
AcDbBlockBegin
  2
블럭10
 70
     2
 10
0.0
 20
0.0
 30
0.0
  3
블럭10
  1
블럭10
  0
ELLIPSE
  5
85
330
82
100
AcDbEntity
  8
중심선
100
AcDbEllipse
 10
20.54032771741204
 20
12.0471743016438
 30
0.0
 11
6.600054785286829
 21
-1.261213355974178E-13
 31
0.0
210
0.0
220
0.0
230
1.0
 40
0.636358354079598
 41
0.9219305317359503
 42
6.513795318482858
  0
ELLIPSE
  5
86
330
82
100
AcDbEntity
  8
중심선
100
AcDbEllipse
 10
20.54032771746488
 20
12.04717430159265
 30
0.0
 11
3.960054785062283
 21
1.540847449632565E-10
 31
0.0
210
0.0
220
0.0
230
1.0
 40
0.3939339440162632
 41
1.131841032648279
 42
5.62031148352944
  0
LINE
  5
87
330
82
100
AcDbEntity
  8
중심선
100
AcDbLine
 10
2.268634060543552
 20
16.24717430164393
 30
0.0
 11
5.714909304380834
 21
16.24717430164393
 31
0.0
  0
LINE
  5
88
330
82
100
AcDbEntity
  8
중심선
100
AcDbLine
 10
5.245725140726316
 20
7.84717430164391
 30
0.0
 11
8.692000384563599
 21
7.84717430164391
 31
0.0
  0
LINE
  5
89
330
82
100
AcDbEntity
  8
중심선
100
AcDbLine
 10
15.74043728645272
 20
16.24717430164393
 30
0.0
 11
8.692000384563599
 21
7.84717430164391
 31
0.0
  0
LINE
  5
8A
330
82
100
AcDbEntity
  8
중심선
100
AcDbLine
 10
0.1404042013395286
 20
13.71084872107135
 30
0.0
 11
3.58671253028996
 21
13.71088815037384
 31
0.0
  0
LINE
  5
8B
330
82
100
AcDbEntity
  8
중심선
100
AcDbLine
 10
2.750260043222114
 20
10.84717430164391
 30
0.0
 11
6.196535287059397
 21
10.84717430164391
 31
0.0
  0
LINE
  5
8C
330
82
100
AcDbEntity
  8
중심선
100
AcDbLine
 10
12.29416204261559
 20
16.24717430164393
 30
0.0
 11
5.245725140726316
 21
7.84717430164391
 31
0.0
  0
LINE
  5
8D
330
82
100
AcDbEntity
  8
중심선
100
AcDbLine
 10
10.72767329541681
 20
16.24717430164393
 30
0.0
 11
6.196535287059397
 21
10.84717430164391
 31
0.0
  0
LINE
  5
8E
330
82
100
AcDbEntity
  8
중심선
100
AcDbLine
 10
7.28139805157953
 20
16.24717430164393
 30
0.0
 11
2.750260043222114
 21
10.84717430164391
 31
0.0
  0
LINE
  5
8F
330
82
100
AcDbEntity
  8
중심선
100
AcDbLine
 10
5.714909304380834
 20
16.24717430164393
 30
0.0
 11
3.58671253028996
 21
13.71088815037384
 31
0.0
  0
LINE
  5
90
330
82
100
AcDbEntity
  8
중심선
100
AcDbLine
 10
2.268634060543552
 20
16.24717430164393
 30
0.0
 11
0.1404042013395286
 21
13.71084872107135
 31
0.0
  0
LINE
  5
91
330
82
100
AcDbEntity
  8
중심선
100
AcDbLine
 10
7.28139805157953
 20
16.24717430164393
 30
0.0
 11
10.72767329541681
 21
16.24717430164393
 31
0.0
  0
LINE
  5
92
330
82
100
AcDbEntity
  8
중심선
100
AcDbLine
 10
12.29416204261559
 20
16.24717430164393
 30
0.0
 11
15.74043728645272
 21
16.24717430164393
 31
0.0
  0
LINE
  5
93
330
82
100
AcDbEntity
  8
중심선
100
AcDbLine
 10
19.22036997980202
 20
11.08717430171403
 30
0.0
 11
23.66174974927406
 21
11.08717430171406
 31
0.0
  0
LINE
  5
94
330
82
100
AcDbEntity
  8
중심선
100
AcDbLine
 10
19.22039502424796
 20
13.00717430171391
 30
0.0
 11
19.22036997980202
 21
11.08717430171403
 31
0.0
  0
LINE
  5
95
330
82
100
AcDbEntity
  8
중심선
100
AcDbLine
 10
19.22039502424796
 20
13.00717430171391
 30
0.0
 11
26.96566020931264
 21
13.00717430171391
 31
0.0
  0
LINE
  5
96
330
82
100
AcDbEntity
  8
중심선
100
AcDbLine
 10
22.22332737316547
 20
13.45928029700563
 30
0.0
 11
24.52862924686651
 21
15.39360700705356
 31
0.0
  0
ATTDEF
  5
98
330
82
100
AcDbEntity
  8
FORMAT
 62
     2
100
AcDbText
 10
-19.27858288401334
 20
2.075366912832191
 30
0.0
 40
4.233333333333333
  1
SEME610400150E [ 2 FLUTE ]
 41
0.75
  7
SLDTEXTSTYLE0
 11
-19.27858288401334
 21
-0.0412997538344756
 31
0.0
100
AcDbAttributeDefinition
  3

  2
AUTOATTR0
 70
     0
 74
     1
  0
ENDBLK
  5
84
330
82
100
AcDbEntity
  8
0
100
AcDbBlockEnd
  0
BLOCK
  5
D7
330
D6
100
AcDbEntity
  8
0
100
AcDbBlockBegin
  2
_D
 70
     0
 10
0.0
 20
0.0
 30
0.0
  3
_D
  1
_D
  0
LINE
  5
D9
330
D6
100
AcDbEntity
  8
치수문자_일반주서
 62
     0
370
    -2
100
AcDbLine
 10
-43.05054538186347
 20
2.999999999999994
 30
0.0
 11
-55.48450340347555
 21
2.999999999999947
 31
0.0
  0
LINE
  5
DA
330
D6
100
AcDbEntity
  8
치수문자_일반주서
 62
     0
370
    -2
100
AcDbLine
 10
-43.05054538186347
 20
-3.0
 30
0.0
 11
-55.48450340347553
 21
-3.000000000000047
 31
0.0
  0
LINE
  5
DB
330
D6
100
AcDbEntity
  8
치수문자_일반주서
 62
     0
370
    -2
100
AcDbLine
 10
-55.48450340347554
 20
-0.3020000000000524
 30
0.0
 11
-55.48450340347554
 21
0.3019999999999525
 31
0.0
  0
SOLID
  5
DC
330
D6
100
AcDbEntity
  8
치수문자_일반주서
 62
     0
100
AcDbTrace
 10
-54.9341700701422
 20
-0.3020000000000505
 30
0.0
 11
-56.03483673680887
 21
-0.3020000000000544
 31
0.0
 12
-55.48450340347555
 22
2.999999999999947
 32
0.0
 13
-55.48450340347555
 23
2.999999999999947
 33
0.0
  0
SOLID
  5
DD
330
D6
100
AcDbEntity
  8
치수문자_일반주서
 62
     0
100
AcDbTrace
 10
-56.03483673680888
 20
0.3019999999999506
 30
0.0
 11
-54.93417007014221
 21
0.3019999999999545
 31
0.0
 12
-55.48450340347553
 22
-3.000000000000047
 32
0.0
 13
-55.48450340347553
 23
-3.000000000000047
 33
0.0
  0
MTEXT
  5
DE
330
D6
100
AcDbEntity
  8
치수문자_일반주서
 62
     0
100
AcDbMText
 10
-59.85950340347554
 20
-0.0000000000000183
 30
0.0
 40
3.5
 41
0.0
 71
     2
 72
     1
  1
\A1;%%c6
  7
SLDTEXTSTYLE0
 11
-3.552713678800505E-15
 21
1.0
 31
0.0
 73
     1
 44
1.0
  0
POINT
  5
DF
330
D6
100
AcDbEntity
  8
Defpoints
 62
     0
100
AcDbPoint
 10
-42.98804538186347
 20
2.999999999999994
 30
0.0
  0
POINT
  5
E0
330
D6
100
AcDbEntity
  8
Defpoints
 62
     0
100
AcDbPoint
 10
-42.98804538186347
 20
-3.0
 30
0.0
  0
POINT
  5
E1
330
D6
100
AcDbEntity
  8
Defpoints
 62
     0
100
AcDbPoint
 10
-55.48450340347554
 20
-3.000000000000047
 30
0.0
  0
ENDBLK
  5
D8
330
D6
100
AcDbEntity
  8
0
100
AcDbBlockEnd
  0
BLOCK
  5
E4
330
E3
100
AcDbEntity
  8
0
100
AcDbBlockBegin
  2
_D_1
 70
     0
 10
0.0
 20
0.0
 30
0.0
  3
_D_1
  1
_D_1
  0
LINE
  5
E6
330
E3
100
AcDbEntity
  8
치수문자_일반주서
 62
     0
370
    -2
100
AcDbLine
 10
56.01195461813654
 20
1.962500000000002
 30
0.0
 11
56.01195461813654
 21
20.39999999999966
 31
0.0
  0
LINE
  5
E7
330
E3
100
AcDbEntity
  8
치수문자_일반주서
 62
     0
370
    -2
100
AcDbLine
 10
50.01195461813653
 20
1.644014153956217
 30
0.0
 11
50.01195461813653
 21
20.39999999999966
 31
0.0
  0
LINE
  5
E8
330
E3
100
AcDbEntity
  8
치수문자_일반주서
 62
     0
370
    -2
100
AcDbLine
 10
52.70995461813654
 20
20.39999999999966
 30
0.0
 11
53.31395461813653
 21
20.39999999999966
 31
0.0
  0
SOLID
  5
E9
330
E3
100
AcDbEntity
  8
치수문자_일반주서
 62
     0
100
AcDbTrace
 10
52.70995461813654
 20
19.84966666666632
 30
0.0
 11
52.70995461813654
 21
20.95033333333299
 31
0.0
 12
56.01195461813654
 22
20.39999999999966
 32
0.0
 13
56.01195461813654
 23
20.39999999999966
 33
0.0
  0
SOLID
  5
EA
330
E3
100
AcDbEntity
  8
치수문자_일반주서
 62
     0
100
AcDbTrace
 10
53.31395461813653
 20
20.95033333333299
 30
0.0
 11
53.31395461813653
 21
19.84966666666632
 31
0.0
 12
50.01195461813653
 22
20.39999999999966
 32
0.0
 13
50.01195461813653
 23
20.39999999999966
 33
0.0
  0
MTEXT
  5
EB
330
E3
100
AcDbEntity
  8
치수문자_일반주서
 62
     0
100
AcDbMText
 10
53.01195461813654
 20
24.77499999999966
 30
0.0
 40
3.5
 41
0.0
 71
     2
 72
     1
  1
\A1;6
  7
SLDTEXTSTYLE0
 73
     1
 44
1.0
  0
POINT
  5
EC
330
E3
100
AcDbEntity
  8
Defpoints
 62
     0
100
AcDbPoint
 10
56.01195461813654
 20
1.900000000000002
 30
0.0
  0
POINT
  5
ED
330
E3
100
AcDbEntity
  8
Defpoints
 62
     0
100
AcDbPoint
 10
50.01195461813653
 20
1.581514153956217
 30
0.0
  0
POINT
  5
145
330
E3
100
AcDbEntity
  8
Defpoints
 62
     0
100
AcDbPoint
 10
50.01195461813653
 20
20.39999999999966
 30
0.0
  0
ENDBLK
  5
E5
330
E3
100
AcDbEntity
  8
0
100
AcDbBlockEnd
  0
BLOCK
  5
F1
330
F0
100
AcDbEntity
  8
0
100
AcDbBlockBegin
  2
_D_2
 70
     0
 10
0.0
 20
0.0
 30
0.0
  3
_D_2
  1
_D_2
  0
LINE
  5
F3
330
F0
100
AcDbEntity
  8
치수문자_일반주서
 62
     0
370
    -2
100
AcDbLine
 10
56.01195461813654
 20
1.962500000000002
 30
0.0
 11
56.01195461813653
 21
42.45832450504429
 31
0.0
  0
LINE
  5
F4
330
F0
100
AcDbEntity
  8
치수문자_일반주서
 62
     0
370
    -2
100
AcDbLine
 10
-43.98804538186347
 20
2.062499999999994
 30
0.0
 11
-43.98804538186347
 21
42.45832450504429
 31
0.0
  0
LINE
  5
F5
330
F0
100
AcDbEntity
  8
치수문자_일반주서
 62
     0
370
    -2
100
AcDbLine
 10
52.70995461813653
 20
42.45832450504429
 30
0.0
 11
-40.68604538186347
 21
42.45832450504429
 31
0.0
  0
SOLID
  5
F6
330
F0
100
AcDbEntity
  8
치수문자_일반주서
 62
     0
100
AcDbTrace
 10
52.70995461813653
 20
41.90799117171095
 30
0.0
 11
52.70995461813653
 21
43.00865783837762
 31
0.0
 12
56.01195461813653
 22
42.45832450504429
 32
0.0
 13
56.01195461813653
 23
42.45832450504429
 33
0.0
  0
SOLID
  5
F7
330
F0
100
AcDbEntity
  8
치수문자_일반주서
 62
     0
100
AcDbTrace
 10
-40.68604538186347
 20
43.00865783837762
 30
0.0
 11
-40.68604538186347
 21
41.90799117171095
 31
0.0
 12
-43.98804538186347
 22
42.45832450504429
 32
0.0
 13
-43.98804538186347
 23
42.45832450504429
 33
0.0
  0
MTEXT
  5
F8
330
F0
100
AcDbEntity
  8
치수문자_일반주서
 62
     0
100
AcDbMText
 10
6.011954618136532
 20
46.83332450504429
 30
0.0
 40
3.5
 41
0.0
 71
     2
 72
     1
  1
\A1;100
  7
SLDTEXTSTYLE0
 73
     1
 44
1.0
  0
POINT
  5
147
330
F0
100
AcDbEntity
  8
Defpoints
 62
     0
100
AcDbPoint
 10
56.01195461813654
 20
1.900000000000002
 30
0.0
  0
POINT
  5
148
330
F0
100
AcDbEntity
  8
Defpoints
 62
     0
100
AcDbPoint
 10
-43.98804538186347
 20
1.999999999999994
 30
0.0
  0
POINT
  5
149
330
F0
100
AcDbEntity
  8
Defpoints
 62
     0
100
AcDbPoint
 10
-43.98804538186347
 20
42.45832450504429
 30
0.0
  0
ENDBLK
  5
F2
330
F0
100
AcDbEntity
  8
0
100
AcDbBlockEnd
  0
BLOCK
  5
FB
330
FA
100
AcDbEntity
  8
0
100
AcDbBlockBegin
  2
_D_3
 70
     0
 10
0.0
 20
0.0
 30
0.0
  3
_D_3
  1
_D_3
  0
LINE
  5
FD
330
FA
100
AcDbEntity
  8
치수문자_일반주서
 62
     0
370
    -2
100
AcDbLine
 10
56.01195461813654
 20
1.95980081064
 30
0.0
 11
56.01195461813654
 21
30.31999999999866
 31
0.0
  0
LINE
  5
FE
330
FA
100
AcDbEntity
  8
치수문자_일반주서
 62
     0
370
    -2
100
AcDbLine
 10
6.011954618136533
 20
1.9875
 30
0.0
 11
6.011954618136535
 21
30.31999999999866
 31
0.0
  0
LINE
  5
FF
330
FA
100
AcDbEntity
  8
치수문자_일반주서
 62
     0
370
    -2
100
AcDbLine
 10
52.70995461813654
 20
30.31999999999866
 30
0.0
 11
9.313954618136535
 21
30.31999999999866
 31
0.0
  0
SOLID
  5
100
330
FA
100
AcDbEntity
  8
치수문자_일반주서
 62
     0
100
AcDbTrace
 10
52.70995461813654
 20
29.76966666666532
 30
0.0
 11
52.70995461813654
 21
30.87033333333199
 31
0.0
 12
56.01195461813654
 22
30.31999999999866
 32
0.0
 13
56.01195461813654
 23
30.31999999999866
 33
0.0
  0
SOLID
  5
101
330
FA
100
AcDbEntity
  8
치수문자_일반주서
 62
     0
100
AcDbTrace
 10
9.313954618136535
 20
30.87033333333199
 30
0.0
 11
9.313954618136535
 21
29.76966666666532
 31
0.0
 12
6.011954618136535
 22
30.31999999999866
 32
0.0
 13
6.011954618136535
 23
30.31999999999866
 33
0.0
  0
MTEXT
  5
102
330
FA
100
AcDbEntity
  8
치수문자_일반주서
 62
     0
100
AcDbMText
 10
31.01195461813654
 20
34.69499999999866
 30
0.0
 40
3.5
 41
0.0
 71
     2
 72
     1
  1
\A1;50
  7
SLDTEXTSTYLE0
 73
     1
 44
1.0
  0
POINT
  5
103
330
FA
100
AcDbEntity
  8
Defpoints
 62
     0
100
AcDbPoint
 10
56.01195461813654
 20
1.89730081064
 30
0.0
  0
POINT
  5
104
330
FA
100
AcDbEntity
  8
Defpoints
 62
     0
100
AcDbPoint
 10
6.011954618136533
 20
1.925
 30
0.0
  0
POINT
  5
141
330
FA
100
AcDbEntity
  8
Defpoints
 62
     0
100
AcDbPoint
 10
6.011954618136533
 20
30.31999999999866
 30
0.0
  0
ENDBLK
  5
FC
330
FA
100
AcDbEntity
  8
0
100
AcDbBlockEnd
  0
BLOCK
  5
107
330
106
100
AcDbEntity
  8
0
100
AcDbBlockBegin
  2
_D_4
 70
     0
 10
0.0
 20
0.0
 30
0.0
  3
_D_4
  1
_D_4
  0
LINE
  5
109
330
106
100
AcDbEntity
  8
치수문자_일반주서
 62
     0
370
    -2
100
AcDbLine
 10
56.07445461813654
 20
2.003282536552213
 30
0.0
 11
70.0389349218648
 21
2.003282536552264
 31
0.0
  0
LINE
  5
10A
330
106
100
AcDbEntity
  8
치수문자_일반주서
 62
     0
370
    -2
100
AcDbLine
 10
55.97445461813652
 20
-1.995079370482128
 30
0.0
 11
70.03893492186481
 21
-1.995079370482076
 31
0.0
  0
LINE
  5
10B
330
106
100
AcDbEntity
  8
치수문자_일반주서
 62
     0
370
    -2
100
AcDbLine
 10
70.0389349218648
 20
2.003282536552264
 30
0.0
 11
70.03893492186475
 21
14.73228253655226
 31
0.0
  0
LINE
  5
10C
330
106
100
AcDbEntity
  8
치수문자_일반주서
 62
     0
370
    -2
100
AcDbLine
 10
70.0389349218648
 20
2.003282536552264
 30
0.0
 11
70.03893492186481
 21
-1.995079370482076
 31
0.0
  0
LINE
  5
10D
330
106
100
AcDbEntity
  8
치수문자_일반주서
 62
     0
370
    -2
100
AcDbLine
 10
70.03893492186478
 20
5.305282536552264
 30
0.0
 11
70.03893492186477
 21
8.607282536552264
 31
0.0
  0
LINE
  5
10E
330
106
100
AcDbEntity
  8
치수문자_일반주서
 62
     0
370
    -2
100
AcDbLine
 10
70.03893492186482
 20
-5.297079370482075
 30
0.0
 11
70.03893492186484
 21
-8.599079370482075
 31
0.0
  0
SOLID
  5
10F
330
106
100
AcDbEntity
  8
치수문자_일반주서
 62
     0
100
AcDbTrace
 10
69.48860158853145
 20
5.305282536552262
 30
0.0
 11
70.5892682551981
 21
5.305282536552266
 31
0.0
 12
70.0389349218648
 22
2.003282536552264
 32
0.0
 13
70.0389349218648
 23
2.003282536552264
 33
0.0
  0
SOLID
  5
110
330
106
100
AcDbEntity
  8
치수문자_일반주서
 62
     0
100
AcDbTrace
 10
70.58926825519815
 20
-5.297079370482074
 30
0.0
 11
69.4886015885315
 21
-5.297079370482077
 31
0.0
 12
70.03893492186481
 22
-1.995079370482076
 32
0.0
 13
70.03893492186481
 23
-1.995079370482076
 33
0.0
  0
MTEXT
  5
111
330
106
100
AcDbEntity
  8
치수문자_일반주서
 62
     0
100
AcDbMText
 10
65.66393492186477
 20
11.66978253655225
 30
0.0
 40
3.5
 41
0.0
 71
     2
 72
     1
  1
\A1;%%c4
  7
SLDTEXTSTYLE0
 11
-3.554169193689237E-15
 21
1.0
 31
0.0
 73
     1
 44
1.0
  0
POINT
  5
13E
330
106
100
AcDbEntity
  8
Defpoints
 62
     0
100
AcDbPoint
 10
56.01195461813654
 20
2.003282536552213
 30
0.0
  0
POINT
  5
13F
330
106
100
AcDbEntity
  8
Defpoints
 62
     0
100
AcDbPoint
 10
55.91195461813652
 20
-1.995079370482129
 30
0.0
  0
POINT
  5
140
330
106
100
AcDbEntity
  8
Defpoints
 62
     0
100
AcDbPoint
 10
70.03893492186481
 20
-1.995079370482076
 30
0.0
  0
ENDBLK
  5
108
330
106
100
AcDbEntity
  8
0
100
AcDbBlockEnd
  0
BLOCK
  5
113
330
112
100
AcDbEntity
  8
0
100
AcDbBlockBegin
  2
SW_DOWELSYMBOL_0
 70
     0
 10
0.0
 20
0.0
 30
0.0
  3
SW_DOWELSYMBOL_0
  1
SW_DOWELSYMBOL_0
  0
CIRCLE
  5
115
330
112
100
AcDbEntity
  8
외형선
 62
     0
100
AcDbCircle
 10
0.0
 20
0.0
 30
0.0
 40
3.000000000000004
  0
HATCH
  5
116
330
112
100
AcDbEntity
  8
0
  6
Continuous
 62
     0
370
    35
100
AcDbHatch
 10
0.0
 20
0.0
 30
0.0
210
0.0
220
0.0
230
1.0
  2
SOLID
 70
     1
 71
     0
 91
        1
 92
        0
 93
        3
 72
     2
 10
0.0000000000000104
 20
0.0
 40
3.000000000000004
 50
0.0
 51
90.0
 73
     1
 72
     1
 10
0.0000000000000104
 20
3.000000000000004
 11
0.0000000000000104
 21
0.0
 72
     1
 10
0.0000000000000104
 20
0.0
 11
3.000000000000015
 21
0.0
 97
        0
 75
     0
 76
     1
 98
        1
 10
0.0
 20
0.0
  0
HATCH
  5
117
330
112
100
AcDbEntity
  8
0
  6
Continuous
 62
     0
370
    35
100
AcDbHatch
 10
0.0
 20
0.0
 30
0.0
210
0.0
220
0.0
230
1.0
  2
SOLID
 70
     1
 71
     0
 91
        1
 92
        0
 93
        3
 72
     2
 10
0.0000000000000104
 20
0.0
 40
3.000000000000004
 50
180.0
 51
270.0000000000008
 73
     1
 72
     1
 10
0.0000000000000104
 20
-3.000000000000004
 11
0.0000000000000104
 21
0.0
 72
     1
 10
0.0000000000000104
 20
0.0
 11
-2.999999999999994
 21
0.0
 97
        0
 75
     0
 76
     1
 98
        1
 10
0.0
 20
0.0
  0
ENDBLK
  5
114
330
112
100
AcDbEntity
  8
0
100
AcDbBlockEnd
  0
BLOCK
  5
154
330
153
100
AcDbEntity
  8
0
100
AcDbBlockBegin
  2
*D8
 70
     1
 10
0.0
 20
0.0
 30
0.0
  3
*D8
  1
*D8
  0
LINE
  5
156
330
153
100
AcDbEntity
  8
치수문자_일반주서
 62
     0
370
    -2
100
AcDbLine
 10
56.89675196062539
 20
-5.151422481699986
 30
0.0
 11
61.32995912912354
 21
-19.81032565597887
 31
0.0
  0
MTEXT
  5
157
330
153
100
AcDbEntity
  8
치수문자_일반주서
 62
     0
100
AcDbMText
 10
62.6394358576351
 20
-15.07214987198914
 30
0.0
 40
3.5
 41
0.0
 71
     5
 72
     1
  1
\A1;R0.1
  7
SLDTEXTSTYLE0
 11
0.2894759972042493
 21
-0.9571852731016107
 31
0.0
 73
     1
 44
1.0
  0
LINE
  5
158
330
153
100
AcDbEntity
  8
치수문자_일반주서
 62
     0
370
    -2
100
AcDbLine
 10
55.91195461813653
 20
-1.895078182608307
 30
0.0
 11
55.94090221785696
 21
-1.990796709918468
 31
0.0
  0
SOLID
  5
159
330
153
100
AcDbEntity
  8
치수문자_일반주서
 62
     0
100
AcDbTrace
 10
57.42352292258897
 20
-4.99211419123858
 30
0.0
 11
56.3699809986618
 21
-5.310730772161391
 31
0.0
 12
55.94090221785696
 22
-1.990796709918468
 32
0.0
 13
55.94090221785696
 23
-1.990796709918468
 33
0.0
  0
POINT
  5
15A
330
153
100
AcDbEntity
  8
Defpoints
 62
     0
100
AcDbPoint
 10
55.94090221785696
 20
-1.990796709918468
 30
0.0
  0
POINT
  5
15B
330
153
100
AcDbEntity
  8
Defpoints
 62
     0
100
AcDbPoint
 10
55.91195461813653
 20
-1.895078182608307
 30
0.0
  0
ENDBLK
  5
155
330
153
100
AcDbEntity
  8
0
100
AcDbBlockEnd
  0
ENDSEC
  0
SECTION
  2
ENTITIES
  0
LINE
  5
99
330
1F
100
AcDbEntity
  8
0
  6
Continuous
 62
     4
370
    25
100
AcDbLine
 10
2.0
 20
2.999999999999998
 30
0.0
 11
-42.98804538186347
 21
2.999999999999996
 31
0.0
  0
LINE
  5
9A
330
1F
100
AcDbEntity
  8
0
  6
Continuous
 62
     4
370
    25
100
AcDbLine
 10
-42.98804538186347
 20
-3.000000000000001
 30
0.0
 11
2.0
 21
-2.999999999999999
 31
0.0
  0
LINE
  5
9B
330
1F
100
AcDbEntity
  8
0
  6
Continuous
 62
     4
370
    25
100
AcDbLine
 10
2.0
 20
-3.0
 30
0.0
 11
6.011954618136533
 21
-1.925
 31
0.0
  0
LINE
  5
9C
330
1F
100
AcDbEntity
  8
0
  6
Continuous
 62
     4
370
    25
100
AcDbLine
 10
6.011954618136533
 20
1.925
 30
0.0
 11
2.0
 21
3.0
 31
0.0
  0
LINE
  5
9D
330
1F
100
AcDbEntity
  8
0
  6
Continuous
 62
     4
370
    25
100
AcDbLine
 10
-42.98804538186347
 20
2.999999999999994
 30
0.0
 11
-43.98804538186347
 21
1.999999999999994
 31
0.0
  0
LINE
  5
9E
330
1F
100
AcDbEntity
  8
0
  6
Continuous
 62
     4
370
    25
100
AcDbLine
 10
-43.98804538186347
 20
-2.0
 30
0.0
 11
-42.98804538186347
 21
-3.0
 31
0.0
  0
LINE
  5
9F
330
1F
100
AcDbEntity
  8
0
  6
Continuous
 62
     4
370
    25
100
AcDbLine
 10
46.96205447260945
 20
1.925000000000002
 30
0.0
 11
6.011954618136533
 21
1.924999999999999
 31
0.0
  0
LINE
  5
A0
330
1F
100
AcDbEntity
  8
0
  6
Continuous
 62
     4
370
    25
100
AcDbLine
 10
6.011954618136533
 20
-1.924999999999998
 30
0.0
 11
46.96205447260945
 21
-1.924999999999996
 31
0.0
  0
SPLINE
  5
A1
330
1F
100
AcDbEntity
  8
0
  6
Continuous
 62
     4
370
    25
100
AcDbSpline
210
0.0
220
0.0
230
1.0
 70
     8
 71
     3
 72
     9
 73
     5
 74
     0
 42
0.000000001
 43
0.00000001
 40
0.0
 40
0.0
 40
0.0
 40
0.0
 40
0.6883897072065405
 40
0.9999999999999999
 40
0.9999999999999999
 40
0.9999999999999999
 40
0.9999999999999999
 10
50.01195461813653
 20
1.58070265439845
 30
0.0
 10
49.6392106391154
 20
1.569577367796879
 30
0.0
 10
49.0977383086622
 20
1.553416047421074
 30
0.0
 10
48.56376087043434
 20
1.571597175266406
 30
0.0
 10
48.39736800456305
 20
1.577262601837605
 30
0.0
  0
SPLINE
  5
A2
330
1F
100
AcDbEntity
  8
0
  6
Continuous
 62
     4
370
    25
100
AcDbSpline
210
0.0
220
0.0
230
1.0
 70
     8
 71
     3
 72
    11
 73
     7
 74
     0
 42
0.000000001
 43
0.00000001
 40
0.0
 40
0.0
 40
0.0
 40
0.0
 40
0.2991893529525135
 40
0.4272687617870665
 40
0.5811776575213582
 40
1.0
 40
1.0
 40
1.0
 40
1.0
 10
47.42500319918626
 20
-1.632989557142775
 30
0.0
 10
47.66813409735574
 20
-1.616685933999024
 30
0.0
 10
48.01534644561583
 20
-1.593402923408807
 30
0.0
 10
48.52439644231547
 20
-1.57109377414796
 30
0.0
 10
49.1376287986719
 20
-1.555711780631993
 30
0.0
 10
49.6426481127409
 20
-1.570146758584773
 30
0.0
 10
50.01195461813656
 20
-1.580702654398445
 30
0.0
  0
LINE
  5
A3
330
1F
100
AcDbEntity
  8
0
  6
Continuous
 62
     1
370
    25
100
AcDbLine
 10
50.82923279655975
 20
0.5126449810253206
 30
0.0
 11
50.27637720944295
 21
0.79004377414641
 31
0.0
  0
LINE
  5
A4
330
1F
100
AcDbEntity
  8
0
  6
Continuous
 62
     1
370
    25
100
AcDbLine
 10
50.16973613558727
 20
1.589272224656547
 30
0.0
 11
50.01177382770782
 21
1.582600518897246
 31
0.0
  0
SPLINE
  5
A5
330
1F
100
AcDbEntity
  8
0
  6
Continuous
 62
     1
370
    25
100
AcDbSpline
210
0.0
220
0.0
230
1.0
 70
     8
 71
     3
 72
    18
 73
    14
 74
     0
 42
0.000000001
 43
0.00000001
 40
0.0
 40
0.0
 40
0.0
 40
0.0
 40
0.1355385977514971
 40
0.2281446029076641
 40
0.2856534023565125
 40
0.3399630644737797
 40
0.3940334836651049
 40
0.4478526504073816
 40
0.6081564392120496
 40
0.6517596426161951
 40
0.7291280267117248
 40
0.8452262443287414
 40
1.0
 40
1.0
 40
1.0
 40
1.0
 10
55.30254079360926
 20
1.370795833430374
 30
0.0
 10
55.14230044416223
 20
1.358128059006985
 30
0.0
 10
54.87257675289749
 20
1.33680509703532
 30
0.0
 10
54.53595253814141
 20
1.323036895332976
 30
0.0
 10
54.29490528932328
 20
1.317398468587816
 30
0.0
 10
54.09968116011461
 20
1.315711071420666
 30
0.0
 10
53.90919815113091
 20
1.316716661443408
 30
0.0
 10
53.59470732743835
 20
1.322867942266211
 30
0.0
 10
53.29175780072909
 20
1.337080663451338
 30
0.0
 10
52.96150242836974
 20
1.360940318430142
 30
0.0
 10
52.68399335011827
 20
1.385475304026601
 30
0.0
 10
52.2753724533142
 20
1.430070247282019
 30
0.0
 10
51.95621370697572
 20
1.477329872532741
 30
0.0
 10
51.77384933303746
 20
1.504333587988698
 30
0.0
  0
SPLINE
  5
A6
330
1F
100
AcDbEntity
  8
0
  6
Continuous
 62
     1
370
    25
100
AcDbSpline
210
0.0
220
0.0
230
1.0
 70
     8
 71
     3
 72
    12
 73
     8
 74
     0
 42
0.000000001
 43
0.00000001
 40
0.0
 40
0.0
 40
0.0
 40
0.0
 40
0.3467652465863108
 40
0.5757289244930667
 40
0.7330616366485757
 40
0.8982054789040028
 40
1.0
 40
1.0
 40
1.0
 40
1.0
 10
51.77384933303746
 20
-1.504333587988693
 30
0.0
 10
51.94648420694613
 20
-1.47866681141376
 30
0.0
 10
52.23310719256501
 20
-1.436052663029051
 30
0.0
 10
52.59699365984923
 20
-1.394833527967895
 30
0.0
 10
52.87065626858568
 20
-1.368536565557837
 30
0.0
 10
53.08144018008303
 20
-1.351500232540584
 30
0.0
 10
53.2141193350731
 20
-1.343810720582882
 30
0.0
 10
53.26471532611789
 20
-1.340878395017651
 30
0.0
  0
LINE
  5
A7
330
1F
100
AcDbEntity
  8
0
  6
Continuous
 62
     1
370
    25
100
AcDbLine
 10
50.01166037872089
 20
-1.582934091177408
 30
0.0
 11
50.16973613558726
 21
-1.589272224656541
 31
0.0
  0
LINE
  5
A8
330
1F
100
AcDbEntity
  8
0
  6
Continuous
 62
     4
370
    25
100
AcDbLine
 10
2.0
 20
3.0
 30
0.0
 11
2.0
 21
-3.0
 31
0.0
  0
LINE
  5
A9
330
1F
100
AcDbEntity
  8
0
  6
Continuous
 62
     4
370
    25
100
AcDbLine
 10
-42.98804538186347
 20
2.999999999999994
 30
0.0
 11
-42.98804538186347
 21
-3.0
 31
0.0
  0
LINE
  5
AA
330
1F
100
AcDbEntity
  8
0
  6
Continuous
 62
     4
370
    25
100
AcDbLine
 10
6.011954618136533
 20
1.925
 30
0.0
 11
6.011954618136533
 21
-1.925
 31
0.0
  0
LINE
  5
AB
330
1F
100
AcDbEntity
  8
0
  6
Continuous
 62
     4
370
    25
100
AcDbLine
 10
-43.98804538186347
 20
1.999999999999994
 30
0.0
 11
-43.98804538186347
 21
-2.0
 31
0.0
  0
SPLINE
  5
AC
330
1F
100
AcDbEntity
  8
0
  6
Continuous
 62
     4
370
    25
100
AcDbSpline
210
0.0
220
0.0
230
1.0
 70
     8
 71
     3
 72
    18
 73
    14
 74
     0
 42
0.000000001
 43
0.00000001
 40
0.0
 40
0.0
 40
0.0
 40
0.0
 40
0.1249999999999981
 40
0.1249999999999981
 40
0.2499999999999961
 40
0.2499999999999961
 40
0.4999999999999973
 40
0.4999999999999973
 40
0.624999999999998
 40
0.624999999999998
 40
0.7499999999999988
 40
0.7499999999999988
 40
1.0
 40
1.0
 40
1.0
 40
1.0
 10
50.01195461813654
 20
0.9195926915382524
 30
0.0
 10
49.884045833427
 20
0.9817807690997229
 30
0.0
 10
49.75618362390221
 20
1.042089630919118
 30
0.0
 10
49.50286344269905
 20
1.157894964677951
 30
0.0
 10
49.37773555719953
 20
1.21335994022331
 30
0.0
 10
48.99632815125663
 20
1.372958926438188
 30
0.0
 10
48.73827019425319
 20
1.46951492011253
 30
0.0
 10
48.35941489017578
 20
1.59449029211313
 30
0.0
 10
48.23381774097731
 20
1.632961287243949
 30
0.0
 10
47.9790412313688
 20
1.703508034370217
 30
0.0
 10
47.85087323167505
 20
1.735468311889258
 30
0.0
 10
47.46752419407566
 20
1.820506044586779
 30
0.0
 10
47.21734188243626
 20
1.862569858233657
 30
0.0
 10
46.96215917549667
 20
1.889580777916598
 30
0.0
  0
SPLINE
  5
AD
330
1F
100
AcDbEntity
  8
0
  6
Continuous
 62
     4
370
    25
100
AcDbSpline
210
0.0
220
0.0
230
1.0
 70
     8
 71
     3
 72
    18
 73
    14
 74
     0
 42
0.000000001
 43
0.00000001
 40
0.0
 40
0.0
 40
0.0
 40
0.0
 40
0.1250000000000033
 40
0.1250000000000033
 40
0.2500000000000066
 40
0.2500000000000066
 40
0.5000000000000079
 40
0.5000000000000079
 40
0.6250000000000059
 40
0.6250000000000059
 40
0.750000000000004
 40
0.750000000000004
 40
1.0
 40
1.0
 40
1.0
 40
1.0
 10
50.01195461813651
 20
0.4051148844736369
 30
0.0
 10
49.88404145995874
 20
0.4743194848037856
 30
0.0
 10
49.75617488040611
 20
0.5426905569958537
 30
0.0
 10
49.50284620156683
 20
0.6765454905835935
 30
0.0
 10
49.37771395140457
 20
0.74198201936016
 30
0.0
 10
48.99629311611638
 20
0.9344443364676216
 30
0.0
 10
48.73822626911502
 20
1.056780298111223
 30
0.0
 10
48.35935912973941
 20
1.224807558639242
 30
0.0
 10
48.23375702756871
 20
1.27837317635985
 30
0.0
 10
47.97897127453376
 20
1.380623495510956
 30
0.0
 10
47.85079879768573
 20
1.429154893640076
 30
0.0
 10
47.46743712713757
 20
1.565617886612919
 30
0.0
 10
47.21724657106756
 20
1.644056332932593
 30
0.0
 10
46.96205447260944
 20
1.709143488656244
 30
0.0
  0
SPLINE
  5
AE
330
1F
100
AcDbEntity
  8
0
  6
Continuous
 62
     4
370
    25
100
AcDbSpline
210
0.0
220
0.0
230
1.0
 70
     8
 71
     3
 72
    10
 73
     6
 74
     0
 42
0.000000001
 43
0.00000001
 40
0.0
 40
0.0
 40
0.0
 40
0.0
 40
0.0642033549571676
 40
0.5333308203351765
 40
1.0
 40
1.0
 40
1.0
 40
1.0
 10
48.39647743131375
 20
-1.577581651769735
 30
0.0
 10
48.36577350384324
 20
-1.588740506452899
 30
0.0
 10
48.1107190625873
 20
-1.681435991387351
 30
0.0
 10
47.63214449836894
 20
-1.793608883895352
 30
0.0
 10
47.18509615941743
 20
-1.857646220749677
 30
0.0
 10
46.96215917549667
 20
-1.889580777916593
 30
0.0
  0
LINE
  5
AF
330
1F
100
AcDbEntity
  8
0
  6
Continuous
 62
     4
370
    25
100
AcDbLine
 10
46.96205447260945
 20
1.889597655509789
 30
0.0
 11
46.96205447260945
 21
1.925000000000002
 31
0.0
  0
LINE
  5
B0
330
1F
100
AcDbEntity
  8
0
  6
Continuous
 62
     4
370
    25
100
AcDbLine
 10
46.96205447260945
 20
-1.924999999999996
 30
0.0
 11
46.96205447260945
 21
1.709389812858266
 31
0.0
  0
SPLINE
  5
B1
330
1F
100
AcDbEntity
  8
0
  6
Continuous
 62
     4
370
    25
100
AcDbSpline
210
0.0
220
0.0
230
1.0
 70
    24
 71
     3
 72
    10
 73
     6
 74
     0
 42
0.000000001
 43
0.00000001
 40
0.0
 40
0.0
 40
0.0
 40
0.0
 40
0.5
 40
0.5
 40
1.0
 40
1.0
 40
1.0
 40
1.0
 10
50.01195461813653
 20
0.4051148844735576
 30
0.0
 10
50.01195461813654
 20
0.4044302769278719
 30
0.0
 10
50.01195461813654
 20
0.3875955315121016
 30
0.0
 10
50.01195461813656
 20
0.3248054059878278
 30
0.0
 10
50.01195461813656
 20
0.2790477599600122
 30
0.0
 10
50.01195461813653
 20
0.2247554758747609
 30
0.0
  0
SPLINE
  5
B2
330
1F
100
AcDbEntity
  8
0
  6
Continuous
 62
     4
370
    25
100
AcDbSpline
210
0.0
220
0.0
230
1.0
 70
     8
 71
     3
 72
    16
 73
    12
 74
     0
 42
0.000000001
 43
0.00000001
 40
0.0
 40
0.0
 40
0.0
 40
0.0
 40
0.1249999999999978
 40
0.1249999999999978
 40
0.2499999999999956
 40
0.2499999999999956
 40
0.499999999999997
 40
0.499999999999997
 40
0.7499999999999984
 40
0.7499999999999984
 40
1.0
 40
1.0
 40
1.0
 40
1.0
 10
50.01195461813653
 20
0.2247554758747623
 30
0.0
 10
49.88404251319383
 20
0.2755708893496853
 30
0.0
 10
49.75617698604768
 20
0.3259222079488515
 30
0.0
 10
49.50285035363954
 20
0.4247951852010427
 30
0.0
 10
49.37771915459589
 20
0.4732806309359627
 30
0.0
 10
48.99630155341261
 20
0.6163490977546108
 30
0.0
 10
48.73823684733018
 20
0.7079288630246232
 30
0.0
 10
48.23308446176602
 20
0.8769751245762277
 30
0.0
 10
47.97860293258103
 20
0.9553040944867127
 30
0.0
 10
47.46745809489595
 20
1.09546830423981
 30
0.0
 10
47.217269524362
 20
1.156785121358413
 30
0.0
 10
46.96207968757712
 20
1.208698484234869
 30
0.0
  0
SPLINE
  5
B3
330
1F
100
AcDbEntity
  8
0
  6
Continuous
 62
     4
370
    25
100
AcDbSpline
210
0.0
220
0.0
230
1.0
 70
     8
 71
     3
 72
    18
 73
    14
 74
     0
 42
0.000000001
 43
0.00000001
 40
0.0
 40
0.0
 40
0.0
 40
0.0
 40
0.1250000000000014
 40
0.1250000000000014
 40
0.2500000000000029
 40
0.2500000000000029
 40
0.5000000000000057
 40
0.5000000000000057
 40
0.6250000000000043
 40
0.6250000000000043
 40
0.7500000000000029
 40
0.7500000000000029
 40
1.0
 40
1.0
 40
1.0
 40
1.0
 10
50.01195461813653
 20
-1.579247033629272
 30
0.0
 10
49.88404305645193
 20
-1.569801255834535
 30
0.0
 10
49.75617807213658
 20
-1.557143686893089
 30
0.0
 10
49.50285249527699
 20
-1.525696305029086
 30
0.0
 10
49.37772183839877
 20
-1.506945544902962
 30
0.0
 10
48.99630590536532
 20
-1.441393886175313
 30
0.0
 10
48.73824230356876
 20
-1.385335025780887
 30
0.0
 10
48.35937948453326
 20
-1.285846401562391
 30
0.0
 10
48.23377919044525
 20
-1.250099012892843
 30
0.0
 10
47.97899681162423
 20
-1.173357530667729
 30
0.0
 10
47.85082596911018
 20
-1.13245002722094
 30
0.0
 10
47.46746891006254
 20
-1.00321134622029
 30
0.0
 10
47.21728136364695
 20
-0.9088689549296275
 30
0.0
 10
46.96209269343884
 20
-0.807357489655004
 30
0.0
  0
SPLINE
  5
B4
330
1F
100
AcDbEntity
  8
0
  6
Continuous
 62
     4
370
    25
100
AcDbSpline
210
0.0
220
0.0
230
1.0
 70
    24
 71
     3
 72
    14
 73
    10
 74
     0
 42
0.000000001
 43
0.00000001
 40
0.0
 40
0.0
 40
0.0
 40
0.0
 40
0.25
 40
0.25
 40
0.4999999999999999
 40
0.4999999999999999
 40
0.75
 40
0.75
 40
1.0
 40
1.0
 40
1.0
 40
1.0
 10
50.01195461813653
 20
0.2247554758747609
 30
0.0
 10
50.01195461813653
 20
0.047837976464674
 30
0.0
 10
50.01195461813653
 20
-0.1336037481305618
 30
0.0
 10
50.01195461813653
 20
-0.4885406909531644
 30
0.0
 10
50.01195461813653
 20
-0.6618479081743852
 30
0.0
 10
50.01195461813653
 20
-0.9824711655081982
 30
0.0
 10
50.01195461813653
 20
-1.129616364144595
 30
0.0
 10
50.01195461813653
 20
-1.38486756304176
 30
0.0
 10
50.01195461813656
 20
-1.492925576302517
 30
0.0
 10
50.01195461813653
 20
-1.579247033629272
 30
0.0
  0
SPLINE
  5
B5
330
1F
100
AcDbEntity
  8
0
  6
Continuous
 62
     4
370
    25
100
AcDbSpline
210
0.0
220
0.0
230
1.0
 70
    24
 71
     3
 72
    12
 73
     8
 74
     0
 42
0.000000001
 43
0.00000001
 40
0.0
 40
0.0
 40
0.0
 40
0.0
 40
0.1964675544151106
 40
0.405411725067401
 40
0.6204152908234913
 40
0.8080359605400104
 40
0.9999999999999999
 40
0.9999999999999999
 40
0.9999999999999999
 40
0.9999999999999999
 10
50.01195461813653
 20
1.568261081174126
 30
0.0
 10
50.01195461813653
 20
1.565144782918142
 30
0.0
 10
50.01195461813653
 20
1.558714286770602
 30
0.0
 10
50.01195461813653
 20
1.455240295060781
 30
0.0
 10
50.01195461813654
 20
1.305681983255059
 30
0.0
 10
50.01195461813653
 20
1.112027214369229
 30
0.0
 10
50.01195461813654
 20
0.9563667030268896
 30
0.0
 10
50.01195461813656
 20
0.8776458804560625
 30
0.0
  0
LINE
  5
B6
330
1F
100
AcDbEntity
  8
0
  6
Continuous
 62
     4
370
    25
100
AcDbLine
 10
47.42990306570259
 20
-1.611567681488149
 30
0.0
 11
46.96215917549666
 21
-1.681492594814507
 31
0.0
  0
SPLINE
  5
B7
330
1F
100
AcDbEntity
  8
0
  6
Continuous
 62
     1
370
    25
100
AcDbSpline
210
0.0
220
0.0
230
1.0
 70
     8
 71
     3
 72
    32
 73
    28
 74
     0
 42
0.000000001
 43
0.00000001
 40
0.0
 40
0.0
 40
0.0
 40
0.0
 40
0.125
 40
0.125
 40
0.1875
 40
0.1875
 40
0.25
 40
0.25
 40
0.3125
 40
0.3125
 40
0.375
 40
0.375
 40
0.4999999999999973
 40
0.4999999999999973
 40
0.5624999999999973
 40
0.5624999999999973
 40
0.6249999999999973
 40
0.6249999999999973
 40
0.6874999999999973
 40
0.6874999999999973
 40
0.7499999999999973
 40
0.7499999999999973
 40
0.875
 40
0.875
 40
0.9375
 40
0.9375
 40
1.0
 40
1.0
 40
1.0
 40
1.0
 10
55.91195461813652
 20
-1.995079370482128
 30
0.0
 10
55.66766912707504
 20
-1.985151362637187
 30
0.0
 10
55.41834821793225
 20
-1.959980558823116
 30
0.0
 10
55.04938604844214
 20
-1.900478609523996
 30
0.0
 10
54.92825518436108
 20
-1.877133501145111
 30
0.0
 10
54.68373308995923
 20
-1.823347403868886
 30
0.0
 10
54.56026631212803
 20
-1.792875136319724
 30
0.0
 10
54.31300258553821
 20
-1.725212551881674
 30
0.0
 10
54.18920960801119
 20
-1.688023256469436
 30
0.0
 10
53.94340102906982
 20
-1.607598229403023
 30
0.0
 10
53.82239150627439
 20
-1.564496753032875
 30
0.0
 10
53.45526763115659
 20
-1.42614720743942
 30
0.0
 10
53.20588233235245
 20
-1.321776374110164
 30
0.0
 10
52.83743318906452
 20
-1.152225017349158
 30
0.0
 10
52.71650699913046
 20
-1.093728757369149
 30
0.0
 10
52.47154007068889
 20
-0.9723522608503499
 30
0.0
 10
52.34794959617341
 20
-0.9095300489239343
 30
0.0
 10
52.10064285490109
 20
-0.7806492652830206
 30
0.0
 10
51.97693056419641
 20
-0.7145927539830584
 30
0.0
 10
51.73148321171088
 20
-0.5803899017401386
 30
0.0
 10
51.61060233535662
 20
-0.512409351755636
 30
0.0
 10
51.24283968378727
 20
-0.3050148147744266
 30
0.0
 10
50.99343033916025
 20
-0.1625893166960107
 30
0.0
 10
50.62555177796109
 20
0.050105735571887
 30
0.0
 10
50.5046781900008
 20
0.120705985234001
 30
0.0
 10
50.25930444933964
 20
0.2618834553029321
 30
0.0
 10
50.135609869834
 20
0.3323033183432104
 30
0.0
 10
50.01195461813653
 20
0.4019523873045332
 30
0.0
  0
SPLINE
  5
B9
330
1F
100
AcDbEntity
  8
0
  6
Continuous
 62
     1
370
    25
100
AcDbSpline
210
0.0
220
0.0
230
1.0
 70
     8
 71
     3
 72
     9
 73
     5
 74
     0
 42
0.000000001
 43
0.00000001
 40
0.0
 40
0.0
 40
0.0
 40
0.0
 40
0.2822150385063736
 40
1.0
 40
1.0
 40
1.0
 40
1.0
 10
51.03756053314702
 20
-0.1871075207373759
 30
0.0
 10
50.94104216559229
 20
-0.1488220564257778
 30
0.0
 10
50.59903924446672
 20
-0.0131614462959123
 30
0.0
 10
50.25727083952054
 20
0.1253407105536853
 30
0.0
 10
50.01195461813656
 20
0.224755475874758
 30
0.0
  0
SPLINE
  5
BA
330
1F
100
AcDbEntity
  8
0
  6
Continuous
 62
     4
370
    25
100
AcDbSpline
210
0.0
220
0.0
230
1.0
 70
    24
 71
     3
 72
    11
 73
     7
 74
     0
 42
0.000000001
 43
0.00000001
 40
0.0
 40
0.0
 40
0.0
 40
0.0
 40
0.1791324983954228
 40
0.4424110168649274
 40
0.713324630205813
 40
1.0
 40
1.0
 40
1.0
 40
1.0
 10
50.01195461813651
 20
0.4013885290103
 30
0.0
 10
50.01195461813653
 20
0.3998435151279491
 30
0.0
 10
50.01195461813651
 20
0.3960277297797624
 30
0.0
 10
50.01195461813653
 20
0.3636734739401036
 30
0.0
 10
50.01195461813654
 20
0.3091148524423051
 30
0.0
 10
50.01195461813656
 20
0.2534002426355451
 30
0.0
 10
50.01195461813656
 20
0.2247554758765457
 30
0.0
  0
SPLINE
  5
BB
330
1F
100
AcDbEntity
  8
0
  6
Continuous
 62
     1
370
    25
100
AcDbSpline
210
0.0
220
0.0
230
1.0
 70
     8
 71
     3
 72
    12
 73
     8
 74
     0
 42
0.000000001
 43
0.00000001
 40
0.0
 40
0.0
 40
0.0
 40
0.0
 40
0.2165109241298576
 40
0.4330410920914932
 40
0.6495888985932683
 40
0.8661527252273226
 40
0.9999999999999999
 40
0.9999999999999999
 40
0.9999999999999999
 40
0.9999999999999999
 10
56.01195461813654
 20
-1.577944528736426
 30
0.0
 10
55.63499296073242
 20
-1.492776936051322
 30
0.0
 10
54.88103614097867
 20
-1.322434180851402
 30
0.0
 10
53.7500320527934
 20
-0.8821788274878084
 30
0.0
 10
52.6189321765629
 20
-0.3617613388183386
 30
0.0
 10
51.63175264974503
 20
0.1322525767535206
 30
0.0
 10
51.02167160002265
 20
0.4208991786764485
 30
0.0
 10
50.78863764200027
 20
0.5311541360241998
 30
0.0
  0
SPLINE
  5
BC
330
1F
100
AcDbEntity
  8
0
  6
Continuous
 62
     1
370
    25
100
AcDbSpline
210
0.0
220
0.0
230
1.0
 70
    24
 71
     3
 72
     8
 73
     4
 74
     0
 42
0.000000001
 43
0.00000001
 40
0.0
 40
0.0
 40
0.0
 40
0.0
 40
1.0
 40
1.0
 40
1.0
 40
1.0
 10
56.01195461813654
 20
-1.789970616993978
 30
0.0
 10
56.01195461813654
 20
-1.719157860375769
 30
0.0
 10
56.01195461813654
 20
-1.648284382186685
 30
0.0
 10
56.01195461813654
 20
-1.577944528736426
 30
0.0
  0
SPLINE
  5
BD
330
1F
100
AcDbEntity
  8
0
  6
Continuous
 62
     1
370
    25
100
AcDbSpline
210
0.0
220
0.0
230
1.0
 70
     8
 71
     3
 72
    23
 73
    19
 74
     0
 42
0.000000001
 43
0.00000001
 40
0.0000000000000017
 40
0.0000000000000017
 40
0.0000000000000017
 40
0.0000000000000017
 40
0.0000309836703648
 40
0.0000309836703648
 40
0.0000309836703648
 40
0.0000621829899111
 40
0.0000621829899111
 40
0.0000621829899111
 40
0.0000908430932116
 40
0.0000908430932116
 40
0.0000908430932116
 40
0.0001186191166451
 40
0.0001186191166451
 40
0.0001186191166451
 40
0.0001487828091073
 40
0.0001487828091073
 40
0.0001487828091073
 40
0.0001635667189071
 40
0.0001635667189071
 40
0.0001635667189071
 40
0.0001635667189071
 10
56.01195461813654
 20
-1.789970616992271
 30
0.0
 10
56.01195461813654
 20
-1.800293519494169
 30
0.0
 10
56.01052758196268
 20
-1.810786935593011
 30
0.0
 10
56.00757589189482
 20
-1.82062378484514
 30
0.0
 10
56.00461193260098
 20
-1.830501522714819
 30
0.0
 10
55.99999755616023
 20
-1.839985950675757
 30
0.0
 10
55.99408116047593
 20
-1.848078095923317
 30
0.0
 10
55.98863441479106
 20
-1.855527877777065
 30
0.0
 10
55.98193719814945
 20
-1.862005293172089
 30
0.0
 10
55.9746194137937
 20
-1.866989484404812
 30
0.0
 10
55.96751024345147
 20
-1.871831587255766
 30
0.0
 10
55.95964889064224
 20
-1.875402593588323
 30
0.0
 10
55.95164204501016
 20
-1.877614214021322
 30
0.0
 10
55.94294303230078
 20
-1.880017022210587
 30
0.0
 10
55.93387855152722
 20
-1.880888518493312
 30
0.0
 10
55.92500971907474
 20
-1.880411710245969
 30
0.0
 10
55.92062869773303
 20
-1.880176176750585
 30
0.0
 10
55.9162612075738
 20
-1.879615434866286
 30
0.0
 10
55.91195461813645
 20
-1.878759392336788
 30
0.0
  0
SPLINE
  5
BE
330
1F
100
AcDbEntity
  8
0
  6
Continuous
 62
     1
370
    25
100
AcDbSpline
210
0.0
220
0.0
230
1.0
 70
     8
 71
     3
 72
    32
 73
    28
 74
     0
 42
0.000000001
 43
0.00000001
 40
0.0
 40
0.0
 40
0.0
 40
0.0
 40
0.1250000000000026
 40
0.1250000000000026
 40
0.1875000000000027
 40
0.1875000000000027
 40
0.2500000000000027
 40
0.2500000000000027
 40
0.3125000000000028
 40
0.3125000000000028
 40
0.3750000000000028
 40
0.3750000000000028
 40
0.5000000000000002
 40
0.5000000000000002
 40
0.5625000000000002
 40
0.5625000000000002
 40
0.6250000000000002
 40
0.6250000000000002
 40
0.6875000000000002
 40
0.6875000000000002
 40
0.7500000000000001
 40
0.7500000000000001
 40
0.8750000000000001
 40
0.8750000000000001
 40
0.9375000000000001
 40
0.9375000000000001
 40
1.0
 40
1.0
 40
1.0
 40
1.0
 10
55.91195461813655
 20
-1.878759392336733
 30
0.0
 10
55.66766912707507
 20
-1.830201531707354
 30
0.0
 10
55.41834821793228
 20
-1.767023612717096
 30
0.0
 10
55.04938604844214
 20
-1.653375885174992
 30
0.0
 10
54.92825518436109
 20
-1.612503818923678
 30
0.0
 10
54.68373308995923
 20
-1.524614537033105
 30
0.0
 10
54.560266312128
 20
-1.477566206471185
 30
0.0
 10
54.31300258553821
 20
-1.377996213212121
 30
0.0
 10
54.1892096080112
 20
-1.325476097117723
 30
0.0
 10
53.94340102906988
 20
-1.215887676669937
 30
0.0
 10
53.8223915062744
 20
-1.158987959163774
 30
0.0
 10
53.45526763115659
 20
-0.9814509038959918
 30
0.0
 10
53.20588233235247
 20
-0.8539803129927939
 30
0.0
 10
52.83743318906452
 20
-0.6555011653376057
 30
0.0
 10
52.71650699913046
 20
-0.5883260685726212
 30
0.0
 10
52.4715400706889
 20
-0.4514494475053506
 30
0.0
 10
52.34794959617344
 20
-0.381823248048681
 30
0.0
 10
52.1006428549011
 20
-0.2413607634919915
 30
0.0
 10
51.97693056419644
 20
-0.1705267324798382
 30
0.0
 10
51.73148321171088
 20
-0.0288611937289126
 30
0.0
 10
51.61060233535664
 20
0.0418044686204053
 30
0.0
 10
51.24283968378728
 20
0.2541514567572709
 30
0.0
 10
50.99343033916025
 20
0.3956590214485037
 30
0.0
 10
50.62555177796109
 20
0.6006921858368962
 30
0.0
 10
50.5046781900008
 20
0.6677135968214511
 30
0.0
 10
50.25930444933964
 20
0.7996535535534813
 30
0.0
 10
50.13560986983403
 20
0.8644162975288752
 30
0.0
 10
50.01195461813654
 20
0.9274099677879855
 30
0.0
  0
LINE
  5
BF
330
1F
100
AcDbEntity
  8
0
  6
Continuous
 62
     4
370
    25
100
AcDbLine
 10
50.01195461813653
 20
0.4019523873045325
 30
0.0
 11
50.01195461813653
 21
0.9274099677879877
 31
0.0
  0
SPLINE
  5
C0
330
1F
100
AcDbEntity
  8
0
  6
Continuous
 62
     1
370
    25
100
AcDbSpline
210
0.0
220
0.0
230
1.0
 70
     8
 71
     3
 72
    13
 73
     9
 74
     0
 42
0.000000001
 43
0.00000001
 40
0.0
 40
0.0
 40
0.0
 40
0.0
 40
0.1935156565289028
 40
0.3870487592663658
 40
0.5805978527021808
 40
0.774161469395481
 40
0.9007355857788383
 40
1.0
 40
1.0
 40
1.0
 40
1.0
 10
56.01195461813654
 20
0.0000000000000073
 30
0.0
 10
55.63498974136849
 20
0.174167280334181
 30
0.0
 10
54.88102600294466
 20
0.5225175428777749
 30
0.0
 10
53.75001960142158
 20
0.9895277006744791
 30
0.0
 10
52.6188894971984
 20
1.353045029786121
 30
0.0
 10
51.6182519151923
 20
1.544496341719099
 30
0.0
 10
50.80111187198831
 20
1.610800496645897
 30
0.0
 10
50.361495873456
 20
1.591630243746365
 30
0.0
 10
50.16826832960088
 20
1.583204206260867
 30
0.0
  0
SPLINE
  5
C1
330
1F
100
AcDbEntity
  8
0
  6
Continuous
 62
     1
370
    25
100
AcDbSpline
210
0.0
220
0.0
230
1.0
 70
    24
 71
     3
 72
    10
 73
     6
 74
     0
 42
0.000000001
 43
0.00000001
 40
0.0
 40
0.0
 40
0.0
 40
0.0
 40
0.5
 40
0.5
 40
1.0
 40
1.0
 40
1.0
 40
1.0
 10
56.01195461813654
 20
-1.577944528736425
 30
0.0
 10
56.01195461813654
 20
-1.407185134337965
 30
0.0
 10
56.01195461813654
 20
-1.171452163182273
 30
0.0
 10
56.01195461813654
 20
-0.619882359232176
 30
0.0
 10
56.01195461813654
 20
-0.306419698497743
 30
0.0
 10
56.01195461813654
 20
0.0000000000000075
 30
0.0
  0
SPLINE
  5
C2
330
1F
100
AcDbEntity
  8
0
  6
Continuous
 62
     4
370
    25
100
AcDbSpline
210
0.0
220
0.0
230
1.0
 70
    24
 71
     3
 72
    13
 73
     9
 74
     0
 42
0.000000001
 43
0.00000001
 40
0.0
 40
0.0
 40
0.0
 40
0.0
 40
0.0833222461545982
 40
0.2233839884426067
 40
0.4253290241928844
 40
0.6331304796606485
 40
0.8144663012588784
 40
1.0
 40
1.0
 40
1.0
 40
1.0
 10
50.01195461813653
 20
1.578107643597946
 30
0.0
 10
50.01195461813651
 20
1.578448104022487
 30
0.0
 10
50.0119546181365
 20
1.579360866352489
 30
0.0
 10
50.01195461813653
 20
1.54346026279158
 30
0.0
 10
50.01195461813653
 20
1.457363382861981
 30
0.0
 10
50.01195461813653
 20
1.305190216156385
 30
0.0
 10
50.01195461813651
 20
1.112146259228375
 30
0.0
 10
50.01195461813653
 20
0.9564066861990916
 30
0.0
 10
50.01195461813656
 20
0.8776458804560621
 30
0.0
  0
LINE
  5
C3
330
1F
100
AcDbEntity
  8
0
  6
Continuous
 62
     1
370
    25
100
AcDbLine
 10
56.01195461813654
 20
1.400000000000007
 30
0.0
 11
55.2982221276696
 21
1.353306821203606
 31
0.0
  0
SPLINE
  5
C4
330
1F
100
AcDbEntity
  8
0
  6
Continuous
 62
     1
370
    25
100
AcDbSpline
210
0.0
220
0.0
230
1.0
 70
    24
 71
     3
 72
    14
 73
    10
 74
     0
 42
0.000000001
 43
0.00000001
 40
0.0
 40
0.0
 40
0.0
 40
0.0
 40
0.25
 40
0.25
 40
0.5
 40
0.5
 40
0.75
 40
0.75
 40
1.0
 40
1.0
 40
1.0
 40
1.0
 10
56.01195461813654
 20
0.0000000000000075
 30
0.0
 10
56.01195461813655
 20
0.166568703402799
 30
0.0
 10
56.01195461813654
 20
0.331087152750915
 30
0.0
 10
56.01195461813652
 20
0.6387450999155171
 30
0.0
 10
56.01195461813654
 20
0.78169346074954
 30
0.0
 10
56.01195461813652
 20
1.03051382430366
 30
0.0
 10
56.01195461813654
 20
1.136253245131319
 30
0.0
 10
56.01195461813654
 20
1.302133108422719
 30
0.0
 10
56.01195461813654
 20
1.362281548872787
 30
0.0
 10
56.01195461813654
 20
1.400000000000007
 30
0.0
  0
SPLINE
  5
C5
330
1F
100
AcDbEntity
  8
0
  6
Continuous
 62
     1
370
    25
100
AcDbSpline
210
0.0
220
0.0
230
1.0
 70
     8
 71
     3
 72
    10
 73
     6
 74
     0
 42
0.000000001
 43
0.00000001
 40
0.0
 40
0.0
 40
0.0
 40
0.0
 40
0.1663594177375659
 40
0.5840809758701178
 40
0.9999999999999999
 40
0.9999999999999999
 40
0.9999999999999999
 40
0.9999999999999999
 10
51.78230938398625
 20
-1.48813994042233
 30
0.0
 10
51.68411235099592
 20
-1.50831879106067
 30
0.0
 10
51.33934666452895
 20
-1.579165893876166
 30
0.0
 10
50.74897803354618
 20
-1.609089445318548
 30
0.0
 10
50.2572746958102
 20
-1.589180154613649
 30
0.0
 10
50.01195461813653
 20
-1.579247033629272
 30
0.0
  0
SPLINE
  5
C6
330
1F
100
AcDbEntity
  8
0
  6
Continuous
 62
     4
370
    25
100
AcDbSpline
210
0.0
220
0.0
230
1.0
 70
    24
 71
     3
 72
    14
 73
    10
 74
     0
 42
0.000000001
 43
0.00000001
 40
0.0
 40
0.0
 40
0.0
 40
0.0
 40
0.2500000000000001
 40
0.2500000000000001
 40
0.5
 40
0.5
 40
0.75
 40
0.75
 40
1.0
 40
1.0
 40
1.0
 40
1.0
 10
50.01195461813653
 20
0.224755475874763
 30
0.0
 10
50.01195461813654
 20
0.0478379764646758
 30
0.0
 10
50.01195461813653
 20
-0.1336037481305599
 30
0.0
 10
50.01195461813653
 20
-0.4885406909531627
 30
0.0
 10
50.01195461813653
 20
-0.6618479081743838
 30
0.0
 10
50.01195461813654
 20
-0.9824711655081976
 30
0.0
 10
50.01195461813651
 20
-1.129616364144594
 30
0.0
 10
50.01195461813653
 20
-1.384867563041759
 30
0.0
 10
50.01195461813653
 20
-1.492925576302516
 30
0.0
 10
50.01195461813653
 20
-1.579247033629271
 30
0.0
  0
LINE
  5
C7
330
1F
100
AcDbEntity
  8
0
  6
Continuous
 62
     1
370
    25
100
AcDbLine
 10
56.01195461813654
 20
-1.789970616993978
 30
0.0
 11
56.01195461813654
 21
-1.897300810640365
 31
0.0
  0
SPLINE
  5
C8
330
1F
100
AcDbEntity
  8
0
  6
Continuous
 62
     1
370
    25
100
AcDbSpline
210
0.0
220
0.0
230
1.0
 70
     8
 71
     3
 72
    11
 73
     7
 74
     0
 42
0.000000001
 43
0.00000001
 40
0.0
 40
0.0
 40
0.0
 40
0.0
 40
0.0183485744302639
 40
0.3451015365545322
 40
0.6722466042231073
 40
0.9939880651847512
 40
0.9939880651847512
 40
0.9939880651847512
 40
0.9939880651847512
 10
53.2670812408943
 20
1.342006821085979
 30
0.0
 10
53.28326391178125
 20
1.349766874933777
 30
0.0
 10
53.58762895168478
 20
1.495718622673045
 30
0.0
 10
54.17982314805207
 20
1.693473099368151
 30
0.0
 10
55.03999700324261
 20
1.924231463910378
 30
0.0
 10
55.61228552490796
 20
1.971064396099109
 30
0.0
 10
55.89604780531057
 20
1.993804943448922
 30
0.0
  0
SPLINE
  5
CA
330
1F
100
AcDbEntity
  8
0
  6
Continuous
 62
     1
370
    25
100
AcDbSpline
210
0.0
220
0.0
230
1.0
 70
    24
 71
     3
 72
    10
 73
     6
 74
     0
 42
0.000000001
 43
0.00000001
 40
0.0
 40
0.0
 40
0.0
 40
0.0
 40
0.5
 40
0.5
 40
1.0
 40
1.0
 40
1.0
 40
1.0
 10
56.01195461813654
 20
1.400000000000006
 30
0.0
 10
56.01195461813654
 20
1.47088722972226
 30
0.0
 10
56.01195461813656
 20
1.551262239179056
 30
0.0
 10
56.01195461813654
 20
1.72118811980515
 30
0.0
 10
56.01195461813654
 20
1.81054501742492
 30
0.0
 10
56.01195461813654
 20
1.89730081064
 30
0.0
  0
LINE
  5
CB
330
1F
100
AcDbEntity
  8
중심선
100
AcDbLine
 10
-46.98804538186346
 20
-0.0000000000000041
 30
0.0
 11
59.01195461813654
 21
0.0000000000000079
 31
0.0
  0
CIRCLE
  5
CC
330
1F
100
AcDbEntity
  8
외형선
100
AcDbCircle
 10
0.0
 20
0.0
 30
0.0
 40
3.000000000000005
  0
INSERT
  5
CD
330
1F
100
AcDbEntity
  8
0
  6
Continuous
 62
     7
100
AcDbBlockReference
 66
     1
  2
블럭10
 10
-27.42143823645298
 20
-52.04717430164393
 30
0.0
  0
ATTRIB
  5
CE
330
CD
100
AcDbEntity
  8
FORMAT
 62
     2
100
AcDbText
 10
-46.70002112046632
 20
-49.97180738881175
 30
0.0
 40
4.233333333333333
  1
SEME610400150E [ 2 FLUTE ]
 41
0.75
  7
SLDTEXTSTYLE0
 11
-46.70002112046632
 21
-52.08847405547841
 31
0.0
100
AcDbAttribute
  2
AUTOATTR0
 70
     0
 74
     1
  0
SEQEND
  5
CF
330
CD
100
AcDbEntity
  8
0
  6
Continuous
 62
     7
  0
HATCH
  5
D0
330
1F
100
AcDbEntity
  8
중심선
100
AcDbHatch
 10
0.0
 20
0.0
 30
0.0
210
0.0
220
0.0
230
1.0
  2
SOLID
 70
     1
 71
     0
 91
        1
 92
        0
 93
        4
 72
     1
 10
-21.70652893207212
 20
-35.8
 11
-25.15280417590941
 21
-35.8
 72
     1
 10
-25.15280417590941
 20
-35.8
 11
-27.28103403511343
 21
-38.3363255805726
 72
     1
 10
-27.28103403511343
 20
-38.3363255805726
 11
-23.834725706163
 21
-38.33628615127011
 72
     1
 10
-23.834725706163
 20
-38.33628615127011
 11
-21.70652893207213
 21
-35.8
 97
        0
 75
     0
 76
     1
 98
        1
 10
-4.481994548387084
 20
-0.0010749287238934
  0
HATCH
  5
D1
330
1F
100
AcDbEntity
  8
중심선
100
AcDbHatch
 10
0.0
 20
0.0
 30
0.0
210
0.0
220
0.0
230
1.0
  2
SOLID
 70
     1
 71
     0
 91
        1
 92
        0
 93
        4
 72
     1
 10
-16.69376494103617
 20
-35.8
 11
-20.14004018487346
 21
-35.8
 72
     1
 10
-20.14004018487346
 20
-35.8
 11
-24.67117819323084
 21
-41.20000000000002
 72
     1
 10
-24.67117819323084
 20
-41.20000000000002
 11
-21.22490294939356
 21
-41.20000000000002
 72
     1
 10
-21.22490294939356
 20
-41.20000000000002
 11
-16.69376494103617
 21
-35.8
 97
        0
 75
     0
 76
     1
 98
        1
 10
-4.481994548387084
 20
-0.0010749287238934
  0
HATCH
  5
D2
330
1F
100
AcDbEntity
  8
중심선
100
AcDbHatch
 10
0.0
 20
0.0
 30
0.0
210
0.0
220
0.0
230
1.0
  2
SOLID
 70
     1
 71
     0
 91
        1
 92
        0
 93
        4
 72
     1
 10
-11.68100095000028
 20
-35.80000000000003
 11
-15.12727619383739
 21
-35.8
 72
     1
 10
-15.12727619383739
 20
-35.8
 11
-22.17571309572664
 21
-44.20000000000002
 72
     1
 10
-22.17571309572664
 20
-44.20000000000002
 11
-18.72943785188936
 21
-44.20000000000002
 72
     1
 10
-18.72943785188936
 20
-44.20000000000002
 11
-11.68100095000028
 21
-35.80000000000003
 97
        0
 75
     0
 76
     1
 98
        1
 10
-4.481994548387084
 20
-0.0010749287238934
  0
HATCH
  5
D3
330
1F
100
AcDbEntity
  8
중심선
100
AcDbHatch
 10
0.0
 20
0.0
 30
0.0
210
0.0
220
0.0
230
1.0
  2
SOLID
 70
     1
 71
     0
 91
        1
 92
        0
 93
        6
 72
     3
 10
-6.881110518988079
 20
-40.00000000005127
 11
3.960054785062283
 21
1.540882976769353E-10
 40
0.3939339440162628
 50
17.09539180608437
 51
320.0019657685079
 73
     0
 72
     1
 10
-5.198110863287484
 20
-38.5878940046383
 11
-2.892808989586446
 21
-36.65356729459038
 72
     3
 10
-6.881110519040925
 20
-40.00000000000015
 11
6.600054785286829
 21
-1.278976924368180E-13
 40
0.636358354079598
 50
39.99873849337411
 51
368.4976242363725
 73
     1
 72
     1
 10
-0.4557780271403162
 20
-39.03999999993002
 11
-8.201043212205004
 21
-39.03999999993
 72
     1
 10
-8.201043212205004
 20
-39.03999999993
 11
-8.201068256650938
 21
-40.95999999992991
 72
     1
 10
-8.201068256650938
 20
-40.95999999992991
 11
-3.759688487178901
 21
-40.95999999992988
 97
        0
 75
     0
 76
     1
 98
        1
 10
-4.481994548387084
 20
-0.0010749287238934
  0
DIMENSION
  5
D4
330
1F
100
AcDbEntity
  8
치수문자_일반주서
100
AcDbDimension
  2
_D
 10
-55.48450340347553
 20
-3.000000000000047
 30
0.0
 11
-55.48450340347554
 21
-0.0000000000000028
 31
0.0
 70
   160
  1
%%c<>
 71
     2
 42
5.999999999999995
 52
-270.0
  3
SLDDIMSTYLE0
100
AcDbAlignedDimension
 13
-42.98804538186347
 23
2.999999999999994
 33
0.0
 14
-42.98804538186347
 24
-3.0
 34
0.0
 50
90.0000000000002
100
AcDbRotatedDimension
  0
DIMENSION
  5
E2
330
1F
100
AcDbEntity
  8
치수문자_일반주서
100
AcDbDimension
  2
_D_1
 10
50.01195461813653
 20
20.39999999999966
 30
0.0
 11
53.01195461813654
 21
20.39999999999966
 31
0.0
 70
   160
  1
<>
 71
     2
 42
6.000000000000007
  3
SLDDIMSTYLE0
100
AcDbAlignedDimension
 13
56.01195461813654
 23
1.900000000000002
 33
0.0
 14
50.01195461813653
 24
1.581514153956217
 34
0.0
 50
0.0000000000000339
100
AcDbRotatedDimension
  0
DIMENSION
  5
EE
330
1F
100
AcDbEntity
  8
치수문자_일반주서
100
AcDbDimension
  2
_D_2
 10
-43.98804538186347
 20
42.45832450504429
 30
0.0
 11
6.011954618136532
 21
42.45832450504429
 31
0.0
 70
   160
  1
<>
 71
     2
 42
100.0
  3
SLDDIMSTYLE1
100
AcDbAlignedDimension
 13
56.01195461813654
 23
1.900000000000002
 33
0.0
 14
-43.98804538186347
 24
1.999999999999994
 34
0.0
100
AcDbRotatedDimension
  0
DIMENSION
  5
F9
330
1F
100
AcDbEntity
  8
치수문자_일반주서
100
AcDbDimension
  2
_D_3
 10
6.011954618136535
 20
30.31999999999866
 30
0.0
 11
31.01195461813654
 21
30.31999999999866
 31
0.0
 70
   160
  1
<>
 71
     2
 42
50.0
  3
SLDDIMSTYLE0
100
AcDbAlignedDimension
 13
56.01195461813654
 23
1.89730081064
 33
0.0
 14
6.011954618136533
 24
1.925
 34
0.0
 50
-0.0000000000022354
100
AcDbRotatedDimension
  0
DIMENSION
  5
105
330
1F
100
AcDbEntity
  8
치수문자_일반주서
100
AcDbDimension
  2
_D_4
 10
70.03893492186481
 20
-1.995079370482076
 30
0.0
 11
70.03893492186477
 21
11.66978253655226
 31
0.0
 70
   160
  1
%%c<>
 71
     2
 42
3.998361907034341
 52
-270.0
  3
SLDDIMSTYLE0
100
AcDbAlignedDimension
 13
56.01195461813654
 23
2.003282536552213
 33
0.0
 14
55.91195461813652
 24
-1.995079370482129
 34
0.0
 50
90.0000000000002
100
AcDbRotatedDimension
  0
INSERT
  5
118
330
1F
100
AcDbEntity
  8
외형선
100
AcDbBlockReference
  2
SW_DOWELSYMBOL_0
 10
0.0
 20
0.0
 30
0.0
  0
ARC
  5
14C
330
1F
100
AcDbEntity
  8
0
  6
Continuous
 62
     1
370
    25
100
AcDbCircle
 10
55.91195461813653
 20
1.895078182608322
 30
0.0
 40
0.1
100
AcDbArc
 50
0.0
 51
99.15281119050908
  0
SPLINE
  5
14D
330
1F
100
AcDbEntity
  8
0
  6
Continuous
 62
     1
370
    25
100
AcDbSpline
210
0.0
220
0.0
230
1.0
 70
    24
 71
     3
 72
     8
 73
     4
 74
     0
 42
0.000000001
 43
0.00000001
 40
0.9999943904359837
 40
0.9999943904359837
 40
0.9999943904359837
 40
0.9999943904359837
 40
0.9999999999999999
 40
0.9999999999999999
 40
0.9999999999999999
 40
0.9999999999999999
 10
55.91193977594524
 20
1.995078181507484
 30
0.0
 10
55.91194472334234
 20
1.995078577832368
 30
0.0
 10
55.91194967073943
 20
1.995078974157252
 30
0.0
 10
55.91195461813653
 20
1.995079370482136
 30
0.0
  0
ARC
  5
14E
102
{ACAD_REACTORS
102
}
330
1F
100
AcDbEntity
  8
0
  6
Continuous
 62
     1
370
    25
100
AcDbCircle
 10
55.91195461813653
 20
-1.895078182608307
 30
0.0
 40
0.1
100
AcDbArc
 50
260.8471888094909
 51
0.0
  0
DIMENSION
  5
150
102
{ACAD_REACTORS
102
}
102
{ACAD_XDICTIONARY
360
151
102
}
330
1F
100
AcDbEntity
  8
치수문자_일반주서
100
AcDbDimension
  2
*D8
 10
55.91195461813653
 20
-1.895078182608307
 30
0.0
 11
60.12682451574337
 21
-15.83202436465029
 31
0.0
 70
   164
  1
<>
 71
     5
 42
0.1
  3
SLDDIMSTYLE0
100
AcDbRadialDimension
 15
55.94090221785696
 25
-1.990796709918468
 35
0.0
 40
0.0
1001
ACAD_DSTYLE_DIMRADIAL_EXTENSION
1070
   387
1070
     1
1070
   388
1040
4.552642289296925
1070
   390
1040
0.0
1001
ACAD
1000
DSTYLE
1002
{
1070
    78
1070
     8
1002
}
  0
ENDSEC
  0
SECTION
  2
OBJECTS
  0
DICTIONARY
  5
C
330
0
100
AcDbDictionary
281
     1
  3
ACAD_GROUP
350
D
  3
ACAD_IMAGE_VARS
350
13C
  3
ACAD_LAYOUT
350
1A
  3
ACAD_MLINESTYLE
350
17
  3
ACAD_PLOTSETTINGS
350
19
  3
ACAD_PLOTSTYLENAME
350
E
  3
ACAD_SCALELIST
350
47
  3
APPDATA
350
13A
  3
DWGPROPS
350
15D
  0
DICTIONARY
  5
151
330
150
100
AcDbDictionary
280
     1
281
     1
  0
DICTIONARY
  5
D
102
{ACAD_REACTORS
330
C
102
}
330
C
100
AcDbDictionary
281
     1
  0
RASTERVARIABLES
  5
13C
102
{ACAD_REACTORS
330
C
102
}
330
C
100
AcDbRasterVariables
 90
        0
 70
     1
 71
     1
 72
     1
  0
DICTIONARY
  5
1A
102
{ACAD_REACTORS
330
C
102
}
330
C
100
AcDbDictionary
281
     1
  3
Layout1
350
1E
  3
Layout2
350
26
  3
Model
350
22
  0
DICTIONARY
  5
17
102
{ACAD_REACTORS
330
C
102
}
330
C
100
AcDbDictionary
281
     1
  3
Standard
350
18
  0
DICTIONARY
  5
19
102
{ACAD_REACTORS
330
C
102
}
330
C
100
AcDbDictionary
281
     1
  0
ACDBDICTIONARYWDFLT
  5
E
102
{ACAD_REACTORS
330
C
102
}
330
C
100
AcDbDictionary
281
     1
  3
Normal
350
F
100
AcDbDictionaryWithDefault
340
F
  0
DICTIONARY
  5
47
102
{ACAD_REACTORS
330
C
102
}
330
C
100
AcDbDictionary
281
     1
  3
A0
350
48
  3
A1
350
49
  3
A2
350
4A
  3
A3
350
4B
  3
A4
350
4C
  3
A5
350
4D
  3
A6
350
4E
  3
A7
350
4F
  3
A8
350
50
  3
A9
350
51
  3
B0
350
52
  3
B1
350
53
  3
B2
350
54
  3
B3
350
55
  3
B4
350
56
  3
B5
350
57
  3
B6
350
58
  3
B7
350
59
  3
B8
350
5A
  3
B9
350
5B
  3
C0
350
5C
  3
C1
350
5D
  3
C2
350
5E
  3
C3
350
5F
  3
C4
350
60
  3
C5
350
61
  3
C6
350
62
  3
C7
350
63
  3
C8
350
64
  3
C9
350
65
  3
D0
350
66
  3
D1
350
67
  3
D2
350
68
  0
DICTIONARY
  5
13A
102
{ACAD_REACTORS
330
C
102
}
330
C
100
AcDbDictionary
281
     1
  0
XRECORD
  5
15D
102
{ACAD_REACTORS
330
C
102
}
330
C
100
AcDbXrecord
280
     1
  1
DWGPROPS COOKIE
  2

  3

  4

  6

  7

  8
12016016
  9

300
=
301
=
302
=
303
=
304
=
305
=
306
=
307
=
308
=
309
=
 40
0.0
 41
2458263.418772824
 42
2458264.427389074
  1

 90
        0
  0
LAYOUT
  5
1E
102
{ACAD_REACTORS
330
1A
102
}
330
1A
100
AcDbPlotSettings
  1

  2
none_device
  4

  6

 40
0.0
 41
0.0
 42
0.0
 43
0.0
 44
0.0
 45
0.0
 46
0.0
 47
0.0
 48
0.0
 49
0.0
140
0.0
141
0.0
142
1.0
143
1.0
 70
   688
 72
     1
 73
     0
 74
     5
  7

 75
    16
147
1.0
148
0.0
149
0.0
100
AcDbLayout
  1
Layout1
 70
     1
 71
     1
 10
0.0
 20
0.0
 11
420.0
 21
297.0
 12
0.0
 22
0.0
 32
0.0
 14
1.000000000000000E+20
 24
1.000000000000000E+20
 34
1.000000000000000E+20
 15
-1.000000000000000E+20
 25
-1.000000000000000E+20
 35
-1.000000000000000E+20
146
0.0
 13
0.0
 23
0.0
 33
0.0
 16
1.0
 26
0.0
 36
0.0
 17
0.0
 27
1.0
 37
0.0
 76
     0
330
1B
  0
LAYOUT
  5
26
102
{ACAD_REACTORS
330
1A
102
}
330
1A
100
AcDbPlotSettings
  1

  2
none_device
  4

  6

 40
0.0
 41
0.0
 42
0.0
 43
0.0
 44
0.0
 45
0.0
 46
0.0
 47
0.0
 48
0.0
 49
0.0
140
0.0
141
0.0
142
1.0
143
1.0
 70
   688
 72
     1
 73
     0
 74
     5
  7

 75
    16
147
1.0
148
0.0
149
0.0
100
AcDbLayout
  1
Layout2
 70
     1
 71
     2
 10
0.0
 20
0.0
 11
0.0
 21
0.0
 12
0.0
 22
0.0
 32
0.0
 14
0.0
 24
0.0
 34
0.0
 15
0.0
 25
0.0
 35
0.0
146
0.0
 13
0.0
 23
0.0
 33
0.0
 16
1.0
 26
0.0
 36
0.0
 17
0.0
 27
1.0
 37
0.0
 76
     0
330
23
  0
LAYOUT
  5
22
102
{ACAD_REACTORS
330
1A
102
}
330
1A
100
AcDbPlotSettings
  1

  2
none_device
  4
ANSI_A_(11.00_x_8.50_Inches)
  6

 40
6.35
 41
19.05
 42
6.35000508
 43
19.05000254
 44
279.4
 45
215.9
 46
118.5994232720402
 47
92.9955395881743
 48
0.0
 49
0.0
140
0.0
141
0.0
142
0.0861435031914558
143
1.0
 70
  1696
 72
     0
 73
     0
 74
     0
  7

 75
     0
147
0.0235690232323232
148
0.0
149
0.0
100
AcDbLayout
  1
Model
 70
     1
 71
     0
 10
0.0
 20
0.0
 11
420.0
 21
297.0
 12
0.0
 22
0.0
 32
0.0
 14
-59.85950340347554
 24
-49.97180738881175
 34
0.0
 15
70.58926825519815
 25
46.83332450504429
 35
0.0
146
0.0
 13
0.0
 23
0.0
 33
0.0
 16
1.0
 26
0.0
 36
0.0
 17
0.0
 27
1.0
 37
0.0
 76
     0
330
1F
331
29
  0
MLINESTYLE
  5
18
102
{ACAD_REACTORS
330
17
102
}
330
17
100
AcDbMlineStyle
  2
Standard
 70
     0
  3

 62
   256
 51
90.0
 52
90.0
 71
     2
 49
0.5
 62
   256
  6
BYLAYER
 49
-0.5
 62
   256
  6
BYLAYER
  0
ACDBPLACEHOLDER
  5
F
102
{ACAD_REACTORS
330
E
102
}
330
E
  0
SCALE
  5
48
102
{ACAD_REACTORS
330
47
102
}
330
47
100
AcDbScale
 70
     0
300
1:1
140
1.0
141
1.0
290
     1
  0
SCALE
  5
49
102
{ACAD_REACTORS
330
47
102
}
330
47
100
AcDbScale
 70
     0
300
1:2
140
1.0
141
2.0
290
     0
  0
SCALE
  5
4A
102
{ACAD_REACTORS
330
47
102
}
330
47
100
AcDbScale
 70
     0
300
1:4
140
1.0
141
4.0
290
     0
  0
SCALE
  5
4B
102
{ACAD_REACTORS
330
47
102
}
330
47
100
AcDbScale
 70
     0
300
1:5
140
1.0
141
5.0
290
     0
  0
SCALE
  5
4C
102
{ACAD_REACTORS
330
47
102
}
330
47
100
AcDbScale
 70
     0
300
1:8
140
1.0
141
8.0
290
     0
  0
SCALE
  5
4D
102
{ACAD_REACTORS
330
47
102
}
330
47
100
AcDbScale
 70
     0
300
1:10
140
1.0
141
10.0
290
     0
  0
SCALE
  5
4E
102
{ACAD_REACTORS
330
47
102
}
330
47
100
AcDbScale
 70
     0
300
1:16
140
1.0
141
16.0
290
     0
  0
SCALE
  5
4F
102
{ACAD_REACTORS
330
47
102
}
330
47
100
AcDbScale
 70
     0
300
1:20
140
1.0
141
20.0
290
     0
  0
SCALE
  5
50
102
{ACAD_REACTORS
330
47
102
}
330
47
100
AcDbScale
 70
     0
300
1:30
140
1.0
141
30.0
290
     0
  0
SCALE
  5
51
102
{ACAD_REACTORS
330
47
102
}
330
47
100
AcDbScale
 70
     0
300
1:40
140
1.0
141
40.0
290
     0
  0
SCALE
  5
52
102
{ACAD_REACTORS
330
47
102
}
330
47
100
AcDbScale
 70
     0
300
1:50
140
1.0
141
50.0
290
     0
  0
SCALE
  5
53
102
{ACAD_REACTORS
330
47
102
}
330
47
100
AcDbScale
 70
     0
300
1:100
140
1.0
141
100.0
290
     0
  0
SCALE
  5
54
102
{ACAD_REACTORS
330
47
102
}
330
47
100
AcDbScale
 70
     0
300
2:1
140
2.0
141
1.0
290
     0
  0
SCALE
  5
55
102
{ACAD_REACTORS
330
47
102
}
330
47
100
AcDbScale
 70
     0
300
4:1
140
4.0
141
1.0
290
     0
  0
SCALE
  5
56
102
{ACAD_REACTORS
330
47
102
}
330
47
100
AcDbScale
 70
     0
300
8:1
140
8.0
141
1.0
290
     0
  0
SCALE
  5
57
102
{ACAD_REACTORS
330
47
102
}
330
47
100
AcDbScale
 70
     0
300
10:1
140
10.0
141
1.0
290
     0
  0
SCALE
  5
58
102
{ACAD_REACTORS
330
47
102
}
330
47
100
AcDbScale
 70
     0
300
100:1
140
100.0
141
1.0
290
     0
  0
SCALE
  5
59
102
{ACAD_REACTORS
330
47
102
}
330
47
100
AcDbScale
 70
     0
300
1/128" = 1'-0"
140
0.0078125
141
12.0
290
     0
  0
SCALE
  5
5A
102
{ACAD_REACTORS
330
47
102
}
330
47
100
AcDbScale
 70
     0
300
1/64" = 1'-0"
140
0.015625
141
12.0
290
     0
  0
SCALE
  5
5B
102
{ACAD_REACTORS
330
47
102
}
330
47
100
AcDbScale
 70
     0
300
1/32" = 1'-0"
140
0.03125
141
12.0
290
     0
  0
SCALE
  5
5C
102
{ACAD_REACTORS
330
47
102
}
330
47
100
AcDbScale
 70
     0
300
1/16" = 1'-0"
140
0.0625
141
12.0
290
     0
  0
SCALE
  5
5D
102
{ACAD_REACTORS
330
47
102
}
330
47
100
AcDbScale
 70
     0
300
3/32" = 1'-0"
140
0.09375
141
12.0
290
     0
  0
SCALE
  5
5E
102
{ACAD_REACTORS
330
47
102
}
330
47
100
AcDbScale
 70
     0
300
1/8" = 1'-0"
140
0.125
141
12.0
290
     0
  0
SCALE
  5
5F
102
{ACAD_REACTORS
330
47
102
}
330
47
100
AcDbScale
 70
     0
300
3/16" = 1'-0"
140
0.1875
141
12.0
290
     0
  0
SCALE
  5
60
102
{ACAD_REACTORS
330
47
102
}
330
47
100
AcDbScale
 70
     0
300
1/4" = 1'-0"
140
0.25
141
12.0
290
     0
  0
SCALE
  5
61
102
{ACAD_REACTORS
330
47
102
}
330
47
100
AcDbScale
 70
     0
300
3/8" = 1'-0"
140
0.375
141
12.0
290
     0
  0
SCALE
  5
62
102
{ACAD_REACTORS
330
47
102
}
330
47
100
AcDbScale
 70
     0
300
1/2" = 1'-0"
140
0.5
141
12.0
290
     0
  0
SCALE
  5
63
102
{ACAD_REACTORS
330
47
102
}
330
47
100
AcDbScale
 70
     0
300
3/4" = 1'-0"
140
0.75
141
12.0
290
     0
  0
SCALE
  5
64
102
{ACAD_REACTORS
330
47
102
}
330
47
100
AcDbScale
 70
     0
300
1" = 1'-0"
140
1.0
141
12.0
290
     0
  0
SCALE
  5
65
102
{ACAD_REACTORS
330
47
102
}
330
47
100
AcDbScale
 70
     0
300
1-1/2" = 1'-0"
140
1.5
141
12.0
290
     0
  0
SCALE
  5
66
102
{ACAD_REACTORS
330
47
102
}
330
47
100
AcDbScale
 70
     0
300
3" = 1'-0"
140
3.0
141
12.0
290
     0
  0
SCALE
  5
67
102
{ACAD_REACTORS
330
47
102
}
330
47
100
AcDbScale
 70
     0
300
6" = 1'-0"
140
6.0
141
12.0
290
     0
  0
SCALE
  5
68
102
{ACAD_REACTORS
330
47
102
}
330
47
100
AcDbScale
 70
     0
300
1'-0" = 1'-0"
140
12.0
141
12.0
290
     0
  0
ENDSEC
  0
EOF
