  0
SECTION
  2
HEADER
  9
$ACADVER
  1
AC1015
  9
$ACADMAINTVER
 70
     6
  9
$DWGCODEPAGE
  3
ANSI_949
  9
$INSBASE
 10
0.0
 20
0.0
 30
0.0
  9
$EXTMIN
 10
-80.7214580216121
 20
-49.96965753136395
 30
0.0
  9
$EXTMAX
 10
59.86958648361316
 20
48.63332450504429
 30
0.0
  9
$LIMMIN
 10
0.0
 20
0.0
  9
$LIMMAX
 10
420.0
 20
297.0
  9
$ORTHOMODE
 70
     0
  9
$REGENMODE
 70
     1
  9
$FILLMODE
 70
     1
  9
$QTEXTMODE
 70
     0
  9
$MIRRTEXT
 70
     1
  9
$LTSCALE
 40
1.0
  9
$ATTMODE
 70
     1
  9
$TEXTSIZE
 40
3.5
  9
$TRACEWID
 40
1.0
  9
$TEXTSTYLE
  7
Standard
  9
$CLAYER
  8
0
  9
$CELTYPE
  6
ByLayer
  9
$CECOLOR
 62
   256
  9
$CELTSCALE
 40
1.0
  9
$DISPSILH
 70
     0
  9
$DIMSCALE
 40
1.0
  9
$DIMASZ
 40
3.302
  9
$DIMEXO
 40
1.0
  9
$DIMDLI
 40
3.75
  9
$DIMRND
 40
0.0
  9
$DIMDLE
 40
0.0
  9
$DIMEXE
 40
1.0
  9
$DIMTP
 40
0.0
  9
$DIMTM
 40
0.0
  9
$DIMTXT
 40
3.5
  9
$DIMCEN
 40
2.5
  9
$DIMTSZ
 40
0.0
  9
$DIMTOL
 70
     0
  9
$DIMLIM
 70
     0
  9
$DIMTIH
 70
     1
  9
$DIMTOH
 70
     1
  9
$DIMSE1
 70
     0
  9
$DIMSE2
 70
     0
  9
$DIMTAD
 70
     1
  9
$DIMZIN
 70
     0
  9
$DIMBLK
  1

  9
$DIMASO
 70
     1
  9
$DIMSHO
 70
     1
  9
$DIMPOST
  1

  9
$DIMAPOST
  1

  9
$DIMALT
 70
     0
  9
$DIMALTD
 70
     3
  9
$DIMALTF
 40
0.0393700787401575
  9
$DIMLFAC
 40
1.0
  9
$DIMTOFL
 70
     1
  9
$DIMTVP
 40
0.0
  9
$DIMTIX
 70
     0
  9
$DIMSOXD
 70
     0
  9
$DIMSAH
 70
     0
  9
$DIMBLK1
  1

  9
$DIMBLK2
  1

  9
$DIMSTYLE
  2
ISO-25
  9
$DIMCLRD
 70
     0
  9
$DIMCLRE
 70
     0
  9
$DIMCLRT
 70
     0
  9
$DIMTFAC
 40
1.0
  9
$DIMGAP
 40
1.524
  9
$DIMJUST
 70
     0
  9
$DIMSD1
 70
     0
  9
$DIMSD2
 70
     0
  9
$DIMTOLJ
 70
     0
  9
$DIMTZIN
 70
     0
  9
$DIMALTZ
 70
     0
  9
$DIMALTTZ
 70
     0
  9
$DIMUPT
 70
     0
  9
$DIMDEC
 70
     2
  9
$DIMTDEC
 70
     2
  9
$DIMALTU
 70
     2
  9
$DIMALTTD
 70
     3
  9
$DIMTXSTY
  7
Standard
  9
$DIMAUNIT
 70
     0
  9
$DIMADEC
 70
     2
  9
$DIMALTRND
 40
0.0
  9
$DIMAZIN
 70
     0
  9
$DIMDSEP
 70
    44
  9
$DIMATFIT
 70
     3
  9
$DIMFRAC
 70
     0
  9
$DIMLDRBLK
  1

  9
$DIMLUNIT
 70
     2
  9
$DIMLWD
 70
    -2
  9
$DIMLWE
 70
    -2
  9
$DIMTMOVE
 70
     0
  9
$LUNITS
 70
     2
  9
$LUPREC
 70
     2
  9
$SKETCHINC
 40
1.0
  9
$FILLETRAD
 40
10.0
  9
$AUNITS
 70
     0
  9
$AUPREC
 70
     2
  9
$MENU
  1
.
  9
$ELEVATION
 40
0.0
  9
$PELEVATION
 40
0.0
  9
$THICKNESS
 40
0.0
  9
$LIMCHECK
 70
     0
  9
$CHAMFERA
 40
0.0
  9
$CHAMFERB
 40
0.0
  9
$CHAMFERC
 40
0.0
  9
$CHAMFERD
 40
0.0
  9
$SKPOLY
 70
     0
  9
$TDCREATE
 40
2458263.806249583
  9
$TDUCREATE
 40
2458263.431249583
  9
$TDUPDATE
 40
2459577.322638634
  9
$TDUUPDATE
 40
2459576.947638634
  9
$TDINDWG
 40
0.0028290509
  9
$TDUSRTIMER
 40
0.000731088
  9
$USRTIMER
 70
     1
  9
$ANGBASE
 50
0.0
  9
$ANGDIR
 70
     0
  9
$PDMODE
 70
     0
  9
$PDSIZE
 40
-1.0
  9
$PLINEWID
 40
0.0
  9
$SPLFRAME
 70
     0
  9
$SPLINETYPE
 70
     6
  9
$SPLINESEGS
 70
     8
  9
$HANDSEED
  5
47A
  9
$SURFTAB1
 70
     6
  9
$SURFTAB2
 70
     6
  9
$SURFTYPE
 70
     6
  9
$SURFU
 70
     6
  9
$SURFV
 70
     6
  9
$UCSBASE
  2

  9
$UCSNAME
  2

  9
$UCSORG
 10
0.0
 20
0.0
 30
0.0
  9
$UCSXDIR
 10
1.0
 20
0.0
 30
0.0
  9
$UCSYDIR
 10
0.0
 20
1.0
 30
0.0
  9
$UCSORTHOREF
  2

  9
$UCSORTHOVIEW
 70
     0
  9
$UCSORGTOP
 10
0.0
 20
0.0
 30
0.0
  9
$UCSORGBOTTOM
 10
0.0
 20
0.0
 30
0.0
  9
$UCSORGLEFT
 10
0.0
 20
0.0
 30
0.0
  9
$UCSORGRIGHT
 10
0.0
 20
0.0
 30
0.0
  9
$UCSORGFRONT
 10
0.0
 20
0.0
 30
0.0
  9
$UCSORGBACK
 10
0.0
 20
0.0
 30
0.0
  9
$PUCSBASE
  2

  9
$PUCSNAME
  2

  9
$PUCSORG
 10
0.0
 20
0.0
 30
0.0
  9
$PUCSXDIR
 10
1.0
 20
0.0
 30
0.0
  9
$PUCSYDIR
 10
0.0
 20
1.0
 30
0.0
  9
$PUCSORTHOREF
  2

  9
$PUCSORTHOVIEW
 70
     0
  9
$PUCSORGTOP
 10
0.0
 20
0.0
 30
0.0
  9
$PUCSORGBOTTOM
 10
0.0
 20
0.0
 30
0.0
  9
$PUCSORGLEFT
 10
0.0
 20
0.0
 30
0.0
  9
$PUCSORGRIGHT
 10
0.0
 20
0.0
 30
0.0
  9
$PUCSORGFRONT
 10
0.0
 20
0.0
 30
0.0
  9
$PUCSORGBACK
 10
0.0
 20
0.0
 30
0.0
  9
$USERI1
 70
     0
  9
$USERI2
 70
     0
  9
$USERI3
 70
     0
  9
$USERI4
 70
     0
  9
$USERI5
 70
     0
  9
$USERR1
 40
0.0
  9
$USERR2
 40
0.0
  9
$USERR3
 40
0.0
  9
$USERR4
 40
0.0
  9
$USERR5
 40
0.0
  9
$WORLDVIEW
 70
     1
  9
$SHADEDGE
 70
     3
  9
$SHADEDIF
 70
    70
  9
$TILEMODE
 70
     1
  9
$MAXACTVP
 70
    64
  9
$PINSBASE
 10
0.0
 20
0.0
 30
0.0
  9
$PLIMCHECK
 70
     0
  9
$PEXTMIN
 10
1.000000000000000E+20
 20
1.000000000000000E+20
 30
1.000000000000000E+20
  9
$PEXTMAX
 10
-1.000000000000000E+20
 20
-1.000000000000000E+20
 30
-1.000000000000000E+20
  9
$PLIMMIN
 10
0.0
 20
0.0
  9
$PLIMMAX
 10
0.0
 20
0.0
  9
$UNITMODE
 70
     0
  9
$VISRETAIN
 70
     1
  9
$PLINEGEN
 70
     0
  9
$PSLTSCALE
 70
     1
  9
$TREEDEPTH
 70
  3020
  9
$CMLSTYLE
  2
Standard
  9
$CMLJUST
 70
     0
  9
$CMLSCALE
 40
20.0
  9
$PROXYGRAPHICS
 70
     1
  9
$MEASUREMENT
 70
     1
  9
$CELWEIGHT
370
    -1
  9
$ENDCAPS
280
     0
  9
$JOINSTYLE
280
     0
  9
$LWDISPLAY
290
     1
  9
$INSUNITS
 70
     4
  9
$HYPERLINKBASE
  1

  9
$STYLESHEET
  1

  9
$XEDIT
290
     1
  9
$CEPSNTYPE
380
     0
  9
$PSTYLEMODE
290
     1
  9
$FINGERPRINTGUID
  2
{3B7EB456-7F02-4BAD-9056-18FA6930322F}
  9
$VERSIONGUID
  2
{FAEB1C32-E019-11D5-929B-00C0DF256EC4}
  9
$EXTNAMES
290
     1
  9
$PSVPSCALE
 40
0.0
  9
$OLESTARTUP
290
     0
  0
ENDSEC
  0
SECTION
  2
CLASSES
  0
CLASS
  1
ACDBDICTIONARYWDFLT
  2
AcDbDictionaryWithDefault
  3
ObjectDBX Classes
 90
        0
280
     0
281
     0
  0
CLASS
  1
VISUALSTYLE
  2
AcDbVisualStyle
  3
ObjectDBX Classes
 90
     4095
280
     0
281
     0
  0
CLASS
  1
MATERIAL
  2
AcDbMaterial
  3
ObjectDBX Classes
 90
     1153
280
     0
281
     0
  0
CLASS
  1
SCALE
  2
AcDbScale
  3
ObjectDBX Classes
 90
     1153
280
     0
281
     0
  0
CLASS
  1
TABLESTYLE
  2
AcDbTableStyle
  3
ObjectDBX Classes
 90
     4095
280
     0
281
     0
  0
CLASS
  1
MLEADERSTYLE
  2
AcDbMLeaderStyle
  3
ACDB_MLEADERSTYLE_CLASS
 90
     4095
280
     0
281
     0
  0
CLASS
  1
SUN
  2
AcDbSun
  3
SCENEOE
 90
     1153
280
     0
281
     0
  0
CLASS
  1
ACDBPLACEHOLDER
  2
AcDbPlaceHolder
  3
ObjectDBX Classes
 90
        0
280
     0
281
     0
  0
CLASS
  1
LAYOUT
  2
AcDbLayout
  3
ObjectDBX Classes
 90
        0
280
     0
281
     0
  0
CLASS
  1
RASTERVARIABLES
  2
AcDbRasterVariables
  3
ISM
 90
        0
280
     0
281
     0
  0
CLASS
  1
DIMASSOC
  2
AcDbDimAssoc
  3
"AcDbDimAssoc|Product Desc:     AcDim ARX App For Dimension|Company:          Autodesk, Inc.|WEB Address:      www.autodesk.com"
 90
        0
280
     0
281
     0
  0
ENDSEC
  0
SECTION
  2
TABLES
  0
TABLE
  2
VPORT
  5
8
330
0
100
AcDbSymbolTable
 70
     1
  0
VPORT
  5
29
330
8
100
AcDbSymbolTableRecord
100
AcDbViewportTableRecord
  2
*Active
 70
     0
 10
0.0
 20
0.0
 11
1.0
 21
1.0
 12
-10.42593576899948
 22
-0.6681665131598322
 13
0.0
 23
0.0
 14
10.0
 24
10.0
 15
10.0
 25
10.0
 16
0.0
 26
0.0
 36
1.0
 17
0.0
 27
0.0
 37
0.0
 40
100.5750416771364
 41
2.070175438596491
 42
50.0
 43
0.0
 44
0.0
 50
0.0
 51
0.0
 71
    16
 72
  2000
 73
     1
 74
     3
 75
     0
 76
     0
 77
     0
 78
     0
281
     0
 65
     1
110
0.0
120
0.0
130
0.0
111
1.0
121
0.0
131
0.0
112
0.0
122
1.0
132
0.0
 79
     0
146
0.0
  0
ENDTAB
  0
TABLE
  2
LTYPE
  5
5
330
0
100
AcDbSymbolTable
 70
     6
  0
LTYPE
  5
14
330
5
100
AcDbSymbolTableRecord
100
AcDbLinetypeTableRecord
  2
ByBlock
 70
     0
  3

 72
    65
 73
     0
 40
0.0
  0
LTYPE
  5
15
330
5
100
AcDbSymbolTableRecord
100
AcDbLinetypeTableRecord
  2
ByLayer
 70
     0
  3

 72
    65
 73
     0
 40
0.0
  0
LTYPE
  5
16
330
5
100
AcDbSymbolTableRecord
100
AcDbLinetypeTableRecord
  2
Continuous
 70
     0
  3
Solid line
 72
    65
 73
     0
 40
0.0
  0
LTYPE
  5
6E
330
5
100
AcDbSymbolTableRecord
100
AcDbLinetypeTableRecord
  2
HIDDEN
 70
     0
  3
Hidden __ __ __ __ __ __ __ __ __ __ __ __ __ __
 72
    65
 73
     2
 40
1.905
 49
1.27
 74
     0
 49
-0.635
 74
     0
  0
LTYPE
  5
6F
330
5
100
AcDbSymbolTableRecord
100
AcDbLinetypeTableRecord
  2
PHANTOM
 70
     0
  3
Phantom ______  __  __  ______  __  __  ______
 72
    65
 73
     6
 40
12.7
 49
6.35
 74
     0
 49
-1.27
 74
     0
 49
1.27
 74
     0
 49
-1.27
 74
     0
 49
1.27
 74
     0
 49
-1.27
 74
     0
  0
LTYPE
  5
70
330
5
100
AcDbSymbolTableRecord
100
AcDbLinetypeTableRecord
  2
CENTER
 70
     0
  3
Center ____ _ ____ _ ____ _ ____ _ ____ _ ____
 72
    65
 73
     4
 40
10.16
 49
6.35
 74
     0
 49
-1.27
 74
     0
 49
1.27
 74
     0
 49
-1.27
 74
     0
  0
LTYPE
  5
71
330
5
100
AcDbSymbolTableRecord
100
AcDbLinetypeTableRecord
  2
CENTERX2
 70
     0
  3
Center (2x) ________  __  ________  __  _____
 72
    65
 73
     4
 40
20.32
 49
12.7
 74
     0
 49
-2.54
 74
     0
 49
2.54
 74
     0
 49
-2.54
 74
     0
  0
LTYPE
  5
72
330
5
100
AcDbSymbolTableRecord
100
AcDbLinetypeTableRecord
  2
DOT2
 70
     0
  3
Dot (.5x) ........................................
 72
    65
 73
     2
 40
0.635
 49
0.0
 74
     0
 49
-0.635
 74
     0
  0
ENDTAB
  0
TABLE
  2
LAYER
  5
2
330
0
100
AcDbSymbolTable
 70
    17
  0
LAYER
  5
10
330
2
100
AcDbSymbolTableRecord
100
AcDbLayerTableRecord
  2
0
 70
     0
 62
     7
  6
Continuous
370
    -3
390
F
  0
LAYER
  5
73
330
2
100
AcDbSymbolTableRecord
100
AcDbLayerTableRecord
  2
FORMAT
 70
     0
 62
     2
  6
Continuous
370
    -3
390
F
  0
LAYER
  5
74
330
2
100
AcDbSymbolTableRecord
100
AcDbLayerTableRecord
  2
외형선
 70
     0
 62
   100
  6
Continuous
370
    35
390
F
  0
LAYER
  5
75
330
2
100
AcDbSymbolTableRecord
100
AcDbLayerTableRecord
  2
숨은선
 70
     0
 62
     2
  6
HIDDEN
370
    25
390
F
  0
LAYER
  5
76
330
2
100
AcDbSymbolTableRecord
100
AcDbLayerTableRecord
  2
중심선
 70
     0
 62
     1
  6
CENTERX2
370
    -3
390
F
  0
LAYER
  5
77
330
2
100
AcDbSymbolTableRecord
100
AcDbLayerTableRecord
  2
파단선
 70
     0
 62
     4
  6
Continuous
370
    -3
390
F
  0
LAYER
  5
78
330
2
100
AcDbSymbolTableRecord
100
AcDbLayerTableRecord
  2
해칭선
 70
     0
 62
     4
  6
Continuous
370
    -3
390
F
  0
LAYER
  5
79
330
2
100
AcDbSymbolTableRecord
100
AcDbLayerTableRecord
  2
가는실선
 70
     0
 62
     4
  6
Continuous
370
    -3
390
F
  0
LAYER
  5
7A
330
2
100
AcDbSymbolTableRecord
100
AcDbLayerTableRecord
  2
치수_보조선
 70
     0
 62
     4
  6
Continuous
370
    -3
390
F
  0
LAYER
  5
7B
330
2
100
AcDbSymbolTableRecord
100
AcDbLayerTableRecord
  2
치수문자_일반주서
 70
     0
 62
     7
  6
Continuous
370
    25
390
F
  0
LAYER
  5
7C
330
2
100
AcDbSymbolTableRecord
100
AcDbLayerTableRecord
  2
개별주서
 70
     0
 62
   100
  6
Continuous
370
    35
390
F
  0
LAYER
  5
7D
330
2
100
AcDbSymbolTableRecord
100
AcDbLayerTableRecord
  2
중간선
 70
     0
 62
     2
  6
Continuous
370
    25
390
F
  0
LAYER
  5
7E
330
2
100
AcDbSymbolTableRecord
100
AcDbLayerTableRecord
  2
윤곽선
 70
     0
 62
     3
  6
Continuous
370
    50
390
F
  0
LAYER
  5
7F
330
2
100
AcDbSymbolTableRecord
100
AcDbLayerTableRecord
  2
중심마크
 70
     0
 62
   100
  6
Continuous
370
    35
390
F
  0
LAYER
  5
80
330
2
100
AcDbSymbolTableRecord
100
AcDbLayerTableRecord
  2
가상선
 70
     0
 62
     4
  6
PHANTOM
370
    -3
390
F
  0
LAYER
  5
81
330
2
100
AcDbSymbolTableRecord
100
AcDbLayerTableRecord
  2
특수지정선
 70
     0
 62
     5
  6
CENTERX2
370
    70
390
F
  0
LAYER
  5
145
330
2
100
AcDbSymbolTableRecord
100
AcDbLayerTableRecord
  2
Defpoints
 70
     0
 62
     7
  6
Continuous
290
     0
370
    -3
390
F
  0
ENDTAB
  0
TABLE
  2
STYLE
  5
3
330
0
100
AcDbSymbolTable
 70
     2
  0
STYLE
  5
11
330
3
100
AcDbSymbolTableRecord
100
AcDbTextStyleTableRecord
  2
Standard
 70
     0
 40
0.0
 41
1.0
 50
0.0
 71
     0
 42
3.5
  3
txt
  4

  0
STYLE
  5
97
330
3
100
AcDbSymbolTableRecord
100
AcDbTextStyleTableRecord
  2
SLDTEXTSTYLE0
 70
     0
 40
0.0
 41
0.75
 50
0.0
 71
     0
 42
3.5
  3
TXT
  4

  0
ENDTAB
  0
TABLE
  2
VIEW
  5
6
330
0
100
AcDbSymbolTable
 70
     0
  0
ENDTAB
  0
TABLE
  2
UCS
  5
7
330
0
100
AcDbSymbolTable
 70
     0
  0
ENDTAB
  0
TABLE
  2
APPID
  5
9
330
0
100
AcDbSymbolTable
 70
     4
  0
APPID
  5
12
330
9
100
AcDbSymbolTableRecord
100
AcDbRegAppTableRecord
  2
ACAD
 70
     0
  0
APPID
  5
150
330
9
100
AcDbSymbolTableRecord
100
AcDbRegAppTableRecord
  2
ACAD_DSTYLE_DIMRADIAL_EXTENSION
 70
     0
  0
APPID
  5
452
330
9
100
AcDbSymbolTableRecord
100
AcDbRegAppTableRecord
  2
PE_DIMMEASUREMENT
 70
     0
  0
APPID
  5
476
330
9
100
AcDbSymbolTableRecord
100
AcDbRegAppTableRecord
  2
PE_URL
 70
     0
  0
ENDTAB
  0
TABLE
  2
DIMSTYLE
  5
A
330
0
100
AcDbSymbolTable
 70
     3
100
AcDbDimStyleTable
  0
DIMSTYLE
105
27
102
{ACAD_REACTORS
102
}
330
A
100
AcDbSymbolTableRecord
100
AcDbDimStyleTableRecord
  2
ISO-25
 70
     0
 41
2.5
 42
0.625
 43
3.75
 44
1.25
 73
     0
 74
     0
 77
     1
 78
     8
140
2.5
141
2.5
143
0.03937007874016
147
0.625
171
     3
172
     1
178
     0
271
     2
272
     2
274
     3
278
    44
283
     0
284
     8
340
11
  0
DIMSTYLE
105
DD
102
{ACAD_REACTORS
330
3EF
330
3F2
330
3F3
330
445
102
}
330
A
100
AcDbSymbolTableRecord
100
AcDbDimStyleTableRecord
  2
SLDDIMSTYLE0
 70
     0
 41
3.302
 44
0.0
 45
0.000000001
 73
     0
 74
     0
 77
     1
 78
    12
 79
     3
140
3.5
147
0.875
172
     1
173
     1
178
     0
271
     2
272
     2
276
     2
284
    12
289
     0
340
97
  0
DIMSTYLE
105
EB
102
{ACAD_REACTORS
330
3F0
330
3F1
102
}
330
A
100
AcDbSymbolTableRecord
100
AcDbDimStyleTableRecord
  2
SLDDIMSTYLE1
 70
     0
 41
3.302
 44
0.0
 45
0.000000001
 73
     0
 74
     0
 77
     1
 78
    12
 79
     3
140
3.5
147
0.875
173
     1
178
     0
271
     2
272
     2
276
     2
284
    12
340
97
  0
ENDTAB
  0
TABLE
  2
BLOCK_RECORD
  5
1
330
0
100
AcDbSymbolTable
 70
    33
  0
BLOCK_RECORD
  5
1F
330
1
100
AcDbSymbolTableRecord
100
AcDbBlockTableRecord
  2
*Model_Space
340
22
  0
BLOCK_RECORD
  5
1B
330
1
100
AcDbSymbolTableRecord
100
AcDbBlockTableRecord
  2
*Paper_Space
340
1E
  0
BLOCK_RECORD
  5
23
330
1
100
AcDbSymbolTableRecord
100
AcDbBlockTableRecord
  2
*Paper_Space0
340
26
  0
BLOCK_RECORD
  5
82
330
1
100
AcDbSymbolTableRecord
100
AcDbBlockTableRecord
  2
블럭10
340
0
102
{BLKREFS
331
D5
102
}
  0
BLOCK_RECORD
  5
DE
330
1
100
AcDbSymbolTableRecord
100
AcDbBlockTableRecord
  2
_D
340
0
  0
BLOCK_RECORD
  5
EC
330
1
100
AcDbSymbolTableRecord
100
AcDbBlockTableRecord
  2
_D_1
340
0
  0
BLOCK_RECORD
  5
F7
330
1
100
AcDbSymbolTableRecord
100
AcDbBlockTableRecord
  2
_D_2
340
0
  0
BLOCK_RECORD
  5
101
330
1
100
AcDbSymbolTableRecord
100
AcDbBlockTableRecord
  2
_D_3
340
0
  0
BLOCK_RECORD
  5
10D
330
1
100
AcDbSymbolTableRecord
100
AcDbBlockTableRecord
  2
_D_4
340
0
  0
BLOCK_RECORD
  5
119
330
1
100
AcDbSymbolTableRecord
100
AcDbBlockTableRecord
  2
SW_DOWELSYMBOL_0
340
0
102
{BLKREFS
331
3F4
102
}
  0
BLOCK_RECORD
  5
1E0
330
1
100
AcDbSymbolTableRecord
100
AcDbBlockTableRecord
  2
*D8
340
0
  0
BLOCK_RECORD
  5
1F0
330
1
100
AcDbSymbolTableRecord
100
AcDbBlockTableRecord
  2
*D9
340
0
  0
BLOCK_RECORD
  5
1FC
330
1
100
AcDbSymbolTableRecord
100
AcDbBlockTableRecord
  2
*D10
340
0
  0
BLOCK_RECORD
  5
208
330
1
100
AcDbSymbolTableRecord
100
AcDbBlockTableRecord
  2
*D11
340
0
  0
BLOCK_RECORD
  5
215
330
1
100
AcDbSymbolTableRecord
100
AcDbBlockTableRecord
  2
*D12
340
0
  0
BLOCK_RECORD
  5
221
330
1
100
AcDbSymbolTableRecord
100
AcDbBlockTableRecord
  2
*D13
340
0
  0
BLOCK_RECORD
  5
26B
330
1
100
AcDbSymbolTableRecord
100
AcDbBlockTableRecord
  2
*D14
340
0
  0
BLOCK_RECORD
  5
277
330
1
100
AcDbSymbolTableRecord
100
AcDbBlockTableRecord
  2
*D15
340
0
  0
BLOCK_RECORD
  5
284
330
1
100
AcDbSymbolTableRecord
100
AcDbBlockTableRecord
  2
*D16
340
0
  0
BLOCK_RECORD
  5
290
330
1
100
AcDbSymbolTableRecord
100
AcDbBlockTableRecord
  2
*D17
340
0
  0
BLOCK_RECORD
  5
29F
330
1
100
AcDbSymbolTableRecord
100
AcDbBlockTableRecord
  2
*D18
340
0
  0
BLOCK_RECORD
  5
2AC
330
1
100
AcDbSymbolTableRecord
100
AcDbBlockTableRecord
  2
*D19
340
0
  0
BLOCK_RECORD
  5
369
330
1
100
AcDbSymbolTableRecord
100
AcDbBlockTableRecord
  2
*D20
340
0
  0
BLOCK_RECORD
  5
374
330
1
100
AcDbSymbolTableRecord
100
AcDbBlockTableRecord
  2
*D21
340
0
  0
BLOCK_RECORD
  5
380
330
1
100
AcDbSymbolTableRecord
100
AcDbBlockTableRecord
  2
*D22
340
0
  0
BLOCK_RECORD
  5
38D
330
1
100
AcDbSymbolTableRecord
100
AcDbBlockTableRecord
  2
*D23
340
0
  0
BLOCK_RECORD
  5
399
330
1
100
AcDbSymbolTableRecord
100
AcDbBlockTableRecord
  2
*D24
340
0
  0
BLOCK_RECORD
  5
3A8
330
1
100
AcDbSymbolTableRecord
100
AcDbBlockTableRecord
  2
*D25
340
0
  0
BLOCK_RECORD
  5
3F8
330
1
100
AcDbSymbolTableRecord
100
AcDbBlockTableRecord
  2
*D26
340
0
  0
BLOCK_RECORD
  5
404
330
1
100
AcDbSymbolTableRecord
100
AcDbBlockTableRecord
  2
*D27
340
0
  0
BLOCK_RECORD
  5
411
330
1
100
AcDbSymbolTableRecord
100
AcDbBlockTableRecord
  2
*D28
340
0
  0
BLOCK_RECORD
  5
41D
330
1
100
AcDbSymbolTableRecord
100
AcDbBlockTableRecord
  2
*D29
340
0
  0
BLOCK_RECORD
  5
42C
330
1
100
AcDbSymbolTableRecord
100
AcDbBlockTableRecord
  2
*D30
340
0
  0
BLOCK_RECORD
  5
438
330
1
100
AcDbSymbolTableRecord
100
AcDbBlockTableRecord
  2
*D31
340
0
  0
BLOCK_RECORD
  5
448
330
1
100
AcDbSymbolTableRecord
100
AcDbBlockTableRecord
  2
*D32
340
0
  0
ENDTAB
  0
ENDSEC
  0
SECTION
  2
BLOCKS
  0
BLOCK
  5
20
330
1F
100
AcDbEntity
  8
0
100
AcDbBlockBegin
  2
*Model_Space
 70
     0
 10
0.0
 20
0.0
 30
0.0
  3
*Model_Space
  1
*Model_Space
  0
ENDBLK
  5
21
330
1F
100
AcDbEntity
  8
0
100
AcDbBlockEnd
  0
BLOCK
  5
1C
330
1B
100
AcDbEntity
 67
     1
  8
0
100
AcDbBlockBegin
  2
*Paper_Space
 70
     0
 10
0.0
 20
0.0
 30
0.0
  3
*Paper_Space
  1
*Paper_Space
  0
ENDBLK
  5
1D
330
1B
100
AcDbEntity
 67
     1
  8
0
100
AcDbBlockEnd
  0
BLOCK
  5
24
330
23
100
AcDbEntity
  8
0
100
AcDbBlockBegin
  2
*Paper_Space0
 70
     0
 10
0.0
 20
0.0
 30
0.0
  3
*Paper_Space0
  1
*Paper_Space0
  0
ENDBLK
  5
25
330
23
100
AcDbEntity
  8
0
100
AcDbBlockEnd
  0
BLOCK
  5
83
330
82
100
AcDbEntity
  8
0
100
AcDbBlockBegin
  2
블럭10
 70
     2
 10
0.0
 20
0.0
 30
0.0
  3
블럭10
  1
블럭10
  0
ELLIPSE
  5
85
330
82
100
AcDbEntity
  8
중심선
100
AcDbEllipse
 10
20.54032771741204
 20
12.0471743016438
 30
0.0
 11
6.600054785286829
 21
-1.261213355974178E-13
 31
0.0
210
0.0
220
0.0
230
1.0
 40
0.636358354079598
 41
0.9219305317359503
 42
6.513795318482858
  0
ELLIPSE
  5
86
330
82
100
AcDbEntity
  8
중심선
100
AcDbEllipse
 10
20.54032771746488
 20
12.04717430159265
 30
0.0
 11
3.960054785062283
 21
1.540847449632565E-10
 31
0.0
210
0.0
220
0.0
230
1.0
 40
0.3939339440162632
 41
1.131841032648279
 42
5.62031148352944
  0
LINE
  5
87
330
82
100
AcDbEntity
  8
중심선
100
AcDbLine
 10
2.268634060543552
 20
16.24717430164393
 30
0.0
 11
5.714909304380834
 21
16.24717430164393
 31
0.0
  0
LINE
  5
88
330
82
100
AcDbEntity
  8
중심선
100
AcDbLine
 10
5.245725140726316
 20
7.84717430164391
 30
0.0
 11
8.692000384563599
 21
7.84717430164391
 31
0.0
  0
LINE
  5
89
330
82
100
AcDbEntity
  8
중심선
100
AcDbLine
 10
15.74043728645272
 20
16.24717430164393
 30
0.0
 11
8.692000384563599
 21
7.84717430164391
 31
0.0
  0
LINE
  5
8A
330
82
100
AcDbEntity
  8
중심선
100
AcDbLine
 10
0.1404042013395286
 20
13.71084872107135
 30
0.0
 11
3.58671253028996
 21
13.71088815037384
 31
0.0
  0
LINE
  5
8B
330
82
100
AcDbEntity
  8
중심선
100
AcDbLine
 10
2.750260043222114
 20
10.84717430164391
 30
0.0
 11
6.196535287059397
 21
10.84717430164391
 31
0.0
  0
LINE
  5
8C
330
82
100
AcDbEntity
  8
중심선
100
AcDbLine
 10
12.29416204261559
 20
16.24717430164393
 30
0.0
 11
5.245725140726316
 21
7.84717430164391
 31
0.0
  0
LINE
  5
8D
330
82
100
AcDbEntity
  8
중심선
100
AcDbLine
 10
10.72767329541681
 20
16.24717430164393
 30
0.0
 11
6.196535287059397
 21
10.84717430164391
 31
0.0
  0
LINE
  5
8E
330
82
100
AcDbEntity
  8
중심선
100
AcDbLine
 10
7.28139805157953
 20
16.24717430164393
 30
0.0
 11
2.750260043222114
 21
10.84717430164391
 31
0.0
  0
LINE
  5
8F
330
82
100
AcDbEntity
  8
중심선
100
AcDbLine
 10
5.714909304380834
 20
16.24717430164393
 30
0.0
 11
3.58671253028996
 21
13.71088815037384
 31
0.0
  0
LINE
  5
90
330
82
100
AcDbEntity
  8
중심선
100
AcDbLine
 10
2.268634060543552
 20
16.24717430164393
 30
0.0
 11
0.1404042013395286
 21
13.71084872107135
 31
0.0
  0
LINE
  5
91
330
82
100
AcDbEntity
  8
중심선
100
AcDbLine
 10
7.28139805157953
 20
16.24717430164393
 30
0.0
 11
10.72767329541681
 21
16.24717430164393
 31
0.0
  0
LINE
  5
92
330
82
100
AcDbEntity
  8
중심선
100
AcDbLine
 10
12.29416204261559
 20
16.24717430164393
 30
0.0
 11
15.74043728645272
 21
16.24717430164393
 31
0.0
  0
LINE
  5
93
330
82
100
AcDbEntity
  8
중심선
100
AcDbLine
 10
19.22036997980202
 20
11.08717430171403
 30
0.0
 11
23.66174974927406
 21
11.08717430171406
 31
0.0
  0
LINE
  5
94
330
82
100
AcDbEntity
  8
중심선
100
AcDbLine
 10
19.22039502424796
 20
13.00717430171391
 30
0.0
 11
19.22036997980202
 21
11.08717430171403
 31
0.0
  0
LINE
  5
95
330
82
100
AcDbEntity
  8
중심선
100
AcDbLine
 10
19.22039502424796
 20
13.00717430171391
 30
0.0
 11
26.96566020931264
 21
13.00717430171391
 31
0.0
  0
LINE
  5
96
330
82
100
AcDbEntity
  8
중심선
100
AcDbLine
 10
22.22332737316547
 20
13.45928029700563
 30
0.0
 11
24.52862924686651
 21
15.39360700705356
 31
0.0
  0
ATTDEF
  5
98
330
82
100
AcDbEntity
  8
FORMAT
 62
     2
100
AcDbText
 10
-20.85824753159254
 20
2.075366912832191
 30
0.0
 40
4.233333333333333
  1
SEME6108005100E [ 2 FLUTE ]
 41
0.75
  7
SLDTEXTSTYLE0
 11
-20.85824753159254
 21
-0.0412997538344756
 31
0.0
100
AcDbAttributeDefinition
  3

  2
AUTOATTR0
 70
     0
 74
     1
  0
ENDBLK
  5
84
330
82
100
AcDbEntity
  8
0
100
AcDbBlockEnd
  0
BLOCK
  5
DF
330
DE
100
AcDbEntity
  8
0
100
AcDbBlockBegin
  2
_D
 70
     0
 10
0.0
 20
0.0
 30
0.0
  3
_D
  1
_D
  0
SOLID
  5
E1
330
DE
100
AcDbEntity
  8
치수문자_일반주서
100
AcDbTrace
 10
-66.00250885508848
 20
4.001074928723886
 30
0.0
 11
-65.49450885508848
 21
7.303074928723886
 31
0.0
 12
-66.51050885508847
 22
7.303074928723886
 32
0.0
 13
-66.51050885508847
 23
7.303074928723886
 33
0.0
  0
SOLID
  5
E2
330
DE
100
AcDbEntity
  8
치수문자_일반주서
100
AcDbTrace
 10
-66.00250885508848
 20
-3.998925071276109
 30
0.0
 11
-66.51050885508847
 21
-7.300925071276108
 31
0.0
 12
-65.49450885508848
 22
-7.300925071276108
 32
0.0
 13
-65.49450885508848
 23
-7.300925071276108
 33
0.0
  0
LINE
  5
E3
330
DE
100
AcDbEntity
  8
치수문자_일반주서
100
AcDbLine
 10
-54.50605083347639
 20
4.001074928723886
 30
0.0
 11
-67.00250885508848
 21
4.001074928723886
 31
0.0
  0
LINE
  5
E4
330
DE
100
AcDbEntity
  8
치수문자_일반주서
100
AcDbLine
 10
-54.50605083347639
 20
-3.998925071276109
 30
0.0
 11
-67.00250885508848
 21
-3.998925071276109
 31
0.0
  0
LINE
  5
E5
330
DE
100
AcDbEntity
  8
치수문자_일반주서
100
AcDbLine
 10
-66.00250885508848
 20
4.001074928723886
 30
0.0
 11
-66.00250885508848
 21
10.35107492872389
 31
0.0
  0
LINE
  5
E6
330
DE
100
AcDbEntity
  8
치수문자_일반주서
100
AcDbLine
 10
-66.00250885508848
 20
4.001074928723886
 30
0.0
 11
-66.00250885508848
 21
-3.998925071276109
 31
0.0
  0
LINE
  5
E7
330
DE
100
AcDbEntity
  8
치수문자_일반주서
100
AcDbLine
 10
-66.00250885508848
 20
-3.998925071276109
 30
0.0
 11
-66.00250885508848
 21
-10.34892507127611
 31
0.0
  0
MTEXT
  5
E8
330
DE
100
AcDbEntity
  8
치수문자_일반주서
100
AcDbMText
 10
-70.51424594429031
 20
-3.931199483639909
 30
0.0
 40
3.5
 41
0.0
 71
     1
 72
     1
  1
%%c
  7
SLDTEXTSTYLE0
 11
-7.044195017643634E-15
 21
1.0
 31
0.0
 73
     1
 44
1.0
  0
MTEXT
  5
E9
330
DE
100
AcDbEntity
  8
치수문자_일반주서
100
AcDbMText
 10
-70.5677181209502
 20
1.347237914734172
 30
0.0
 40
3.5
 41
0.0
 71
     1
 72
     1
  1
8
  7
SLDTEXTSTYLE0
 11
-7.044195017643634E-15
 21
1.0
 31
0.0
 73
     1
 44
1.0
  0
ENDBLK
  5
E0
330
DE
100
AcDbEntity
  8
0
100
AcDbBlockEnd
  0
BLOCK
  5
ED
330
EC
100
AcDbEntity
  8
0
100
AcDbBlockBegin
  2
_D_1
 70
     0
 10
0.0
 20
0.0
 30
0.0
  3
_D_1
  1
_D_1
  0
SOLID
  5
EF
330
EC
100
AcDbEntity
  8
치수문자_일반주서
100
AcDbTrace
 10
45.49394916652362
 20
22.00107492872354
 30
0.0
 11
42.19194916652362
 21
22.50907492872354
 31
0.0
 12
42.19194916652362
 22
21.49307492872354
 32
0.0
 13
42.19194916652362
 23
21.49307492872354
 33
0.0
  0
SOLID
  5
F0
330
EC
100
AcDbEntity
  8
치수문자_일반주서
100
AcDbTrace
 10
25.49394916652362
 20
22.00107492872354
 30
0.0
 11
28.79594916652362
 21
21.49307492872354
 31
0.0
 12
28.79594916652362
 22
22.50907492872354
 32
0.0
 13
28.79594916652362
 23
22.50907492872354
 33
0.0
  0
LINE
  5
F1
330
EC
100
AcDbEntity
  8
치수문자_일반주서
100
AcDbLine
 10
45.49394916652362
 20
4.501074928723893
 30
0.0
 11
45.49394916652362
 21
23.00107492872354
 31
0.0
  0
LINE
  5
F2
330
EC
100
AcDbEntity
  8
치수문자_일반주서
100
AcDbLine
 10
25.49394916652362
 20
5.001074928723892
 30
0.0
 11
25.49394916652362
 21
23.00107492872354
 31
0.0
  0
LINE
  5
F3
330
EC
100
AcDbEntity
  8
치수문자_일반주서
100
AcDbLine
 10
45.49394916652362
 20
22.00107492872354
 30
0.0
 11
69.9558968436596
 21
22.00107492872354
 31
0.0
  0
LINE
  5
F4
330
EC
100
AcDbEntity
  8
치수문자_일반주서
100
AcDbLine
 10
45.49394916652362
 20
22.00107492872354
 30
0.0
 11
25.49394916652362
 21
22.00107492872354
 31
0.0
  0
MTEXT
  5
F5
330
EC
100
AcDbEntity
  8
치수문자_일반주서
100
AcDbMText
 10
64.78367445661398
 20
26.51281184330243
 30
0.0
 40
3.5
 41
0.0
 71
     1
 72
     1
  1
20
  7
SLDTEXTSTYLE0
 73
     1
 44
1.0
  0
ENDBLK
  5
EE
330
EC
100
AcDbEntity
  8
0
100
AcDbBlockEnd
  0
BLOCK
  5
F8
330
F7
100
AcDbEntity
  8
0
100
AcDbBlockBegin
  2
_D_2
 70
     0
 10
0.0
 20
0.0
 30
0.0
  3
_D_2
  1
_D_2
  0
SOLID
  5
FA
330
F7
100
AcDbEntity
  8
치수문자_일반주서
100
AcDbTrace
 10
45.49394916652362
 20
44.05939943376818
 30
0.0
 11
42.19194916652362
 21
44.56739943376819
 31
0.0
 12
42.19194916652362
 22
43.55139943376818
 32
0.0
 13
42.19194916652362
 23
43.55139943376818
 33
0.0
  0
SOLID
  5
FB
330
F7
100
AcDbEntity
  8
치수문자_일반주서
100
AcDbTrace
 10
-54.50605083347639
 20
44.05939943376818
 30
0.0
 11
-51.20405083347639
 21
43.55139943376818
 31
0.0
 12
-51.20405083347639
 22
44.56739943376819
 32
0.0
 13
-51.20405083347639
 23
44.56739943376819
 33
0.0
  0
LINE
  5
FC
330
F7
100
AcDbEntity
  8
치수문자_일반주서
100
AcDbLine
 10
45.49394916652362
 20
4.501074928723893
 30
0.0
 11
45.49394916652362
 21
45.05939943376818
 31
0.0
  0
LINE
  5
FD
330
F7
100
AcDbEntity
  8
치수문자_일반주서
100
AcDbLine
 10
-54.50605083347639
 20
4.001074928723884
 30
0.0
 11
-54.50605083347639
 21
45.05939943376818
 31
0.0
  0
LINE
  5
FE
330
F7
100
AcDbEntity
  8
치수문자_일반주서
100
AcDbLine
 10
45.49394916652362
 20
44.05939943376818
 30
0.0
 11
-54.50605083347639
 21
44.05939943376818
 31
0.0
  0
MTEXT
  5
FF
330
F7
100
AcDbEntity
  8
치수문자_일반주서
100
AcDbMText
 10
-8.38521750734529
 20
48.57113634834707
 30
0.0
 40
3.5
 41
0.0
 71
     1
 72
     1
  1
100
  7
SLDTEXTSTYLE0
 73
     1
 44
1.0
  0
ENDBLK
  5
F9
330
F7
100
AcDbEntity
  8
0
100
AcDbBlockEnd
  0
BLOCK
  5
102
330
101
100
AcDbEntity
  8
0
100
AcDbBlockBegin
  2
_D_3
 70
     0
 10
0.0
 20
0.0
 30
0.0
  3
_D_3
  1
_D_3
  0
SOLID
  5
104
330
101
100
AcDbEntity
  8
치수문자_일반주서
100
AcDbTrace
 10
14.49394916652476
 20
30.32107492872395
 30
0.0
 11
17.79594916652475
 21
29.81307492872382
 31
0.0
 12
17.79594916652478
 22
30.82907492872382
 32
0.0
 13
17.79594916652478
 23
30.82907492872382
 33
0.0
  0
SOLID
  5
105
330
101
100
AcDbEntity
  8
치수문자_일반주서
100
AcDbTrace
 10
10.2140453559571
 20
30.32107492872411
 30
0.0
 11
6.912045355957115
 21
30.82907492872424
 31
0.0
 12
6.912045355957076
 22
29.81307492872424
 32
0.0
 13
6.912045355957076
 23
29.81307492872424
 33
0.0
  0
LINE
  5
106
330
101
100
AcDbEntity
  8
치수문자_일반주서
100
AcDbLine
 10
14.49394916652365
 20
1.401074928723893
 30
0.0
 11
14.4939491665248
 21
31.32107492872394
 31
0.0
  0
LINE
  5
107
330
101
100
AcDbEntity
  8
치수문자_일반주서
100
AcDbLine
 10
10.21404535595599
 20
1.551074928723894
 30
0.0
 11
10.21404535595713
 21
31.32107492872411
 31
0.0
  0
LINE
  5
108
330
101
100
AcDbEntity
  8
치수문자_일반주서
100
AcDbLine
 10
14.49394916652476
 20
30.32107492872395
 30
0.0
 11
55.42440269528608
 21
30.32107492872239
 31
0.0
  0
LINE
  5
109
330
101
100
AcDbEntity
  8
치수문자_일반주서
100
AcDbLine
 10
14.49394916652476
 20
30.32107492872395
 30
0.0
 11
10.2140453559571
 21
30.32107492872411
 31
0.0
  0
LINE
  5
10A
330
101
100
AcDbEntity
  8
치수문자_일반주서
100
AcDbLine
 10
10.2140453559571
 20
30.32107492872411
 30
0.0
 11
3.864045355957095
 21
30.32107492872435
 31
0.0
  0
MTEXT
  5
10B
330
101
100
AcDbEntity
  8
치수문자_일반주서
100
AcDbMText
 10
46.3730136343715
 20
34.83281184330144
 30
0.0
 40
3.5
 41
0.0
 71
     1
 72
     1
  1
4.28
  7
SLDTEXTSTYLE0
 73
     1
 44
1.0
  0
ENDBLK
  5
103
330
101
100
AcDbEntity
  8
0
100
AcDbBlockEnd
  0
BLOCK
  5
10E
330
10D
100
AcDbEntity
  8
0
100
AcDbBlockBegin
  2
_D_4
 70
     0
 10
0.0
 20
0.0
 30
0.0
  3
_D_4
  1
_D_4
  0
SOLID
  5
110
330
10D
100
AcDbEntity
  8
치수문자_일반주서
100
AcDbTrace
 10
42.85059833193548
 20
2.501074928723905
 30
0.0
 11
43.35859833193548
 21
5.803074928723905
 31
0.0
 12
42.34259833193548
 22
5.803074928723905
 32
0.0
 13
42.34259833193548
 23
5.803074928723905
 33
0.0
  0
SOLID
  5
111
330
10D
100
AcDbEntity
  8
치수문자_일반주서
100
AcDbTrace
 10
42.85059833193548
 20
-2.468303391960164
 30
0.0
 11
42.34259833193548
 21
-5.770303391960164
 31
0.0
 12
43.35859833193548
 22
-5.770303391960164
 32
0.0
 13
43.35859833193548
 23
-5.770303391960164
 33
0.0
  0
LINE
  5
112
330
10D
100
AcDbEntity
  8
치수문자_일반주서
100
AcDbLine
 10
25.99394916652362
 20
2.501074928723895
 30
0.0
 11
43.85059833193549
 21
2.501074928723906
 31
0.0
  0
LINE
  5
113
330
10D
100
AcDbEntity
  8
치수문자_일반주서
100
AcDbLine
 10
25.99394916652362
 20
-2.468303391960176
 30
0.0
 11
43.85059833193549
 21
-2.468303391960164
 31
0.0
  0
LINE
  5
114
330
10D
100
AcDbEntity
  8
치수문자_일반주서
100
AcDbLine
 10
42.85059833193548
 20
2.501074928723905
 30
0.0
 11
42.85059833193548
 21
8.851074928723905
 31
0.0
  0
LINE
  5
115
330
10D
100
AcDbEntity
  8
치수문자_일반주서
100
AcDbLine
 10
42.85059833193548
 20
2.501074928723905
 30
0.0
 11
42.85059833193548
 21
-2.468303391960164
 31
0.0
  0
LINE
  5
116
330
10D
100
AcDbEntity
  8
치수문자_일반주서
100
AcDbLine
 10
42.85059833193548
 20
-2.468303391960164
 30
0.0
 11
42.85059833193548
 21
-19.09359001964388
 31
0.0
  0
MTEXT
  5
117
330
10D
100
AcDbEntity
  8
치수문자_일반주서
100
AcDbMText
 10
38.33886124273367
 20
-19.0935900196439
 30
0.0
 40
3.5
 41
0.0
 71
     1
 72
     1
  1
%%c
  7
SLDTEXTSTYLE0
 11
-7.932373437343760E-15
 21
1.0
 31
0.0
 73
     1
 44
1.0
  0
MTEXT
  5
118
330
10D
100
AcDbEntity
  8
치수문자_일반주서
100
AcDbMText
 10
38.28538906607378
 20
-13.81515262126982
 30
0.0
 40
3.5
 41
0.0
 71
     1
 72
     1
  1
4.97
  7
SLDTEXTSTYLE0
 11
-7.932373437343760E-15
 21
1.0
 31
0.0
 73
     1
 44
1.0
  0
ENDBLK
  5
10F
330
10D
100
AcDbEntity
  8
0
100
AcDbBlockEnd
  0
BLOCK
  5
11A
330
119
100
AcDbEntity
  8
0
100
AcDbBlockBegin
  2
SW_DOWELSYMBOL_0
 70
     0
 10
0.0
 20
0.0
 30
0.0
  3
SW_DOWELSYMBOL_0
  1
SW_DOWELSYMBOL_0
  0
CIRCLE
  5
11C
330
119
100
AcDbEntity
  8
외형선
 62
     0
100
AcDbCircle
 10
0.0
 20
0.0
 30
0.0
 40
3.000000000000004
  0
HATCH
  5
11D
330
119
100
AcDbEntity
  8
0
  6
Continuous
 62
     0
370
    35
100
AcDbHatch
 10
0.0
 20
0.0
 30
0.0
210
0.0
220
0.0
230
1.0
  2
SOLID
 70
     1
 71
     0
 91
        1
 92
        0
 93
        3
 72
     2
 10
0.0000000000000104
 20
0.0
 40
3.000000000000004
 50
0.0
 51
90.0
 73
     1
 72
     1
 10
0.0000000000000104
 20
3.000000000000004
 11
0.0000000000000104
 21
0.0
 72
     1
 10
0.0000000000000104
 20
0.0
 11
3.000000000000015
 21
0.0
 97
        0
 75
     0
 76
     1
 98
        1
 10
0.0
 20
0.0
  0
HATCH
  5
11E
330
119
100
AcDbEntity
  8
0
  6
Continuous
 62
     0
370
    35
100
AcDbHatch
 10
0.0
 20
0.0
 30
0.0
210
0.0
220
0.0
230
1.0
  2
SOLID
 70
     1
 71
     0
 91
        1
 92
        0
 93
        3
 72
     2
 10
0.0000000000000104
 20
0.0
 40
3.000000000000004
 50
180.0
 51
270.0000000000007
 73
     1
 72
     1
 10
0.0000000000000104
 20
-3.000000000000004
 11
0.0000000000000104
 21
0.0
 72
     1
 10
0.0000000000000104
 20
0.0
 11
-2.999999999999994
 21
0.0
 97
        0
 75
     0
 76
     1
 98
        1
 10
0.0
 20
0.0
  0
ENDBLK
  5
11B
330
119
100
AcDbEntity
  8
0
100
AcDbBlockEnd
  0
BLOCK
  5
1E1
330
1E0
100
AcDbEntity
  8
0
100
AcDbBlockBegin
  2
*D8
 70
     1
 10
0.0
 20
0.0
 30
0.0
  3
*D8
  1
*D8
  0
LINE
  5
1E2
330
1E0
100
AcDbEntity
  8
치수문자_일반주서
 62
     0
370
    -2
100
AcDbLine
 10
85.73395802161208
 20
16.07338993845307
 30
0.0
 11
93.44581764468253
 21
16.07338993845307
 31
0.0
  0
LINE
  5
1E3
330
1E0
100
AcDbEntity
  8
치수문자_일반주서
 62
     0
370
    -2
100
AcDbLine
 10
83.50945659749047
 20
8.072957262919559
 30
0.0
 11
93.44581764468253
 21
8.072957262919559
 31
0.0
  0
LINE
  5
1E4
330
1E0
100
AcDbEntity
  8
치수문자_일반주서
 62
     0
370
    -2
100
AcDbLine
 10
93.44581764468253
 20
16.07338993845307
 30
0.0
 11
93.44581764468253
 21
31.42738993845307
 31
0.0
  0
LINE
  5
1E5
330
1E0
100
AcDbEntity
  8
치수문자_일반주서
 62
     0
370
    -2
100
AcDbLine
 10
93.44581764468253
 20
12.77138993845307
 30
0.0
 11
93.44581764468253
 21
11.37495726291956
 31
0.0
  0
SOLID
  5
1E6
330
1E0
100
AcDbEntity
  8
치수문자_일반주서
 62
     0
100
AcDbTrace
 10
93.99615097801586
 20
12.77138993845307
 30
0.0
 11
92.89548431134921
 21
12.77138993845307
 31
0.0
 12
93.44581764468253
 22
16.07338993845307
 32
0.0
 13
93.44581764468253
 23
16.07338993845307
 33
0.0
  0
SOLID
  5
1E7
330
1E0
100
AcDbEntity
  8
치수문자_일반주서
 62
     0
100
AcDbTrace
 10
92.89548431134921
 20
11.37495726291956
 30
0.0
 11
93.99615097801586
 21
11.37495726291956
 31
0.0
 12
93.44581764468253
 22
8.072957262919559
 32
0.0
 13
93.44581764468253
 23
8.072957262919559
 33
0.0
  0
MTEXT
  5
1E8
330
1E0
100
AcDbEntity
  8
치수문자_일반주서
 62
     0
100
AcDbMText
 10
90.82081764468253
 20
27.05238993845307
 30
0.0
 40
3.5
 41
0.0
 71
     5
 72
     1
  1
\A1;{%%c 8}
  7
SLDTEXTSTYLE0
 11
0.0
 21
1.0
 31
0.0
 73
     1
 44
1.0
  0
POINT
  5
1E9
330
1E0
100
AcDbEntity
  8
Defpoints
 62
     0
100
AcDbPoint
 10
85.67145802161208
 20
16.07338993845307
 30
0.0
  0
POINT
  5
1EA
330
1E0
100
AcDbEntity
  8
Defpoints
 62
     0
100
AcDbPoint
 10
83.44695659749047
 20
8.072957262919559
 30
0.0
  0
POINT
  5
1EB
330
1E0
100
AcDbEntity
  8
Defpoints
 62
     0
100
AcDbPoint
 10
93.44581764468253
 20
8.072957262919559
 30
0.0
  0
ENDBLK
  5
1EC
330
1E0
100
AcDbEntity
  8
0
100
AcDbBlockEnd
  0
BLOCK
  5
1F1
330
1F0
100
AcDbEntity
  8
0
100
AcDbBlockBegin
  2
*D9
 70
     1
 10
0.0
 20
0.0
 30
0.0
  3
*D9
  1
*D9
  0
LINE
  5
1F2
330
1F0
100
AcDbEntity
  8
0
 62
     0
370
    -2
100
AcDbLine
 10
104.576601270695
 20
0.0
 30
0.0
 11
89.6359346040283
 21
0.0
 31
0.0
  0
LINE
  5
1F3
330
1F0
100
AcDbEntity
  8
0
 62
     0
370
    -2
100
AcDbLine
 10
89.6359346040283
 20
0.0
 30
0.0
 11
87.18187151101371
 21
5.133492141426009
 31
0.0
  0
MTEXT
  5
1F4
330
1F0
100
AcDbEntity
  8
0
 62
     0
100
AcDbMText
 10
97.86826793736162
 20
3.565666666666667
 30
0.0
 40
3.5
 41
0.0
 71
     5
 72
     1
  1
R0,20
 73
     1
 44
1.0
  0
LINE
  5
1F5
330
1F0
100
AcDbEntity
  8
0
 62
     0
370
    -2
100
AcDbLine
 10
85.67145802161208
 20
8.293026140457135
 30
0.0
 11
85.757718072406
 21
8.112584450049875
 31
0.0
  0
SOLID
  5
1F6
330
1F0
100
AcDbEntity
  8
0
 62
     0
100
AcDbTrace
 10
87.67838689578436
 20
5.370851047860626
 30
0.0
 11
86.68535612624306
 21
4.896133234991392
 31
0.0
 12
85.757718072406
 22
8.112584450049875
 32
0.0
 13
85.757718072406
 23
8.112584450049875
 33
0.0
  0
POINT
  5
1F7
330
1F0
100
AcDbEntity
  8
Defpoints
 62
     0
100
AcDbPoint
 10
85.757718072406
 20
8.112584450049875
 30
0.0
  0
POINT
  5
1F8
330
1F0
100
AcDbEntity
  8
Defpoints
 62
     0
100
AcDbPoint
 10
85.67145802161208
 20
8.293026140457135
 30
0.0
  0
ENDBLK
  5
1F9
330
1F0
100
AcDbEntity
  8
0
100
AcDbBlockEnd
  0
BLOCK
  5
1FD
330
1FC
100
AcDbEntity
  8
0
100
AcDbBlockBegin
  2
*D10
 70
     1
 10
0.0
 20
0.0
 30
0.0
  3
*D10
  1
*D11
  0
LINE
  5
1FF
330
1FC
100
AcDbEntity
  8
치수문자_일반주서
 62
     0
370
    -2
100
AcDbLine
 10
16.80895802161209
 20
16.08320803945509
 30
0.0
 11
4.374999999999994
 21
16.08320803945505
 31
0.0
  0
LINE
  5
200
330
1FC
100
AcDbEntity
  8
치수문자_일반주서
 62
     0
370
    -2
100
AcDbLine
 10
16.80895802161209
 20
8.0832080394551
 30
0.0
 11
4.375000000000021
 21
8.083208039455053
 31
0.0
  0
LINE
  5
201
330
1FC
100
AcDbEntity
  8
치수문자_일반주서
 62
     0
370
    -2
100
AcDbLine
 10
4.375000000000005
 20
12.78120803945505
 30
0.0
 11
4.37500000000001
 21
11.38520803945505
 31
0.0
  0
SOLID
  5
202
330
1FC
100
AcDbEntity
  8
치수문자_일반주서
 62
     0
100
AcDbTrace
 10
4.925333333333339
 20
12.78120803945505
 30
0.0
 11
3.824666666666672
 21
12.78120803945505
 31
0.0
 12
4.374999999999994
 22
16.08320803945505
 32
0.0
 13
4.374999999999994
 23
16.08320803945505
 33
0.0
  0
SOLID
  5
203
330
1FC
100
AcDbEntity
  8
치수문자_일반주서
 62
     0
100
AcDbTrace
 10
3.824666666666677
 20
11.38520803945505
 30
0.0
 11
4.925333333333343
 21
11.38520803945505
 31
0.0
 12
4.375000000000021
 22
8.083208039455053
 32
0.0
 13
4.375000000000021
 23
8.083208039455053
 33
0.0
  0
MTEXT
  5
204
330
1FC
100
AcDbEntity
  8
치수문자_일반주서
 62
     0
100
AcDbMText
 10
0.0000000000000071
 20
12.08320803945508
 30
0.0
 40
3.5
 41
0.0
 71
     2
 72
     1
  1
\A1;%%c8
  7
SLDTEXTSTYLE0
 11
-3.441691376337988E-15
 21
1.0
 31
0.0
 73
     1
 44
1.0
  0
POINT
  5
205
330
1FC
100
AcDbEntity
  8
Defpoints
 62
     0
100
AcDbPoint
 10
16.87145802161209
 20
16.08320803945509
 30
0.0
  0
POINT
  5
206
330
1FC
100
AcDbEntity
  8
Defpoints
 62
     0
100
AcDbPoint
 10
16.87145802161209
 20
8.0832080394551
 30
0.0
  0
POINT
  5
207
330
1FC
100
AcDbEntity
  8
Defpoints
 62
     0
100
AcDbPoint
 10
4.375000000000021
 20
8.083208039455053
 30
0.0
  0
ENDBLK
  5
1FE
330
1FC
100
AcDbEntity
  8
0
100
AcDbBlockEnd
  0
BLOCK
  5
209
330
208
100
AcDbEntity
  8
0
100
AcDbBlockBegin
  2
*D11
 70
     1
 10
0.0
 20
0.0
 30
0.0
  3
*D11
  1
*D12
  0
LINE
  5
20B
330
208
100
AcDbEntity
  8
치수문자_일반주서
 62
     0
370
    -2
100
AcDbLine
 10
85.8714580216121
 20
15.9457080394551
 30
0.0
 11
85.8714580216121
 21
34.38320803945476
 31
0.0
  0
LINE
  5
20C
330
208
100
AcDbEntity
  8
치수문자_일반주서
 62
     0
370
    -2
100
AcDbLine
 10
73.87145802161209
 20
15.30869666820513
 30
0.0
 11
73.87145802161209
 21
34.38320803945476
 31
0.0
  0
LINE
  5
20D
330
208
100
AcDbEntity
  8
치수문자_일반주서
 62
     0
370
    -2
100
AcDbLine
 10
85.8714580216121
 20
34.38320803945476
 30
0.0
 11
101.62195991178
 21
34.38320803945476
 31
0.0
  0
LINE
  5
20E
330
208
100
AcDbEntity
  8
치수문자_일반주서
 62
     0
370
    -2
100
AcDbLine
 10
82.56945802161209
 20
34.38320803945476
 30
0.0
 11
77.17345802161208
 21
34.38320803945476
 31
0.0
  0
SOLID
  5
20F
330
208
100
AcDbEntity
  8
치수문자_일반주서
 62
     0
100
AcDbTrace
 10
82.56945802161209
 20
33.83287470612142
 30
0.0
 11
82.56945802161209
 21
34.93354137278809
 31
0.0
 12
85.8714580216121
 22
34.38320803945476
 32
0.0
 13
85.8714580216121
 23
34.38320803945476
 33
0.0
  0
SOLID
  5
210
330
208
100
AcDbEntity
  8
치수문자_일반주서
 62
     0
100
AcDbTrace
 10
77.17345802161208
 20
34.93354137278809
 30
0.0
 11
77.17345802161208
 21
33.83287470612142
 31
0.0
 12
73.87145802161209
 22
34.38320803945476
 32
0.0
 13
73.87145802161209
 23
34.38320803945476
 33
0.0
  0
MTEXT
  5
211
330
208
100
AcDbEntity
  8
치수문자_일반주서
 62
     0
100
AcDbMText
 10
98.99695991177998
 20
38.75820803945476
 30
0.0
 40
3.5
 41
0.0
 71
     2
 72
     1
  1
\A1;12
  7
SLDTEXTSTYLE0
 73
     1
 44
1.0
  0
POINT
  5
212
330
208
100
AcDbEntity
  8
Defpoints
 62
     0
100
AcDbPoint
 10
85.8714580216121
 20
15.8832080394551
 30
0.0
  0
POINT
  5
213
330
208
100
AcDbEntity
  8
Defpoints
 62
     0
100
AcDbPoint
 10
73.87145802161209
 20
15.24619666820513
 30
0.0
  0
POINT
  5
214
330
208
100
AcDbEntity
  8
Defpoints
 62
     0
100
AcDbPoint
 10
73.87145802161209
 20
34.38320803945476
 30
0.0
  0
ENDBLK
  5
20A
330
208
100
AcDbEntity
  8
0
100
AcDbBlockEnd
  0
BLOCK
  5
216
330
215
100
AcDbEntity
  8
0
100
AcDbBlockBegin
  2
*D12
 70
     1
 10
0.0
 20
0.0
 30
0.0
  3
*D12
  1
*D13
  0
LINE
  5
218
330
215
100
AcDbEntity
  8
치수문자_일반주서
 62
     0
370
    -2
100
AcDbLine
 10
85.8714580216121
 20
15.9457080394551
 30
0.0
 11
85.87145802161209
 21
56.44153254449939
 31
0.0
  0
LINE
  5
219
330
215
100
AcDbEntity
  8
치수문자_일반주서
 62
     0
370
    -2
100
AcDbLine
 10
15.87145802161209
 20
15.1457080394551
 30
0.0
 11
15.87145802161208
 21
56.44153254449939
 31
0.0
  0
LINE
  5
21A
330
215
100
AcDbEntity
  8
치수문자_일반주서
 62
     0
370
    -2
100
AcDbLine
 10
82.56945802161209
 20
56.44153254449939
 30
0.0
 11
19.17345802161208
 21
56.44153254449939
 31
0.0
  0
SOLID
  5
21B
330
215
100
AcDbEntity
  8
치수문자_일반주서
 62
     0
100
AcDbTrace
 10
82.56945802161209
 20
55.89119921116605
 30
0.0
 11
82.56945802161209
 21
56.99186587783272
 31
0.0
 12
85.87145802161209
 22
56.44153254449939
 32
0.0
 13
85.87145802161209
 23
56.44153254449939
 33
0.0
  0
SOLID
  5
21C
330
215
100
AcDbEntity
  8
치수문자_일반주서
 62
     0
100
AcDbTrace
 10
19.17345802161208
 20
56.99186587783272
 30
0.0
 11
19.17345802161208
 21
55.89119921116605
 31
0.0
 12
15.87145802161208
 22
56.44153254449939
 32
0.0
 13
15.87145802161208
 23
56.44153254449939
 33
0.0
  0
MTEXT
  5
21D
330
215
100
AcDbEntity
  8
치수문자_일반주서
 62
     0
100
AcDbMText
 10
50.87145802161209
 20
60.81653254449939
 30
0.0
 40
3.5
 41
0.0
 71
     2
 72
     1
  1
\A1;70
  7
SLDTEXTSTYLE0
 73
     1
 44
1.0
  0
POINT
  5
21E
330
215
100
AcDbEntity
  8
Defpoints
 62
     0
100
AcDbPoint
 10
85.8714580216121
 20
15.8832080394551
 30
0.0
  0
POINT
  5
21F
330
215
100
AcDbEntity
  8
Defpoints
 62
     0
100
AcDbPoint
 10
15.87145802161209
 20
15.0832080394551
 30
0.0
  0
POINT
  5
220
330
215
100
AcDbEntity
  8
Defpoints
 62
     0
100
AcDbPoint
 10
15.87145802161209
 20
56.44153254449939
 30
0.0
  0
ENDBLK
  5
217
330
215
100
AcDbEntity
  8
0
100
AcDbBlockEnd
  0
BLOCK
  5
222
330
221
100
AcDbEntity
  8
0
100
AcDbBlockBegin
  2
*D13
 70
     1
 10
0.0
 20
0.0
 30
0.0
  3
*D13
  1
*D14
  0
LINE
  5
224
330
221
100
AcDbEntity
  8
치수문자_일반주서
 62
     0
370
    -2
100
AcDbLine
 10
85.87145802161209
 20
15.94030966073488
 30
0.0
 11
85.87145802161209
 21
42.40320803945375
 31
0.0
  0
LINE
  5
225
330
221
100
AcDbEntity
  8
치수문자_일반주서
 62
     0
370
    -2
100
AcDbLine
 10
60.87145802161209
 20
12.1457080394551
 30
0.0
 11
60.87145802161209
 21
42.40320803945375
 31
0.0
  0
LINE
  5
226
330
221
100
AcDbEntity
  8
치수문자_일반주서
 62
     0
370
    -2
100
AcDbLine
 10
85.87145802161209
 20
42.40320803945375
 30
0.0
 11
104.3387170199173
 21
42.40320803945375
 31
0.0
  0
LINE
  5
227
330
221
100
AcDbEntity
  8
치수문자_일반주서
 62
     0
370
    -2
100
AcDbLine
 10
85.87145802161209
 20
42.40320803945375
 30
0.0
 11
60.87145802161209
 21
42.40320803945375
 31
0.0
  0
LINE
  5
228
330
221
100
AcDbEntity
  8
치수문자_일반주서
 62
     0
370
    -2
100
AcDbLine
 10
89.17345802161208
 20
42.40320803945375
 30
0.0
 11
92.47545802161207
 21
42.40320803945375
 31
0.0
  0
LINE
  5
229
330
221
100
AcDbEntity
  8
치수문자_일반주서
 62
     0
370
    -2
100
AcDbLine
 10
57.56945802161209
 20
42.40320803945375
 30
0.0
 11
54.26745802161209
 21
42.40320803945375
 31
0.0
  0
SOLID
  5
22A
330
221
100
AcDbEntity
  8
치수문자_일반주서
 62
     0
100
AcDbTrace
 10
89.17345802161208
 20
42.95354137278709
 30
0.0
 11
89.17345802161208
 21
41.85287470612042
 31
0.0
 12
85.87145802161209
 22
42.40320803945375
 32
0.0
 13
85.87145802161209
 23
42.40320803945375
 33
0.0
  0
SOLID
  5
22B
330
221
100
AcDbEntity
  8
치수문자_일반주서
 62
     0
100
AcDbTrace
 10
57.56945802161209
 20
41.85287470612042
 30
0.0
 11
57.56945802161209
 21
42.95354137278709
 31
0.0
 12
60.87145802161209
 22
42.40320803945375
 32
0.0
 13
60.87145802161209
 23
42.40320803945375
 33
0.0
  0
MTEXT
  5
22C
330
221
100
AcDbEntity
  8
치수문자_일반주서
 62
     0
100
AcDbMText
 10
101.2762170199173
 20
46.77820803945375
 30
0.0
 40
3.5
 41
0.0
 71
     2
 72
     1
  1
\A1;25
  7
SLDTEXTSTYLE0
 73
     1
 44
1.0
  0
POINT
  5
22D
330
221
100
AcDbEntity
  8
Defpoints
 62
     0
100
AcDbPoint
 10
85.87145802161209
 20
15.87780966073488
 30
0.0
  0
POINT
  5
22E
330
221
100
AcDbEntity
  8
Defpoints
 62
     0
100
AcDbPoint
 10
60.87145802161209
 20
12.0832080394551
 30
0.0
  0
POINT
  5
22F
330
221
100
AcDbEntity
  8
Defpoints
 62
     0
100
AcDbPoint
 10
60.87145802161209
 20
42.40320803945375
 30
0.0
  0
ENDBLK
  5
223
330
221
100
AcDbEntity
  8
0
100
AcDbBlockEnd
  0
BLOCK
  5
26C
330
26B
100
AcDbEntity
  8
0
100
AcDbBlockBegin
  2
*D14
 70
     1
 10
0.0
 20
0.0
 30
0.0
  3
*D14
  1
*D15
  0
LINE
  5
26E
330
26B
100
AcDbEntity
  8
치수문자_일반주서
 62
     0
370
    -2
100
AcDbLine
 10
77.11758641656576
 20
-21.88246020380012
 30
0.0
 11
64.68362839495366
 21
-21.88246020380017
 31
0.0
  0
LINE
  5
26F
330
26B
100
AcDbEntity
  8
치수문자_일반주서
 62
     0
370
    -2
100
AcDbLine
 10
77.11758641656576
 20
-29.88246020380011
 30
0.0
 11
64.68362839495369
 21
-29.88246020380016
 31
0.0
  0
LINE
  5
270
330
26B
100
AcDbEntity
  8
치수문자_일반주서
 62
     0
370
    -2
100
AcDbLine
 10
64.68362839495367
 20
-25.18446020380017
 30
0.0
 11
64.68362839495367
 21
-26.58046020380016
 31
0.0
  0
SOLID
  5
271
330
26B
100
AcDbEntity
  8
치수문자_일반주서
 62
     0
100
AcDbTrace
 10
65.233961728287
 20
-25.18446020380016
 30
0.0
 11
64.13329506162034
 21
-25.18446020380017
 31
0.0
 12
64.68362839495366
 22
-21.88246020380017
 32
0.0
 13
64.68362839495366
 23
-21.88246020380017
 33
0.0
  0
SOLID
  5
272
330
26B
100
AcDbEntity
  8
치수문자_일반주서
 62
     0
100
AcDbTrace
 10
64.13329506162034
 20
-26.58046020380016
 30
0.0
 11
65.233961728287
 21
-26.58046020380016
 31
0.0
 12
64.68362839495369
 22
-29.88246020380016
 32
0.0
 13
64.68362839495369
 23
-29.88246020380016
 33
0.0
  0
MTEXT
  5
273
330
26B
100
AcDbEntity
  8
치수문자_일반주서
 62
     0
100
AcDbMText
 10
60.30862839495367
 20
-25.88246020380014
 30
0.0
 40
3.5
 41
0.0
 71
     2
 72
     1
  1
\A1;%%c8
  7
SLDTEXTSTYLE0
 11
-3.552713678800504E-15
 21
1.0
 31
0.0
 73
     1
 44
1.0
  0
POINT
  5
274
330
26B
100
AcDbEntity
  8
Defpoints
 62
     0
100
AcDbPoint
 10
77.18008641656576
 20
-21.88246020380012
 30
0.0
  0
POINT
  5
275
330
26B
100
AcDbEntity
  8
Defpoints
 62
     0
100
AcDbPoint
 10
77.18008641656576
 20
-29.88246020380011
 30
0.0
  0
POINT
  5
276
330
26B
100
AcDbEntity
  8
Defpoints
 62
     0
100
AcDbPoint
 10
64.6836283949537
 20
-29.88246020380016
 30
0.0
  0
ENDBLK
  5
26D
330
26B
100
AcDbEntity
  8
0
100
AcDbBlockEnd
  0
BLOCK
  5
278
330
277
100
AcDbEntity
  8
0
100
AcDbBlockBegin
  2
*D15
 70
     1
 10
0.0
 20
0.0
 30
0.0
  3
*D15
  1
*D16
  0
LINE
  5
27A
330
277
100
AcDbEntity
  8
치수문자_일반주서
 62
     0
370
    -2
100
AcDbLine
 10
146.1800864165658
 20
-22.01996020380012
 30
0.0
 11
146.1800864165658
 21
-3.582460203800458
 31
0.0
  0
LINE
  5
27B
330
277
100
AcDbEntity
  8
치수문자_일반주서
 62
     0
370
    -2
100
AcDbLine
 10
134.1800864165658
 20
-22.65697157505008
 30
0.0
 11
134.1800864165658
 21
-3.582460203800458
 31
0.0
  0
LINE
  5
27C
330
277
100
AcDbEntity
  8
치수문자_일반주서
 62
     0
370
    -2
100
AcDbLine
 10
146.1800864165658
 20
-3.582460203800458
 30
0.0
 11
161.9305883067337
 21
-3.582460203800458
 31
0.0
  0
LINE
  5
27D
330
277
100
AcDbEntity
  8
치수문자_일반주서
 62
     0
370
    -2
100
AcDbLine
 10
142.8780864165658
 20
-3.582460203800458
 30
0.0
 11
137.4820864165657
 21
-3.582460203800458
 31
0.0
  0
SOLID
  5
27E
330
277
100
AcDbEntity
  8
치수문자_일반주서
 62
     0
100
AcDbTrace
 10
142.8780864165658
 20
-4.132793537133792
 30
0.0
 11
142.8780864165658
 21
-3.032126870467125
 31
0.0
 12
146.1800864165658
 22
-3.582460203800458
 32
0.0
 13
146.1800864165658
 23
-3.582460203800458
 33
0.0
  0
SOLID
  5
27F
330
277
100
AcDbEntity
  8
치수문자_일반주서
 62
     0
100
AcDbTrace
 10
137.4820864165657
 20
-3.032126870467125
 30
0.0
 11
137.4820864165657
 21
-4.132793537133792
 31
0.0
 12
134.1800864165658
 22
-3.582460203800458
 32
0.0
 13
134.1800864165658
 23
-3.582460203800458
 33
0.0
  0
MTEXT
  5
280
330
277
100
AcDbEntity
  8
치수문자_일반주서
 62
     0
100
AcDbMText
 10
159.3055883067337
 20
0.7925397961995415
 30
0.0
 40
3.5
 41
0.0
 71
     2
 72
     1
  1
\A1;12
  7
SLDTEXTSTYLE0
 73
     1
 44
1.0
  0
POINT
  5
281
330
277
100
AcDbEntity
  8
Defpoints
 62
     0
100
AcDbPoint
 10
146.1800864165658
 20
-22.08246020380012
 30
0.0
  0
POINT
  5
282
330
277
100
AcDbEntity
  8
Defpoints
 62
     0
100
AcDbPoint
 10
134.1800864165658
 20
-22.71947157505008
 30
0.0
  0
POINT
  5
283
330
277
100
AcDbEntity
  8
Defpoints
 62
     0
100
AcDbPoint
 10
134.1800864165658
 20
-3.582460203800458
 30
0.0
  0
ENDBLK
  5
279
330
277
100
AcDbEntity
  8
0
100
AcDbBlockEnd
  0
BLOCK
  5
285
330
284
100
AcDbEntity
  8
0
100
AcDbBlockBegin
  2
*D16
 70
     1
 10
0.0
 20
0.0
 30
0.0
  3
*D16
  1
*D17
  0
LINE
  5
287
330
284
100
AcDbEntity
  8
치수문자_일반주서
 62
     0
370
    -2
100
AcDbLine
 10
146.1800864165658
 20
-22.01996020380012
 30
0.0
 11
146.1800864165658
 21
18.47586430124417
 31
0.0
  0
LINE
  5
288
330
284
100
AcDbEntity
  8
치수문자_일반주서
 62
     0
370
    -2
100
AcDbLine
 10
76.18008641656576
 20
-22.81996020380012
 30
0.0
 11
76.18008641656576
 21
18.47586430124417
 31
0.0
  0
LINE
  5
289
330
284
100
AcDbEntity
  8
치수문자_일반주서
 62
     0
370
    -2
100
AcDbLine
 10
142.8780864165658
 20
18.47586430124417
 30
0.0
 11
79.48208641656575
 21
18.47586430124417
 31
0.0
  0
SOLID
  5
28A
330
284
100
AcDbEntity
  8
치수문자_일반주서
 62
     0
100
AcDbTrace
 10
142.8780864165658
 20
17.92553096791084
 30
0.0
 11
142.8780864165658
 21
19.02619763457751
 31
0.0
 12
146.1800864165658
 22
18.47586430124417
 32
0.0
 13
146.1800864165658
 23
18.47586430124417
 33
0.0
  0
SOLID
  5
28B
330
284
100
AcDbEntity
  8
치수문자_일반주서
 62
     0
100
AcDbTrace
 10
79.48208641656575
 20
19.02619763457751
 30
0.0
 11
79.48208641656575
 21
17.92553096791084
 31
0.0
 12
76.18008641656576
 22
18.47586430124417
 32
0.0
 13
76.18008641656576
 23
18.47586430124417
 33
0.0
  0
MTEXT
  5
28C
330
284
100
AcDbEntity
  8
치수문자_일반주서
 62
     0
100
AcDbMText
 10
111.1800864165658
 20
22.85086430124417
 30
0.0
 40
3.5
 41
0.0
 71
     2
 72
     1
  1
\A1;70
  7
SLDTEXTSTYLE0
 73
     1
 44
1.0
  0
POINT
  5
28D
330
284
100
AcDbEntity
  8
Defpoints
 62
     0
100
AcDbPoint
 10
146.1800864165658
 20
-22.08246020380012
 30
0.0
  0
POINT
  5
28E
330
284
100
AcDbEntity
  8
Defpoints
 62
     0
100
AcDbPoint
 10
76.18008641656576
 20
-22.88246020380012
 30
0.0
  0
POINT
  5
28F
330
284
100
AcDbEntity
  8
Defpoints
 62
     0
100
AcDbPoint
 10
76.18008641656576
 20
18.47586430124417
 30
0.0
  0
ENDBLK
  5
286
330
284
100
AcDbEntity
  8
0
100
AcDbBlockEnd
  0
BLOCK
  5
291
330
290
100
AcDbEntity
  8
0
100
AcDbBlockBegin
  2
*D17
 70
     1
 10
0.0
 20
0.0
 30
0.0
  3
*D17
  1
*D18
  0
LINE
  5
293
330
290
100
AcDbEntity
  8
치수문자_일반주서
 62
     0
370
    -2
100
AcDbLine
 10
146.1800864165658
 20
-22.02535858252033
 30
0.0
 11
146.1800864165658
 21
4.437539796198536
 31
0.0
  0
LINE
  5
294
330
290
100
AcDbEntity
  8
치수문자_일반주서
 62
     0
370
    -2
100
AcDbLine
 10
121.1800864165658
 20
-25.81996020380012
 30
0.0
 11
121.1800864165658
 21
4.437539796198536
 31
0.0
  0
LINE
  5
295
330
290
100
AcDbEntity
  8
치수문자_일반주서
 62
     0
370
    -2
100
AcDbLine
 10
146.1800864165658
 20
4.437539796198536
 30
0.0
 11
164.647345414871
 21
4.437539796198536
 31
0.0
  0
LINE
  5
296
330
290
100
AcDbEntity
  8
치수문자_일반주서
 62
     0
370
    -2
100
AcDbLine
 10
146.1800864165658
 20
4.437539796198536
 30
0.0
 11
121.1800864165658
 21
4.437539796198536
 31
0.0
  0
LINE
  5
297
330
290
100
AcDbEntity
  8
치수문자_일반주서
 62
     0
370
    -2
100
AcDbLine
 10
149.4820864165657
 20
4.437539796198536
 30
0.0
 11
152.7840864165657
 21
4.437539796198536
 31
0.0
  0
LINE
  5
298
330
290
100
AcDbEntity
  8
치수문자_일반주서
 62
     0
370
    -2
100
AcDbLine
 10
117.8780864165658
 20
4.437539796198536
 30
0.0
 11
114.5760864165658
 21
4.437539796198536
 31
0.0
  0
SOLID
  5
299
330
290
100
AcDbEntity
  8
치수문자_일반주서
 62
     0
100
AcDbTrace
 10
149.4820864165657
 20
4.987873129531869
 30
0.0
 11
149.4820864165657
 21
3.887206462865203
 31
0.0
 12
146.1800864165658
 22
4.437539796198536
 32
0.0
 13
146.1800864165658
 23
4.437539796198536
 33
0.0
  0
SOLID
  5
29A
330
290
100
AcDbEntity
  8
치수문자_일반주서
 62
     0
100
AcDbTrace
 10
117.8780864165658
 20
3.887206462865203
 30
0.0
 11
117.8780864165658
 21
4.987873129531869
 31
0.0
 12
121.1800864165658
 22
4.437539796198536
 32
0.0
 13
121.1800864165658
 23
4.437539796198536
 33
0.0
  0
MTEXT
  5
29B
330
290
100
AcDbEntity
  8
치수문자_일반주서
 62
     0
100
AcDbMText
 10
161.584845414871
 20
8.812539796198536
 30
0.0
 40
3.5
 41
0.0
 71
     2
 72
     1
  1
\A1;25
  7
SLDTEXTSTYLE0
 73
     1
 44
1.0
  0
POINT
  5
29C
330
290
100
AcDbEntity
  8
Defpoints
 62
     0
100
AcDbPoint
 10
146.1800864165658
 20
-22.08785858252033
 30
0.0
  0
POINT
  5
29D
330
290
100
AcDbEntity
  8
Defpoints
 62
     0
100
AcDbPoint
 10
121.1800864165658
 20
-25.88246020380012
 30
0.0
  0
POINT
  5
29E
330
290
100
AcDbEntity
  8
Defpoints
 62
     0
100
AcDbPoint
 10
121.1800864165658
 20
4.437539796198536
 30
0.0
  0
ENDBLK
  5
292
330
290
100
AcDbEntity
  8
0
100
AcDbBlockEnd
  0
BLOCK
  5
2A0
330
29F
100
AcDbEntity
  8
0
100
AcDbBlockBegin
  2
*D18
 70
     1
 10
0.0
 20
0.0
 30
0.0
  3
*D18
  1
*D19
  0
LINE
  5
2A2
330
29F
100
AcDbEntity
  8
치수문자_일반주서
 62
     0
370
    -2
100
AcDbLine
 10
146.0425864165658
 20
-21.89227830480214
 30
0.0
 11
153.7544460396362
 21
-21.89227830480214
 31
0.0
  0
LINE
  5
2A3
330
29F
100
AcDbEntity
  8
치수문자_일반주서
 62
     0
370
    -2
100
AcDbLine
 10
143.8180849924441
 20
-29.89271098033566
 30
0.0
 11
153.7544460396362
 21
-29.89271098033566
 31
0.0
  0
LINE
  5
2A4
330
29F
100
AcDbEntity
  8
치수문자_일반주서
 62
     0
370
    -2
100
AcDbLine
 10
153.7544460396362
 20
-21.89227830480214
 30
0.0
 11
153.7544460396362
 21
-6.538278304802144
 31
0.0
  0
LINE
  5
2A5
330
29F
100
AcDbEntity
  8
치수문자_일반주서
 62
     0
370
    -2
100
AcDbLine
 10
153.7544460396362
 20
-25.19427830480214
 30
0.0
 11
153.7544460396362
 21
-26.59071098033566
 31
0.0
  0
SOLID
  5
2A6
330
29F
100
AcDbEntity
  8
치수문자_일반주서
 62
     0
100
AcDbTrace
 10
154.3047793729695
 20
-25.19427830480214
 30
0.0
 11
153.2041127063029
 21
-25.19427830480214
 31
0.0
 12
153.7544460396362
 22
-21.89227830480214
 32
0.0
 13
153.7544460396362
 23
-21.89227830480214
 33
0.0
  0
SOLID
  5
2A7
330
29F
100
AcDbEntity
  8
치수문자_일반주서
 62
     0
100
AcDbTrace
 10
153.2041127063029
 20
-26.59071098033566
 30
0.0
 11
154.3047793729695
 21
-26.59071098033566
 31
0.0
 12
153.7544460396362
 22
-29.89271098033566
 32
0.0
 13
153.7544460396362
 23
-29.89271098033566
 33
0.0
  0
MTEXT
  5
2A8
330
29F
100
AcDbEntity
  8
치수문자_일반주서
 62
     0
100
AcDbMText
 10
151.1294460396362
 20
-10.91327830480214
 30
0.0
 40
3.5
 41
0.0
 71
     5
 72
     1
  1
\A1;{%%c 8}
  7
SLDTEXTSTYLE0
 11
0.0
 21
1.0
 31
0.0
 73
     1
 44
1.0
  0
POINT
  5
2A9
330
29F
100
AcDbEntity
  8
Defpoints
 62
     0
100
AcDbPoint
 10
145.9800864165658
 20
-21.89227830480214
 30
0.0
  0
POINT
  5
2AA
330
29F
100
AcDbEntity
  8
Defpoints
 62
     0
100
AcDbPoint
 10
143.7555849924441
 20
-29.89271098033566
 30
0.0
  0
POINT
  5
2AB
330
29F
100
AcDbEntity
  8
Defpoints
 62
     0
100
AcDbPoint
 10
153.7544460396362
 20
-29.89271098033566
 30
0.0
  0
ENDBLK
  5
2A1
330
29F
100
AcDbEntity
  8
0
100
AcDbBlockEnd
  0
BLOCK
  5
2AD
330
2AC
100
AcDbEntity
  8
0
100
AcDbBlockBegin
  2
*D19
 70
     1
 10
0.0
 20
0.0
 30
0.0
  3
*D19
  1
*D20
  0
LINE
  5
2AF
330
2AC
100
AcDbEntity
  8
0
 62
     0
370
    -2
100
AcDbLine
 10
164.8852296656486
 20
-37.96566824325522
 30
0.0
 11
149.9445629989806
 21
-37.96566824325522
 31
0.0
  0
LINE
  5
2B0
330
2AC
100
AcDbEntity
  8
0
 62
     0
370
    -2
100
AcDbLine
 10
149.9445629989806
 20
-37.96566824325522
 30
0.0
 11
147.490499905967
 21
-32.8321761018294
 31
0.0
  0
MTEXT
  5
2B1
330
2AC
100
AcDbEntity
  8
0
 62
     0
100
AcDbMText
 10
158.1768963323153
 20
-34.40000157658855
 30
0.0
 40
3.5
 41
0.0
 71
     5
 72
     1
  1
R0,20
 73
     1
 44
1.0
  0
LINE
  5
2B2
330
2AC
100
AcDbEntity
  8
0
 62
     0
370
    -2
100
AcDbLine
 10
145.9800864165658
 20
-29.67264210279808
 30
0.0
 11
146.0663464673597
 21
-29.85308379320534
 31
0.0
  0
SOLID
  5
2B3
330
2AC
100
AcDbEntity
  8
0
 62
     0
100
AcDbTrace
 10
147.9870152907376
 20
-32.59481719539485
 30
0.0
 11
146.9939845211963
 21
-33.06953500826395
 31
0.0
 12
146.0663464673597
 22
-29.85308379320534
 32
0.0
 13
146.0663464673597
 23
-29.85308379320534
 33
0.0
  0
POINT
  5
2B4
330
2AC
100
AcDbEntity
  8
Defpoints
 62
     0
100
AcDbPoint
 10
146.0663464673597
 20
-29.85308379320534
 30
0.0
  0
POINT
  5
2B5
330
2AC
100
AcDbEntity
  8
Defpoints
 62
     0
100
AcDbPoint
 10
145.9800864165658
 20
-29.67264210279808
 30
0.0
  0
ENDBLK
  5
2AE
330
2AC
100
AcDbEntity
  8
0
100
AcDbBlockEnd
  0
BLOCK
  5
36A
330
369
100
AcDbEntity
  8
0
100
AcDbBlockBegin
  2
*D20
 70
     1
 10
0.0
 20
0.0
 30
0.0
  3
*D20
  1
*D8
  0
LINE
  5
36B
330
369
100
AcDbEntity
  8
치수문자_일반주서
 62
     0
370
    -2
100
AcDbLine
 10
117.71646033236
 20
15.21387985599215
 30
0.0
 11
128.9940848087961
 21
-0.0000000000000253
 31
0.0
  0
MTEXT
  5
36C
330
369
100
AcDbEntity
  8
치수문자_일반주서
 62
     0
100
AcDbMText
 10
129.0186253902214
 20
4.374931172014376
 30
0.0
 40
3.5
 41
0.0
 71
     5
 72
     1
  1
\A1;R.3
  7
SLDTEXTSTYLE0
 11
0.5955031401299027
 21
-0.8033529797638306
 31
0.0
 73
     1
 44
1.0
  0
LINE
  5
36D
330
369
100
AcDbEntity
  8
치수문자_일반주서
 62
     0
370
    -2
100
AcDbLine
 10
115.5714580216121
 20
18.10755728910147
 30
0.0
 11
115.7501089636511
 21
17.86655139517232
 31
0.0
  0
SOLID
  5
36E
330
369
100
AcDbEntity
  8
치수문자_일반주서
 62
     0
100
AcDbTrace
 10
118.1585722555567
 20
15.54160508411031
 30
0.0
 11
117.2743484091633
 21
14.88615462787399
 31
0.0
 12
115.7501089636511
 22
17.86655139517232
 32
0.0
 13
115.7501089636511
 23
17.86655139517232
 33
0.0
  0
POINT
  5
36F
330
369
100
AcDbEntity
  8
Defpoints
 62
     0
100
AcDbPoint
 10
115.7501089636511
 20
17.86655139517232
 30
0.0
  0
POINT
  5
370
330
369
100
AcDbEntity
  8
Defpoints
 62
     0
100
AcDbPoint
 10
115.5714580216121
 20
18.10755728910147
 30
0.0
  0
ENDBLK
  5
371
330
369
100
AcDbEntity
  8
0
100
AcDbBlockEnd
  0
BLOCK
  5
375
330
374
100
AcDbEntity
  8
0
100
AcDbBlockBegin
  2
*D21
 70
     1
 10
0.0
 20
0.0
 30
0.0
  3
*D21
  1
*D23
  0
LINE
  5
377
330
374
100
AcDbEntity
  8
치수문자_일반주서
 62
     0
370
    -2
100
AcDbLine
 10
16.80895802161208
 20
25.79327533162438
 30
0.0
 11
4.374999999999987
 21
25.79327533162433
 31
0.0
  0
LINE
  5
378
330
374
100
AcDbEntity
  8
치수문자_일반주서
 62
     0
370
    -2
100
AcDbLine
 10
16.80895802161208
 20
17.79327533162439
 30
0.0
 11
4.375000000000014
 21
17.79327533162434
 31
0.0
  0
LINE
  5
379
330
374
100
AcDbEntity
  8
치수문자_일반주서
 62
     0
370
    -2
100
AcDbLine
 10
4.374999999999998
 20
22.49127533162433
 30
0.0
 11
4.375000000000003
 21
21.09527533162434
 31
0.0
  0
SOLID
  5
37A
330
374
100
AcDbEntity
  8
치수문자_일반주서
 62
     0
100
AcDbTrace
 10
4.925333333333332
 20
22.49127533162434
 30
0.0
 11
3.824666666666665
 21
22.49127533162433
 31
0.0
 12
4.374999999999987
 22
25.79327533162433
 32
0.0
 13
4.374999999999987
 23
25.79327533162433
 33
0.0
  0
SOLID
  5
37B
330
374
100
AcDbEntity
  8
치수문자_일반주서
 62
     0
100
AcDbTrace
 10
3.82466666666667
 20
21.09527533162434
 30
0.0
 11
4.925333333333336
 21
21.09527533162434
 31
0.0
 12
4.375000000000014
 22
17.79327533162434
 32
0.0
 13
4.375000000000014
 23
17.79327533162434
 33
0.0
  0
MTEXT
  5
37C
330
374
100
AcDbEntity
  8
치수문자_일반주서
 62
     0
100
AcDbMText
 10
0.0
 20
21.79327533162436
 30
0.0
 40
3.5
 41
0.0
 71
     2
 72
     1
  1
\A1;%%c8
  7
SLDTEXTSTYLE0
 11
-3.441691376337988E-15
 21
1.0
 31
0.0
 73
     1
 44
1.0
  0
POINT
  5
37D
330
374
100
AcDbEntity
  8
Defpoints
 62
     0
100
AcDbPoint
 10
16.87145802161208
 20
25.79327533162438
 30
0.0
  0
POINT
  5
37E
330
374
100
AcDbEntity
  8
Defpoints
 62
     0
100
AcDbPoint
 10
16.87145802161208
 20
17.79327533162439
 30
0.0
  0
POINT
  5
37F
330
374
100
AcDbEntity
  8
Defpoints
 62
     0
100
AcDbPoint
 10
4.375000000000014
 20
17.79327533162434
 30
0.0
  0
ENDBLK
  5
376
330
374
100
AcDbEntity
  8
0
100
AcDbBlockEnd
  0
BLOCK
  5
381
330
380
100
AcDbEntity
  8
0
100
AcDbBlockBegin
  2
*D22
 70
     1
 10
0.0
 20
0.0
 30
0.0
  3
*D22
  1
*D24
  0
LINE
  5
383
330
380
100
AcDbEntity
  8
치수문자_일반주서
 62
     0
370
    -2
100
AcDbLine
 10
115.8714580216121
 20
25.55577533162439
 30
0.0
 11
115.8714580216121
 21
43.99327533162405
 31
0.0
  0
LINE
  5
384
330
380
100
AcDbEntity
  8
치수문자_일반주서
 62
     0
370
    -2
100
AcDbLine
 10
95.87145802161209
 20
25.85577533162439
 30
0.0
 11
95.87145802161209
 21
43.99327533162405
 31
0.0
  0
LINE
  5
385
330
380
100
AcDbEntity
  8
치수문자_일반주서
 62
     0
370
    -2
100
AcDbLine
 10
115.8714580216121
 20
43.99327533162405
 30
0.0
 11
140.5910445052252
 21
43.99327533162405
 31
0.0
  0
LINE
  5
386
330
380
100
AcDbEntity
  8
치수문자_일반주서
 62
     0
370
    -2
100
AcDbLine
 10
112.5694580216121
 20
43.99327533162405
 30
0.0
 11
99.17345802161208
 21
43.99327533162405
 31
0.0
  0
SOLID
  5
387
330
380
100
AcDbEntity
  8
치수문자_일반주서
 62
     0
100
AcDbTrace
 10
112.5694580216121
 20
43.44294199829071
 30
0.0
 11
112.5694580216121
 21
44.54360866495738
 31
0.0
 12
115.8714580216121
 22
43.99327533162405
 32
0.0
 13
115.8714580216121
 23
43.99327533162405
 33
0.0
  0
SOLID
  5
388
330
380
100
AcDbEntity
  8
치수문자_일반주서
 62
     0
100
AcDbTrace
 10
99.17345802161208
 20
44.54360866495738
 30
0.0
 11
99.17345802161208
 21
43.44294199829071
 31
0.0
 12
95.87145802161209
 22
43.99327533162405
 32
0.0
 13
95.87145802161209
 23
43.99327533162405
 33
0.0
  0
MTEXT
  5
389
330
380
100
AcDbEntity
  8
치수문자_일반주서
 62
     0
100
AcDbMText
 10
137.7472945052252
 20
48.36827533162405
 30
0.0
 40
3.5
 41
0.0
 71
     2
 72
     1
  1
\A1;20
  7
SLDTEXTSTYLE0
 73
     1
 44
1.0
  0
POINT
  5
38A
330
380
100
AcDbEntity
  8
Defpoints
 62
     0
100
AcDbPoint
 10
115.8714580216121
 20
25.49327533162439
 30
0.0
  0
POINT
  5
38B
330
380
100
AcDbEntity
  8
Defpoints
 62
     0
100
AcDbPoint
 10
95.87145802161209
 20
25.79327533162439
 30
0.0
  0
POINT
  5
38C
330
380
100
AcDbEntity
  8
Defpoints
 62
     0
100
AcDbPoint
 10
95.87145802161209
 20
43.99327533162405
 30
0.0
  0
ENDBLK
  5
382
330
380
100
AcDbEntity
  8
0
100
AcDbBlockEnd
  0
BLOCK
  5
38E
330
38D
100
AcDbEntity
  8
0
100
AcDbBlockBegin
  2
*D23
 70
     1
 10
0.0
 20
0.0
 30
0.0
  3
*D23
  1
*D25
  0
LINE
  5
390
330
38D
100
AcDbEntity
  8
치수문자_일반주서
 62
     0
370
    -2
100
AcDbLine
 10
115.8714580216121
 20
25.55577533162439
 30
0.0
 11
115.8714580216121
 21
66.05159983666869
 31
0.0
  0
LINE
  5
391
330
38D
100
AcDbEntity
  8
치수문자_일반주서
 62
     0
370
    -2
100
AcDbLine
 10
15.87145802161208
 20
24.85577533162438
 30
0.0
 11
15.87145802161208
 21
66.05159983666869
 31
0.0
  0
LINE
  5
392
330
38D
100
AcDbEntity
  8
치수문자_일반주서
 62
     0
370
    -2
100
AcDbLine
 10
112.5694580216121
 20
66.05159983666869
 30
0.0
 11
19.17345802161208
 21
66.05159983666869
 31
0.0
  0
SOLID
  5
393
330
38D
100
AcDbEntity
  8
치수문자_일반주서
 62
     0
100
AcDbTrace
 10
112.5694580216121
 20
65.50126650333536
 30
0.0
 11
112.5694580216121
 21
66.60193317000201
 31
0.0
 12
115.8714580216121
 22
66.05159983666869
 32
0.0
 13
115.8714580216121
 23
66.05159983666869
 33
0.0
  0
SOLID
  5
394
330
38D
100
AcDbEntity
  8
치수문자_일반주서
 62
     0
100
AcDbTrace
 10
19.17345802161208
 20
66.60193317000201
 30
0.0
 11
19.17345802161208
 21
65.50126650333536
 31
0.0
 12
15.87145802161208
 22
66.05159983666869
 32
0.0
 13
15.87145802161208
 23
66.05159983666869
 33
0.0
  0
MTEXT
  5
395
330
38D
100
AcDbEntity
  8
치수문자_일반주서
 62
     0
100
AcDbMText
 10
65.87145802161209
 20
70.42659983666869
 30
0.0
 40
3.5
 41
0.0
 71
     2
 72
     1
  1
\A1;100
  7
SLDTEXTSTYLE0
 73
     1
 44
1.0
  0
POINT
  5
396
330
38D
100
AcDbEntity
  8
Defpoints
 62
     0
100
AcDbPoint
 10
115.8714580216121
 20
25.49327533162439
 30
0.0
  0
POINT
  5
397
330
38D
100
AcDbEntity
  8
Defpoints
 62
     0
100
AcDbPoint
 10
15.87145802161208
 20
24.79327533162438
 30
0.0
  0
POINT
  5
398
330
38D
100
AcDbEntity
  8
Defpoints
 62
     0
100
AcDbPoint
 10
15.87145802161208
 20
66.05159983666869
 30
0.0
  0
ENDBLK
  5
38F
330
38D
100
AcDbEntity
  8
0
100
AcDbBlockEnd
  0
BLOCK
  5
39A
330
399
100
AcDbEntity
  8
0
100
AcDbBlockBegin
  2
*D24
 70
     1
 10
0.0
 20
0.0
 30
0.0
  3
*D24
  1
*D26
  0
LINE
  5
39C
330
399
100
AcDbEntity
  8
치수문자_일반주서
 62
     0
370
    -2
100
AcDbLine
 10
115.8714580216121
 20
25.85577533162446
 30
0.0
 11
115.8714580216121
 21
52.11327533162304
 31
0.0
  0
LINE
  5
39D
330
399
100
AcDbEntity
  8
치수문자_일반주서
 62
     0
370
    -2
100
AcDbLine
 10
80.87145802161209
 20
25.70577533162439
 30
0.0
 11
80.87145802161209
 21
52.11327533162304
 31
0.0
  0
LINE
  5
39E
330
399
100
AcDbEntity
  8
치수문자_일반주서
 62
     0
370
    -2
100
AcDbLine
 10
115.8714580216121
 20
52.11327533162304
 30
0.0
 11
131.6629580216121
 21
52.11327533162304
 31
0.0
  0
LINE
  5
39F
330
399
100
AcDbEntity
  8
치수문자_일반주서
 62
     0
370
    -2
100
AcDbLine
 10
115.8714580216121
 20
52.11327533162304
 30
0.0
 11
80.87145802161209
 21
52.11327533162304
 31
0.0
  0
LINE
  5
3A0
330
399
100
AcDbEntity
  8
치수문자_일반주서
 62
     0
370
    -2
100
AcDbLine
 10
119.1734580216121
 20
52.11327533162304
 30
0.0
 11
122.4754580216121
 21
52.11327533162304
 31
0.0
  0
LINE
  5
3A1
330
399
100
AcDbEntity
  8
치수문자_일반주서
 62
     0
370
    -2
100
AcDbLine
 10
77.56945802161209
 20
52.11327533162304
 30
0.0
 11
74.2674580216121
 21
52.11327533162304
 31
0.0
  0
SOLID
  5
3A2
330
399
100
AcDbEntity
  8
치수문자_일반주서
 62
     0
100
AcDbTrace
 10
119.1734580216121
 20
52.66360866495638
 30
0.0
 11
119.1734580216121
 21
51.56294199828971
 31
0.0
 12
115.8714580216121
 22
52.11327533162304
 32
0.0
 13
115.8714580216121
 23
52.11327533162304
 33
0.0
  0
SOLID
  5
3A3
330
399
100
AcDbEntity
  8
치수문자_일반주서
 62
     0
100
AcDbTrace
 10
77.56945802161209
 20
51.56294199828971
 30
0.0
 11
77.56945802161209
 21
52.66360866495638
 31
0.0
 12
80.87145802161209
 22
52.11327533162304
 32
0.0
 13
80.87145802161209
 23
52.11327533162304
 33
0.0
  0
MTEXT
  5
3A4
330
399
100
AcDbEntity
  8
치수문자_일반주서
 62
     0
100
AcDbMText
 10
128.6004580216121
 20
56.48827533162304
 30
0.0
 40
3.5
 41
0.0
 71
     2
 72
     1
  1
\A1;35
  7
SLDTEXTSTYLE0
 73
     1
 44
1.0
  0
POINT
  5
3A5
330
399
100
AcDbEntity
  8
Defpoints
 62
     0
100
AcDbPoint
 10
115.8714580216121
 20
25.79327533162446
 30
0.0
  0
POINT
  5
3A6
330
399
100
AcDbEntity
  8
Defpoints
 62
     0
100
AcDbPoint
 10
80.87145802161209
 20
25.64327533162439
 30
0.0
  0
POINT
  5
3A7
330
399
100
AcDbEntity
  8
Defpoints
 62
     0
100
AcDbPoint
 10
80.87145802161209
 20
52.11327533162304
 30
0.0
  0
ENDBLK
  5
39B
330
399
100
AcDbEntity
  8
0
100
AcDbBlockEnd
  0
BLOCK
  5
3A9
330
3A8
100
AcDbEntity
  8
0
100
AcDbBlockBegin
  2
*D25
 70
     1
 10
0.0
 20
0.0
 30
0.0
  3
*D25
  1
*D27
  0
LINE
  5
3AB
330
3A8
100
AcDbEntity
  8
치수문자_일반주서
 62
     0
370
    -2
100
AcDbLine
 10
95.93395802161209
 20
25.79327533162439
 30
0.0
 11
134.3456659371756
 21
25.79327533162453
 31
0.0
  0
LINE
  5
3AC
330
3A8
100
AcDbEntity
  8
치수문자_일반주서
 62
     0
370
    -2
100
AcDbLine
 10
95.93395802161209
 20
17.79327533162439
 30
0.0
 11
134.3456659371756
 21
17.79327533162453
 31
0.0
  0
LINE
  5
3AD
330
3A8
100
AcDbEntity
  8
치수문자_일반주서
 62
     0
370
    -2
100
AcDbLine
 10
134.3456659371756
 20
22.49127533162453
 30
0.0
 11
134.3456659371756
 21
21.09527533162453
 31
0.0
  0
SOLID
  5
3AE
330
3A8
100
AcDbEntity
  8
치수문자_일반주서
 62
     0
100
AcDbTrace
 10
134.8959992705089
 20
22.49127533162453
 30
0.0
 11
133.7953326038423
 21
22.49127533162453
 31
0.0
 12
134.3456659371756
 22
25.79327533162453
 32
0.0
 13
134.3456659371756
 23
25.79327533162453
 33
0.0
  0
SOLID
  5
3AF
330
3A8
100
AcDbEntity
  8
치수문자_일반주서
 62
     0
100
AcDbTrace
 10
133.7953326038423
 20
21.09527533162452
 30
0.0
 11
134.895999270509
 21
21.09527533162453
 31
0.0
 12
134.3456659371756
 22
17.79327533162453
 32
0.0
 13
134.3456659371756
 23
17.79327533162453
 33
0.0
  0
MTEXT
  5
3B0
330
3A8
100
AcDbEntity
  8
치수문자_일반주서
 62
     0
100
AcDbMText
 10
129.9706659371756
 20
21.7932753316245
 30
0.0
 40
3.5
 41
0.0
 71
     2
 72
     1
  1
\A1;%%c8
  7
SLDTEXTSTYLE0
 11
-3.552713678800501E-15
 21
1.0
 31
0.0
 73
     1
 44
1.0
  0
POINT
  5
3B1
330
3A8
100
AcDbEntity
  8
Defpoints
 62
     0
100
AcDbPoint
 10
95.87145802161209
 20
25.79327533162439
 30
0.0
  0
POINT
  5
3B2
330
3A8
100
AcDbEntity
  8
Defpoints
 62
     0
100
AcDbPoint
 10
95.87145802161209
 20
17.79327533162439
 30
0.0
  0
POINT
  5
3B3
330
3A8
100
AcDbEntity
  8
Defpoints
 62
     0
100
AcDbPoint
 10
134.3456659371756
 20
17.79327533162453
 30
0.0
  0
ENDBLK
  5
3AA
330
3A8
100
AcDbEntity
  8
0
100
AcDbBlockEnd
  0
BLOCK
  5
3F9
330
3F8
100
AcDbEntity
  8
0
100
AcDbBlockBegin
  2
*D26
 70
     1
 10
0.0
 20
0.0
 30
0.0
  3
*D26
  1
*D28
  0
LINE
  5
3FB
330
3F8
100
AcDbEntity
  8
치수문자_일반주서
 62
     0
370
    -2
100
AcDbLine
 10
-63.91250000000001
 20
3.99999999999999
 30
0.0
 11
-76.3464580216121
 21
3.999999999999944
 31
0.0
  0
LINE
  5
3FC
330
3F8
100
AcDbEntity
  8
치수문자_일반주서
 62
     0
370
    -2
100
AcDbLine
 10
-63.91250000000001
 20
-4.000000000000001
 30
0.0
 11
-76.34645802161207
 21
-4.000000000000048
 31
0.0
  0
LINE
  5
3FD
330
3F8
100
AcDbEntity
  8
치수문자_일반주서
 62
     0
370
    -2
100
AcDbLine
 10
-76.34645802161208
 20
0.697999999999944
 30
0.0
 11
-76.34645802161208
 21
-0.6980000000000479
 31
0.0
  0
SOLID
  5
3FE
330
3F8
100
AcDbEntity
  8
치수문자_일반주서
 62
     0
100
AcDbTrace
 10
-75.79612468827875
 20
0.697999999999946
 30
0.0
 11
-76.8967913549454
 21
0.697999999999942
 31
0.0
 12
-76.3464580216121
 22
3.999999999999944
 32
0.0
 13
-76.3464580216121
 23
3.999999999999944
 33
0.0
  0
SOLID
  5
3FF
330
3F8
100
AcDbEntity
  8
치수문자_일반주서
 62
     0
100
AcDbTrace
 10
-76.8967913549454
 20
-0.6980000000000499
 30
0.0
 11
-75.79612468827875
 21
-0.6980000000000459
 31
0.0
 12
-76.34645802161207
 22
-4.000000000000048
 32
0.0
 13
-76.34645802161207
 23
-4.000000000000048
 33
0.0
  0
MTEXT
  5
400
330
3F8
100
AcDbEntity
  8
치수문자_일반주서
 62
     0
100
AcDbMText
 10
-80.72145802161208
 20
-0.0000000000000204
 30
0.0
 40
3.5
 41
0.0
 71
     2
 72
     1
  1
\A1;%%c8
  7
SLDTEXTSTYLE0
 11
-3.552713678800505E-15
 21
1.0
 31
0.0
 73
     1
 44
1.0
  0
POINT
  5
401
330
3F8
100
AcDbEntity
  8
Defpoints
 62
     0
100
AcDbPoint
 10
-63.85000000000001
 20
3.999999999999991
 30
0.0
  0
POINT
  5
402
330
3F8
100
AcDbEntity
  8
Defpoints
 62
     0
100
AcDbPoint
 10
-63.85000000000001
 20
-4.000000000000001
 30
0.0
  0
POINT
  5
403
330
3F8
100
AcDbEntity
  8
Defpoints
 62
     0
100
AcDbPoint
 10
-76.34645802161208
 20
-4.000000000000048
 30
0.0
  0
ENDBLK
  5
3FA
330
3F8
100
AcDbEntity
  8
0
100
AcDbBlockEnd
  0
BLOCK
  5
405
330
404
100
AcDbEntity
  8
0
100
AcDbBlockBegin
  2
*D27
 70
     1
 10
0.0
 20
0.0
 30
0.0
  3
*D27
  1
*D29
  0
LINE
  5
407
330
404
100
AcDbEntity
  8
치수문자_일반주서
 62
     0
370
    -2
100
AcDbLine
 10
35.14999999999999
 20
3.762500000000001
 30
0.0
 11
35.14999999999999
 21
22.19999999999966
 31
0.0
  0
LINE
  5
408
330
404
100
AcDbEntity
  8
치수문자_일반주서
 62
     0
370
    -2
100
AcDbLine
 10
15.15
 20
4.062499999999998
 30
0.0
 11
15.15
 21
22.19999999999966
 31
0.0
  0
LINE
  5
409
330
404
100
AcDbEntity
  8
치수문자_일반주서
 62
     0
370
    -2
100
AcDbLine
 10
35.14999999999999
 20
22.19999999999966
 30
0.0
 11
59.86958648361314
 21
22.19999999999966
 31
0.0
  0
LINE
  5
40A
330
404
100
AcDbEntity
  8
치수문자_일반주서
 62
     0
370
    -2
100
AcDbLine
 10
31.84799999999999
 20
22.19999999999966
 30
0.0
 11
18.452
 21
22.19999999999966
 31
0.0
  0
SOLID
  5
40B
330
404
100
AcDbEntity
  8
치수문자_일반주서
 62
     0
100
AcDbTrace
 10
31.84799999999999
 20
21.64966666666632
 30
0.0
 11
31.84799999999999
 21
22.75033333333299
 31
0.0
 12
35.14999999999999
 22
22.19999999999966
 32
0.0
 13
35.14999999999999
 23
22.19999999999966
 33
0.0
  0
SOLID
  5
40C
330
404
100
AcDbEntity
  8
치수문자_일반주서
 62
     0
100
AcDbTrace
 10
18.452
 20
22.75033333333299
 30
0.0
 11
18.452
 21
21.64966666666632
 31
0.0
 12
15.15
 22
22.19999999999966
 32
0.0
 13
15.15
 23
22.19999999999966
 33
0.0
  0
MTEXT
  5
40D
330
404
100
AcDbEntity
  8
치수문자_일반주서
 62
     0
100
AcDbMText
 10
57.02583648361314
 20
26.57499999999966
 30
0.0
 40
3.5
 41
0.0
 71
     2
 72
     1
  1
\A1;20
  7
SLDTEXTSTYLE0
 73
     1
 44
1.0
  0
POINT
  5
40E
330
404
100
AcDbEntity
  8
Defpoints
 62
     0
100
AcDbPoint
 10
35.14999999999999
 20
3.700000000000001
 30
0.0
  0
POINT
  5
40F
330
404
100
AcDbEntity
  8
Defpoints
 62
     0
100
AcDbPoint
 10
15.15
 20
3.999999999999999
 30
0.0
  0
POINT
  5
410
330
404
100
AcDbEntity
  8
Defpoints
 62
     0
100
AcDbPoint
 10
15.15
 20
22.19999999999966
 30
0.0
  0
ENDBLK
  5
406
330
404
100
AcDbEntity
  8
0
100
AcDbBlockEnd
  0
BLOCK
  5
412
330
411
100
AcDbEntity
  8
0
100
AcDbBlockBegin
  2
*D28
 70
     1
 10
0.0
 20
0.0
 30
0.0
  3
*D28
  1
*D30
  0
LINE
  5
414
330
411
100
AcDbEntity
  8
치수문자_일반주서
 62
     0
370
    -2
100
AcDbLine
 10
35.14999999999999
 20
3.762500000000001
 30
0.0
 11
35.14999999999999
 21
44.25832450504429
 31
0.0
  0
LINE
  5
415
330
411
100
AcDbEntity
  8
치수문자_일반주서
 62
     0
370
    -2
100
AcDbLine
 10
-64.85000000000001
 20
3.062499999999991
 30
0.0
 11
-64.85000000000001
 21
44.25832450504429
 31
0.0
  0
LINE
  5
416
330
411
100
AcDbEntity
  8
치수문자_일반주서
 62
     0
370
    -2
100
AcDbLine
 10
31.84799999999999
 20
44.25832450504429
 30
0.0
 11
-61.54800000000001
 21
44.25832450504429
 31
0.0
  0
SOLID
  5
417
330
411
100
AcDbEntity
  8
치수문자_일반주서
 62
     0
100
AcDbTrace
 10
31.84799999999999
 20
43.70799117171096
 30
0.0
 11
31.84799999999999
 21
44.80865783837763
 31
0.0
 12
35.14999999999999
 22
44.25832450504429
 32
0.0
 13
35.14999999999999
 23
44.25832450504429
 33
0.0
  0
SOLID
  5
418
330
411
100
AcDbEntity
  8
치수문자_일반주서
 62
     0
100
AcDbTrace
 10
-61.54800000000001
 20
44.80865783837763
 30
0.0
 11
-61.54800000000001
 21
43.70799117171096
 31
0.0
 12
-64.85000000000001
 22
44.25832450504429
 32
0.0
 13
-64.85000000000001
 23
44.25832450504429
 33
0.0
  0
MTEXT
  5
419
330
411
100
AcDbEntity
  8
치수문자_일반주서
 62
     0
100
AcDbMText
 10
-14.85000000000001
 20
48.63332450504429
 30
0.0
 40
3.5
 41
0.0
 71
     2
 72
     1
  1
\A1;100
  7
SLDTEXTSTYLE0
 73
     1
 44
1.0
  0
POINT
  5
41A
330
411
100
AcDbEntity
  8
Defpoints
 62
     0
100
AcDbPoint
 10
35.14999999999999
 20
3.700000000000001
 30
0.0
  0
POINT
  5
41B
330
411
100
AcDbEntity
  8
Defpoints
 62
     0
100
AcDbPoint
 10
-64.85000000000001
 20
2.999999999999991
 30
0.0
  0
POINT
  5
41C
330
411
100
AcDbEntity
  8
Defpoints
 62
     0
100
AcDbPoint
 10
-64.85000000000001
 20
44.25832450504429
 30
0.0
  0
ENDBLK
  5
413
330
411
100
AcDbEntity
  8
0
100
AcDbBlockEnd
  0
BLOCK
  5
41E
330
41D
100
AcDbEntity
  8
0
100
AcDbBlockBegin
  2
*D29
 70
     1
 10
0.0
 20
0.0
 30
0.0
  3
*D29
  1
*D31
  0
LINE
  5
420
330
41D
100
AcDbEntity
  8
치수문자_일반주서
 62
     0
370
    -2
100
AcDbLine
 10
35.14999999999999
 20
4.062500000000069
 30
0.0
 11
35.14999999999999
 21
30.31999999999866
 31
0.0
  0
LINE
  5
421
330
41D
100
AcDbEntity
  8
치수문자_일반주서
 62
     0
370
    -2
100
AcDbLine
 10
0.1499999999999981
 20
3.9125
 30
0.0
 11
0.1499999999999986
 21
30.31999999999866
 31
0.0
  0
LINE
  5
422
330
41D
100
AcDbEntity
  8
치수문자_일반주서
 62
     0
370
    -2
100
AcDbLine
 10
35.14999999999999
 20
30.31999999999866
 30
0.0
 11
50.94149999999998
 21
30.31999999999866
 31
0.0
  0
LINE
  5
423
330
41D
100
AcDbEntity
  8
치수문자_일반주서
 62
     0
370
    -2
100
AcDbLine
 10
35.14999999999999
 20
30.31999999999866
 30
0.0
 11
0.1499999999999986
 21
30.31999999999866
 31
0.0
  0
LINE
  5
424
330
41D
100
AcDbEntity
  8
치수문자_일반주서
 62
     0
370
    -2
100
AcDbLine
 10
38.45199999999999
 20
30.31999999999866
 30
0.0
 11
41.75399999999999
 21
30.31999999999866
 31
0.0
  0
LINE
  5
425
330
41D
100
AcDbEntity
  8
치수문자_일반주서
 62
     0
370
    -2
100
AcDbLine
 10
-3.152000000000001
 20
30.31999999999866
 30
0.0
 11
-6.454000000000002
 21
30.31999999999866
 31
0.0
  0
SOLID
  5
426
330
41D
100
AcDbEntity
  8
치수문자_일반주서
 62
     0
100
AcDbTrace
 10
38.45199999999999
 20
30.87033333333199
 30
0.0
 11
38.45199999999999
 21
29.76966666666532
 31
0.0
 12
35.14999999999999
 22
30.31999999999866
 32
0.0
 13
35.14999999999999
 23
30.31999999999866
 33
0.0
  0
SOLID
  5
427
330
41D
100
AcDbEntity
  8
치수문자_일반주서
 62
     0
100
AcDbTrace
 10
-3.152000000000001
 20
29.76966666666532
 30
0.0
 11
-3.152000000000001
 21
30.87033333333199
 31
0.0
 12
0.1499999999999986
 22
30.31999999999866
 32
0.0
 13
0.1499999999999986
 23
30.31999999999866
 33
0.0
  0
MTEXT
  5
428
330
41D
100
AcDbEntity
  8
치수문자_일반주서
 62
     0
100
AcDbMText
 10
47.87899999999998
 20
34.69499999999866
 30
0.0
 40
3.5
 41
0.0
 71
     2
 72
     1
  1
\A1;35
  7
SLDTEXTSTYLE0
 73
     1
 44
1.0
  0
POINT
  5
429
330
41D
100
AcDbEntity
  8
Defpoints
 62
     0
100
AcDbPoint
 10
35.14999999999999
 20
4.000000000000069
 30
0.0
  0
POINT
  5
42A
330
41D
100
AcDbEntity
  8
Defpoints
 62
     0
100
AcDbPoint
 10
0.1499999999999981
 20
3.85
 30
0.0
  0
POINT
  5
42B
330
41D
100
AcDbEntity
  8
Defpoints
 62
     0
100
AcDbPoint
 10
0.1499999999999981
 20
30.31999999999866
 30
0.0
  0
ENDBLK
  5
41F
330
41D
100
AcDbEntity
  8
0
100
AcDbBlockEnd
  0
BLOCK
  5
42D
330
42C
100
AcDbEntity
  8
0
100
AcDbBlockBegin
  2
*D30
 70
     1
 10
0.0
 20
0.0
 30
0.0
  3
*D30
  1
*D32
  0
LINE
  5
42F
330
42C
100
AcDbEntity
  8
치수문자_일반주서
 62
     0
370
    -2
100
AcDbLine
 10
15.2125
 20
3.999999999999999
 30
0.0
 11
53.62420791556352
 21
4.000000000000144
 31
0.0
  0
LINE
  5
430
330
42C
100
AcDbEntity
  8
치수문자_일반주서
 62
     0
370
    -2
100
AcDbLine
 10
15.2125
 20
-4.000000000000001
 30
0.0
 11
53.62420791556355
 21
-3.999999999999857
 31
0.0
  0
LINE
  5
431
330
42C
100
AcDbEntity
  8
치수문자_일반주서
 62
     0
370
    -2
100
AcDbLine
 10
53.62420791556353
 20
0.6980000000001438
 30
0.0
 11
53.62420791556353
 21
-0.697999999999857
 31
0.0
  0
SOLID
  5
432
330
42C
100
AcDbEntity
  8
치수문자_일반주서
 62
     0
100
AcDbTrace
 10
54.17454124889687
 20
0.6980000000001458
 30
0.0
 11
53.0738745822302
 21
0.6980000000001418
 31
0.0
 12
53.62420791556352
 22
4.000000000000144
 32
0.0
 13
53.62420791556352
 23
4.000000000000144
 33
0.0
  0
SOLID
  5
433
330
42C
100
AcDbEntity
  8
치수문자_일반주서
 62
     0
100
AcDbTrace
 10
53.0738745822302
 20
-0.697999999999859
 30
0.0
 11
54.17454124889687
 21
-0.697999999999855
 31
0.0
 12
53.62420791556355
 22
-3.999999999999857
 32
0.0
 13
53.62420791556355
 23
-3.999999999999857
 33
0.0
  0
MTEXT
  5
434
330
42C
100
AcDbEntity
  8
치수문자_일반주서
 62
     0
100
AcDbMText
 10
49.24920791556353
 20
0.0000000000001182
 30
0.0
 40
3.5
 41
0.0
 71
     2
 72
     1
  1
\A1;%%c8
  7
SLDTEXTSTYLE0
 11
-3.552713678800501E-15
 21
1.0
 31
0.0
 73
     1
 44
1.0
  0
POINT
  5
435
330
42C
100
AcDbEntity
  8
Defpoints
 62
     0
100
AcDbPoint
 10
15.15
 20
3.999999999999999
 30
0.0
  0
POINT
  5
436
330
42C
100
AcDbEntity
  8
Defpoints
 62
     0
100
AcDbPoint
 10
15.15
 20
-4.000000000000001
 30
0.0
  0
POINT
  5
437
330
42C
100
AcDbEntity
  8
Defpoints
 62
     0
100
AcDbPoint
 10
53.62420791556355
 20
-3.999999999999857
 30
0.0
  0
ENDBLK
  5
42E
330
42C
100
AcDbEntity
  8
0
100
AcDbBlockEnd
  0
BLOCK
  5
439
330
438
100
AcDbEntity
  8
0
100
AcDbBlockBegin
  2
*D31
 70
     1
 10
0.0
 20
0.0
 30
0.0
  3
*D31
  1
*D33
  0
LINE
  5
43B
330
438
100
AcDbEntity
  8
치수문자_일반주서
 62
     0
370
    -2
100
AcDbLine
 10
39.40480993188325
 20
-6.578320546908344
 30
0.0
 11
50.6824344083193
 21
-21.79220040290052
 31
0.0
  0
MTEXT
  5
43C
330
438
100
AcDbEntity
  8
치수문자_일반주서
 62
     0
100
AcDbMText
 10
50.7069749897447
 20
-17.41726923088612
 30
0.0
 40
3.5
 41
0.0
 71
     5
 72
     1
  1
\A1;R.3
  7
SLDTEXTSTYLE0
 11
0.5955031401299027
 21
-0.8033529797638306
 31
0.0
 73
     1
 44
1.0
  0
LINE
  5
43D
330
438
100
AcDbEntity
  8
치수문자_일반주서
 62
     0
370
    -2
100
AcDbLine
 10
37.25980762113534
 20
-3.684643113799027
 30
0.0
 11
37.43845856317431
 21
-3.925649007728175
 31
0.0
  0
SOLID
  5
43E
330
438
100
AcDbEntity
  8
치수문자_일반주서
 62
     0
100
AcDbTrace
 10
39.84692185507994
 20
-6.250595318790188
 30
0.0
 11
38.96269800868656
 21
-6.906045775026501
 31
0.0
 12
37.43845856317431
 22
-3.925649007728175
 32
0.0
 13
37.43845856317431
 23
-3.925649007728175
 33
0.0
  0
POINT
  5
43F
330
438
100
AcDbEntity
  8
Defpoints
 62
     0
100
AcDbPoint
 10
37.43845856317431
 20
-3.925649007728175
 30
0.0
  0
POINT
  5
440
330
438
100
AcDbEntity
  8
Defpoints
 62
     0
100
AcDbPoint
 10
37.25980762113534
 20
-3.684643113799027
 30
0.0
  0
ENDBLK
  5
43A
330
438
100
AcDbEntity
  8
0
100
AcDbBlockEnd
  0
BLOCK
  5
449
330
448
100
AcDbEntity
  8
0
100
AcDbBlockBegin
  2
*D32
 70
     1
 10
0.0
 20
0.0
 30
0.0
  3
*D32
  1
*D34
  0
LINE
  5
44B
330
448
100
AcDbEntity
  8
치수문자_일반주서
 62
     0
370
    -2
100
AcDbLine
 10
36.39937756398739
 20
-6.861358724945944
 30
0.0
 11
43.19796784271225
 21
-19.97983050127187
 31
0.0
  0
MTEXT
  5
44C
330
448
100
AcDbEntity
  8
치수문자_일반주서
 62
     0
100
AcDbMText
 10
43.41487869462725
 20
-14.69342210380374
 30
0.0
 40
3.5
 41
0.0
 71
     5
 72
     1
  1
\A1;{R0.5}
  7
SLDTEXTSTYLE0
 11
0.4601261861149873
 21
-0.8878535311926602
 31
0.0
 73
     1
 44
1.0
  0
LINE
  5
44D
330
448
100
AcDbEntity
  8
치수문자_일반주서
 62
     0
370
    -2
100
AcDbLine
 10
34.64995888719923
 20
-3.485703097007811
 30
0.0
 11
34.88004089743571
 21
-3.92966636494778
 31
0.0
  0
SOLID
  5
44E
330
448
100
AcDbEntity
  8
치수문자_일반주서
 62
     0
100
AcDbTrace
 10
36.88799295732042
 20
-6.608135947187329
 30
0.0
 11
35.91076217065437
 21
-7.114581502704559
 31
0.0
 12
34.88004089743571
 22
-3.92966636494778
 32
0.0
 13
34.88004089743571
 23
-3.92966636494778
 33
0.0
  0
POINT
  5
44F
330
448
100
AcDbEntity
  8
Defpoints
 62
     0
100
AcDbPoint
 10
34.88004089743571
 20
-3.92966636494778
 30
0.0
  0
POINT
  5
450
330
448
100
AcDbEntity
  8
Defpoints
 62
     0
100
AcDbPoint
 10
34.64995888719923
 20
-3.485703097007811
 30
0.0
  0
ENDBLK
  5
44A
330
448
100
AcDbEntity
  8
0
100
AcDbBlockEnd
  0
ENDSEC
  0
SECTION
  2
ENTITIES
  0
INSERT
  5
D5
330
1F
100
AcDbEntity
  8
0
  6
Continuous
 62
     7
100
AcDbBlockReference
 66
     1
  2
블럭10
 10
-20.93944368806589
 20
-52.04502444419614
 30
0.0
  0
ATTRIB
  5
D6
330
D5
100
AcDbEntity
  8
FORMAT
 62
     2
100
AcDbText
 10
-41.79769121965843
 20
-49.96965753136395
 30
0.0
 40
4.233333333333333
  1
SEME6108005100E [ 2 FLUTE ]
 41
0.75
  7
SLDTEXTSTYLE0
 11
-41.79769121965843
 21
-52.08632419803062
 31
0.0
100
AcDbAttribute
  2
AUTOATTR0
 70
     0
 74
     1
  0
SEQEND
  5
D7
330
D5
100
AcDbEntity
  8
0
  6
Continuous
 62
     7
  0
HATCH
  5
D8
330
1F
100
AcDbEntity
  8
중심선
100
AcDbHatch
 10
0.0
 20
0.0
 30
0.0
210
0.0
220
0.0
230
1.0
  2
SOLID
 70
     1
 71
     0
 91
        1
 92
        0
 93
        4
 72
     1
 10
-15.22453438368504
 20
-35.79785014255221
 11
-18.67080962752232
 21
-35.79785014255221
 72
     1
 10
-18.67080962752232
 20
-35.79785014255221
 11
-20.79903948672635
 21
-38.33417572312481
 72
     1
 10
-20.79903948672635
 20
-38.33417572312482
 11
-17.35273115777591
 21
-38.33413629382233
 72
     1
 10
-17.35273115777591
 20
-38.33413629382233
 11
-15.22453438368504
 21
-35.79785014255221
 97
        0
 75
     0
 76
     1
 98
        1
 10
2.0
 20
0.0010749287238916
  0
HATCH
  5
D9
330
1F
100
AcDbEntity
  8
중심선
100
AcDbHatch
 10
0.0
 20
0.0
 30
0.0
210
0.0
220
0.0
230
1.0
  2
SOLID
 70
     1
 71
     0
 91
        1
 92
        0
 93
        4
 72
     1
 10
-10.21177039264909
 20
-35.79785014255221
 11
-13.65804563648637
 21
-35.79785014255221
 72
     1
 10
-13.65804563648637
 20
-35.79785014255221
 11
-18.18918364484376
 21
-41.19785014255223
 72
     1
 10
-18.18918364484376
 20
-41.19785014255223
 11
-14.74290840100648
 21
-41.19785014255223
 72
     1
 10
-14.74290840100648
 20
-41.19785014255223
 11
-10.21177039264909
 21
-35.79785014255221
 97
        0
 75
     0
 76
     1
 98
        1
 10
2.0
 20
0.0010749287238916
  0
HATCH
  5
DA
330
1F
100
AcDbEntity
  8
중심선
100
AcDbHatch
 10
0.0
 20
0.0
 30
0.0
210
0.0
220
0.0
230
1.0
  2
SOLID
 70
     1
 71
     0
 91
        1
 92
        0
 93
        4
 72
     1
 10
-5.199006401613195
 20
-35.79785014255224
 11
-8.64528164545031
 21
-35.79785014255221
 72
     1
 10
-8.64528164545031
 20
-35.79785014255221
 11
-15.69371854733956
 21
-44.19785014255223
 72
     1
 10
-15.69371854733956
 20
-44.19785014255223
 11
-12.24744330350228
 21
-44.19785014255223
 72
     1
 10
-12.24744330350228
 20
-44.19785014255223
 11
-5.199006401613195
 21
-35.79785014255224
 97
        0
 75
     0
 76
     1
 98
        1
 10
2.0
 20
0.0010749287238916
  0
HATCH
  5
DB
330
1F
100
AcDbEntity
  8
중심선
100
AcDbHatch
 10
0.0
 20
0.0
 30
0.0
210
0.0
220
0.0
230
1.0
  2
SOLID
 70
     1
 71
     0
 91
        1
 92
        0
 93
        6
 72
     3
 10
-0.3991159706009957
 20
-39.99785014260348
 11
3.960054785062284
 21
1.540882976769353E-10
 40
0.3939339440162627
 50
17.09539180608438
 51
320.0019657685082
 73
     0
 72
     1
 10
1.2838836850996
 20
-38.58574414719051
 11
3.589185558800637
 21
-36.65141743714259
 72
     3
 10
-0.3991159706538423
 20
-39.99785014255237
 11
6.600054785286829
 21
-1.278976924368180E-13
 40
0.636358354079598
 50
39.99873849337417
 51
368.4976242363724
 73
     1
 72
     1
 10
6.026216521246767
 20
-39.03785014248224
 11
-1.71904866381792
 21
-39.03785014248221
 72
     1
 10
-1.71904866381792
 20
-39.03785014248221
 11
-1.719073708263854
 21
-40.95785014248213
 72
     1
 10
-1.719073708263854
 20
-40.95785014248213
 11
2.722306061208184
 21
-40.9578501424821
 97
        0
 75
     0
 76
     1
 98
        1
 10
2.0
 20
0.0010749287238916
  0
LINE
  5
3B7
330
1F
100
AcDbEntity
  8
0
  6
Continuous
 62
     4
370
    25
100
AcDbLine
 10
-0.0000000000000004
 20
3.999999999999999
 30
0.0
 11
-63.85000000000001
 21
3.999999999999995
 31
0.0
  0
LINE
  5
3B8
330
1F
100
AcDbEntity
  8
0
  6
Continuous
 62
     4
370
    25
100
AcDbLine
 10
-63.85000000000001
 20
-4.000000000000001
 30
0.0
 11
0.0
 21
-3.999999999999998
 31
0.0
1001
PE_URL
1000

  0
LINE
  5
3B9
330
1F
100
AcDbEntity
  8
0
  6
Continuous
 62
     4
370
    25
100
AcDbLine
 10
-63.85000000000001
 20
3.999999999999991
 30
0.0
 11
-64.85000000000001
 21
2.999999999999991
 31
0.0
  0
LINE
  5
3BA
330
1F
100
AcDbEntity
  8
0
  6
Continuous
 62
     4
370
    25
100
AcDbLine
 10
-64.85000000000001
 20
-2.999999999999998
 30
0.0
 11
-63.85000000000001
 21
-4.000000000000001
 31
0.0
  0
LINE
  5
3BB
330
1F
100
AcDbEntity
  8
0
  6
Continuous
 62
     4
370
    25
100
AcDbLine
 10
12.09989071626886
 20
3.85
 30
0.0
 11
0.1499999999999981
 21
3.85
 31
0.0
  0
LINE
  5
3BC
330
1F
100
AcDbEntity
  8
0
  6
Continuous
 62
     4
370
    25
100
AcDbLine
 10
15.15
 20
3.85
 30
0.0
 11
13.73611051744232
 21
3.85
 31
0.0
  0
LINE
  5
3BD
330
1F
100
AcDbEntity
  8
0
  6
Continuous
 62
     4
370
    25
100
AcDbLine
 10
13.73611051744232
 20
-3.849999999999999
 30
0.0
 11
15.15
 21
-3.849999999999999
 31
0.0
  0
LINE
  5
3BE
330
1F
100
AcDbEntity
  8
0
  6
Continuous
 62
     4
370
    25
100
AcDbLine
 10
0.1499999999999981
 20
-3.849999999999999
 30
0.0
 11
12.09989071626886
 21
-3.849999999999999
 31
0.0
  0
SPLINE
  5
3BF
330
1F
100
AcDbEntity
  8
0
  6
Continuous
 62
     1
370
    25
100
AcDbSpline
210
0.0
220
0.0
230
1.0
 70
     8
 71
     3
 72
     9
 73
     5
 74
     0
 42
0.000000001
 43
0.00000001
 40
0.0
 40
0.0
 40
0.0
 40
0.0
 40
0.4371375353090405
 40
1.0
 40
1.0
 40
1.0
 40
1.0
 10
24.78804429011116
 20
1.024819719705397
 30
0.0
 10
24.62608738961822
 20
1.101746467750436
 30
0.0
 10
24.25559323752391
 20
1.277724831151906
 30
0.0
 10
23.88518226828431
 20
1.471126171707406
 30
0.0
 10
23.67669183718957
 20
1.579984526927012
 30
0.0
  0
LINE
  5
3C0
330
1F
100
AcDbEntity
  8
0
  6
Continuous
 62
     4
370
    25
100
AcDbLine
 10
15.60665882924566
 20
3.999999999999999
 30
0.0
 11
15.15
 21
3.999999999999999
 31
0.0
  0
SPLINE
  5
3C1
330
1F
100
AcDbEntity
  8
0
  6
Continuous
 62
     1
370
    25
100
AcDbSpline
210
0.0
220
0.0
230
1.0
 70
     8
 71
     3
 72
    10
 73
     6
 74
     0
 42
0.000000001
 43
0.00000001
 40
0.0
 40
0.0
 40
0.0
 40
0.0
 40
0.3825457994169695
 40
0.9173860444672126
 40
1.0
 40
1.0
 40
1.0
 40
1.0
 10
23.46434270460444
 20
3.178546247970976
 30
0.0
 10
23.04684394164387
 20
3.160749279880987
 30
0.0
 10
22.04563692458585
 20
3.118070232863693
 30
0.0
 10
20.95498854641675
 20
3.11429172797058
 30
0.0
 10
20.28146125919195
 20
3.143375275551419
 30
0.0
 10
20.19134485330406
 20
3.147266587497003
 30
0.0
  0
SPLINE
  5
3C2
330
1F
100
AcDbEntity
  8
0
  6
Continuous
 62
     1
370
    25
100
AcDbSpline
210
0.0
220
0.0
230
1.0
 70
     8
 71
     3
 72
    21
 73
    17
 74
     0
 42
0.000000001
 43
0.00000001
 40
0.0
 40
0.0
 40
0.0
 40
0.0
 40
0.0823327149983362
 40
0.1401062159249207
 40
0.1834192728143683
 40
0.2327615531970306
 40
0.2874292393916129
 40
0.3999460115064543
 40
0.5042307799178787
 40
0.6214985464157007
 40
0.7294672058767914
 40
0.7586593576051689
 40
0.7915392411221109
 40
0.8425965713134254
 40
0.9123029701178218
 40
0.9999999999999999
 40
0.9999999999999999
 40
0.9999999999999999
 40
0.9999999999999999
 10
33.68488487304652
 20
2.737681742449097
 30
0.0
 10
33.49364859955759
 20
2.722079387388343
 30
0.0
 10
33.16822035846707
 20
2.69552873948218
 30
0.0
 10
32.73928815265001
 20
2.670525345212435
 30
0.0
 10
32.38326591219128
 20
2.65398098840994
 30
0.0
 10
32.03806338823152
 20
2.642037681671058
 30
0.0
 10
31.53265320131921
 20
2.631236466519228
 30
0.0
 10
30.90149025442194
 20
2.631360616242914
 30
0.0
 10
30.10802182930444
 20
2.653624207131207
 30
0.0
 10
29.34860987795349
 20
2.697081142888158
 30
0.0
 10
28.75573976972622
 20
2.746751536926036
 30
0.0
 10
28.35894817312225
 20
2.786928059778616
 30
0.0
 10
28.09514930304558
 20
2.815464092827311
 30
0.0
 10
27.73676713312109
 20
2.857687493165978
 30
0.0
 10
27.24991149863703
 20
2.920945851124666
 30
0.0
 10
26.88169094435429
 20
2.97717993383017
 30
0.0
 10
26.67653754190544
 20
3.008510649257224
 30
0.0
  0
SPLINE
  5
3C3
330
1F
100
AcDbEntity
  8
0
  6
Continuous
 62
     1
370
    25
100
AcDbSpline
210
0.0
220
0.0
230
1.0
 70
     8
 71
     3
 72
    12
 73
     8
 74
     0
 42
0.000000001
 43
0.00000001
 40
0.0
 40
0.0
 40
0.0
 40
0.0
 40
0.2086137590576895
 40
0.5009080909893958
 40
0.698770943843862
 40
0.7918879485694519
 40
1.0
 40
1.0
 40
1.0
 40
1.0
 10
17.44809672604286
 20
-3.328570877897812
 30
0.0
 10
17.86657998777008
 20
-3.290151399602125
 30
0.0
 10
18.87141136940889
 20
-3.197901360022614
 30
0.0
 10
20.2721189062974
 20
-3.132105636892481
 30
0.0
 10
21.44225529803697
 20
-3.120489789690468
 30
0.0
 10
22.44229648266962
 20
-3.133005869534249
 30
0.0
 10
23.04674409978832
 20
-3.159938871817308
 30
0.0
 10
23.46434270460444
 20
-3.178546247970972
 30
0.0
  0
SPLINE
  5
3C4
330
1F
100
AcDbEntity
  8
0
  6
Continuous
 62
     1
370
    25
100
AcDbSpline
210
0.0
220
0.0
230
1.0
 70
     8
 71
     3
 72
    14
 73
    10
 74
     0
 42
0.000000001
 43
0.00000001
 40
0.0
 40
0.0
 40
0.0
 40
0.0
 40
0.1976644978210704
 40
0.3328945037757
 40
0.4515917315802024
 40
0.5924895973229979
 40
0.7432785107344538
 40
0.8956688033501518
 40
1.0
 40
1.0
 40
1.0
 40
1.0
 10
26.67653754190544
 20
-3.008510649257219
 30
0.0
 10
26.87055233859023
 20
-2.978763379584053
 30
0.0
 10
27.19730023808404
 20
-2.928664840465037
 30
0.0
 10
27.64876971756192
 20
-2.868882370803417
 30
0.0
 10
28.0467133491277
 20
-2.820669131514746
 30
0.0
 10
28.45522486947162
 20
-2.776130960751869
 30
0.0
 10
28.89676562600851
 20
-2.734751233468868
 30
0.0
 10
29.3023829676575
 20
-2.702478198746421
 30
0.0
 10
29.5577898328159
 20
-2.687217949335261
 30
0.0
 10
29.66158676836186
 20
-2.681016208737711
 30
0.0
  0
LINE
  5
3C5
330
1F
100
AcDbEntity
  8
0
  6
Continuous
 62
     4
370
    25
100
AcDbLine
 10
15.15
 20
-4.000000000000001
 30
0.0
 11
15.60665882924565
 21
-4.000000000000001
 31
0.0
  0
LINE
  5
3C6
330
1F
100
AcDbEntity
  8
0
  6
Continuous
 62
     4
370
    25
100
AcDbLine
 10
0.1499999999999981
 20
3.85
 30
0.0
 11
0.1499999999999981
 21
-3.849999999999999
 31
0.0
1001
PE_URL
1000

  0
LINE
  5
3C8
330
1F
100
AcDbEntity
  8
0
  6
Continuous
 62
     4
370
    25
100
AcDbLine
 10
-63.85000000000001
 20
3.999999999999991
 30
0.0
 11
-63.85000000000001
 21
-4.000000000000001
 31
0.0
  0
LINE
  5
3C9
330
1F
100
AcDbEntity
  8
0
  6
Continuous
 62
     4
370
    25
100
AcDbLine
 10
-64.85000000000001
 20
2.999999999999991
 30
0.0
 11
-64.85000000000001
 21
-2.999999999999998
 31
0.0
  0
SPLINE
  5
3CA
330
1F
100
AcDbEntity
  8
0
  6
Continuous
 62
     4
370
    25
100
AcDbSpline
210
0.0
220
0.0
230
1.0
 70
     8
 71
     3
 72
    12
 73
     8
 74
     0
 42
0.000000001
 43
0.00000001
 40
0.0
 40
0.0
 40
0.0
 40
0.0
 40
0.25
 40
0.25
 40
0.5
 40
0.5
 40
1.0
 40
1.0
 40
1.0
 40
1.0
 10
12.09989071626891
 20
3.743201909772017
 30
0.0
 10
12.35415198131544
 20
3.776238820437568
 30
0.0
 10
12.60976972478111
 20
3.801754420954121
 30
0.0
 10
13.11908234821132
 20
3.837256548861549
 30
0.0
 10
13.3710954459073
 20
3.847248199191464
 30
0.0
 10
14.13202102775103
 20
3.854024267052234
 30
0.0
 10
14.64430570877076
 20
3.827239028018644
 30
0.0
 10
15.15
 20
3.770089867090233
 30
0.0
  0
SPLINE
  5
3CB
330
1F
100
AcDbEntity
  8
0
  6
Continuous
 62
     4
370
    25
100
AcDbSpline
210
0.0
220
0.0
230
1.0
 70
     8
 71
     3
 72
    12
 73
     8
 74
     0
 42
0.000000001
 43
0.00000001
 40
0.0
 40
0.0
 40
0.0
 40
0.0
 40
0.5000000000000007
 40
0.5000000000000007
 40
0.7500000000000003
 40
0.7500000000000003
 40
1.0
 40
1.0
 40
1.0
 40
1.0
 10
15.15
 20
-3.837090711764647
 30
0.0
 10
14.6442867396916
 20
-3.81401913226651
 30
0.0
 10
14.13198242920425
 20
-3.759694713187192
 30
0.0
 10
13.37102911607544
 20
-3.633752415685238
 30
0.0
 10
13.11900614527503
 20
-3.584472048628237
 30
0.0
 10
12.60967398438786
 20
-3.471297772984689
 30
0.0
 10
12.3540466614983
 20
-3.407488124662828
 30
0.0
 10
12.09977626534566
 20
-3.337045437508385
 30
0.0
  0
LINE
  5
3CC
330
1F
100
AcDbEntity
  8
0
  6
Continuous
 62
     4
370
    25
100
AcDbLine
 10
15.15
 20
-3.837090711764647
 30
0.0
 11
15.15
 21
-3.849999999999999
 31
0.0
  0
SPLINE
  5
3CD
330
1F
100
AcDbEntity
  8
0
  6
Continuous
 62
     4
370
    25
100
AcDbSpline
210
0.0
220
0.0
230
1.0
 70
     8
 71
     3
 72
    10
 73
     6
 74
     0
 42
0.000000001
 43
0.00000001
 40
0.0
 40
0.0
 40
0.0
 40
0.0
 40
0.3884436408681861
 40
0.7776588541793732
 40
1.0
 40
1.0
 40
1.0
 40
1.0
 10
12.09989071626891
 20
-3.743201909772016
 30
0.0
 10
12.31186225939911
 20
-3.767380800985671
 30
0.0
 10
12.73622638846773
 20
-3.815786610370308
 30
0.0
 10
13.28141279527582
 20
-3.847837347278785
 30
0.0
 10
13.61487497956373
 20
-3.846458338211073
 30
0.0
 10
13.73611051744232
 20
-3.845956977295381
 30
0.0
  0
LINE
  5
3CE
330
1F
100
AcDbEntity
  8
0
  6
Continuous
 62
     4
370
    25
100
AcDbLine
 10
12.09989071626888
 20
-3.849999999999999
 30
0.0
 11
12.09989071626891
 21
-3.743188785666609
 31
0.0
  0
LINE
  5
3CF
330
1F
100
AcDbEntity
  8
0
  6
Continuous
 62
     4
370
    25
100
AcDbLine
 10
12.09989071626886
 20
-3.336957261418396
 30
0.0
 11
12.09989071626888
 21
3.85
 31
0.0
  0
SPLINE
  5
3D0
330
1F
100
AcDbEntity
  8
0
  6
Continuous
 62
     4
370
    25
100
AcDbSpline
210
0.0
220
0.0
230
1.0
 70
     8
 71
     3
 72
    12
 73
     8
 74
     0
 42
0.000000001
 43
0.00000001
 40
0.0
 40
0.0
 40
0.0
 40
0.0
 40
0.5000000000000007
 40
0.5000000000000007
 40
0.7500000000000003
 40
0.7500000000000003
 40
1.0
 40
1.0
 40
1.0
 40
1.0
 10
15.15000000000346
 20
-3.372897613169337
 30
0.0
 10
14.64428673969445
 20
-3.341518822583802
 30
0.0
 10
14.13198242920659
 20
-3.282620613853117
 30
0.0
 10
13.37102911607689
 20
-3.155651450309863
 30
0.0
 10
13.11900614527618
 20
-3.106989923887892
 30
0.0
 10
12.60967398438844
 20
-2.996982719922085
 30
0.0
 10
12.3540466614986
 20
-2.935723331598909
 30
0.0
 10
12.09977626534566
 20
-2.868773019570335
 30
0.0
  0
SPLINE
  5
3D1
330
1F
100
AcDbEntity
  8
0
  6
Continuous
 62
     4
370
    25
100
AcDbSpline
210
0.0
220
0.0
230
1.0
 70
     8
 71
     3
 72
    12
 73
     8
 74
     0
 42
0.000000001
 43
0.00000001
 40
0.0
 40
0.0
 40
0.0
 40
0.0
 40
0.5
 40
0.5
 40
0.75
 40
0.75
 40
1.0
 40
1.0
 40
1.0
 40
1.0
 10
15.15
 20
-0.8068619689032039
 30
0.0
 10
14.64429878160458
 20
-0.5800735362743992
 30
0.0
 10
14.13200693226026
 20
-0.3457657576426185
 30
0.0
 10
13.3710712234345
 20
0.0059296739605395
 30
0.0
 10
13.11905452028427
 20
0.1231354086678693
 30
0.0
 10
12.6097347621167
 20
0.3573900568521382
 30
0.0
 10
12.35411352040865
 20
0.4741768396746644
 30
0.0
 10
12.09984892083102
 20
0.5895652504186288
 30
0.0
  0
SPLINE
  5
3D2
330
1F
100
AcDbEntity
  8
0
  6
Continuous
 62
     4
370
    25
100
AcDbSpline
210
0.0
220
0.0
230
1.0
 70
    24
 71
     3
 72
    14
 73
    10
 74
     0
 42
0.000000001
 43
0.00000001
 40
0.0
 40
0.0
 40
0.0
 40
0.0
 40
0.25
 40
0.25
 40
0.5
 40
0.5
 40
0.75
 40
0.75
 40
1.0
 40
1.0
 40
1.0
 40
1.0
 10
15.15000000000004
 20
-0.8068619689032217
 30
0.0
 10
15.15000000000004
 20
-1.094391245210806
 30
0.0
 10
15.15000000000004
 20
-1.376862609501516
 30
0.0
 10
15.15000000000004
 20
-1.909702046994143
 30
0.0
 10
15.15000000000004
 20
-2.159891843403295
 30
0.0
 10
15.15000000000004
 20
-2.60837014902855
 30
0.0
 10
15.15000000000002
 20
-2.806529151324033
 30
0.0
 10
15.15000000000004
 20
-3.138571783631222
 30
0.0
 10
15.15000000000004
 20
-3.272435252644372
 30
0.0
 10
15.15000000000004
 20
-3.372897613169124
 30
0.0
  0
SPLINE
  5
3D3
330
1F
100
AcDbEntity
  8
0
  6
Continuous
 62
     4
370
    25
100
AcDbSpline
210
0.0
220
0.0
230
1.0
 70
     8
 71
     3
 72
    12
 73
     8
 74
     0
 42
0.000000001
 43
0.00000001
 40
0.0
 40
0.0
 40
0.0
 40
0.0
 40
0.4999999999999993
 40
0.4999999999999993
 40
0.7499999999999997
 40
0.7499999999999997
 40
1.0
 40
1.0
 40
1.0
 40
1.0
 10
15.1500000000015
 20
2.709530962620916
 30
0.0
 10
14.64430113846698
 20
2.76123686346311
 30
0.0
 10
14.1320117280345
 20
2.791165487941472
 30
0.0
 10
13.37107946475531
 20
2.801875795666925
 30
0.0
 10
13.11906398830834
 20
2.799813400743196
 30
0.0
 10
12.60974665762331
 20
2.784380435549155
 30
0.0
 10
12.35412660613682
 20
2.770994474997073
 30
0.0
 10
12.0998631410797
 20
2.752069110272159
 30
0.0
  0
SPLINE
  5
3D4
330
1F
100
AcDbEntity
  8
0
  6
Continuous
 62
     4
370
    25
100
AcDbSpline
210
0.0
220
0.0
230
1.0
 70
    24
 71
     3
 72
    14
 73
    10
 74
     0
 42
0.000000001
 43
0.00000001
 40
0.0
 40
0.0
 40
0.0
 40
0.0
 40
0.25
 40
0.25
 40
0.5
 40
0.5
 40
0.75
 40
0.75
 40
1.0
 40
1.0
 40
1.0
 40
1.0
 10
15.15
 20
2.709530962621069
 30
0.0
 10
15.15
 20
2.549235292069027
 30
0.0
 10
15.15
 20
2.345057345214232
 30
0.0
 10
15.15
 20
1.85627990357286
 30
0.0
 10
15.15
 20
1.571761638311495
 30
0.0
 10
15.15
 20
0.9467972328679175
 30
0.0
 10
15.15
 20
0.6066840998495757
 30
0.0
 10
15.15
 20
-0.0939277510068854
 30
0.0
 10
15.15
 20
-0.4540477064620041
 30
0.0
 10
15.15
 20
-0.8068619689032004
 30
0.0
  0
SPLINE
  5
3D5
330
1F
100
AcDbEntity
  8
0
  6
Continuous
 62
     4
370
    25
100
AcDbSpline
210
0.0
220
0.0
230
1.0
 70
    24
 71
     3
 72
     8
 73
     4
 74
     0
 42
0.000000001
 43
0.00000001
 40
0.0
 40
0.0
 40
0.0
 40
0.0
 40
1.0
 40
1.0
 40
1.0
 40
1.0
 10
15.15
 20
-3.37289761316912
 30
0.0
 10
15.15
 20
-3.529257009734019
 30
0.0
 10
15.15
 20
-3.68455000579812
 30
0.0
 10
15.15
 20
-3.837090711764721
 30
0.0
  0
SPLINE
  5
3D6
330
1F
100
AcDbEntity
  8
0
  6
Continuous
 62
     4
370
    25
100
AcDbSpline
210
0.0
220
0.0
230
1.0
 70
    24
 71
     3
 72
    10
 73
     6
 74
     0
 42
0.000000001
 43
0.00000001
 40
0.0
 40
0.0
 40
0.0
 40
0.0
 40
0.5
 40
0.5
 40
1.0
 40
1.0
 40
1.0
 40
1.0
 10
15.15
 20
3.770089867090059
 30
0.0
 10
15.15
 20
3.602247834554662
 30
0.0
 10
15.15
 20
3.419456732637185
 30
0.0
 10
15.15
 20
3.055564127303187
 30
0.0
 10
15.15
 20
2.87503371282225
 30
0.0
 10
15.15
 20
2.709530962621069
 30
0.0
  0
SPLINE
  5
3D7
330
1F
100
AcDbEntity
  8
0
  6
Continuous
 62
     1
370
    25
100
AcDbSpline
210
0.0
220
0.0
230
1.0
 70
     8
 71
     3
 72
    48
 73
    44
 74
     0
 42
0.000000001
 43
0.00000001
 40
0.0
 40
0.0
 40
0.0
 40
0.0
 40
0.0625
 40
0.0625
 40
0.09375
 40
0.09375
 40
0.125
 40
0.125
 40
0.15625
 40
0.15625
 40
0.1875000000000001
 40
0.1875000000000001
 40
0.2500000000000001
 40
0.2500000000000001
 40
0.3125000000000002
 40
0.3125000000000002
 40
0.3750000000000002
 40
0.3750000000000002
 40
0.4062500000000002
 40
0.4062500000000002
 40
0.4375000000000003
 40
0.4375000000000003
 40
0.5
 40
0.5
 40
0.5624999999999996
 40
0.5624999999999996
 40
0.6249999999999993
 40
0.6249999999999993
 40
0.6562499999999993
 40
0.6562499999999993
 40
0.6874999999999993
 40
0.6874999999999993
 40
0.7499999999999998
 40
0.7499999999999998
 40
0.7812499999999998
 40
0.7812499999999998
 40
0.8124999999999998
 40
0.8124999999999998
 40
0.8749999999999999
 40
0.8749999999999999
 40
0.9375
 40
0.9375
 40
0.993915256275228
 40
0.993915256275228
 40
0.993915256275228
 40
0.993915256275228
 10
15.15
 20
3.908945007729818
 30
0.0
 10
15.55831648917048
 20
3.858762898461772
 30
0.0
 10
15.9725216115648
 20
3.787675979922911
 30
0.0
 10
16.58806528594397
 20
3.652045407679795
 30
0.0
 10
16.7912794230841
 20
3.602131205305986
 30
0.0
 10
17.20105099798532
 20
3.492710773964783
 30
0.0
 10
17.40706985237698
 20
3.433227801404792
 30
0.0
 10
17.81894044792804
 20
3.30537345551493
 30
0.0
 10
18.02478897819336
 20
3.237003098210258
 30
0.0
 10
18.43388593669222
 20
3.092242040339697
 30
0.0
 10
18.63743794116872
 20
3.015833614658052
 30
0.0
 10
19.2537123888835
 20
2.774306878712667
 30
0.0
 10
19.66772365991135
 20
2.597303747198732
 30
0.0
 10
20.48263669367129
 20
2.219874483194522
 30
0.0
 10
20.89647573812093
 20
2.017468575992022
 30
0.0
 10
21.71830436358796
 20
1.594465431259268
 30
0.0
 10
22.12535454114031
 20
1.374132170747631
 30
0.0
 10
22.74314830440546
 20
1.033244072631705
 30
0.0
 10
22.94918852710893
 20
0.9180796259134802
 30
0.0
 10
23.35905282342943
 20
0.6860553511548582
 30
0.0
 10
23.56224527122754
 20
0.5693200750864826
 30
0.0
 10
24.17766791192128
 20
0.2162204656671478
 30
0.0
 10
24.59189372376794
 20
-0.0223164565741682
 30
0.0
 10
25.40876765399026
 20
-0.4944473371743867
 30
0.0
 10
25.82043610429958
 20
-0.7297700216329281
 30
0.0
 10
26.64312127936162
 20
-1.190147686427254
 30
0.0
 10
27.04971591788333
 20
-1.414405285794268
 30
0.0
 10
27.66731073701363
 20
-1.739274862599595
 30
0.0
 10
27.87348027233982
 20
-1.845462833866067
 30
0.0
 10
28.28398937184329
 20
-2.052392068939907
 30
0.0
 10
28.48726477741276
 20
-2.152967338273823
 30
0.0
 10
29.10165118132005
 20
-2.446572560219403
 30
0.0
 10
29.515964623395
 20
-2.631128190405141
 30
0.0
 10
30.1299090820495
 20
-2.884696286894671
 30
0.0
 10
30.33333204689369
 20
-2.96538331998512
 30
0.0
 10
30.74405391708139
 20
-3.119253809312164
 30
0.0
 10
30.95025620767674
 20
-3.192280936549847
 30
0.0
 10
31.56772647255196
 20
-3.398313177773142
 30
0.0
 10
31.97424835736815
 20
-3.517948789315577
 30
0.0
 10
32.79719403923914
 20
-3.719977349471444
 30
0.0
 10
33.20813654692926
 20
-3.801797847934599
 30
0.0
 10
33.98589531266634
 20
-3.918549383568018
 30
0.0
 10
34.35935436388805
 20
-3.957507108330272
 30
0.0
 10
34.73013081759479
 20
-3.979275357463199
 30
0.0
  0
SPLINE
  5
3D8
330
1F
100
AcDbEntity
  8
0
  6
Continuous
 62
     1
370
    25
100
AcDbSpline
210
0.0
220
0.0
230
1.0
 70
     8
 71
     3
 72
    13
 73
     9
 74
     0
 42
0.000000001
 43
0.00000001
 40
0.0
 40
0.0
 40
0.0
 40
0.0
 40
0.1580771818381922
 40
0.3487659671869721
 40
0.5394990360924672
 40
0.7303244139414423
 40
0.8650852710995682
 40
0.9999999999999999
 40
0.9999999999999999
 40
0.9999999999999999
 40
0.9999999999999999
 10
25.21581723936416
 20
-0.3813099408212763
 30
0.0
 10
24.68538770343926
 20
-0.1674567366257569
 30
0.0
 10
23.51510007577427
 20
0.3043679678001383
 30
0.0
 10
21.70495983568945
 20
1.025524114354296
 30
0.0
 10
19.78493210764215
 20
1.710255616234848
 30
0.0
 10
18.05218196796251
 20
2.207645792847173
 30
0.0
 10
16.5075074375848
 20
2.541220788489616
 30
0.0
 10
15.60267457264922
 20
2.653406234285863
 30
0.0
 10
15.15
 20
2.709530962621069
 30
0.0
  0
SPLINE
  5
3D9
330
1F
100
AcDbEntity
  8
0
  6
Continuous
 62
     4
370
    25
100
AcDbSpline
210
0.0
220
0.0
230
1.0
 70
    24
 71
     3
 72
    10
 73
     6
 74
     0
 42
0.000000001
 43
0.00000001
 40
0.0
 40
0.0
 40
0.0
 40
0.0
 40
0.5
 40
0.5
 40
1.0
 40
1.0
 40
1.0
 40
1.0
 10
15.15
 20
3.908945007729811
 30
0.0
 10
15.15
 20
3.728016475619678
 30
0.0
 10
15.14999999999998
 20
3.522532331714155
 30
0.0
 10
15.15
 20
3.107196264950679
 30
0.0
 10
15.15
 20
2.898484389987841
 30
0.0
 10
15.15
 20
2.709530962621069
 30
0.0
  0
SPLINE
  5
3DA
330
1F
100
AcDbEntity
  8
0
  6
Continuous
 62
     1
370
    25
100
AcDbSpline
210
0.0
220
0.0
230
1.0
 70
     8
 71
     3
 72
    13
 73
     9
 74
     0
 42
0.000000001
 43
0.00000001
 40
0.0
 40
0.0
 40
0.0
 40
0.0
 40
0.1850779766587501
 40
0.3702500486316446
 40
0.5554771660912728
 40
0.7407199383947716
 40
0.9259388777654813
 40
1.0
 40
1.0
 40
1.0
 40
1.0
 10
35.14999999999999
 20
-3.15588905747286
 30
0.0
 10
34.51012059938041
 20
-3.015490548313055
 30
0.0
 10
33.23003647767737
 20
-2.734622150123923
 30
0.0
 10
31.30935815415379
 20
-2.040369558619785
 30
0.0
 10
29.38803782413673
 20
-1.206167546674914
 30
0.0
 10
27.46653514965296
 20
-0.2802367840949222
 30
0.0
 10
25.92943764666012
 20
0.4917702195143918
 30
0.0
 10
25.03295065696731
 20
0.9021112592183642
 30
0.0
 10
24.77687684969404
 20
1.019321652147175
 30
0.0
  0
SPLINE
  5
3DB
330
1F
100
AcDbEntity
  8
0
  6
Continuous
 62
     1
370
    25
100
AcDbSpline
210
0.0
220
0.0
230
1.0
 70
    24
 71
     3
 72
     8
 73
     4
 74
     0
 42
0.000000001
 43
0.00000001
 40
0.0
 40
0.0
 40
0.0
 40
0.0
 40
1.0
 40
1.0
 40
1.0
 40
1.0
 10
35.14999999999999
 20
-3.472916249429454
 30
0.0
 10
35.14999999999999
 20
-3.366974491466463
 30
0.0
 10
35.14999999999999
 20
-3.261133477112368
 30
0.0
 10
35.14999999999999
 20
-3.15588905747286
 30
0.0
  0
SPLINE
  5
3DC
330
1F
100
AcDbEntity
  8
0
  6
Continuous
 62
     1
370
    25
100
AcDbSpline
210
0.0
220
0.0
230
1.0
 70
     8
 71
     3
 72
    10
 73
     6
 74
     0
 42
0.000000001
 43
0.00000001
 40
0.0
 40
0.0
 40
0.0
 40
0.0
 40
0.5
 40
0.5
 40
1.0
 40
1.0
 40
1.0
 40
1.0
 10
35.14999999999999
 20
-3.472916249429454
 30
0.0
 10
35.15000000000016
 20
-3.555616888447618
 30
0.0
 10
35.11661544390241
 20
-3.637931496224867
 30
0.0
 10
34.9997381212447
 20
-3.737373650168466
 30
0.0
 10
34.92159308512068
 20
-3.75216323383624
 30
0.0
 10
34.84999999999997
 20
-3.737425857519872
 30
0.0
  0
SPLINE
  5
3DD
330
1F
100
AcDbEntity
  8
0
  6
Continuous
 62
     1
370
    25
100
AcDbSpline
210
0.0
220
0.0
230
1.0
 70
     8
 71
     3
 72
    19
 73
    15
 74
     0
 42
0.000000001
 43
0.00000001
 40
0.0
 40
0.0
 40
0.0
 40
0.0
 40
0.0819038566324059
 40
0.1638160227937193
 40
0.2457377661537683
 40
0.3276607060211489
 40
0.4095739563335217
 40
0.4914787443220254
 40
0.5733763447240199
 40
0.6634524915388659
 40
0.7535262244650545
 40
0.8435972655170658
 40
0.9336653376517068
 40
1.0
 40
1.0
 40
1.0
 40
1.0
 10
34.85000000000002
 20
-3.737425857519616
 30
0.0
 10
34.32465812409686
 20
-3.61066455966556
 30
0.0
 10
33.27392107390283
 20
-3.357129103431559
 30
0.0
 10
31.69769036066578
 20
-2.752268709829779
 30
0.0
 10
30.12129393214384
 20
-2.019435169470119
 30
0.0
 10
28.54488026270728
 20
-1.178864374695466
 30
0.0
 10
26.96863226042618
 20
-0.2785167398836221
 30
0.0
 10
25.39255258989629
 20
0.6363690171001459
 30
0.0
 10
23.76423287451959
 20
1.547880797736666
 30
0.0
 10
22.08318374073808
 20
2.400653740388768
 30
0.0
 10
20.34981005406971
 20
3.132755916119591
 30
0.0
 10
18.61647232706538
 20
3.661319692129384
 30
0.0
 10
17.03542933260978
 20
3.964277249501278
 30
0.0
 10
16.03216891539286
 20
3.972339400065265
 30
0.0
 10
15.60665882924566
 20
3.975758777848088
 30
0.0
  0
LINE
  5
3DE
330
1F
100
AcDbEntity
  8
0
  6
Continuous
 62
     4
370
    25
100
AcDbLine
 10
15.15
 20
3.908945007729818
 30
0.0
 11
15.15
 21
3.999999999999999
 31
0.0
  0
SPLINE
  5
3DF
330
1F
100
AcDbEntity
  8
0
  6
Continuous
 62
     1
370
    25
100
AcDbSpline
210
0.0
220
0.0
230
1.0
 70
     8
 71
     3
 72
    14
 73
    10
 74
     0
 42
0.000000001
 43
0.00000001
 40
0.0
 40
0.0
 40
0.0
 40
0.0
 40
0.1642677924125053
 40
0.3286202644330649
 40
0.4930222754765524
 40
0.6574383775205672
 40
0.8218330349086138
 40
0.9861708453191095
 40
1.0
 40
1.0
 40
1.0
 40
1.0
 10
35.14999999999999
 20
0.0000000000000058
 30
0.0
 10
34.5101216120563
 20
0.295648140559218
 30
0.0
 10
33.23003498056969
 20
0.887096827504108
 30
0.0
 10
31.30936599040835
 20
1.706768540979203
 30
0.0
 10
29.38805682313193
 20
2.394398688897676
 30
0.0
 10
27.46655375170745
 20
2.905984593421879
 30
0.0
 10
25.54535047640706
 20
3.170141641976129
 30
0.0
 10
24.21082325249385
 20
3.251472841394824
 30
0.0
 10
23.5168031974168
 20
3.17513440507654
 30
0.0
 10
23.46293400405439
 20
3.169209086410417
 30
0.0
  0
SPLINE
  5
3E0
330
1F
100
AcDbEntity
  8
0
  6
Continuous
 62
     1
370
    25
100
AcDbSpline
210
0.0
220
0.0
230
1.0
 70
    24
 71
     3
 72
    14
 73
    10
 74
     0
 42
0.000000001
 43
0.00000001
 40
0.0
 40
0.0
 40
0.0
 40
0.0
 40
0.25
 40
0.25
 40
0.5
 40
0.5
 40
0.75
 40
0.75
 40
1.0
 40
1.0
 40
1.0
 40
1.0
 10
35.14999999999999
 20
-3.155889057472856
 30
0.0
 10
35.14999999999999
 20
-2.985129663074397
 30
0.0
 10
35.14999999999999
 20
-2.782995875012146
 30
0.0
 10
35.14999999999999
 20
-2.323958408783104
 30
0.0
 10
35.14999999999999
 20
-2.067119424389504
 30
0.0
 10
35.14999999999999
 20
-1.51554962043941
 30
0.0
 10
35.14999999999999
 20
-1.220978077498783
 30
0.0
 10
35.14999999999999
 20
-0.6163234371177579
 30
0.0
 10
35.14999999999999
 20
-0.3064196984977427
 30
0.0
 10
35.14999999999999
 20
0.0000000000000058
 30
0.0
  0
LINE
  5
3E1
330
1F
100
AcDbEntity
  8
0
  6
Continuous
 62
     1
370
    25
100
AcDbLine
 10
35.14999999999999
 20
2.800000000000006
 30
0.0
 11
33.68042868070621
 21
2.718182334671719
 31
0.0
  0
SPLINE
  5
3E2
330
1F
100
AcDbEntity
  8
0
  6
Continuous
 62
     1
370
    25
100
AcDbSpline
210
0.0
220
0.0
230
1.0
 70
    24
 71
     3
 72
    14
 73
    10
 74
     0
 42
0.000000001
 43
0.00000001
 40
0.0
 40
0.0
 40
0.0
 40
0.0
 40
0.2500000000000001
 40
0.2500000000000001
 40
0.5000000000000001
 40
0.5000000000000001
 40
0.7500000000000001
 40
0.7500000000000001
 40
1.0
 40
1.0
 40
1.0
 40
1.0
 10
35.14999999999999
 20
0.0000000000000093
 30
0.0
 10
35.15000000000001
 20
0.3331374068055895
 30
0.0
 10
35.14999999999999
 20
0.6621743055018237
 30
0.0
 10
35.14999999999999
 20
1.277490199831027
 30
0.0
 10
35.14999999999998
 20
1.563386921499072
 30
0.0
 10
35.14999999999998
 20
2.06102764860731
 30
0.0
 10
35.14999999999999
 20
2.272506490262627
 30
0.0
 10
35.14999999999998
 20
2.60426621684543
 30
0.0
 10
35.14999999999999
 20
2.724563097745565
 30
0.0
 10
35.14999999999999
 20
2.800000000000006
 30
0.0
  0
SPLINE
  5
3E3
330
1F
100
AcDbEntity
  8
0
  6
Continuous
 62
     1
370
    25
100
AcDbSpline
210
0.0
220
0.0
230
1.0
 70
     8
 71
     3
 72
     9
 73
     5
 74
     0
 42
0.000000001
 43
0.00000001
 40
0.0
 40
0.0
 40
0.0
 40
0.0
 40
0.4102724666258756
 40
1.0
 40
1.0
 40
1.0
 40
1.0
 10
17.45248352667916
 20
-3.314686979536381
 30
0.0
 10
17.13764235669248
 20
-3.346560028650445
 30
0.0
 10
16.37024703870791
 20
-3.424247545378525
 30
0.0
 10
15.60266453599154
 20
-3.391946455329341
 30
0.0
 10
15.15000000000348
 20
-3.372897613169337
 30
0.0
  0
SPLINE
  5
3E4
330
1F
100
AcDbEntity
  8
0
  6
Continuous
 62
     1
370
    25
100
AcDbSpline
210
0.0
220
0.0
230
1.0
 70
     8
 71
     3
 72
    14
 73
    10
 74
     0
 42
0.000000001
 43
0.00000001
 40
0.0
 40
0.0
 40
0.0
 40
0.0
 40
0.0990908029426275
 40
0.2655299776096748
 40
0.4318812621927768
 40
0.5982701784858836
 40
0.7647375249915953
 40
0.8823033881203216
 40
1.0
 40
1.0
 40
1.0
 40
1.0
 10
26.68862522117393
 20
-2.978484652434117
 30
0.0
 10
26.3074593040754
 20
-3.041815516250468
 30
0.0
 10
25.28606302483301
 20
-3.211520901127537
 30
0.0
 10
23.62485113186056
 20
-3.22098691913653
 30
0.0
 10
21.70495361314367
 20
-3.023729186183112
 30
0.0
 10
19.78494876373873
 20
-2.585685811742584
 30
0.0
 10
18.05210589120952
 20
-2.014121250526409
 30
0.0
 10
16.50753138179548
 20
-1.40400778024385
 30
0.0
 10
15.60267808676175
 20
-1.005984307451244
 30
0.0
 10
15.15
 20
-0.8068619689032039
 30
0.0
  0
SPLINE
  5
3E5
330
1F
100
AcDbEntity
  8
0
  6
Continuous
 62
     4
370
    25
100
AcDbSpline
210
0.0
220
0.0
230
1.0
 70
    24
 71
     3
 72
    14
 73
    10
 74
     0
 42
0.000000001
 43
0.00000001
 40
0.0
 40
0.0
 40
0.0
 40
0.0
 40
0.25
 40
0.25
 40
0.5
 40
0.5
 40
0.75
 40
0.75
 40
1.0
 40
1.0
 40
1.0
 40
1.0
 10
15.15000000000004
 20
-0.8068619689032217
 30
0.0
 10
15.15000000000004
 20
-1.094391245210806
 30
0.0
 10
15.15000000000004
 20
-1.376862609501516
 30
0.0
 10
15.15000000000004
 20
-1.909702046994143
 30
0.0
 10
15.15000000000004
 20
-2.159891843403295
 30
0.0
 10
15.15000000000004
 20
-2.60837014902855
 30
0.0
 10
15.15000000000002
 20
-2.806529151324033
 30
0.0
 10
15.15000000000004
 20
-3.138571783631222
 30
0.0
 10
15.15000000000004
 20
-3.272435252644372
 30
0.0
 10
15.15000000000004
 20
-3.372897613169124
 30
0.0
  0
SPLINE
  5
3E6
330
1F
100
AcDbEntity
  8
0
  6
Continuous
 62
     4
370
    25
100
AcDbSpline
210
0.0
220
0.0
230
1.0
 70
    24
 71
     3
 72
    14
 73
    10
 74
     0
 42
0.000000001
 43
0.00000001
 40
0.0
 40
0.0
 40
0.0
 40
0.0
 40
0.25
 40
0.25
 40
0.5
 40
0.5
 40
0.75
 40
0.75
 40
1.0
 40
1.0
 40
1.0
 40
1.0
 10
15.15
 20
2.709530962621069
 30
0.0
 10
15.15
 20
2.549235292069027
 30
0.0
 10
15.15
 20
2.345057345214232
 30
0.0
 10
15.15
 20
1.85627990357286
 30
0.0
 10
15.15
 20
1.571761638311495
 30
0.0
 10
15.15
 20
0.9467972328679175
 30
0.0
 10
15.15
 20
0.6066840998495757
 30
0.0
 10
15.15
 20
-0.0939277510068854
 30
0.0
 10
15.15
 20
-0.4540477064620041
 30
0.0
 10
15.15
 20
-0.8068619689032004
 30
0.0
  0
LINE
  5
3E7
330
1F
100
AcDbEntity
  8
0
  6
Continuous
 62
     1
370
    25
100
AcDbLine
 10
35.14999999999999
 20
-3.472916249429454
 30
0.0
 11
35.14999999999999
 21
-3.485718042522915
 31
0.0
  0
SPLINE
  5
3E8
330
1F
100
AcDbEntity
  8
0
  6
Continuous
 62
     1
370
    25
100
AcDbSpline
210
0.0
220
0.0
230
1.0
 70
     8
 71
     3
 72
    10
 73
     6
 74
     0
 42
0.000000001
 43
0.00000001
 40
0.0
 40
0.0
 40
0.0
 40
0.0
 40
0.3113548050405027
 40
0.6556836051640146
 40
1.0
 40
1.0
 40
1.0
 40
1.0
 10
20.18374903374854
 20
-3.149588036422885
 30
0.0
 10
19.66131742068933
 20
-3.321871085247275
 30
0.0
 10
18.56112613423154
 20
-3.684682799513668
 30
0.0
 10
16.88320887570583
 20
-3.98201043027773
 30
0.0
 10
15.72772935361412
 20
-3.988190679233072
 30
0.0
 10
15.15
 20
-3.99128074804509
 30
0.0
  0
SPLINE
  5
3E9
330
1F
100
AcDbEntity
  8
0
  6
Continuous
 62
     4
370
    25
100
AcDbSpline
210
0.0
220
0.0
230
1.0
 70
    24
 71
     3
 72
     8
 73
     4
 74
     0
 42
0.000000001
 43
0.00000001
 40
0.0
 40
0.0
 40
0.0
 40
0.0
 40
1.0
 40
1.0
 40
1.0
 40
1.0
 10
15.15
 20
-3.37289761316912
 30
0.0
 10
15.15
 20
-3.58228605103987
 30
0.0
 10
15.15
 20
-3.789753020686541
 30
0.0
 10
15.15
 20
-3.991280748035263
 30
0.0
  0
SPLINE
  5
3EA
330
1F
100
AcDbEntity
  8
0
  6
Continuous
 62
     1
370
    25
100
AcDbSpline
210
0.0
220
0.0
230
1.0
 70
     8
 71
     3
 72
    14
 73
    10
 74
     0
 42
0.000000001
 43
0.00000001
 40
0.0
 40
0.0
 40
0.0
 40
0.0
 40
0.0271858412443177
 40
0.2490609817563048
 40
0.3605020329581618
 40
0.5189536299007044
 40
0.6779668117178392
 40
0.8386904023179277
 40
0.9783913140266216
 40
0.9783913140266216
 40
0.9783913140266216
 40
0.9783913140266216
 10
29.65195099379817
 20
2.683709104013284
 30
0.0
 10
29.69907156396923
 20
2.704311033190577
 30
0.0
 10
30.13076302285184
 20
2.89305401380525
 30
0.0
 10
30.75499373361186
 20
3.129667496538234
 30
0.0
 10
31.60760842268213
 20
3.410605372677497
 30
0.0
 10
32.34987294496877
 20
3.61908759606205
 30
0.0
 10
33.17938722206854
 20
3.79794156470989
 30
0.0
 10
33.97453673587378
 20
3.922423307005848
 30
0.0
 10
34.49537657654636
 20
3.961191705714804
 30
0.0
 10
34.73759911774454
 20
3.977984631446356
 30
0.0
  0
LINE
  5
3EB
330
1F
100
AcDbEntity
  8
0
  6
Continuous
 62
     4
370
    25
100
AcDbLine
 10
15.15
 20
-3.999999999999998
 30
0.0
 11
15.15
 21
-3.99128074804509
 31
0.0
  0
SPLINE
  5
3EC
330
1F
100
AcDbEntity
  8
0
  6
Continuous
 62
     1
370
    25
100
AcDbSpline
210
0.0
220
0.0
230
1.0
 70
    24
 71
     3
 72
    10
 73
     6
 74
     0
 42
0.000000001
 43
0.00000001
 40
0.0
 40
0.0
 40
0.0
 40
0.0
 40
0.5
 40
0.5
 40
0.7808915271950396
 40
0.7808915271950396
 40
0.7808915271950396
 40
0.7808915271950396
 10
35.14999999999999
 20
2.800000000000006
 30
0.0
 10
35.14999999999999
 20
2.928132366293673
 30
0.0
 10
35.14999999999999
 20
3.071683361811653
 30
0.0
 10
35.14999999999999
 20
3.309020695005553
 30
0.0
 10
35.14999999999999
 20
3.396979453102222
 30
0.0
 10
35.14999999999999
 20
3.485718042522935
 30
0.0
  0
LINE
  5
3ED
330
1F
100
AcDbEntity
  8
중심선
100
AcDbLine
 10
-67.85
 20
-0.0000000000000049
 30
0.0
 11
38.14999999999999
 21
0.0000000000000058
 31
0.0
  0
CIRCLE
  5
3EE
330
1F
100
AcDbEntity
  8
외형선
100
AcDbCircle
 10
0.0
 20
0.0
 30
0.0
 40
3.000000000000005
  0
DIMENSION
  5
3EF
330
1F
100
AcDbEntity
  8
치수문자_일반주서
100
AcDbDimension
  2
*D26
 10
-76.34645802161207
 20
-4.000000000000048
 30
0.0
 11
-76.34645802161208
 21
-0.0000000000000049
 31
0.0
 70
   160
  1
%%c<>
 71
     2
 42
7.999999999999991
 52
-270.0
  3
SLDDIMSTYLE0
100
AcDbAlignedDimension
 13
-63.85000000000001
 23
3.999999999999991
 33
0.0
 14
-63.85000000000001
 24
-4.000000000000001
 34
0.0
 50
90.0000000000002
100
AcDbRotatedDimension
  0
DIMENSION
  5
3F0
330
1F
100
AcDbEntity
  8
치수문자_일반주서
100
AcDbDimension
  2
*D27
 10
15.15
 20
22.19999999999966
 30
0.0
 11
57.02583648361314
 21
22.19999999999966
 31
0.0
 70
   160
  1
<>
 71
     2
 42
20.0
  3
SLDDIMSTYLE1
100
AcDbAlignedDimension
 13
35.14999999999999
 23
3.700000000000001
 33
0.0
 14
15.15
 24
3.999999999999999
 34
0.0
 50
0.0000000000000102
100
AcDbRotatedDimension
  0
DIMENSION
  5
3F1
330
1F
100
AcDbEntity
  8
치수문자_일반주서
100
AcDbDimension
  2
*D28
 10
-64.85000000000001
 20
44.25832450504429
 30
0.0
 11
-14.85000000000001
 21
44.25832450504429
 31
0.0
 70
   160
  1
<>
 71
     2
 42
100.0
  3
SLDDIMSTYLE1
100
AcDbAlignedDimension
 13
35.14999999999999
 23
3.700000000000001
 33
0.0
 14
-64.85000000000001
 24
2.999999999999991
 34
0.0
100
AcDbRotatedDimension
  0
DIMENSION
  5
3F2
330
1F
100
AcDbEntity
  8
치수문자_일반주서
100
AcDbDimension
  2
*D29
 10
0.1499999999999986
 20
30.31999999999866
 30
0.0
 11
47.87899999999998
 21
30.31999999999866
 31
0.0
 70
   160
  1
<>
 71
     2
 42
34.99999999999999
  3
SLDDIMSTYLE0
100
AcDbAlignedDimension
 13
35.14999999999999
 23
4.000000000000069
 33
0.0
 14
0.1499999999999981
 24
3.85
 34
0.0
 50
-0.0000000000022354
100
AcDbRotatedDimension
  0
DIMENSION
  5
3F3
330
1F
100
AcDbEntity
  8
치수문자_일반주서
100
AcDbDimension
  2
*D30
 10
53.62420791556355
 20
-3.999999999999857
 30
0.0
 11
53.62420791556353
 21
0.0000000000001337
 31
0.0
 70
   160
  1
%%c<>
 71
     2
 42
8.0
 52
-270.0
  3
SLDDIMSTYLE0
100
AcDbAlignedDimension
 13
15.15
 23
3.999999999999999
 33
0.0
 14
15.15
 24
-4.000000000000001
 34
0.0
 50
90.0000000000002
100
AcDbRotatedDimension
  0
INSERT
  5
3F4
330
1F
100
AcDbEntity
  8
외형선
100
AcDbBlockReference
  2
SW_DOWELSYMBOL_0
 10
0.0
 20
0.0
 30
0.0
  0
ARC
  5
443
330
1F
100
AcDbEntity
  8
0
  6
Continuous
 62
     1
370
    25
100
AcDbCircle
 10
34.64999999999999
 20
3.485718042522935
 30
0.0
 40
0.4999999999999998
100
AcDbArc
 50
0.0
 51
79.90980560905928
  0
ARC
  5
444
330
1F
100
AcDbEntity
  8
0
  6
Continuous
 62
     1
370
    25
100
AcDbCircle
 10
34.64995888719923
 20
-3.485703097007811
 30
0.0
 40
0.5000411130241139
100
AcDbArc
 50
279.2260904362012
 51
359.9982875109346
  0
DIMENSION
  5
445
330
1F
100
AcDbEntity
  8
치수문자_일반주서
100
AcDbDimension
  2
*D32
 10
34.64995888719923
 20
-3.485703097007811
 30
0.0
 11
41.08426317524652
 21
-15.90125334235559
 31
0.0
 70
   164
  1
{R0.5}
 71
     5
 42
0.5000411130241154
  3
SLDDIMSTYLE0
100
AcDbRadialDimension
 15
34.88004089743571
 25
-3.92966636494778
 35
0.0
 40
0.0
1001
ACAD_DSTYLE_DIMRADIAL_EXTENSION
1070
   387
1070
     1
1070
   388
1040
4.87341463558316
1070
   390
1040
6.283155418606989
1001
ACAD
1000
DSTYLE
1002
{
1070
   170
1070
     0
1070
   283
1070
     1
1002
}
  0
LINE
  5
475
330
1F
100
AcDbEntity
  8
0
  6
Continuous
 62
     4
370
    25
100
AcDbLine
 10
0.1499999999999981
 20
3.85
 30
0.0
 11
-0.0000000000000004
 21
3.999999999999999
 31
0.0
1001
PE_URL
1000

  0
LINE
  5
477
330
1F
100
AcDbEntity
  8
0
  6
Continuous
 62
     4
370
    25
100
AcDbLine
 10
-0.0000000000000004
 20
3.999999999999999
 30
0.0
 11
0.0
 21
-3.999999999999999
 31
0.0
1001
PE_URL
1000

  0
LINE
  5
478
330
1F
100
AcDbEntity
  8
0
  6
Continuous
 62
     4
370
    25
100
AcDbLine
 10
0.0
 20
-3.999999999999998
 30
0.0
 11
0.1499999999999981
 21
-3.849999999999999
 31
0.0
1001
PE_URL
1000

  0
ENDSEC
  0
SECTION
  2
OBJECTS
  0
DICTIONARY
  5
C
330
0
100
AcDbDictionary
281
     1
  3
ACAD_GROUP
350
D
  3
ACAD_IMAGE_VARS
350
143
  3
ACAD_LAYOUT
350
1A
  3
ACAD_MLINESTYLE
350
17
  3
ACAD_PLOTSETTINGS
350
19
  3
ACAD_PLOTSTYLENAME
350
E
  3
ACAD_SCALELIST
350
47
  3
APPDATA
350
141
  3
DWGPROPS
350
479
  0
DICTIONARY
  5
D
102
{ACAD_REACTORS
330
C
102
}
330
C
100
AcDbDictionary
281
     1
  0
RASTERVARIABLES
  5
143
102
{ACAD_REACTORS
330
C
102
}
330
C
100
AcDbRasterVariables
 90
        0
 70
     1
 71
     1
 72
     1
  0
DICTIONARY
  5
1A
102
{ACAD_REACTORS
330
C
102
}
330
C
100
AcDbDictionary
281
     1
  3
Layout1
350
1E
  3
Layout2
350
26
  3
Model
350
22
  0
DICTIONARY
  5
17
102
{ACAD_REACTORS
330
C
102
}
330
C
100
AcDbDictionary
281
     1
  3
Standard
350
18
  0
DICTIONARY
  5
19
102
{ACAD_REACTORS
330
C
102
}
330
C
100
AcDbDictionary
281
     1
  0
ACDBDICTIONARYWDFLT
  5
E
102
{ACAD_REACTORS
330
C
102
}
330
C
100
AcDbDictionary
281
     1
  3
Normal
350
F
100
AcDbDictionaryWithDefault
340
F
  0
DICTIONARY
  5
47
102
{ACAD_REACTORS
330
C
102
}
330
C
100
AcDbDictionary
281
     1
  3
A0
350
48
  3
A1
350
49
  3
A2
350
4A
  3
A3
350
4B
  3
A4
350
4C
  3
A5
350
4D
  3
A6
350
4E
  3
A7
350
4F
  3
A8
350
50
  3
A9
350
51
  3
B0
350
52
  3
B1
350
53
  3
B2
350
54
  3
B3
350
55
  3
B4
350
56
  3
B5
350
57
  3
B6
350
58
  3
B7
350
59
  3
B8
350
5A
  3
B9
350
5B
  3
C0
350
5C
  3
C1
350
5D
  3
C2
350
5E
  3
C3
350
5F
  3
C4
350
60
  3
C5
350
61
  3
C6
350
62
  3
C7
350
63
  3
C8
350
64
  3
C9
350
65
  3
D0
350
66
  3
D1
350
67
  3
D2
350
68
  0
DICTIONARY
  5
141
102
{ACAD_REACTORS
330
C
102
}
330
C
100
AcDbDictionary
281
     1
  0
XRECORD
  5
479
102
{ACAD_REACTORS
330
C
102
}
330
C
100
AcDbXrecord
280
     1
  1
DWGPROPS COOKIE
  2

  3

  4

  6

  7

  8
12014102
  9

300
=
301
=
302
=
303
=
304
=
305
=
306
=
307
=
308
=
309
=
 40
0.0
 41
2458263.431249583
 42
2459576.947638634
  1

 90
        0
  0
LAYOUT
  5
1E
102
{ACAD_REACTORS
330
1A
102
}
330
1A
100
AcDbPlotSettings
  1

  2
none_device
  4

  6

 40
0.0
 41
0.0
 42
0.0
 43
0.0
 44
0.0
 45
0.0
 46
0.0
 47
0.0
 48
0.0
 49
0.0
140
0.0
141
0.0
142
1.0
143
1.0
 70
   688
 72
     1
 73
     0
 74
     5
  7

 75
    16
147
1.0
148
0.0
149
0.0
100
AcDbLayout
  1
Layout1
 70
     1
 71
     1
 10
0.0
 20
0.0
 11
420.0
 21
297.0
 12
0.0
 22
0.0
 32
0.0
 14
1.000000000000000E+20
 24
1.000000000000000E+20
 34
1.000000000000000E+20
 15
-1.000000000000000E+20
 25
-1.000000000000000E+20
 35
-1.000000000000000E+20
146
0.0
 13
0.0
 23
0.0
 33
0.0
 16
1.0
 26
0.0
 36
0.0
 17
0.0
 27
1.0
 37
0.0
 76
     0
330
1B
  0
LAYOUT
  5
26
102
{ACAD_REACTORS
330
1A
102
}
330
1A
100
AcDbPlotSettings
  1

  2
none_device
  4

  6

 40
0.0
 41
0.0
 42
0.0
 43
0.0
 44
0.0
 45
0.0
 46
0.0
 47
0.0
 48
0.0
 49
0.0
140
0.0
141
0.0
142
1.0
143
1.0
 70
   688
 72
     1
 73
     0
 74
     5
  7

 75
    16
147
1.0
148
0.0
149
0.0
100
AcDbLayout
  1
Layout2
 70
     1
 71
     2
 10
0.0
 20
0.0
 11
0.0
 21
0.0
 12
0.0
 22
0.0
 32
0.0
 14
0.0
 24
0.0
 34
0.0
 15
0.0
 25
0.0
 35
0.0
146
0.0
 13
0.0
 23
0.0
 33
0.0
 16
1.0
 26
0.0
 36
0.0
 17
0.0
 27
1.0
 37
0.0
 76
     0
330
23
  0
LAYOUT
  5
22
102
{ACAD_REACTORS
330
1A
102
}
330
1A
100
AcDbPlotSettings
  1

  2
none_device
  4
ANSI_A_(11.00_x_8.50_Inches)
  6

 40
6.35
 41
19.05
 42
6.35000508
 43
19.05000254
 44
279.4
 45
215.9
 46
133.9521504727476
 47
91.00968708780339
 48
0.0
 49
0.0
140
0.0
141
0.0
142
0.0774958714429784
143
1.0
 70
  1696
 72
     0
 73
     0
 74
     0
  7

 75
     0
147
0.0235690232323232
148
0.0
149
0.0
100
AcDbLayout
  1
Model
 70
     1
 71
     0
 10
0.0
 20
0.0
 11
420.0
 21
297.0
 12
0.0
 22
0.0
 32
0.0
 14
-80.7214580216121
 24
-49.96965753136395
 34
0.0
 15
59.86958648361316
 25
48.63332450504429
 35
0.0
146
0.0
 13
0.0
 23
0.0
 33
0.0
 16
1.0
 26
0.0
 36
0.0
 17
0.0
 27
1.0
 37
0.0
 76
     0
330
1F
331
29
  0
MLINESTYLE
  5
18
102
{ACAD_REACTORS
330
17
102
}
330
17
100
AcDbMlineStyle
  2
Standard
 70
     0
  3

 62
   256
 51
90.0
 52
90.0
 71
     2
 49
0.5
 62
   256
  6
BYLAYER
 49
-0.5
 62
   256
  6
BYLAYER
  0
ACDBPLACEHOLDER
  5
F
102
{ACAD_REACTORS
330
E
102
}
330
E
  0
SCALE
  5
48
102
{ACAD_REACTORS
330
47
102
}
330
47
100
AcDbScale
 70
     0
300
1:1
140
1.0
141
1.0
290
     1
  0
SCALE
  5
49
102
{ACAD_REACTORS
330
47
102
}
330
47
100
AcDbScale
 70
     0
300
1:2
140
1.0
141
2.0
290
     0
  0
SCALE
  5
4A
102
{ACAD_REACTORS
330
47
102
}
330
47
100
AcDbScale
 70
     0
300
1:4
140
1.0
141
4.0
290
     0
  0
SCALE
  5
4B
102
{ACAD_REACTORS
330
47
102
}
330
47
100
AcDbScale
 70
     0
300
1:5
140
1.0
141
5.0
290
     0
  0
SCALE
  5
4C
102
{ACAD_REACTORS
330
47
102
}
330
47
100
AcDbScale
 70
     0
300
1:8
140
1.0
141
8.0
290
     0
  0
SCALE
  5
4D
102
{ACAD_REACTORS
330
47
102
}
330
47
100
AcDbScale
 70
     0
300
1:10
140
1.0
141
10.0
290
     0
  0
SCALE
  5
4E
102
{ACAD_REACTORS
330
47
102
}
330
47
100
AcDbScale
 70
     0
300
1:16
140
1.0
141
16.0
290
     0
  0
SCALE
  5
4F
102
{ACAD_REACTORS
330
47
102
}
330
47
100
AcDbScale
 70
     0
300
1:20
140
1.0
141
20.0
290
     0
  0
SCALE
  5
50
102
{ACAD_REACTORS
330
47
102
}
330
47
100
AcDbScale
 70
     0
300
1:30
140
1.0
141
30.0
290
     0
  0
SCALE
  5
51
102
{ACAD_REACTORS
330
47
102
}
330
47
100
AcDbScale
 70
     0
300
1:40
140
1.0
141
40.0
290
     0
  0
SCALE
  5
52
102
{ACAD_REACTORS
330
47
102
}
330
47
100
AcDbScale
 70
     0
300
1:50
140
1.0
141
50.0
290
     0
  0
SCALE
  5
53
102
{ACAD_REACTORS
330
47
102
}
330
47
100
AcDbScale
 70
     0
300
1:100
140
1.0
141
100.0
290
     0
  0
SCALE
  5
54
102
{ACAD_REACTORS
330
47
102
}
330
47
100
AcDbScale
 70
     0
300
2:1
140
2.0
141
1.0
290
     0
  0
SCALE
  5
55
102
{ACAD_REACTORS
330
47
102
}
330
47
100
AcDbScale
 70
     0
300
4:1
140
4.0
141
1.0
290
     0
  0
SCALE
  5
56
102
{ACAD_REACTORS
330
47
102
}
330
47
100
AcDbScale
 70
     0
300
8:1
140
8.0
141
1.0
290
     0
  0
SCALE
  5
57
102
{ACAD_REACTORS
330
47
102
}
330
47
100
AcDbScale
 70
     0
300
10:1
140
10.0
141
1.0
290
     0
  0
SCALE
  5
58
102
{ACAD_REACTORS
330
47
102
}
330
47
100
AcDbScale
 70
     0
300
100:1
140
100.0
141
1.0
290
     0
  0
SCALE
  5
59
102
{ACAD_REACTORS
330
47
102
}
330
47
100
AcDbScale
 70
     0
300
1/128" = 1'-0"
140
0.0078125
141
12.0
290
     0
  0
SCALE
  5
5A
102
{ACAD_REACTORS
330
47
102
}
330
47
100
AcDbScale
 70
     0
300
1/64" = 1'-0"
140
0.015625
141
12.0
290
     0
  0
SCALE
  5
5B
102
{ACAD_REACTORS
330
47
102
}
330
47
100
AcDbScale
 70
     0
300
1/32" = 1'-0"
140
0.03125
141
12.0
290
     0
  0
SCALE
  5
5C
102
{ACAD_REACTORS
330
47
102
}
330
47
100
AcDbScale
 70
     0
300
1/16" = 1'-0"
140
0.0625
141
12.0
290
     0
  0
SCALE
  5
5D
102
{ACAD_REACTORS
330
47
102
}
330
47
100
AcDbScale
 70
     0
300
3/32" = 1'-0"
140
0.09375
141
12.0
290
     0
  0
SCALE
  5
5E
102
{ACAD_REACTORS
330
47
102
}
330
47
100
AcDbScale
 70
     0
300
1/8" = 1'-0"
140
0.125
141
12.0
290
     0
  0
SCALE
  5
5F
102
{ACAD_REACTORS
330
47
102
}
330
47
100
AcDbScale
 70
     0
300
3/16" = 1'-0"
140
0.1875
141
12.0
290
     0
  0
SCALE
  5
60
102
{ACAD_REACTORS
330
47
102
}
330
47
100
AcDbScale
 70
     0
300
1/4" = 1'-0"
140
0.25
141
12.0
290
     0
  0
SCALE
  5
61
102
{ACAD_REACTORS
330
47
102
}
330
47
100
AcDbScale
 70
     0
300
3/8" = 1'-0"
140
0.375
141
12.0
290
     0
  0
SCALE
  5
62
102
{ACAD_REACTORS
330
47
102
}
330
47
100
AcDbScale
 70
     0
300
1/2" = 1'-0"
140
0.5
141
12.0
290
     0
  0
SCALE
  5
63
102
{ACAD_REACTORS
330
47
102
}
330
47
100
AcDbScale
 70
     0
300
3/4" = 1'-0"
140
0.75
141
12.0
290
     0
  0
SCALE
  5
64
102
{ACAD_REACTORS
330
47
102
}
330
47
100
AcDbScale
 70
     0
300
1" = 1'-0"
140
1.0
141
12.0
290
     0
  0
SCALE
  5
65
102
{ACAD_REACTORS
330
47
102
}
330
47
100
AcDbScale
 70
     0
300
1-1/2" = 1'-0"
140
1.5
141
12.0
290
     0
  0
SCALE
  5
66
102
{ACAD_REACTORS
330
47
102
}
330
47
100
AcDbScale
 70
     0
300
3" = 1'-0"
140
3.0
141
12.0
290
     0
  0
SCALE
  5
67
102
{ACAD_REACTORS
330
47
102
}
330
47
100
AcDbScale
 70
     0
300
6" = 1'-0"
140
6.0
141
12.0
290
     0
  0
SCALE
  5
68
102
{ACAD_REACTORS
330
47
102
}
330
47
100
AcDbScale
 70
     0
300
1'-0" = 1'-0"
140
12.0
141
12.0
290
     0
  0
ENDSEC
  0
EOF
