  0
SECTION
  2
HEADER
  9
$ACADVER
  1
AC1015
  9
$ACADMAINTVER
 70
     6
  9
$DWGCODEPAGE
  3
ANSI_949
  9
$INSBASE
 10
0.0
 20
0.0
 30
0.0
  9
$EXTMIN
 10
-60.72145802161209
 20
-49.97180738881174
 30
0.0
  9
$EXTMAX
 10
44.00784002006634
 20
49.83332450504428
 30
0.0
  9
$LIMMIN
 10
0.0
 20
0.0
  9
$LIMMAX
 10
420.0
 20
297.0
  9
$ORTHOMODE
 70
     1
  9
$REGENMODE
 70
     1
  9
$FILLMODE
 70
     1
  9
$QTEXTMODE
 70
     0
  9
$MIRRTEXT
 70
     1
  9
$LTSCALE
 40
1.0
  9
$ATTMODE
 70
     1
  9
$TEXTSIZE
 40
3.5
  9
$TRACEWID
 40
1.0
  9
$TEXTSTYLE
  7
Standard
  9
$CLAYER
  8
0
  9
$CELTYPE
  6
ByLayer
  9
$CECOLOR
 62
   256
  9
$CELTSCALE
 40
1.0
  9
$DISPSILH
 70
     0
  9
$DIMSCALE
 40
1.0
  9
$DIMASZ
 40
3.302
  9
$DIMEXO
 40
1.0
  9
$DIMDLI
 40
3.75
  9
$DIMRND
 40
0.0
  9
$DIMDLE
 40
0.0
  9
$DIMEXE
 40
1.0
  9
$DIMTP
 40
0.0
  9
$DIMTM
 40
0.0
  9
$DIMTXT
 40
3.5
  9
$DIMCEN
 40
2.5
  9
$DIMTSZ
 40
0.0
  9
$DIMTOL
 70
     0
  9
$DIMLIM
 70
     0
  9
$DIMTIH
 70
     1
  9
$DIMTOH
 70
     1
  9
$DIMSE1
 70
     0
  9
$DIMSE2
 70
     0
  9
$DIMTAD
 70
     1
  9
$DIMZIN
 70
     0
  9
$DIMBLK
  1

  9
$DIMASO
 70
     1
  9
$DIMSHO
 70
     1
  9
$DIMPOST
  1

  9
$DIMAPOST
  1

  9
$DIMALT
 70
     0
  9
$DIMALTD
 70
     3
  9
$DIMALTF
 40
0.0393700787401575
  9
$DIMLFAC
 40
1.0
  9
$DIMTOFL
 70
     1
  9
$DIMTVP
 40
0.0
  9
$DIMTIX
 70
     0
  9
$DIMSOXD
 70
     0
  9
$DIMSAH
 70
     0
  9
$DIMBLK1
  1

  9
$DIMBLK2
  1

  9
$DIMSTYLE
  2
ISO-25
  9
$DIMCLRD
 70
     0
  9
$DIMCLRE
 70
     0
  9
$DIMCLRT
 70
     0
  9
$DIMTFAC
 40
1.0
  9
$DIMGAP
 40
1.524
  9
$DIMJUST
 70
     0
  9
$DIMSD1
 70
     0
  9
$DIMSD2
 70
     0
  9
$DIMTOLJ
 70
     0
  9
$DIMTZIN
 70
     0
  9
$DIMALTZ
 70
     0
  9
$DIMALTTZ
 70
     0
  9
$DIMUPT
 70
     0
  9
$DIMDEC
 70
     2
  9
$DIMTDEC
 70
     2
  9
$DIMALTU
 70
     2
  9
$DIMALTTD
 70
     3
  9
$DIMTXSTY
  7
Standard
  9
$DIMAUNIT
 70
     0
  9
$DIMADEC
 70
     2
  9
$DIMALTRND
 40
0.0
  9
$DIMAZIN
 70
     0
  9
$DIMDSEP
 70
    44
  9
$DIMATFIT
 70
     3
  9
$DIMFRAC
 70
     0
  9
$DIMLDRBLK
  1

  9
$DIMLUNIT
 70
     2
  9
$DIMLWD
 70
    -2
  9
$DIMLWE
 70
    -2
  9
$DIMTMOVE
 70
     0
  9
$LUNITS
 70
     2
  9
$LUPREC
 70
     2
  9
$SKETCHINC
 40
1.0
  9
$FILLETRAD
 40
10.0
  9
$AUNITS
 70
     0
  9
$AUPREC
 70
     2
  9
$MENU
  1
.
  9
$ELEVATION
 40
0.0
  9
$PELEVATION
 40
0.0
  9
$THICKNESS
 40
0.0
  9
$LIMCHECK
 70
     0
  9
$CHAMFERA
 40
0.0
  9
$CHAMFERB
 40
0.0
  9
$CHAMFERC
 40
0.0
  9
$CHAMFERD
 40
0.0
  9
$SKPOLY
 70
     0
  9
$TDCREATE
 40
2458263.807383843
  9
$TDUCREATE
 40
2458263.432383843
  9
$TDUPDATE
 40
2459577.339304711
  9
$TDUUPDATE
 40
2459576.964304711
  9
$TDINDWG
 40
0.0031715741
  9
$TDUSRTIMER
 40
0.0005616319
  9
$USRTIMER
 70
     1
  9
$ANGBASE
 50
0.0
  9
$ANGDIR
 70
     0
  9
$PDMODE
 70
     0
  9
$PDSIZE
 40
-1.0
  9
$PLINEWID
 40
0.0
  9
$SPLFRAME
 70
     0
  9
$SPLINETYPE
 70
     6
  9
$SPLINESEGS
 70
     8
  9
$HANDSEED
  5
184
  9
$SURFTAB1
 70
     6
  9
$SURFTAB2
 70
     6
  9
$SURFTYPE
 70
     6
  9
$SURFU
 70
     6
  9
$SURFV
 70
     6
  9
$UCSBASE
  2

  9
$UCSNAME
  2

  9
$UCSORG
 10
0.0
 20
0.0
 30
0.0
  9
$UCSXDIR
 10
1.0
 20
0.0
 30
0.0
  9
$UCSYDIR
 10
0.0
 20
1.0
 30
0.0
  9
$UCSORTHOREF
  2

  9
$UCSORTHOVIEW
 70
     0
  9
$UCSORGTOP
 10
0.0
 20
0.0
 30
0.0
  9
$UCSORGBOTTOM
 10
0.0
 20
0.0
 30
0.0
  9
$UCSORGLEFT
 10
0.0
 20
0.0
 30
0.0
  9
$UCSORGRIGHT
 10
0.0
 20
0.0
 30
0.0
  9
$UCSORGFRONT
 10
0.0
 20
0.0
 30
0.0
  9
$UCSORGBACK
 10
0.0
 20
0.0
 30
0.0
  9
$PUCSBASE
  2

  9
$PUCSNAME
  2

  9
$PUCSORG
 10
0.0
 20
0.0
 30
0.0
  9
$PUCSXDIR
 10
1.0
 20
0.0
 30
0.0
  9
$PUCSYDIR
 10
0.0
 20
1.0
 30
0.0
  9
$PUCSORTHOREF
  2

  9
$PUCSORTHOVIEW
 70
     0
  9
$PUCSORGTOP
 10
0.0
 20
0.0
 30
0.0
  9
$PUCSORGBOTTOM
 10
0.0
 20
0.0
 30
0.0
  9
$PUCSORGLEFT
 10
0.0
 20
0.0
 30
0.0
  9
$PUCSORGRIGHT
 10
0.0
 20
0.0
 30
0.0
  9
$PUCSORGFRONT
 10
0.0
 20
0.0
 30
0.0
  9
$PUCSORGBACK
 10
0.0
 20
0.0
 30
0.0
  9
$USERI1
 70
     0
  9
$USERI2
 70
     0
  9
$USERI3
 70
     0
  9
$USERI4
 70
     0
  9
$USERI5
 70
     0
  9
$USERR1
 40
0.0
  9
$USERR2
 40
0.0
  9
$USERR3
 40
0.0
  9
$USERR4
 40
0.0
  9
$USERR5
 40
0.0
  9
$WORLDVIEW
 70
     1
  9
$SHADEDGE
 70
     3
  9
$SHADEDIF
 70
    70
  9
$TILEMODE
 70
     1
  9
$MAXACTVP
 70
    64
  9
$PINSBASE
 10
0.0
 20
0.0
 30
0.0
  9
$PLIMCHECK
 70
     0
  9
$PEXTMIN
 10
1.000000000000000E+20
 20
1.000000000000000E+20
 30
1.000000000000000E+20
  9
$PEXTMAX
 10
-1.000000000000000E+20
 20
-1.000000000000000E+20
 30
-1.000000000000000E+20
  9
$PLIMMIN
 10
0.0
 20
0.0
  9
$PLIMMAX
 10
0.0
 20
0.0
  9
$UNITMODE
 70
     0
  9
$VISRETAIN
 70
     1
  9
$PLINEGEN
 70
     0
  9
$PSLTSCALE
 70
     1
  9
$TREEDEPTH
 70
  3020
  9
$CMLSTYLE
  2
Standard
  9
$CMLJUST
 70
     0
  9
$CMLSCALE
 40
20.0
  9
$PROXYGRAPHICS
 70
     1
  9
$MEASUREMENT
 70
     1
  9
$CELWEIGHT
370
    -1
  9
$ENDCAPS
280
     0
  9
$JOINSTYLE
280
     0
  9
$LWDISPLAY
290
     1
  9
$INSUNITS
 70
     4
  9
$HYPERLINKBASE
  1

  9
$STYLESHEET
  1

  9
$XEDIT
290
     1
  9
$CEPSNTYPE
380
     0
  9
$PSTYLEMODE
290
     1
  9
$FINGERPRINTGUID
  2
{70515E67-F935-4EB8-8C58-F6D92A0107A2}
  9
$VERSIONGUID
  2
{FAEB1C32-E019-11D5-929B-00C0DF256EC4}
  9
$EXTNAMES
290
     1
  9
$PSVPSCALE
 40
0.0
  9
$OLESTARTUP
290
     0
  0
ENDSEC
  0
SECTION
  2
CLASSES
  0
CLASS
  1
ACDBDICTIONARYWDFLT
  2
AcDbDictionaryWithDefault
  3
ObjectDBX Classes
 90
        0
280
     0
281
     0
  0
CLASS
  1
VISUALSTYLE
  2
AcDbVisualStyle
  3
ObjectDBX Classes
 90
     4095
280
     0
281
     0
  0
CLASS
  1
MATERIAL
  2
AcDbMaterial
  3
ObjectDBX Classes
 90
     1153
280
     0
281
     0
  0
CLASS
  1
SCALE
  2
AcDbScale
  3
ObjectDBX Classes
 90
     1153
280
     0
281
     0
  0
CLASS
  1
TABLESTYLE
  2
AcDbTableStyle
  3
ObjectDBX Classes
 90
     4095
280
     0
281
     0
  0
CLASS
  1
MLEADERSTYLE
  2
AcDbMLeaderStyle
  3
ACDB_MLEADERSTYLE_CLASS
 90
     4095
280
     0
281
     0
  0
CLASS
  1
SUN
  2
AcDbSun
  3
SCENEOE
 90
     1153
280
     0
281
     0
  0
CLASS
  1
ACDBPLACEHOLDER
  2
AcDbPlaceHolder
  3
ObjectDBX Classes
 90
        0
280
     0
281
     0
  0
CLASS
  1
LAYOUT
  2
AcDbLayout
  3
ObjectDBX Classes
 90
        0
280
     0
281
     0
  0
CLASS
  1
RASTERVARIABLES
  2
AcDbRasterVariables
  3
ISM
 90
        0
280
     0
281
     0
  0
CLASS
  1
DIMASSOC
  2
AcDbDimAssoc
  3
"AcDbDimAssoc|Product Desc:     AcDim ARX App For Dimension|Company:          Autodesk, Inc.|WEB Address:      www.autodesk.com"
 90
        0
280
     0
281
     0
  0
ENDSEC
  0
SECTION
  2
TABLES
  0
TABLE
  2
VPORT
  5
8
330
0
100
AcDbSymbolTable
 70
     1
  0
VPORT
  5
29
330
8
100
AcDbSymbolTableRecord
100
AcDbViewportTableRecord
  2
*Active
 70
     0
 10
0.0
 20
0.0
 11
1.0
 21
1.0
 12
-8.356809000772877
 22
-0.0692414418837259
 13
0.0
 23
0.0
 14
10.0
 24
10.0
 15
10.0
 25
10.0
 16
0.0
 26
0.0
 36
1.0
 17
0.0
 27
0.0
 37
0.0
 40
101.8012345317332
 41
2.070175438596491
 42
50.0
 43
0.0
 44
0.0
 50
0.0
 51
0.0
 71
    16
 72
  2000
 73
     1
 74
     3
 75
     0
 76
     0
 77
     0
 78
     0
281
     0
 65
     1
110
0.0
120
0.0
130
0.0
111
1.0
121
0.0
131
0.0
112
0.0
122
1.0
132
0.0
 79
     0
146
0.0
  0
ENDTAB
  0
TABLE
  2
LTYPE
  5
5
330
0
100
AcDbSymbolTable
 70
     6
  0
LTYPE
  5
14
330
5
100
AcDbSymbolTableRecord
100
AcDbLinetypeTableRecord
  2
ByBlock
 70
     0
  3

 72
    65
 73
     0
 40
0.0
  0
LTYPE
  5
15
330
5
100
AcDbSymbolTableRecord
100
AcDbLinetypeTableRecord
  2
ByLayer
 70
     0
  3

 72
    65
 73
     0
 40
0.0
  0
LTYPE
  5
16
330
5
100
AcDbSymbolTableRecord
100
AcDbLinetypeTableRecord
  2
Continuous
 70
     0
  3
Solid line
 72
    65
 73
     0
 40
0.0
  0
LTYPE
  5
6E
330
5
100
AcDbSymbolTableRecord
100
AcDbLinetypeTableRecord
  2
HIDDEN
 70
     0
  3
Hidden __ __ __ __ __ __ __ __ __ __ __ __ __ __
 72
    65
 73
     2
 40
1.905
 49
1.27
 74
     0
 49
-0.635
 74
     0
  0
LTYPE
  5
6F
330
5
100
AcDbSymbolTableRecord
100
AcDbLinetypeTableRecord
  2
PHANTOM
 70
     0
  3
Phantom ______  __  __  ______  __  __  ______
 72
    65
 73
     6
 40
12.7
 49
6.35
 74
     0
 49
-1.27
 74
     0
 49
1.27
 74
     0
 49
-1.27
 74
     0
 49
1.27
 74
     0
 49
-1.27
 74
     0
  0
LTYPE
  5
70
330
5
100
AcDbSymbolTableRecord
100
AcDbLinetypeTableRecord
  2
CENTER
 70
     0
  3
Center ____ _ ____ _ ____ _ ____ _ ____ _ ____
 72
    65
 73
     4
 40
10.16
 49
6.35
 74
     0
 49
-1.27
 74
     0
 49
1.27
 74
     0
 49
-1.27
 74
     0
  0
LTYPE
  5
71
330
5
100
AcDbSymbolTableRecord
100
AcDbLinetypeTableRecord
  2
CENTERX2
 70
     0
  3
Center (2x) ________  __  ________  __  _____
 72
    65
 73
     4
 40
20.32
 49
12.7
 74
     0
 49
-2.54
 74
     0
 49
2.54
 74
     0
 49
-2.54
 74
     0
  0
LTYPE
  5
72
330
5
100
AcDbSymbolTableRecord
100
AcDbLinetypeTableRecord
  2
DOT2
 70
     0
  3
Dot (.5x) ........................................
 72
    65
 73
     2
 40
0.635
 49
0.0
 74
     0
 49
-0.635
 74
     0
  0
ENDTAB
  0
TABLE
  2
LAYER
  5
2
330
0
100
AcDbSymbolTable
 70
    17
  0
LAYER
  5
10
330
2
100
AcDbSymbolTableRecord
100
AcDbLayerTableRecord
  2
0
 70
     0
 62
     7
  6
Continuous
370
    -3
390
F
  0
LAYER
  5
73
330
2
100
AcDbSymbolTableRecord
100
AcDbLayerTableRecord
  2
FORMAT
 70
     0
 62
     2
  6
Continuous
370
    -3
390
F
  0
LAYER
  5
74
330
2
100
AcDbSymbolTableRecord
100
AcDbLayerTableRecord
  2
외형선
 70
     0
 62
   100
  6
Continuous
370
    35
390
F
  0
LAYER
  5
75
330
2
100
AcDbSymbolTableRecord
100
AcDbLayerTableRecord
  2
숨은선
 70
     0
 62
     2
  6
HIDDEN
370
    25
390
F
  0
LAYER
  5
76
330
2
100
AcDbSymbolTableRecord
100
AcDbLayerTableRecord
  2
중심선
 70
     0
 62
     1
  6
CENTERX2
370
    -3
390
F
  0
LAYER
  5
77
330
2
100
AcDbSymbolTableRecord
100
AcDbLayerTableRecord
  2
파단선
 70
     0
 62
     4
  6
Continuous
370
    -3
390
F
  0
LAYER
  5
78
330
2
100
AcDbSymbolTableRecord
100
AcDbLayerTableRecord
  2
해칭선
 70
     0
 62
     4
  6
Continuous
370
    -3
390
F
  0
LAYER
  5
79
330
2
100
AcDbSymbolTableRecord
100
AcDbLayerTableRecord
  2
가는실선
 70
     0
 62
     4
  6
Continuous
370
    -3
390
F
  0
LAYER
  5
7A
330
2
100
AcDbSymbolTableRecord
100
AcDbLayerTableRecord
  2
치수_보조선
 70
     0
 62
     4
  6
Continuous
370
    -3
390
F
  0
LAYER
  5
7B
330
2
100
AcDbSymbolTableRecord
100
AcDbLayerTableRecord
  2
치수문자_일반주서
 70
     0
 62
     7
  6
Continuous
370
    25
390
F
  0
LAYER
  5
7C
330
2
100
AcDbSymbolTableRecord
100
AcDbLayerTableRecord
  2
개별주서
 70
     0
 62
   100
  6
Continuous
370
    35
390
F
  0
LAYER
  5
7D
330
2
100
AcDbSymbolTableRecord
100
AcDbLayerTableRecord
  2
중간선
 70
     0
 62
     2
  6
Continuous
370
    25
390
F
  0
LAYER
  5
7E
330
2
100
AcDbSymbolTableRecord
100
AcDbLayerTableRecord
  2
윤곽선
 70
     0
 62
     3
  6
Continuous
370
    50
390
F
  0
LAYER
  5
7F
330
2
100
AcDbSymbolTableRecord
100
AcDbLayerTableRecord
  2
중심마크
 70
     0
 62
   100
  6
Continuous
370
    35
390
F
  0
LAYER
  5
80
330
2
100
AcDbSymbolTableRecord
100
AcDbLayerTableRecord
  2
가상선
 70
     0
 62
     4
  6
PHANTOM
370
    -3
390
F
  0
LAYER
  5
81
330
2
100
AcDbSymbolTableRecord
100
AcDbLayerTableRecord
  2
특수지정선
 70
     0
 62
     5
  6
CENTERX2
370
    70
390
F
  0
LAYER
  5
13C
330
2
100
AcDbSymbolTableRecord
100
AcDbLayerTableRecord
  2
Defpoints
 70
     0
 62
     7
  6
Continuous
290
     0
370
    -3
390
F
  0
ENDTAB
  0
TABLE
  2
STYLE
  5
3
330
0
100
AcDbSymbolTable
 70
     2
  0
STYLE
  5
11
330
3
100
AcDbSymbolTableRecord
100
AcDbTextStyleTableRecord
  2
Standard
 70
     0
 40
0.0
 41
1.0
 50
0.0
 71
     0
 42
3.5
  3
txt
  4

  0
STYLE
  5
97
330
3
100
AcDbSymbolTableRecord
100
AcDbTextStyleTableRecord
  2
SLDTEXTSTYLE0
 70
     0
 40
0.0
 41
0.75
 50
0.0
 71
     0
 42
3.5
  3
TXT
  4

  0
ENDTAB
  0
TABLE
  2
VIEW
  5
6
330
0
100
AcDbSymbolTable
 70
     0
  0
ENDTAB
  0
TABLE
  2
UCS
  5
7
330
0
100
AcDbSymbolTable
 70
     0
  0
ENDTAB
  0
TABLE
  2
APPID
  5
9
330
0
100
AcDbSymbolTable
 70
     3
  0
APPID
  5
12
330
9
100
AcDbSymbolTableRecord
100
AcDbRegAppTableRecord
  2
ACAD
 70
     0
  0
APPID
  5
14B
330
9
100
AcDbSymbolTableRecord
100
AcDbRegAppTableRecord
  2
ACAD_DSTYLE_DIMRADIAL_EXTENSION
 70
     0
  0
APPID
  5
180
330
9
100
AcDbSymbolTableRecord
100
AcDbRegAppTableRecord
  2
PE_URL
 70
     0
  0
ENDTAB
  0
TABLE
  2
DIMSTYLE
  5
A
330
0
100
AcDbSymbolTable
 70
     3
100
AcDbDimStyleTable
  0
DIMSTYLE
105
27
330
A
100
AcDbSymbolTableRecord
100
AcDbDimStyleTableRecord
  2
ISO-25
 70
     0
 41
2.5
 42
0.625
 43
3.75
 44
1.25
 73
     0
 74
     0
 77
     1
 78
     8
140
2.5
141
2.5
143
0.03937007874016
147
0.625
171
     3
172
     1
178
     0
271
     2
272
     2
274
     3
278
    44
283
     0
284
     8
340
11
  0
DIMSTYLE
105
D5
102
{ACAD_REACTORS
330
D4
330
F8
330
104
330
14C
102
}
330
A
100
AcDbSymbolTableRecord
100
AcDbDimStyleTableRecord
  2
SLDDIMSTYLE0
 70
     0
 41
3.302
 44
0.0
 45
0.000000001
 73
     0
 74
     0
 77
     1
 78
    12
 79
     3
140
3.5
147
0.875
172
     1
173
     1
178
     0
271
     2
272
     2
276
     2
284
    12
289
     0
340
97
  0
DIMSTYLE
105
E3
102
{ACAD_REACTORS
330
E2
330
EE
102
}
330
A
100
AcDbSymbolTableRecord
100
AcDbDimStyleTableRecord
  2
SLDDIMSTYLE1
 70
     0
 41
3.302
 44
0.0
 45
0.000000001
 73
     0
 74
     0
 77
     1
 78
    12
 79
     3
140
3.5
147
0.875
173
     1
178
     0
271
     2
272
     2
276
     2
284
    12
340
97
  0
ENDTAB
  0
TABLE
  2
BLOCK_RECORD
  5
1
330
0
100
AcDbSymbolTable
 70
     9
  0
BLOCK_RECORD
  5
1F
330
1
100
AcDbSymbolTableRecord
100
AcDbBlockTableRecord
  2
*Model_Space
340
22
  0
BLOCK_RECORD
  5
1B
330
1
100
AcDbSymbolTableRecord
100
AcDbBlockTableRecord
  2
*Paper_Space
340
1E
  0
BLOCK_RECORD
  5
23
330
1
100
AcDbSymbolTableRecord
100
AcDbBlockTableRecord
  2
*Paper_Space0
340
26
  0
BLOCK_RECORD
  5
82
330
1
100
AcDbSymbolTableRecord
100
AcDbBlockTableRecord
  2
블럭10
340
0
102
{BLKREFS
331
CD
102
}
  0
BLOCK_RECORD
  5
D6
330
1
100
AcDbSymbolTableRecord
100
AcDbBlockTableRecord
  2
_D
340
0
  0
BLOCK_RECORD
  5
E4
330
1
100
AcDbSymbolTableRecord
100
AcDbBlockTableRecord
  2
_D_1
340
0
  0
BLOCK_RECORD
  5
EF
330
1
100
AcDbSymbolTableRecord
100
AcDbBlockTableRecord
  2
_D_2
340
0
  0
BLOCK_RECORD
  5
F9
330
1
100
AcDbSymbolTableRecord
100
AcDbBlockTableRecord
  2
_D_3
340
0
  0
BLOCK_RECORD
  5
105
330
1
100
AcDbSymbolTableRecord
100
AcDbBlockTableRecord
  2
_D_4
340
0
  0
BLOCK_RECORD
  5
111
330
1
100
AcDbSymbolTableRecord
100
AcDbBlockTableRecord
  2
SW_DOWELSYMBOL_0
340
0
102
{BLKREFS
331
117
102
}
  0
BLOCK_RECORD
  5
14F
330
1
100
AcDbSymbolTableRecord
100
AcDbBlockTableRecord
  2
*D8
340
0
  0
ENDTAB
  0
ENDSEC
  0
SECTION
  2
BLOCKS
  0
BLOCK
  5
20
330
1F
100
AcDbEntity
  8
0
100
AcDbBlockBegin
  2
*Model_Space
 70
     0
 10
0.0
 20
0.0
 30
0.0
  3
*Model_Space
  1
*Model_Space
  0
ENDBLK
  5
21
330
1F
100
AcDbEntity
  8
0
100
AcDbBlockEnd
  0
BLOCK
  5
1C
330
1B
100
AcDbEntity
 67
     1
  8
0
100
AcDbBlockBegin
  2
*Paper_Space
 70
     0
 10
0.0
 20
0.0
 30
0.0
  3
*Paper_Space
  1
*Paper_Space
  0
ENDBLK
  5
1D
330
1B
100
AcDbEntity
 67
     1
  8
0
100
AcDbBlockEnd
  0
BLOCK
  5
24
330
23
100
AcDbEntity
  8
0
100
AcDbBlockBegin
  2
*Paper_Space0
 70
     0
 10
0.0
 20
0.0
 30
0.0
  3
*Paper_Space0
  1
*Paper_Space0
  0
ENDBLK
  5
25
330
23
100
AcDbEntity
  8
0
100
AcDbBlockEnd
  0
BLOCK
  5
83
330
82
100
AcDbEntity
  8
0
100
AcDbBlockBegin
  2
블럭10
 70
     2
 10
0.0
 20
0.0
 30
0.0
  3
블럭10
  1
블럭10
  0
ELLIPSE
  5
85
330
82
100
AcDbEntity
  8
중심선
100
AcDbEllipse
 10
20.54032771741204
 20
12.0471743016438
 30
0.0
 11
6.600054785286829
 21
-1.261213355974178E-13
 31
0.0
210
0.0
220
0.0
230
1.0
 40
0.636358354079598
 41
0.9219305317359503
 42
6.513795318482858
  0
ELLIPSE
  5
86
330
82
100
AcDbEntity
  8
중심선
100
AcDbEllipse
 10
20.54032771746488
 20
12.04717430159265
 30
0.0
 11
3.960054785062283
 21
1.540847449632565E-10
 31
0.0
210
0.0
220
0.0
230
1.0
 40
0.3939339440162632
 41
1.131841032648279
 42
5.62031148352944
  0
LINE
  5
87
330
82
100
AcDbEntity
  8
중심선
100
AcDbLine
 10
2.268634060543552
 20
16.24717430164393
 30
0.0
 11
5.714909304380834
 21
16.24717430164393
 31
0.0
  0
LINE
  5
88
330
82
100
AcDbEntity
  8
중심선
100
AcDbLine
 10
5.245725140726316
 20
7.84717430164391
 30
0.0
 11
8.692000384563599
 21
7.84717430164391
 31
0.0
  0
LINE
  5
89
330
82
100
AcDbEntity
  8
중심선
100
AcDbLine
 10
15.74043728645272
 20
16.24717430164393
 30
0.0
 11
8.692000384563599
 21
7.84717430164391
 31
0.0
  0
LINE
  5
8A
330
82
100
AcDbEntity
  8
중심선
100
AcDbLine
 10
0.1404042013395286
 20
13.71084872107135
 30
0.0
 11
3.58671253028996
 21
13.71088815037384
 31
0.0
  0
LINE
  5
8B
330
82
100
AcDbEntity
  8
중심선
100
AcDbLine
 10
2.750260043222114
 20
10.84717430164391
 30
0.0
 11
6.196535287059397
 21
10.84717430164391
 31
0.0
  0
LINE
  5
8C
330
82
100
AcDbEntity
  8
중심선
100
AcDbLine
 10
12.29416204261559
 20
16.24717430164393
 30
0.0
 11
5.245725140726316
 21
7.84717430164391
 31
0.0
  0
LINE
  5
8D
330
82
100
AcDbEntity
  8
중심선
100
AcDbLine
 10
10.72767329541681
 20
16.24717430164393
 30
0.0
 11
6.196535287059397
 21
10.84717430164391
 31
0.0
  0
LINE
  5
8E
330
82
100
AcDbEntity
  8
중심선
100
AcDbLine
 10
7.28139805157953
 20
16.24717430164393
 30
0.0
 11
2.750260043222114
 21
10.84717430164391
 31
0.0
  0
LINE
  5
8F
330
82
100
AcDbEntity
  8
중심선
100
AcDbLine
 10
5.714909304380834
 20
16.24717430164393
 30
0.0
 11
3.58671253028996
 21
13.71088815037384
 31
0.0
  0
LINE
  5
90
330
82
100
AcDbEntity
  8
중심선
100
AcDbLine
 10
2.268634060543552
 20
16.24717430164393
 30
0.0
 11
0.1404042013395286
 21
13.71084872107135
 31
0.0
  0
LINE
  5
91
330
82
100
AcDbEntity
  8
중심선
100
AcDbLine
 10
7.28139805157953
 20
16.24717430164393
 30
0.0
 11
10.72767329541681
 21
16.24717430164393
 31
0.0
  0
LINE
  5
92
330
82
100
AcDbEntity
  8
중심선
100
AcDbLine
 10
12.29416204261559
 20
16.24717430164393
 30
0.0
 11
15.74043728645272
 21
16.24717430164393
 31
0.0
  0
LINE
  5
93
330
82
100
AcDbEntity
  8
중심선
100
AcDbLine
 10
19.22036997980202
 20
11.08717430171403
 30
0.0
 11
23.66174974927406
 21
11.08717430171406
 31
0.0
  0
LINE
  5
94
330
82
100
AcDbEntity
  8
중심선
100
AcDbLine
 10
19.22039502424796
 20
13.00717430171391
 30
0.0
 11
19.22036997980202
 21
11.08717430171403
 31
0.0
  0
LINE
  5
95
330
82
100
AcDbEntity
  8
중심선
100
AcDbLine
 10
19.22039502424796
 20
13.00717430171391
 30
0.0
 11
26.96566020931264
 21
13.00717430171391
 31
0.0
  0
LINE
  5
96
330
82
100
AcDbEntity
  8
중심선
100
AcDbLine
 10
22.22332737316547
 20
13.45928029700563
 30
0.0
 11
24.52862924686651
 21
15.39360700705356
 31
0.0
  0
ATTDEF
  5
98
330
82
100
AcDbEntity
  8
FORMAT
 62
     2
100
AcDbText
 10
-16.11926103943555
 20
2.075366912832191
 30
0.0
 40
4.233333333333333
  1
SEME6110001E [ 2 FLUTE ]
 41
0.75
  7
SLDTEXTSTYLE0
 11
-16.11926103943555
 21
-0.0412997538344756
 31
0.0
100
AcDbAttributeDefinition
  3

  2
AUTOATTR0
 70
     0
 74
     1
  0
ENDBLK
  5
84
330
82
100
AcDbEntity
  8
0
100
AcDbBlockEnd
  0
BLOCK
  5
D7
330
D6
100
AcDbEntity
  8
0
100
AcDbBlockBegin
  2
_D
 70
     0
 10
0.0
 20
0.0
 30
0.0
  3
_D
  1
_D
  0
LINE
  5
D9
330
D6
100
AcDbEntity
  8
치수문자_일반주서
 62
     0
370
    -2
100
AcDbLine
 10
-43.91250000000001
 20
4.999999999999995
 30
0.0
 11
-56.34645802161209
 21
4.999999999999948
 31
0.0
  0
LINE
  5
DA
330
D6
100
AcDbEntity
  8
치수문자_일반주서
 62
     0
370
    -2
100
AcDbLine
 10
-43.91250000000001
 20
-4.999999999999998
 30
0.0
 11
-56.34645802161206
 21
-5.000000000000045
 31
0.0
  0
LINE
  5
DB
330
D6
100
AcDbEntity
  8
치수문자_일반주서
 62
     0
370
    -2
100
AcDbLine
 10
-56.34645802161208
 20
1.697999999999948
 30
0.0
 11
-56.34645802161207
 21
-1.698000000000045
 31
0.0
  0
SOLID
  5
DC
330
D6
100
AcDbEntity
  8
치수문자_일반주서
 62
     0
100
AcDbTrace
 10
-55.79612468827874
 20
1.69799999999995
 30
0.0
 11
-56.89679135494541
 21
1.697999999999946
 31
0.0
 12
-56.34645802161209
 22
4.999999999999948
 32
0.0
 13
-56.34645802161209
 23
4.999999999999948
 33
0.0
  0
SOLID
  5
DD
330
D6
100
AcDbEntity
  8
치수문자_일반주서
 62
     0
100
AcDbTrace
 10
-56.89679135494541
 20
-1.698000000000047
 30
0.0
 11
-55.79612468827874
 21
-1.698000000000043
 31
0.0
 12
-56.34645802161206
 22
-5.000000000000045
 32
0.0
 13
-56.34645802161206
 23
-5.000000000000045
 33
0.0
  0
MTEXT
  5
DE
330
D6
100
AcDbEntity
  8
치수문자_일반주서
 62
     0
100
AcDbMText
 10
-60.72145802161208
 20
-0.0000000000000169
 30
0.0
 40
3.5
 41
0.0
 71
     2
 72
     1
  1
\A1;%%c10
  7
SLDTEXTSTYLE0
 11
-3.552713678800503E-15
 21
1.0
 31
0.0
 73
     1
 44
1.0
  0
POINT
  5
DF
330
D6
100
AcDbEntity
  8
Defpoints
 62
     0
100
AcDbPoint
 10
-43.85000000000001
 20
4.999999999999995
 30
0.0
  0
POINT
  5
E0
330
D6
100
AcDbEntity
  8
Defpoints
 62
     0
100
AcDbPoint
 10
-43.85000000000001
 20
-4.999999999999998
 30
0.0
  0
POINT
  5
E1
330
D6
100
AcDbEntity
  8
Defpoints
 62
     0
100
AcDbPoint
 10
-56.34645802161206
 20
-5.000000000000045
 30
0.0
  0
ENDBLK
  5
D8
330
D6
100
AcDbEntity
  8
0
100
AcDbBlockEnd
  0
BLOCK
  5
E5
330
E4
100
AcDbEntity
  8
0
100
AcDbBlockBegin
  2
_D_1
 70
     0
 10
0.0
 20
0.0
 30
0.0
  3
_D_1
  1
_D_1
  0
LINE
  5
E7
330
E4
100
AcDbEntity
  8
치수문자_일반주서
 62
     0
370
    -2
100
AcDbLine
 10
30.15
 20
4.962500000000002
 30
0.0
 11
30.15
 21
23.39999999999965
 31
0.0
  0
LINE
  5
E8
330
E4
100
AcDbEntity
  8
치수문자_일반주서
 62
     0
370
    -2
100
AcDbLine
 10
15.15
 20
4.016311354882935
 30
0.0
 11
15.15
 21
23.39999999999965
 31
0.0
  0
LINE
  5
E9
330
E4
100
AcDbEntity
  8
치수문자_일반주서
 62
     0
370
    -2
100
AcDbLine
 10
26.848
 20
23.39999999999965
 30
0.0
 11
18.452
 21
23.39999999999965
 31
0.0
  0
SOLID
  5
EA
330
E4
100
AcDbEntity
  8
치수문자_일반주서
 62
     0
100
AcDbTrace
 10
26.848
 20
22.84966666666632
 30
0.0
 11
26.848
 21
23.95033333333298
 31
0.0
 12
30.15
 22
23.39999999999965
 32
0.0
 13
30.15
 23
23.39999999999965
 33
0.0
  0
SOLID
  5
EB
330
E4
100
AcDbEntity
  8
치수문자_일반주서
 62
     0
100
AcDbTrace
 10
18.452
 20
23.95033333333298
 30
0.0
 11
18.452
 21
22.84966666666632
 31
0.0
 12
15.15
 22
23.39999999999965
 32
0.0
 13
15.15
 23
23.39999999999965
 33
0.0
  0
MTEXT
  5
EC
330
E4
100
AcDbEntity
  8
치수문자_일반주서
 62
     0
100
AcDbMText
 10
22.65
 20
27.77499999999965
 30
0.0
 40
3.5
 41
0.0
 71
     2
 72
     1
  1
\A1;15
  7
SLDTEXTSTYLE0
 73
     1
 44
1.0
  0
POINT
  5
ED
330
E4
100
AcDbEntity
  8
Defpoints
 62
     0
100
AcDbPoint
 10
30.15
 20
4.900000000000002
 30
0.0
  0
POINT
  5
144
330
E4
100
AcDbEntity
  8
Defpoints
 62
     0
100
AcDbPoint
 10
15.15
 20
3.953811354882936
 30
0.0
  0
POINT
  5
145
330
E4
100
AcDbEntity
  8
Defpoints
 62
     0
100
AcDbPoint
 10
15.15
 20
23.39999999999965
 30
0.0
  0
ENDBLK
  5
E6
330
E4
100
AcDbEntity
  8
0
100
AcDbBlockEnd
  0
BLOCK
  5
F0
330
EF
100
AcDbEntity
  8
0
100
AcDbBlockBegin
  2
_D_2
 70
     0
 10
0.0
 20
0.0
 30
0.0
  3
_D_2
  1
_D_2
  0
LINE
  5
F2
330
EF
100
AcDbEntity
  8
치수문자_일반주서
 62
     0
370
    -2
100
AcDbLine
 10
30.15
 20
4.962500000000002
 30
0.0
 11
30.15
 21
45.45832450504429
 31
0.0
  0
LINE
  5
F3
330
EF
100
AcDbEntity
  8
치수문자_일반주서
 62
     0
370
    -2
100
AcDbLine
 10
-44.85000000000001
 20
4.062499999999996
 30
0.0
 11
-44.85000000000002
 21
45.45832450504429
 31
0.0
  0
LINE
  5
F4
330
EF
100
AcDbEntity
  8
치수문자_일반주서
 62
     0
370
    -2
100
AcDbLine
 10
26.848
 20
45.45832450504429
 30
0.0
 11
-41.54800000000002
 21
45.45832450504429
 31
0.0
  0
SOLID
  5
F5
330
EF
100
AcDbEntity
  8
치수문자_일반주서
 62
     0
100
AcDbTrace
 10
26.848
 20
44.90799117171095
 30
0.0
 11
26.848
 21
46.00865783837762
 31
0.0
 12
30.15
 22
45.45832450504429
 32
0.0
 13
30.15
 23
45.45832450504429
 33
0.0
  0
SOLID
  5
F6
330
EF
100
AcDbEntity
  8
치수문자_일반주서
 62
     0
100
AcDbTrace
 10
-41.54800000000002
 20
46.00865783837762
 30
0.0
 11
-41.54800000000002
 21
44.90799117171095
 31
0.0
 12
-44.85000000000002
 22
45.45832450504429
 32
0.0
 13
-44.85000000000002
 23
45.45832450504429
 33
0.0
  0
MTEXT
  5
F7
330
EF
100
AcDbEntity
  8
치수문자_일반주서
 62
     0
100
AcDbMText
 10
-7.350000000000002
 20
49.83332450504429
 30
0.0
 40
3.5
 41
0.0
 71
     2
 72
     1
  1
\A1;75
  7
SLDTEXTSTYLE0
 73
     1
 44
1.0
  0
POINT
  5
15A
330
EF
100
AcDbEntity
  8
Defpoints
 62
     0
100
AcDbPoint
 10
30.15
 20
4.900000000000002
 30
0.0
  0
POINT
  5
15B
330
EF
100
AcDbEntity
  8
Defpoints
 62
     0
100
AcDbPoint
 10
-44.85000000000001
 20
3.999999999999997
 30
0.0
  0
POINT
  5
15C
330
EF
100
AcDbEntity
  8
Defpoints
 62
     0
100
AcDbPoint
 10
-44.85000000000001
 20
45.45832450504429
 30
0.0
  0
ENDBLK
  5
F1
330
EF
100
AcDbEntity
  8
0
100
AcDbBlockEnd
  0
BLOCK
  5
FA
330
F9
100
AcDbEntity
  8
0
100
AcDbBlockBegin
  2
_D_3
 70
     0
 10
0.0
 20
0.0
 30
0.0
  3
_D_3
  1
_D_3
  0
LINE
  5
FC
330
F9
100
AcDbEntity
  8
치수문자_일반주서
 62
     0
370
    -2
100
AcDbLine
 10
30.15
 20
4.957163589612308
 30
0.0
 11
30.15
 21
30.31999999999866
 31
0.0
  0
LINE
  5
FD
330
F9
100
AcDbEntity
  8
치수문자_일반주서
 62
     0
370
    -2
100
AcDbLine
 10
0.1499999999999999
 20
4.912499999999999
 30
0.0
 11
0.1500000000000004
 21
30.31999999999866
 31
0.0
  0
LINE
  5
FE
330
F9
100
AcDbEntity
  8
치수문자_일반주서
 62
     0
370
    -2
100
AcDbLine
 10
26.848
 20
30.31999999999866
 30
0.0
 11
3.452
 21
30.31999999999866
 31
0.0
  0
SOLID
  5
FF
330
F9
100
AcDbEntity
  8
치수문자_일반주서
 62
     0
100
AcDbTrace
 10
26.848
 20
29.76966666666533
 30
0.0
 11
26.848
 21
30.870333333332
 31
0.0
 12
30.15
 22
30.31999999999866
 32
0.0
 13
30.15
 23
30.31999999999866
 33
0.0
  0
SOLID
  5
100
330
F9
100
AcDbEntity
  8
치수문자_일반주서
 62
     0
100
AcDbTrace
 10
3.452
 20
30.870333333332
 30
0.0
 11
3.452
 21
29.76966666666533
 31
0.0
 12
0.1500000000000004
 22
30.31999999999866
 32
0.0
 13
0.1500000000000004
 23
30.31999999999866
 33
0.0
  0
MTEXT
  5
101
330
F9
100
AcDbEntity
  8
치수문자_일반주서
 62
     0
100
AcDbMText
 10
15.15
 20
34.69499999999866
 30
0.0
 40
3.5
 41
0.0
 71
     2
 72
     1
  1
\A1;30
  7
SLDTEXTSTYLE0
 73
     1
 44
1.0
  0
POINT
  5
102
330
F9
100
AcDbEntity
  8
Defpoints
 62
     0
100
AcDbPoint
 10
30.15
 20
4.894663589612308
 30
0.0
  0
POINT
  5
103
330
F9
100
AcDbEntity
  8
Defpoints
 62
     0
100
AcDbPoint
 10
0.1499999999999999
 20
4.849999999999999
 30
0.0
  0
POINT
  5
13D
330
F9
100
AcDbEntity
  8
Defpoints
 62
     0
100
AcDbPoint
 10
0.1499999999999999
 20
30.31999999999866
 30
0.0
  0
ENDBLK
  5
FB
330
F9
100
AcDbEntity
  8
0
100
AcDbBlockEnd
  0
BLOCK
  5
106
330
105
100
AcDbEntity
  8
0
100
AcDbBlockBegin
  2
_D_4
 70
     0
 10
0.0
 20
0.0
 30
0.0
  3
_D_4
  1
_D_4
  0
LINE
  5
108
330
105
100
AcDbEntity
  8
치수문자_일반주서
 62
     0
370
    -2
100
AcDbLine
 10
30.2125
 20
5.010476565385957
 30
0.0
 11
43.45750668673298
 21
5.010476565386007
 31
0.0
  0
LINE
  5
109
330
105
100
AcDbEntity
  8
치수문자_일반주서
 62
     0
370
    -2
100
AcDbLine
 10
30.1125
 20
-4.99305695973152
 30
0.0
 11
43.45750668673302
 21
-4.99305695973147
 31
0.0
  0
LINE
  5
10A
330
105
100
AcDbEntity
  8
치수문자_일반주서
 62
     0
370
    -2
100
AcDbLine
 10
43.457506686733
 20
1.708476565386007
 30
0.0
 11
43.45750668673301
 21
-1.69105695973147
 31
0.0
  0
SOLID
  5
10B
330
105
100
AcDbEntity
  8
치수문자_일반주서
 62
     0
100
AcDbTrace
 10
44.00784002006633
 20
1.708476565386009
 30
0.0
 11
42.90717335339966
 21
1.708476565386005
 31
0.0
 12
43.45750668673298
 22
5.010476565386007
 32
0.0
 13
43.45750668673298
 23
5.010476565386007
 33
0.0
  0
SOLID
  5
10C
330
105
100
AcDbEntity
  8
치수문자_일반주서
 62
     0
100
AcDbTrace
 10
42.90717335339967
 20
-1.691056959731472
 30
0.0
 11
44.00784002006634
 21
-1.691056959731468
 31
0.0
 12
43.45750668673302
 22
-4.99305695973147
 32
0.0
 13
43.45750668673302
 23
-4.99305695973147
 33
0.0
  0
MTEXT
  5
10D
330
105
100
AcDbEntity
  8
치수문자_일반주서
 62
     0
100
AcDbMText
 10
39.08250668673301
 20
0.0018103808790088
 30
0.0
 40
3.5
 41
0.0
 71
     2
 72
     1
  1
\A1;%%c10
  7
SLDTEXTSTYLE0
 11
-3.551458761926606E-15
 21
1.0
 31
0.0
 73
     1
 44
1.0
  0
POINT
  5
10E
330
105
100
AcDbEntity
  8
Defpoints
 62
     0
100
AcDbPoint
 10
30.15
 20
5.010476565385957
 30
0.0
  0
POINT
  5
10F
330
105
100
AcDbEntity
  8
Defpoints
 62
     0
100
AcDbPoint
 10
30.05
 20
-4.99305695973152
 30
0.0
  0
POINT
  5
110
330
105
100
AcDbEntity
  8
Defpoints
 62
     0
100
AcDbPoint
 10
43.45750668673303
 20
-4.99305695973147
 30
0.0
  0
ENDBLK
  5
107
330
105
100
AcDbEntity
  8
0
100
AcDbBlockEnd
  0
BLOCK
  5
112
330
111
100
AcDbEntity
  8
0
100
AcDbBlockBegin
  2
SW_DOWELSYMBOL_0
 70
     0
 10
0.0
 20
0.0
 30
0.0
  3
SW_DOWELSYMBOL_0
  1
SW_DOWELSYMBOL_0
  0
CIRCLE
  5
114
330
111
100
AcDbEntity
  8
외형선
 62
     0
100
AcDbCircle
 10
0.0
 20
0.0
 30
0.0
 40
3.000000000000004
  0
HATCH
  5
115
330
111
100
AcDbEntity
  8
0
  6
Continuous
 62
     0
370
    35
100
AcDbHatch
 10
0.0
 20
0.0
 30
0.0
210
0.0
220
0.0
230
1.0
  2
SOLID
 70
     1
 71
     0
 91
        1
 92
        0
 93
        3
 72
     2
 10
0.0000000000000104
 20
0.0
 40
3.000000000000004
 50
0.0
 51
90.0
 73
     1
 72
     1
 10
0.0000000000000104
 20
3.000000000000004
 11
0.0000000000000104
 21
0.0
 72
     1
 10
0.0000000000000104
 20
0.0
 11
3.000000000000015
 21
0.0
 97
        0
 75
     0
 76
     1
 98
        1
 10
0.0
 20
0.0
  0
HATCH
  5
116
330
111
100
AcDbEntity
  8
0
  6
Continuous
 62
     0
370
    35
100
AcDbHatch
 10
0.0
 20
0.0
 30
0.0
210
0.0
220
0.0
230
1.0
  2
SOLID
 70
     1
 71
     0
 91
        1
 92
        0
 93
        3
 72
     2
 10
0.0000000000000104
 20
0.0
 40
3.000000000000004
 50
180.0
 51
270.0000000000007
 73
     1
 72
     1
 10
0.0000000000000104
 20
-3.000000000000004
 11
0.0000000000000104
 21
0.0
 72
     1
 10
0.0000000000000104
 20
0.0
 11
-2.999999999999994
 21
0.0
 97
        0
 75
     0
 76
     1
 98
        1
 10
0.0
 20
0.0
  0
ENDBLK
  5
113
330
111
100
AcDbEntity
  8
0
100
AcDbBlockEnd
  0
BLOCK
  5
150
330
14F
100
AcDbEntity
  8
0
100
AcDbBlockBegin
  2
*D8
 70
     1
 10
0.0
 20
0.0
 30
0.0
  3
*D8
  1
*D8
  0
LINE
  5
152
330
14F
100
AcDbEntity
  8
치수문자_일반주서
 62
     0
370
    -2
100
AcDbLine
 10
31.85783655363096
 20
-7.774954077144932
 30
0.0
 11
40.21162282404946
 21
-21.0918396793604
 31
0.0
  0
MTEXT
  5
153
330
14F
100
AcDbEntity
  8
치수문자_일반주서
 62
     0
100
AcDbMText
 10
40.22666081851789
 20
-16.17606782529491
 30
0.0
 40
3.5
 41
0.0
 71
     5
 72
     1
  1
\A1;R0.1
  7
SLDTEXTSTYLE0
 11
0.5314040428074518
 21
-0.8471184942426272
 31
0.0
 73
     1
 44
1.0
  0
LINE
  5
154
330
14F
100
AcDbEntity
  8
치수문자_일반주서
 62
     0
370
    -2
100
AcDbLine
 10
30.05000000000001
 20
-4.893056959731518
 30
0.0
 11
30.10314040428076
 21
-4.977768809155777
 31
0.0
  0
SOLID
  5
155
330
14F
100
AcDbEntity
  8
치수문자_일반주서
 62
     0
100
AcDbTrace
 10
32.32403409829583
 20
-7.482504718919898
 30
0.0
 11
31.39163900896611
 21
-8.067403435369966
 31
0.0
 12
30.10314040428076
 22
-4.977768809155777
 32
0.0
 13
30.10314040428076
 23
-4.977768809155777
 33
0.0
  0
POINT
  5
156
330
14F
100
AcDbEntity
  8
Defpoints
 62
     0
100
AcDbPoint
 10
30.10314040428076
 20
-4.977768809155777
 30
0.0
  0
POINT
  5
157
330
14F
100
AcDbEntity
  8
Defpoints
 62
     0
100
AcDbPoint
 10
30.05000000000001
 20
-4.893056959731518
 30
0.0
  0
ENDBLK
  5
151
330
14F
100
AcDbEntity
  8
0
100
AcDbBlockEnd
  0
ENDSEC
  0
SECTION
  2
ENTITIES
  0
LINE
  5
9B
330
1F
100
AcDbEntity
  8
0
  6
Continuous
 62
     4
370
    25
100
AcDbLine
 10
0.0000000000000004
 20
4.999999999999998
 30
0.0
 11
-43.85000000000001
 21
4.999999999999996
 31
0.0
  0
LINE
  5
9C
330
1F
100
AcDbEntity
  8
0
  6
Continuous
 62
     4
370
    25
100
AcDbLine
 10
-43.85000000000001
 20
-4.999999999999998
 30
0.0
 11
0.0000000000000027
 21
-4.999999999999996
 31
0.0
1001
PE_URL
1000

  0
LINE
  5
9D
330
1F
100
AcDbEntity
  8
0
  6
Continuous
 62
     4
370
    25
100
AcDbLine
 10
-43.85000000000001
 20
4.999999999999995
 30
0.0
 11
-44.85000000000001
 21
3.999999999999997
 31
0.0
  0
LINE
  5
9E
330
1F
100
AcDbEntity
  8
0
  6
Continuous
 62
     4
370
    25
100
AcDbLine
 10
-44.85000000000001
 20
-3.999999999999999
 30
0.0
 11
-43.85000000000001
 21
-4.999999999999998
 31
0.0
  0
LINE
  5
9F
330
1F
100
AcDbEntity
  8
0
  6
Continuous
 62
     4
370
    25
100
AcDbLine
 10
12.10009950073074
 20
4.850000000000001
 30
0.0
 11
0.1499999999999999
 21
4.849999999999999
 31
0.0
  0
LINE
  5
A0
330
1F
100
AcDbEntity
  8
0
  6
Continuous
 62
     4
370
    25
100
AcDbLine
 10
0.1499999999999999
 20
-4.849999999999998
 30
0.0
 11
12.10009950073074
 21
-4.849999999999996
 31
0.0
  0
SPLINE
  5
A1
330
1F
100
AcDbEntity
  8
0
  6
Continuous
 62
     4
370
    25
100
AcDbSpline
210
0.0
220
0.0
230
1.0
 70
     8
 71
     3
 72
    10
 73
     6
 74
     0
 42
0.000000001
 43
0.00000001
 40
0.0
 40
0.0
 40
0.0
 40
0.0
 40
0.3045739352125806
 40
0.6377789765430297
 40
1.0
 40
1.0
 40
1.0
 40
1.0
 10
15.15000000000002
 20
3.93628317785114
 30
0.0
 10
14.84018680164875
 20
3.929388497486309
 30
0.0
 10
14.19143678820429
 20
3.914951010629122
 30
0.0
 10
13.16830560675185
 20
3.900065650953303
 30
0.0
 10
12.46596178476198
 20
3.908767500794468
 30
0.0
 10
12.10013756432868
 20
3.913299963862843
 30
0.0
  0
SPLINE
  5
A2
330
1F
100
AcDbEntity
  8
0
  6
Continuous
 62
     4
370
    25
100
AcDbSpline
210
0.0
220
0.0
230
1.0
 70
     8
 71
     3
 72
    11
 73
     7
 74
     0
 42
0.000000001
 43
0.00000001
 40
0.0
 40
0.0
 40
0.0
 40
0.0
 40
0.2150329158967932
 40
0.4590360633757534
 40
0.7351656586333017
 40
1.0
 40
1.0
 40
1.0
 40
1.0
 10
12.10013756432868
 20
-3.91329996386284
 30
0.0
 10
12.3054091350394
 20
-3.910117819973084
 30
0.0
 10
12.74360741435415
 20
-3.90332481901248
 30
0.0
 10
13.46526322353041
 20
-3.905356848328314
 30
0.0
 10
14.23583303715133
 20
-3.916489942251223
 30
0.0
 10
14.76402623924198
 20
-3.928015153227092
 30
0.0
 10
15.02260853894749
 20
-3.933657436291195
 30
0.0
  0
LINE
  5
A3
330
1F
100
AcDbEntity
  8
0
  6
Continuous
 62
     1
370
    25
100
AcDbLine
 10
17.19551843785661
 20
1.28124075644861
 30
0.0
 11
15.80971596094543
 21
1.974989907424681
 31
0.0
  0
LINE
  5
A4
330
1F
100
AcDbEntity
  8
0
  6
Continuous
 62
     1
370
    25
100
AcDbLine
 10
15.54332811529412
 20
3.973197159204474
 30
0.0
 11
15.14955040061908
 21
3.956324685890166
 31
0.0
  0
SPLINE
  5
A5
330
1F
100
AcDbEntity
  8
0
  6
Continuous
 62
     1
370
    25
100
AcDbSpline
210
0.0
220
0.0
230
1.0
 70
     8
 71
     3
 72
    23
 73
    19
 74
     0
 42
0.000000001
 43
0.00000001
 40
0.0
 40
0.0
 40
0.0
 40
0.0
 40
0.080897622526696
 40
0.1499122011280788
 40
0.219551539384425
 40
0.2811385118722979
 40
0.3366928003640284
 40
0.3982627298999443
 40
0.4746490593992347
 40
0.5275341033817649
 40
0.569855268604261
 40
0.6069316307518791
 40
0.6475335619341759
 40
0.6916856538452617
 40
0.7434533756300239
 40
0.812259531360414
 40
0.8977624466606119
 40
0.9999999999999999
 40
0.9999999999999999
 40
0.9999999999999999
 40
0.9999999999999999
 10
28.29175137877922
 20
3.41976353089995
 30
0.0
 10
28.07607761732442
 20
3.401520122222057
 30
0.0
 10
27.67641039231305
 20
3.367713077397228
 30
0.0
 10
27.04472458273147
 20
3.327708024901303
 30
0.0
 10
26.43718422927277
 20
3.30692780718069
 30
0.0
 10
25.87536133383041
 20
3.293723515231004
 30
0.0
 10
25.3436555858627
 20
3.288821820336843
 30
0.0
 10
24.77910047135621
 20
3.292577340805072
 30
0.0
 10
24.22716945804456
 20
3.306133802329999
 30
0.0
 10
23.73024713825356
 20
3.326363770515716
 30
0.0
 10
23.3454343240553
 20
3.346557873629682
 30
0.0
 10
22.994184978229
 20
3.368493038949442
 30
0.0
 10
22.63619992522635
 20
3.394337016221877
 30
0.0
 10
22.23346281178918
 20
3.427788238666738
 30
0.0
 10
21.74831737469532
 20
3.473564322931816
 30
0.0
 10
21.14716558654079
 20
3.5390366301902
 30
0.0
 10
20.40115453575443
 20
3.632874502051979
 30
0.0
 10
19.85508350673947
 20
3.715607598111737
 30
0.0
 10
19.55771040247185
 20
3.760661439633675
 30
0.0
  0
SPLINE
  5
A6
330
1F
100
AcDbEntity
  8
0
  6
Continuous
 62
     1
370
    25
100
AcDbSpline
210
0.0
220
0.0
230
1.0
 70
     8
 71
     3
 72
    15
 73
    11
 74
     0
 42
0.000000001
 43
0.00000001
 40
0.0
 40
0.0
 40
0.0
 40
0.0
 40
0.1960252542976476
 40
0.3595440945467843
 40
0.4976081216891862
 40
0.6184888911813343
 40
0.7240234874082391
 40
0.798779414044401
 40
0.8890528304504599
 40
0.9999999999999999
 40
0.9999999999999999
 40
0.9999999999999999
 40
0.9999999999999999
 10
19.55771040247185
 20
-3.76066143963367
 30
0.0
 10
19.78226062503887
 20
-3.725493981939105
 30
0.0
 10
20.19412442668226
 20
-3.660990804633667
 30
0.0
 10
20.80844801644995
 20
-3.575303963017254
 30
0.0
 10
21.35528837336383
 20
-3.51510349128001
 30
0.0
 10
21.82329691241968
 20
-3.466746059029846
 30
0.0
 10
22.21043218586229
 20
-3.430066235911268
 30
0.0
 10
22.5461596465342
 20
-3.401689225278675
 30
0.0
 10
22.88911590299615
 20
-3.37541877858903
 30
0.0
 10
23.14061272937246
 20
-3.359706150874667
 30
0.0
 10
23.2792807533454
 20
-3.351042665661087
 30
0.0
  0
LINE
  5
A7
330
1F
100
AcDbEntity
  8
0
  6
Continuous
 62
     4
370
    25
100
AcDbLine
 10
15.14953791624271
 20
-3.957375358072768
 30
0.0
 11
15.54332811529411
 21
-3.973197159204469
 31
0.0
  0
LINE
  5
A8
330
1F
100
AcDbEntity
  8
0
  6
Continuous
 62
     4
370
    25
100
AcDbLine
 10
0.1499999999999999
 20
4.850000000000001
 30
0.0
 11
0.1499999999999999
 21
-4.849999999999996
 31
0.0
1001
PE_URL
1000

  0
LINE
  5
AA
330
1F
100
AcDbEntity
  8
0
  6
Continuous
 62
     4
370
    25
100
AcDbLine
 10
-43.85000000000001
 20
4.999999999999995
 30
0.0
 11
-43.85000000000001
 21
-4.999999999999998
 31
0.0
  0
LINE
  5
AB
330
1F
100
AcDbEntity
  8
0
  6
Continuous
 62
     4
370
    25
100
AcDbLine
 10
-44.85000000000001
 20
3.999999999999997
 30
0.0
 11
-44.85000000000001
 21
-3.999999999999999
 31
0.0
  0
SPLINE
  5
AC
330
1F
100
AcDbEntity
  8
0
  6
Continuous
 62
     4
370
    25
100
AcDbSpline
210
0.0
220
0.0
230
1.0
 70
     8
 71
     3
 72
    14
 73
    10
 74
     0
 42
0.000000001
 43
0.00000001
 40
0.0
 40
0.0
 40
0.0
 40
0.0
 40
0.25
 40
0.25
 40
0.5
 40
0.5
 40
0.75
 40
0.75
 40
1.0
 40
1.0
 40
1.0
 40
1.0
 10
15.15000000000366
 20
2.303246327017826
 30
0.0
 10
14.89532804522069
 20
2.428648462881841
 30
0.0
 10
14.64270535176207
 20
2.55073766687208
 30
0.0
 10
14.13536220362655
 20
2.788361283699077
 30
0.0
 10
13.88022121308
 20
2.903947951264716
 30
0.0
 10
13.36996027784258
 20
3.127285451389941
 30
0.0
 10
13.11484417712209
 20
3.235034603429738
 30
0.0
 10
12.60759962862798
 20
3.441490151570781
 30
0.0
 10
12.3549027895441
 20
3.540290638785301
 30
0.0
 10
12.10020374300824
 20
3.6346411524281
 30
0.0
  0
SPLINE
  5
AD
330
1F
100
AcDbEntity
  8
0
  6
Continuous
 62
     4
370
    25
100
AcDbSpline
210
0.0
220
0.0
230
1.0
 70
     8
 71
     3
 72
    14
 73
    10
 74
     0
 42
0.000000001
 43
0.00000001
 40
0.0
 40
0.0
 40
0.0
 40
0.0
 40
0.2500000000000001
 40
0.2500000000000001
 40
0.5000000000000001
 40
0.5000000000000001
 40
0.75
 40
0.75
 40
1.0
 40
1.0
 40
1.0
 40
1.0
 10
15.15000000000365
 20
1.012392623373922
 30
0.0
 10
14.89531935929194
 20
1.151753992820817
 30
0.0
 10
14.64268814817922
 20
1.289432819655829
 30
0.0
 10
14.1353274963427
 20
1.561489449426247
 30
0.0
 10
13.88017770354618
 20
1.695935479521738
 30
0.0
 10
13.3698993685736
 20
1.960076126570927
 30
0.0
 10
13.11477467102227
 20
2.089768754587595
 30
0.0
 10
12.60751343251799
 20
2.342922259380326
 30
0.0
 10
12.35480745245705
 20
2.466489331663268
 30
0.0
 10
12.10009950073076
 20
2.587028847767044
 30
0.0
  0
LINE
  5
AE
330
1F
100
AcDbEntity
  8
0
  6
Continuous
 62
     4
370
    25
100
AcDbLine
 10
12.35420781888458
 20
-3.532505192678994
 30
0.0
 11
12.10020374300824
 21
-3.634641152428096
 31
0.0
  0
LINE
  5
AF
330
1F
100
AcDbEntity
  8
0
  6
Continuous
 62
     4
370
    25
100
AcDbLine
 10
12.10009950073074
 20
3.634790890004111
 30
0.0
 11
12.10009950073071
 21
4.850000000000001
 31
0.0
  0
LINE
  5
B0
330
1F
100
AcDbEntity
  8
0
  6
Continuous
 62
     4
370
    25
100
AcDbLine
 10
12.10009950073072
 20
-4.849999999999996
 30
0.0
 11
12.10009950073076
 21
2.587077210998879
 31
0.0
  0
SPLINE
  5
B1
330
1F
100
AcDbEntity
  8
0
  6
Continuous
 62
     4
370
    25
100
AcDbSpline
210
0.0
220
0.0
230
1.0
 70
    24
 71
     3
 72
     8
 73
     4
 74
     0
 42
0.000000001
 43
0.00000001
 40
0.0
 40
0.0
 40
0.0
 40
0.0
 40
1.0
 40
1.0
 40
1.0
 40
1.0
 10
15.15
 20
0.9537823557931624
 30
0.0
 10
15.15
 20
0.881076848370483
 30
0.0
 10
15.15
 20
0.7402894006218032
 30
0.0
 10
15.15
 20
0.5616601606993175
 30
0.0
  0
SPLINE
  5
B2
330
1F
100
AcDbEntity
  8
0
  6
Continuous
 62
     4
370
    25
100
AcDbSpline
210
0.0
220
0.0
230
1.0
 70
     8
 71
     3
 72
    14
 73
    10
 74
     0
 42
0.000000001
 43
0.00000001
 40
0.0
 40
0.0
 40
0.0
 40
0.0
 40
0.25
 40
0.25
 40
0.5
 40
0.5
 40
0.75
 40
0.75
 40
1.0
 40
1.0
 40
1.0
 40
1.0
 10
15.15
 20
0.5616601606993156
 30
0.0
 10
14.89532145181714
 20
0.6631620017573097
 30
0.0
 10
14.64269229269483
 20
0.7636654513287682
 30
0.0
 10
14.13533585767902
 20
0.962720521337066
 30
0.0
 10
13.88018818543429
 20
1.061322997930126
 30
0.0
 10
13.36991404223284
 20
1.255516765022726
 30
0.0
 10
13.1147914157432
 20
1.351106593199003
 30
0.0
 10
12.60753419802325
 20
1.538181111333885
 30
0.0
 10
12.35483042014201
 20
1.629743285225092
 30
0.0
 10
12.10012461376326
 20
1.719318250176386
 30
0.0
  0
SPLINE
  5
B3
330
1F
100
AcDbEntity
  8
0
  6
Continuous
 62
     4
370
    25
100
AcDbSpline
210
0.0
220
0.0
230
1.0
 70
     8
 71
     3
 72
     9
 73
     5
 74
     0
 42
0.000000001
 43
0.00000001
 40
0.0
 40
0.0
 40
0.0
 40
0.0
 40
0.5454415451193871
 40
0.9999999999999999
 40
0.9999999999999999
 40
0.9999999999999999
 40
0.9999999999999999
 10
15.15
 20
3.948160055293459
 30
0.0
 10
14.64168562814218
 20
3.90091382034559
 30
0.0
 10
13.70975373478673
 20
3.814293658440744
 30
0.0
 10
12.77782424693854
 20
3.620565819716741
 30
0.0
 10
12.35420781888458
 20
3.532505192678998
 30
0.0
  0
SPLINE
  5
B4
330
1F
100
AcDbEntity
  8
0
  6
Continuous
 62
     4
370
    25
100
AcDbSpline
210
0.0
220
0.0
230
1.0
 70
    24
 71
     3
 72
    12
 73
     8
 74
     0
 42
0.000000001
 43
0.00000001
 40
0.0
 40
0.0
 40
0.0
 40
0.0
 40
0.1443179445131337
 40
0.3785185164260738
 40
0.6195109207903634
 40
0.830769336327315
 40
1.0
 40
1.0
 40
1.0
 40
1.0
 10
15.15
 20
3.93299685630448
 30
0.0
 10
15.15000000000001
 20
3.913606583394245
 30
0.0
 10
15.15000000000002
 20
3.862749585951276
 30
0.0
 10
15.14999999999998
 20
3.643331603917484
 30
0.0
 10
15.15000000000002
 20
3.265973004990412
 30
0.0
 10
15.15
 20
2.819081261946685
 30
0.0
 10
15.15
 20
2.472417843014789
 30
0.0
 10
15.15
 20
2.318231865906721
 30
0.0
  0
SPLINE
  5
B5
330
1F
100
AcDbEntity
  8
0
  6
Continuous
 62
     4
370
    25
100
AcDbSpline
210
0.0
220
0.0
230
1.0
 70
     8
 71
     3
 72
    14
 73
    10
 74
     0
 42
0.000000001
 43
0.00000001
 40
0.0
 40
0.0
 40
0.0
 40
0.0
 40
0.25
 40
0.25
 40
0.5
 40
0.5
 40
0.75
 40
0.75
 40
1.0
 40
1.0
 40
1.0
 40
1.0
 10
15.15
 20
-3.948160055293456
 30
0.0
 10
14.89532253091548
 20
-3.929300352564402
 30
0.0
 10
14.64269442998606
 20
-3.905389440412538
 30
0.0
 10
14.13534016954671
 20
-3.847496017726058
 30
0.0
 10
13.88019359085153
 20
-3.813477360883673
 30
0.0
 10
13.36992160930949
 20
-3.735634884376874
 30
0.0
 10
13.11480005084841
 20
-3.691811653643973
 30
0.0
 10
12.60754490661318
 20
-3.594927347375352
 30
0.0
 10
12.35484226437004
 20
-3.541848018832044
 30
0.0
 10
12.10013756432868
 20
-3.484113996254234
 30
0.0
  0
SPLINE
  5
B6
330
1F
100
AcDbEntity
  8
0
  6
Continuous
 62
     4
370
    25
100
AcDbSpline
210
0.0
220
0.0
230
1.0
 70
    24
 71
     3
 72
    14
 73
    10
 74
     0
 42
0.000000001
 43
0.00000001
 40
0.0
 40
0.0
 40
0.0
 40
0.0
 40
0.2500000000000001
 40
0.2500000000000001
 40
0.5000000000000002
 40
0.5000000000000002
 40
0.7500000000000001
 40
0.7500000000000001
 40
1.0
 40
1.0
 40
1.0
 40
1.0
 10
15.15
 20
0.5616601606993156
 30
0.0
 10
15.15
 20
0.1193679740908463
 30
0.0
 10
15.15000000000001
 20
-0.3342311389526242
 30
0.0
 10
15.15000000000001
 20
-1.221555247872041
 30
0.0
 10
15.15
 20
-1.654810234836564
 30
0.0
 10
15.15
 20
-2.456335310341593
 30
0.0
 10
15.15
 20
-2.824178312811532
 30
0.0
 10
15.15
 20
-3.462261625771711
 30
0.0
 10
15.15
 20
-3.732381999496862
 30
0.0
 10
15.15
 20
-3.948160055293454
 30
0.0
  0
SPLINE
  5
B7
330
1F
100
AcDbEntity
  8
0
  6
Continuous
 62
     1
370
    25
100
AcDbSpline
210
0.0
220
0.0
230
1.0
 70
     8
 71
     3
 72
    16
 73
    12
 74
     0
 42
0.000000001
 43
0.00000001
 40
0.0
 40
0.0
 40
0.0
 40
0.0
 40
0.115897365309161
 40
0.2316569052320338
 40
0.3473921923129418
 40
0.4632170947096256
 40
0.579161939520172
 40
0.6949663203490263
 40
0.8106979962874621
 40
0.9264708795320354
 40
1.0
 40
1.0
 40
1.0
 40
1.0
 10
30.15
 20
-3.944861321841076
 30
0.0
 10
29.64817386817129
 20
-3.841823580139695
 30
0.0
 10
28.64511837718674
 20
-3.635870629432254
 30
0.0
 10
27.14133469147186
 20
-3.18542919304082
 30
0.0
 10
25.63787465426543
 20
-2.647687450237431
 30
0.0
 10
24.13345787759551
 20
-2.027862448009388
 30
0.0
 10
22.62831134484651
 20
-1.348404776894122
 30
0.0
 10
21.12405927905529
 20
-0.6270574218612569
 30
0.0
 10
19.62064255340816
 20
0.1113988662887511
 30
0.0
 10
18.30021533205417
 20
0.7621179664744513
 30
0.0
 10
17.4805331174993
 20
1.144386386418349
 30
0.0
 10
17.16215026302633
 20
1.292867966908306
 30
0.0
  0
SPLINE
  5
B8
330
1F
100
AcDbEntity
  8
0
  6
Continuous
 62
     1
370
    25
100
AcDbSpline
210
0.0
220
0.0
230
1.0
 70
    24
 71
     3
 72
     8
 73
     4
 74
     0
 42
0.000000001
 43
0.00000001
 40
0.0
 40
0.0
 40
0.0
 40
0.0
 40
1.0
 40
1.0
 40
1.0
 40
1.0
 10
30.15
 20
-4.636458152708054
 30
0.0
 10
30.15
 20
-4.405858154017665
 30
0.0
 10
30.15
 20
-4.174223496669147
 30
0.0
 10
30.15
 20
-3.944861321841076
 30
0.0
  0
SPLINE
  5
B9
330
1F
100
AcDbEntity
  8
0
  6
Continuous
 62
     1
370
    25
100
AcDbSpline
210
0.0
220
0.0
230
1.0
 70
     8
 71
     3
 72
    23
 73
    19
 74
     0
 42
0.000000001
 43
0.00000001
 40
0.0
 40
0.0
 40
0.0
 40
0.0
 40
0.0000307509925325
 40
0.0000307509925325
 40
0.0000307509925325
 40
0.0000617220654288
 40
0.0000617220654288
 40
0.0000617220654288
 40
0.0000901367238462
 40
0.0000901367238462
 40
0.0000901367238462
 40
0.0001177325000972
 40
0.0001177325000972
 40
0.0001177325000972
 40
0.0001477984191614
 40
0.0001477984191614
 40
0.0001477984191614
 40
0.0001637432505118
 40
0.0001637432505118
 40
0.0001637432505118
 40
0.0001637432505118
 10
30.15
 20
-4.636458152708055
 30
0.0
 10
30.15
 20
-4.646687874419359
 30
0.0
 10
30.14861658948752
 20
-4.657110645962852
 30
0.0
 10
30.14573359627303
 20
-4.666910900257082
 30
0.0
 10
30.14283826119792
 20
-4.676753108646805
 30
0.0
 10
30.13831871880038
 20
-4.68623459397024
 30
0.0
 10
30.13250336573083
 20
-4.694356786755445
 30
0.0
 10
30.12715589505835
 20
-4.70182549711502
 30
0.0
 10
30.12056914867462
 20
-4.70835289572093
 30
0.0
 10
30.11335647722322
 20
-4.713418361576968
 30
0.0
 10
30.1063348368798
 20
-4.718349666108517
 30
0.0
 10
30.09855638328341
 20
-4.722035450357405
 30
0.0
 10
30.09061926558636
 20
-4.724381624168077
 30
0.0
 10
30.08196814923264
 20
-4.726938852547055
 30
0.0
 10
30.07293689851274
 20
-4.727980899988832
 30
0.0
 10
30.06408813938119
 20
-4.727682527774525
 30
0.0
 10
30.05936022783791
 20
-4.727523106841574
 30
0.0
 10
30.05464420631955
 20
-4.726986009428944
 30
0.0
 10
30.05
 20
-4.726108139411261
 30
0.0
  0
SPLINE
  5
BA
330
1F
100
AcDbEntity
  8
0
  6
Continuous
 62
     1
370
    25
100
AcDbSpline
210
0.0
220
0.0
230
1.0
 70
     8
 71
     3
 72
    32
 73
    28
 74
     0
 42
0.000000001
 43
0.00000001
 40
0.0
 40
0.0
 40
0.0
 40
0.0
 40
0.1249999999999997
 40
0.1249999999999997
 40
0.2499999999999994
 40
0.2499999999999994
 40
0.3749999999999991
 40
0.3749999999999991
 40
0.4374999999999993
 40
0.4374999999999993
 40
0.4999999999999993
 40
0.4999999999999993
 40
0.5624999999999994
 40
0.5624999999999994
 40
0.6249999999999994
 40
0.6249999999999994
 40
0.6874999999999996
 40
0.6874999999999996
 40
0.7499999999999996
 40
0.7499999999999996
 40
0.8124999999999997
 40
0.8124999999999997
 40
0.8749999999999998
 40
0.8749999999999998
 40
0.9374999999999998
 40
0.9374999999999998
 40
1.0
 40
1.0
 40
1.0
 40
1.0
 10
30.05000000000001
 20
-4.726108139411243
 30
0.0
 10
29.43199211921769
 20
-4.609289343711665
 30
0.0
 10
28.80437756951234
 20
-4.455159323600552
 30
0.0
 10
27.57018941705617
 20
-4.082714262171374
 30
0.0
 10
26.94209442225747
 20
-3.862253822250607
 30
0.0
 10
25.70693712110852
 20
-3.367915110237145
 30
0.0
 10
25.08031081638523
 20
-3.091514948098379
 30
0.0
 10
24.15263434362919
 20
-2.646287165704414
 30
0.0
 10
23.84323495278257
 20
-2.492479232812176
 30
0.0
 10
23.22072064310729
 20
-2.17522110728388
 30
0.0
 10
22.90893416692339
 20
-2.01198537256676
 30
0.0
 10
22.28969098796322
 20
-1.679167003455166
 30
0.0
 10
21.98103871930911
 20
-1.509385442407303
 30
0.0
 10
21.35875058723074
 20
-1.163746209789525
 30
0.0
 10
21.04684096207997
 20
-0.98819937138733
 30
0.0
 10
20.42688606520519
 20
-0.6347050535055945
 30
0.0
 10
20.11876670390294
 20
-0.4567514611452279
 30
0.0
 10
19.49678655999423
 20
-0.0986721003582513
 30
0.0
 10
19.18479502616945
 20
0.0810957831525422
 30
0.0
 10
18.56420920106203
 20
0.4389757335034865
 30
0.0
 10
18.25640829977482
 20
0.6169381719554892
 30
0.0
 10
17.63481781958186
 20
0.9709470955180639
 30
0.0
 10
17.32278565359706
 20
1.14664969427922
 30
0.0
 10
16.70164996553462
 20
1.492411981820235
 30
0.0
 10
16.39395293794433
 20
1.66222541504123
 30
0.0
 10
15.77283362629571
 20
1.995847761914516
 30
0.0
 10
15.4608021226373
 20
2.159385814856656
 30
0.0
 10
15.15
 20
2.318231865906651
 30
0.0
  0
SPLINE
  5
BB
330
1F
100
AcDbEntity
  8
0
  6
Continuous
 62
     1
370
    25
100
AcDbSpline
210
0.0
220
0.0
230
1.0
 70
     8
 71
     3
 72
    32
 73
    28
 74
     0
 42
0.000000001
 43
0.00000001
 40
0.0
 40
0.0
 40
0.0
 40
0.0
 40
0.1250000000000004
 40
0.1250000000000004
 40
0.2500000000000008
 40
0.2500000000000008
 40
0.3750000000000012
 40
0.3750000000000012
 40
0.4375000000000011
 40
0.4375000000000011
 40
0.5000000000000011
 40
0.5000000000000011
 40
0.562500000000001
 40
0.562500000000001
 40
0.6250000000000008
 40
0.6250000000000008
 40
0.6875000000000007
 40
0.6875000000000007
 40
0.7500000000000006
 40
0.7500000000000006
 40
0.8125000000000004
 40
0.8125000000000004
 40
0.8750000000000002
 40
0.8750000000000002
 40
0.9375000000000001
 40
0.9375000000000001
 40
1.0
 40
1.0
 40
1.0
 40
1.0
 10
30.04999999999992
 20
-4.993056959731524
 30
0.0
 10
29.43199211921761
 20
-4.974204082557922
 30
0.0
 10
28.80437756951227
 20
-4.916464065569761
 30
0.0
 10
27.57018941705611
 20
-4.727192515956554
 30
0.0
 10
26.94209442225741
 20
-4.594560604349796
 30
0.0
 10
25.70693712110847
 20
-4.26233663140073
 30
0.0
 10
25.08031081638518
 20
-4.061073262109159
 30
0.0
 10
24.15263434362915
 20
-3.71604741513519
 30
0.0
 10
23.84323495278253
 20
-3.593655203498808
 30
0.0
 10
23.22072064310726
 20
-3.33498225738225
 30
0.0
 10
22.90893416692335
 20
-3.198866942518486
 30
0.0
 10
22.28969098796319
 20
-2.915499597451149
 30
0.0
 10
21.98103871930908
 20
-2.768090805188882
 30
0.0
 10
21.35875058723069
 20
-2.46237604406622
 30
0.0
 10
21.04684096207995
 20
-2.3043328263395
 30
0.0
 10
20.42688606520516
 20
-1.980644433066076
 30
0.0
 10
20.11876670390291
 20
-1.815007987249151
 30
0.0
 10
19.49678655999421
 20
-1.476357203432522
 30
0.0
 10
19.18479502616944
 20
-1.303667160203911
 30
0.0
 10
18.56420920106203
 20
-0.9545593676891228
 30
0.0
 10
18.2564082997748
 20
-0.7783031851218928
 30
0.0
 10
17.63481781958184
 20
-0.4223388607634244
 30
0.0
 10
17.32278565359705
 20
-0.2429607127975606
 30
0.0
 10
16.70164996553461
 20
0.1154808193928049
 30
0.0
 10
16.39395293794433
 20
0.2942722681079084
 30
0.0
 10
15.77283362629571
 20
0.6511342054452527
 30
0.0
 10
15.4608021226373
 20
0.8289322208777238
 30
0.0
 10
15.15
 20
1.00455695645297
 30
0.0
  0
SPLINE
  5
BD
330
1F
100
AcDbEntity
  8
0
  6
Continuous
 62
     1
370
    25
100
AcDbSpline
210
0.0
220
0.0
230
1.0
 70
     8
 71
     3
 72
     9
 73
     5
 74
     0
 42
0.000000001
 43
0.00000001
 40
0.0
 40
0.0
 40
0.0
 40
0.0
 40
0.4340693504280623
 40
1.0
 40
1.0
 40
1.0
 40
1.0
 10
17.73240771153288
 20
-0.476484849705143
 30
0.0
 10
17.35874209521869
 20
-0.3264967598004421
 30
0.0
 10
16.49789896970039
 20
0.0190427024002142
 30
0.0
 10
15.63713353920777
 20
0.3655570633314797
 30
0.0
 10
15.15
 20
0.5616601606993156
 30
0.0
  0
SPLINE
  5
BE
330
1F
100
AcDbEntity
  8
0
  6
Continuous
 62
     4
370
    25
100
AcDbSpline
210
0.0
220
0.0
230
1.0
 70
    24
 71
     3
 72
    11
 73
     7
 74
     0
 42
0.000000001
 43
0.00000001
 40
0.0
 40
0.0
 40
0.0
 40
0.0
 40
0.2119579797483946
 40
0.4647243631109486
 40
0.7248209887146395
 40
1.0
 40
1.0
 40
1.0
 40
1.0
 10
15.15
 20
1.007402772405094
 30
0.0
 10
15.15000000000001
 20
1.002969092452712
 30
0.0
 10
15.15
 20
0.9932481133484827
 30
0.0
 10
15.15
 20
0.9092596211109929
 30
0.0
 10
15.15
 20
0.77241692149119
 30
0.0
 10
15.15
 20
0.6332197935387996
 30
0.0
 10
15.15
 20
0.5616601606993173
 30
0.0
  0
LINE
  5
BF
330
1F
100
AcDbEntity
  8
0
  6
Continuous
 62
     4
370
    25
100
AcDbLine
 10
15.15
 20
1.004556956452969
 30
0.0
 11
15.15
 21
2.318231865906652
 31
0.0
  0
SPLINE
  5
C0
330
1F
100
AcDbEntity
  8
0
  6
Continuous
 62
     1
370
    25
100
AcDbSpline
210
0.0
220
0.0
230
1.0
 70
     8
 71
     3
 72
    17
 73
    13
 74
     0
 42
0.000000001
 43
0.00000001
 40
0.0
 40
0.0
 40
0.0
 40
0.0
 40
0.1030415809603428
 40
0.2059589146376914
 40
0.3088543820995721
 40
0.4118306323216057
 40
0.5149150158325176
 40
0.6178727799546043
 40
0.7207649940521922
 40
0.8236943469828387
 40
0.9267580896920249
 40
1.0
 40
1.0
 40
1.0
 40
1.0
 10
30.15
 20
0.0000000000000044
 30
0.0
 10
29.64817410726138
 20
0.2316105596508902
 30
0.0
 10
28.64512742220213
 20
0.6945524035137449
 30
0.0
 10
27.14132527988365
 20
1.368636614273995
 30
0.0
 10
25.63785027244923
 20
2.001407457840781
 30
0.0
 10
24.13342187347024
 20
2.573952072208408
 30
0.0
 10
22.62830004232742
 20
3.06863255800151
 30
0.0
 10
21.12403198499152
 20
3.471210612865558
 30
0.0
 10
19.62060139027127
 20
3.770277226083956
 30
0.0
 10
18.11664381752381
 20
3.951837393484111
 30
0.0
 10
16.75662653276193
 20
4.022021876583269
 30
0.0
 10
15.89809227696013
 20
3.979626716523839
 30
0.0
 10
15.54143502925611
 20
3.962014674836993
 30
0.0
  0
SPLINE
  5
C1
330
1F
100
AcDbEntity
  8
0
  6
Continuous
 62
     1
370
    25
100
AcDbSpline
210
0.0
220
0.0
230
1.0
 70
    24
 71
     3
 72
    14
 73
    10
 74
     0
 42
0.000000001
 43
0.00000001
 40
0.0
 40
0.0
 40
0.0
 40
0.0
 40
0.2500000000000001
 40
0.2500000000000001
 40
0.5000000000000001
 40
0.5000000000000001
 40
0.75
 40
0.75
 40
1.0
 40
1.0
 40
1.0
 40
1.0
 10
30.15
 20
-3.944861321841076
 30
0.0
 10
30.15
 20
-3.731412078843002
 30
0.0
 10
30.15
 20
-3.478744843765185
 30
0.0
 10
30.15
 20
-2.904948010978884
 30
0.0
 10
30.15
 20
-2.583899280486886
 30
0.0
 10
30.14999999999999
 20
-1.894437025549265
 30
0.0
 10
30.15
 20
-1.526222596873482
 30
0.0
 10
30.15000000000001
 20
-0.770404296397202
 30
0.0
 10
30.15
 20
-0.3830246231221835
 30
0.0
 10
30.15
 20
0.0000000000000044
 30
0.0
  0
SPLINE
  5
C2
330
1F
100
AcDbEntity
  8
0
  6
Continuous
 62
     4
370
    25
100
AcDbSpline
210
0.0
220
0.0
230
1.0
 70
    24
 71
     3
 72
    13
 73
     9
 74
     0
 42
0.000000001
 43
0.00000001
 40
0.0
 40
0.0
 40
0.0
 40
0.0
 40
0.0828228564681939
 40
0.2283834561620628
 40
0.4395752588948066
 40
0.6568916382139489
 40
0.8473952106659294
 40
0.9999999999999999
 40
0.9999999999999999
 40
0.9999999999999999
 40
0.9999999999999999
 10
15.15
 20
3.945214894457022
 30
0.0
 10
15.15
 20
3.945987447263029
 30
0.0
 10
15.14999999999999
 20
3.948117756303646
 30
0.0
 10
15.15000000000001
 20
3.85964220014114
 30
0.0
 10
15.15
 20
3.646262091064838
 30
0.0
 10
15.15
 20
3.265284630187739
 30
0.0
 10
15.15000000000002
 20
2.819206534681447
 30
0.0
 10
15.15
 20
2.472456408098756
 30
0.0
 10
15.15
 20
2.318231865906719
 30
0.0
  0
SPLINE
  5
C3
330
1F
100
AcDbEntity
  8
0
  6
Continuous
 62
     1
370
    25
100
AcDbSpline
210
0.0
220
0.0
230
1.0
 70
     8
 71
     3
 72
     9
 73
     5
 74
     0
 42
0.000000001
 43
0.00000001
 40
0.0
 40
0.0
 40
0.0
 40
0.0
 40
0.8092304997989268
 40
1.0
 40
1.0
 40
1.0
 40
1.0
 10
30.15
 20
3.500000000000004
 30
0.0
 10
29.64816776540604
 20
3.496448757732586
 30
0.0
 10
29.02803266827532
 20
3.492060339020859
 30
0.0
 10
28.40801644244711
 20
3.423476616183253
 30
0.0
 10
28.28973625692931
 20
3.410392933655595
 30
0.0
  0
SPLINE
  5
C4
330
1F
100
AcDbEntity
  8
0
  6
Continuous
 62
     1
370
    25
100
AcDbSpline
210
0.0
220
0.0
230
1.0
 70
    24
 71
     3
 72
    14
 73
    10
 74
     0
 42
0.000000001
 43
0.00000001
 40
0.0
 40
0.0
 40
0.0
 40
0.0
 40
0.25
 40
0.25
 40
0.5
 40
0.5
 40
0.75
 40
0.75
 40
1.0
 40
1.0
 40
1.0
 40
1.0
 10
30.15
 20
0.0000000000000037
 30
0.0
 10
30.15
 20
0.4164217585069825
 30
0.0
 10
30.15
 20
0.8277178818772735
 30
0.0
 10
30.15000000000001
 20
1.59686274978878
 30
0.0
 10
30.15
 20
1.954233651873837
 30
0.0
 10
30.15
 20
2.576284560759136
 30
0.0
 10
30.15
 20
2.840633112828285
 30
0.0
 10
30.15000000000001
 20
3.255332771056785
 30
0.0
 10
30.15
 20
3.405703872181956
 30
0.0
 10
30.15
 20
3.500000000000004
 30
0.0
  0
SPLINE
  5
C5
330
1F
100
AcDbEntity
  8
0
  6
Continuous
 62
     1
370
    25
100
AcDbSpline
210
0.0
220
0.0
230
1.0
 70
     8
 71
     3
 72
    10
 73
     6
 74
     0
 42
0.000000001
 43
0.00000001
 40
0.0
 40
0.0
 40
0.0
 40
0.0
 40
0.3269592022586905
 40
0.6684966955101046
 40
1.0
 40
1.0
 40
1.0
 40
1.0
 10
19.55848127077007
 20
-3.758272078095769
 30
0.0
 10
19.0780848531507
 20
-3.824383006677383
 30
0.0
 10
18.09587234622348
 20
-3.959552584375783
 30
0.0
 10
16.62613393856494
 20
-4.023238836424406
 30
0.0
 10
15.63712971129598
 20
-3.972936333394839
 30
0.0
 10
15.15
 20
-3.948160055293456
 30
0.0
  0
SPLINE
  5
C6
330
1F
100
AcDbEntity
  8
0
  6
Continuous
 62
     4
370
    25
100
AcDbSpline
210
0.0
220
0.0
230
1.0
 70
    24
 71
     3
 72
    14
 73
    10
 74
     0
 42
0.000000001
 43
0.00000001
 40
0.0
 40
0.0
 40
0.0
 40
0.0
 40
0.25
 40
0.25
 40
0.5
 40
0.5
 40
0.75
 40
0.75
 40
1.0
 40
1.0
 40
1.0
 40
1.0
 10
15.15
 20
0.5616601606993168
 30
0.0
 10
15.15
 20
0.1193679740908476
 30
0.0
 10
15.15
 20
-0.3342311389526234
 30
0.0
 10
15.15
 20
-1.221555247872039
 30
0.0
 10
15.15
 20
-1.654810234836563
 30
0.0
 10
15.15
 20
-2.456335310341593
 30
0.0
 10
15.15
 20
-2.824178312811531
 30
0.0
 10
15.15
 20
-3.462261625771712
 30
0.0
 10
15.15
 20
-3.732381999496862
 30
0.0
 10
15.15
 20
-3.948160055293454
 30
0.0
  0
LINE
  5
C7
330
1F
100
AcDbEntity
  8
0
  6
Continuous
 62
     1
370
    25
100
AcDbLine
 10
30.15
 20
-4.636458152708054
 30
0.0
 11
30.15
 21
-4.894663589612311
 31
0.0
  0
SPLINE
  5
C8
330
1F
100
AcDbEntity
  8
0
  6
Continuous
 62
     1
370
    25
100
AcDbSpline
210
0.0
220
0.0
230
1.0
 70
     8
 71
     3
 72
    12
 73
     8
 74
     0
 42
0.000000001
 43
0.00000001
 40
0.0
 40
0.0
 40
0.0
 40
0.0
 40
0.0317653700803886
 40
0.2737060225879159
 40
0.5156830451069225
 40
0.7577660570144589
 40
0.9981685735201532
 40
0.9981685735201532
 40
0.9981685735201532
 40
0.9981685735201532
 10
23.27957001234026
 20
3.351173931777686
 30
0.0
 10
23.35125509851419
 20
3.383974172990076
 30
0.0
 10
23.96892899199897
 20
3.666597153281117
 30
0.0
 10
25.13257417762795
 20
4.085960681539153
 30
0.0
 10
26.77090970543327
 20
4.569255755616244
 30
0.0
 10
28.40589372213057
 20
4.890161446374305
 30
0.0
 10
29.49496094760234
 20
4.958505055775265
 30
0.0
 10
30.03759829443246
 20
4.992284968374354
 30
0.0
  0
SPLINE
  5
CA
330
1F
100
AcDbEntity
  8
0
  6
Continuous
 62
     1
370
    25
100
AcDbSpline
210
0.0
220
0.0
230
1.0
 70
    24
 71
     3
 72
    10
 73
     6
 74
     0
 42
0.000000001
 43
0.00000001
 40
0.0
 40
0.0
 40
0.0
 40
0.0
 40
0.5
 40
0.5
 40
1.0
 40
1.0
 40
1.0
 40
1.0
 10
30.15
 20
3.500000000000004
 30
0.0
 10
30.15
 20
3.698014160733898
 30
0.0
 10
30.15
 20
3.925841939349159
 30
0.0
 10
30.15000000000001
 20
4.405677453686149
 30
0.0
 10
30.15
 20
4.656781139629759
 30
0.0
 10
30.15
 20
4.894663589612308
 30
0.0
  0
LINE
  5
CB
330
1F
100
AcDbEntity
  8
중심선
100
AcDbLine
 10
-47.84999999999999
 20
-0.0000000000000032
 30
0.0
 11
33.14999999999999
 21
0.000000000000004
 31
0.0
  0
CIRCLE
  5
CC
330
1F
100
AcDbEntity
  8
외형선
100
AcDbCircle
 10
0.0
 20
0.0
 30
0.0
 40
3.000000000000005
  0
INSERT
  5
CD
330
1F
100
AcDbEntity
  8
0
  6
Continuous
 62
     7
100
AcDbBlockReference
 66
     1
  2
블럭10
 10
-30.87358523345418
 20
-52.04717430164393
 30
0.0
  0
ATTRIB
  5
CE
330
CD
100
AcDbEntity
  8
FORMAT
 62
     2
100
AcDbText
 10
-46.99284627288974
 20
-49.97180738881174
 30
0.0
 40
4.233333333333333
  1
SEME6110001E [ 2 FLUTE ]
 41
0.75
  7
SLDTEXTSTYLE0
 11
-46.99284627288974
 21
-52.08847405547841
 31
0.0
100
AcDbAttribute
  2
AUTOATTR0
 70
     0
 74
     1
  0
SEQEND
  5
CF
330
CD
100
AcDbEntity
  8
0
  6
Continuous
 62
     7
  0
HATCH
  5
D0
330
1F
100
AcDbEntity
  8
중심선
100
AcDbHatch
 10
0.0
 20
0.0
 30
0.0
210
0.0
220
0.0
230
1.0
  2
SOLID
 70
     1
 71
     0
 91
        1
 92
        0
 93
        4
 72
     1
 10
-25.15867592907333
 20
-35.8
 11
-28.60495117291061
 21
-35.8
 72
     1
 10
-28.60495117291061
 20
-35.8
 11
-30.73318103211463
 21
-38.3363255805726
 72
     1
 10
-30.73318103211463
 20
-38.3363255805726
 11
-27.2868727031642
 21
-38.33628615127011
 72
     1
 10
-27.2868727031642
 20
-38.33628615127011
 11
-25.15867592907333
 21
-35.8
 97
        0
 75
     0
 76
     1
 98
        1
 10
-7.934141545388284
 20
-0.0010749287238934
  0
HATCH
  5
D1
330
1F
100
AcDbEntity
  8
중심선
100
AcDbHatch
 10
0.0
 20
0.0
 30
0.0
210
0.0
220
0.0
230
1.0
  2
SOLID
 70
     1
 71
     0
 91
        1
 92
        0
 93
        4
 72
     1
 10
-20.14591193803737
 20
-35.8
 11
-23.59218718187466
 21
-35.8
 72
     1
 10
-23.59218718187466
 20
-35.8
 11
-28.12332519023204
 21
-41.20000000000002
 72
     1
 10
-28.12332519023204
 20
-41.20000000000002
 11
-24.67704994639476
 21
-41.20000000000002
 72
     1
 10
-24.67704994639476
 20
-41.20000000000002
 11
-20.14591193803737
 21
-35.8
 97
        0
 75
     0
 76
     1
 98
        1
 10
-7.934141545388284
 20
-0.0010749287238934
  0
HATCH
  5
D2
330
1F
100
AcDbEntity
  8
중심선
100
AcDbHatch
 10
0.0
 20
0.0
 30
0.0
210
0.0
220
0.0
230
1.0
  2
SOLID
 70
     1
 71
     0
 91
        1
 92
        0
 93
        4
 72
     1
 10
-15.13314794700148
 20
-35.80000000000003
 11
-18.5794231908386
 21
-35.8
 72
     1
 10
-18.5794231908386
 20
-35.8
 11
-25.62786009272785
 21
-44.20000000000002
 72
     1
 10
-25.62786009272784
 20
-44.20000000000002
 11
-22.18158484889056
 21
-44.20000000000002
 72
     1
 10
-22.18158484889056
 20
-44.20000000000002
 11
-15.13314794700148
 21
-35.80000000000003
 97
        0
 75
     0
 76
     1
 98
        1
 10
-7.934141545388284
 20
-0.0010749287238934
  0
HATCH
  5
D3
330
1F
100
AcDbEntity
  8
중심선
100
AcDbHatch
 10
0.0
 20
0.0
 30
0.0
210
0.0
220
0.0
230
1.0
  2
SOLID
 70
     1
 71
     0
 91
        1
 92
        0
 93
        6
 72
     3
 10
-10.33325751598928
 20
-40.00000000005127
 11
3.960054785062283
 21
1.540882976769353E-10
 40
0.3939339440162628
 50
17.09539180608436
 51
320.0019657685078
 73
     0
 72
     1
 10
-8.650257860288685
 20
-38.5878940046383
 11
-6.344955986587647
 21
-36.65356729459038
 72
     3
 10
-10.33325751604213
 20
-40.00000000000015
 11
6.600054785286829
 21
-1.278976924368180E-13
 40
0.636358354079598
 50
39.99873849337411
 51
368.4976242363724
 73
     1
 72
     1
 10
-3.907925024141517
 20
-39.03999999993002
 11
-11.6531902092062
 21
-39.03999999993
 72
     1
 10
-11.6531902092062
 20
-39.03999999993
 11
-11.65321525365214
 21
-40.95999999992991
 72
     1
 10
-11.65321525365214
 20
-40.95999999992991
 11
-7.211835484180102
 21
-40.95999999992988
 97
        0
 75
     0
 76
     1
 98
        1
 10
-7.934141545388284
 20
-0.0010749287238934
  0
DIMENSION
  5
D4
330
1F
100
AcDbEntity
  8
치수문자_일반주서
100
AcDbDimension
  2
_D
 10
-56.34645802161206
 20
-5.000000000000045
 30
0.0
 11
-56.34645802161208
 21
-0.0000000000000015
 31
0.0
 70
   160
  1
%%c<>
 71
     2
 42
9.999999999999993
 52
-270.0
  3
SLDDIMSTYLE0
100
AcDbAlignedDimension
 13
-43.85000000000001
 23
4.999999999999995
 33
0.0
 14
-43.85000000000001
 24
-4.999999999999998
 34
0.0
 50
90.0000000000002
100
AcDbRotatedDimension
  0
DIMENSION
  5
E2
330
1F
100
AcDbEntity
  8
치수문자_일반주서
100
AcDbDimension
  2
_D_1
 10
15.15
 20
23.39999999999965
 30
0.0
 11
22.65
 21
23.39999999999965
 31
0.0
 70
   160
  1
<>
 71
     2
 42
15.0
  3
SLDDIMSTYLE1
100
AcDbAlignedDimension
 13
30.15
 23
4.900000000000002
 33
0.0
 14
15.15
 24
3.953811354882936
 34
0.0
 50
0.0000000000000136
100
AcDbRotatedDimension
  0
DIMENSION
  5
EE
330
1F
100
AcDbEntity
  8
치수문자_일반주서
100
AcDbDimension
  2
_D_2
 10
-44.85000000000002
 20
45.45832450504429
 30
0.0
 11
-7.350000000000002
 21
45.45832450504429
 31
0.0
 70
   160
  1
<>
 71
     2
 42
75.0
  3
SLDDIMSTYLE1
100
AcDbAlignedDimension
 13
30.15
 23
4.900000000000002
 33
0.0
 14
-44.85000000000001
 24
3.999999999999997
 34
0.0
100
AcDbRotatedDimension
  0
DIMENSION
  5
F8
330
1F
100
AcDbEntity
  8
치수문자_일반주서
100
AcDbDimension
  2
_D_3
 10
0.1500000000000004
 20
30.31999999999866
 30
0.0
 11
15.15
 21
30.31999999999866
 31
0.0
 70
   160
  1
<>
 71
     2
 42
30.0
  3
SLDDIMSTYLE0
100
AcDbAlignedDimension
 13
30.15
 23
4.894663589612308
 33
0.0
 14
0.1499999999999999
 24
4.849999999999999
 34
0.0
 50
-0.0000000000022354
100
AcDbRotatedDimension
  0
DIMENSION
  5
104
330
1F
100
AcDbEntity
  8
치수문자_일반주서
100
AcDbDimension
  2
_D_4
 10
43.45750668673302
 20
-4.99305695973147
 30
0.0
 11
43.45750668673301
 21
0.0018103808790242
 31
0.0
 70
   160
  1
%%c<>
 71
     2
 42
10.00353352511748
 52
-270.0
  3
SLDDIMSTYLE0
100
AcDbAlignedDimension
 13
30.15
 23
5.010476565385957
 33
0.0
 14
30.05
 24
-4.99305695973152
 34
0.0
 50
90.0000000000002
100
AcDbRotatedDimension
  0
INSERT
  5
117
330
1F
100
AcDbEntity
  8
외형선
100
AcDbBlockReference
  2
SW_DOWELSYMBOL_0
 10
0.0
 20
0.0
 30
0.0
  0
ARC
  5
149
330
1F
100
AcDbEntity
  8
0
  6
Continuous
 62
     1
370
    25
100
AcDbCircle
 10
30.05000000000001
 20
4.893056959731525
 30
0.0
 40
0.1
100
AcDbArc
 50
0.0
 51
97.12399553054841
  0
ARC
  5
14A
330
1F
100
AcDbEntity
  8
0
  6
Continuous
 62
     1
370
    25
100
AcDbCircle
 10
30.05000000000001
 20
-4.893056959731518
 30
0.0
 40
0.1
100
AcDbArc
 50
266.4817059360644
 51
0.0
  0
DIMENSION
  5
14C
330
1F
100
AcDbEntity
  8
치수문자_일반주서
100
AcDbDimension
  2
*D8
 10
30.05000000000001
 20
-4.893056959731518
 30
0.0
 11
38.00297477113099
 21
-17.57100343766448
 31
0.0
 70
   164
  1
<>
 71
     5
 42
0.0999999999999972
  3
SLDDIMSTYLE0
100
AcDbRadialDimension
 15
30.10314040428076
 25
-4.977768809155777
 35
0.0
 40
0.0
1001
ACAD_DSTYLE_DIMRADIAL_EXTENSION
1070
   387
1070
     1
1070
   388
1040
4.650983164915642
1070
   390
1040
0.0
1001
ACAD
1000
DSTYLE
1002
{
1070
    78
1070
     8
1002
}
  0
LINE
  5
17F
330
1F
100
AcDbEntity
  8
0
  6
Continuous
 62
     4
370
    25
100
AcDbLine
 10
0.1499999999999999
 20
4.849999999999999
 30
0.0
 11
0.0000000000000004
 21
4.999999999999998
 31
0.0
1001
PE_URL
1000

  0
LINE
  5
181
330
1F
100
AcDbEntity
  8
0
  6
Continuous
 62
     4
370
    25
100
AcDbLine
 10
0.0000000000000004
 20
4.999999999999998
 30
0.0
 11
0.0
 21
-4.999999999999998
 31
0.0
1001
PE_URL
1000

  0
LINE
  5
182
330
1F
100
AcDbEntity
  8
0
  6
Continuous
 62
     4
370
    25
100
AcDbLine
 10
0.0
 20
-4.999999999999998
 30
0.0
 11
0.1499999999999999
 21
-4.849999999999996
 31
0.0
1001
PE_URL
1000

  0
ENDSEC
  0
SECTION
  2
OBJECTS
  0
DICTIONARY
  5
C
330
0
100
AcDbDictionary
281
     1
  3
ACAD_GROUP
350
D
  3
ACAD_IMAGE_VARS
350
13B
  3
ACAD_LAYOUT
350
1A
  3
ACAD_MLINESTYLE
350
17
  3
ACAD_PLOTSETTINGS
350
19
  3
ACAD_PLOTSTYLENAME
350
E
  3
ACAD_SCALELIST
350
47
  3
APPDATA
350
139
  3
DWGPROPS
350
183
  0
DICTIONARY
  5
D
102
{ACAD_REACTORS
330
C
102
}
330
C
100
AcDbDictionary
281
     1
  0
RASTERVARIABLES
  5
13B
102
{ACAD_REACTORS
330
C
102
}
330
C
100
AcDbRasterVariables
 90
        0
 70
     1
 71
     1
 72
     1
  0
DICTIONARY
  5
1A
102
{ACAD_REACTORS
330
C
102
}
330
C
100
AcDbDictionary
281
     1
  3
Layout1
350
1E
  3
Layout2
350
26
  3
Model
350
22
  0
DICTIONARY
  5
17
102
{ACAD_REACTORS
330
C
102
}
330
C
100
AcDbDictionary
281
     1
  3
Standard
350
18
  0
DICTIONARY
  5
19
102
{ACAD_REACTORS
330
C
102
}
330
C
100
AcDbDictionary
281
     1
  0
ACDBDICTIONARYWDFLT
  5
E
102
{ACAD_REACTORS
330
C
102
}
330
C
100
AcDbDictionary
281
     1
  3
Normal
350
F
100
AcDbDictionaryWithDefault
340
F
  0
DICTIONARY
  5
47
102
{ACAD_REACTORS
330
C
102
}
330
C
100
AcDbDictionary
281
     1
  3
A0
350
48
  3
A1
350
49
  3
A2
350
4A
  3
A3
350
4B
  3
A4
350
4C
  3
A5
350
4D
  3
A6
350
4E
  3
A7
350
4F
  3
A8
350
50
  3
A9
350
51
  3
B0
350
52
  3
B1
350
53
  3
B2
350
54
  3
B3
350
55
  3
B4
350
56
  3
B5
350
57
  3
B6
350
58
  3
B7
350
59
  3
B8
350
5A
  3
B9
350
5B
  3
C0
350
5C
  3
C1
350
5D
  3
C2
350
5E
  3
C3
350
5F
  3
C4
350
60
  3
C5
350
61
  3
C6
350
62
  3
C7
350
63
  3
C8
350
64
  3
C9
350
65
  3
D0
350
66
  3
D1
350
67
  3
D2
350
68
  0
DICTIONARY
  5
139
102
{ACAD_REACTORS
330
C
102
}
330
C
100
AcDbDictionary
281
     1
  0
XRECORD
  5
183
102
{ACAD_REACTORS
330
C
102
}
330
C
100
AcDbXrecord
280
     1
  1
DWGPROPS COOKIE
  2

  3

  4

  6

  7

  8
12014102
  9

300
=
301
=
302
=
303
=
304
=
305
=
306
=
307
=
308
=
309
=
 40
0.0
 41
2458263.432383843
 42
2459576.964304711
  1

 90
        0
  0
LAYOUT
  5
1E
102
{ACAD_REACTORS
330
1A
102
}
330
1A
100
AcDbPlotSettings
  1

  2
none_device
  4

  6

 40
0.0
 41
0.0
 42
0.0
 43
0.0
 44
0.0
 45
0.0
 46
0.0
 47
0.0
 48
0.0
 49
0.0
140
0.0
141
0.0
142
1.0
143
1.0
 70
   688
 72
     1
 73
     0
 74
     5
  7

 75
    16
147
1.0
148
0.0
149
0.0
100
AcDbLayout
  1
Layout1
 70
     1
 71
     1
 10
0.0
 20
0.0
 11
420.0
 21
297.0
 12
0.0
 22
0.0
 32
0.0
 14
1.000000000000000E+20
 24
1.000000000000000E+20
 34
1.000000000000000E+20
 15
-1.000000000000000E+20
 25
-1.000000000000000E+20
 35
-1.000000000000000E+20
146
0.0
 13
0.0
 23
0.0
 33
0.0
 16
1.0
 26
0.0
 36
0.0
 17
0.0
 27
1.0
 37
0.0
 76
     0
330
1B
  0
LAYOUT
  5
26
102
{ACAD_REACTORS
330
1A
102
}
330
1A
100
AcDbPlotSettings
  1

  2
none_device
  4

  6

 40
0.0
 41
0.0
 42
0.0
 43
0.0
 44
0.0
 45
0.0
 46
0.0
 47
0.0
 48
0.0
 49
0.0
140
0.0
141
0.0
142
1.0
143
1.0
 70
   688
 72
     1
 73
     0
 74
     5
  7

 75
    16
147
1.0
148
0.0
149
0.0
100
AcDbLayout
  1
Layout2
 70
     1
 71
     2
 10
0.0
 20
0.0
 11
0.0
 21
0.0
 12
0.0
 22
0.0
 32
0.0
 14
0.0
 24
0.0
 34
0.0
 15
0.0
 25
0.0
 35
0.0
146
0.0
 13
0.0
 23
0.0
 33
0.0
 16
1.0
 26
0.0
 36
0.0
 17
0.0
 27
1.0
 37
0.0
 76
     0
330
23
  0
LAYOUT
  5
22
102
{ACAD_REACTORS
330
1A
102
}
330
1A
100
AcDbPlotSettings
  1

  2
none_device
  4
ANSI_A_(11.00_x_8.50_Inches)
  6

 40
6.35
 41
19.05
 42
6.35000508
 43
19.05000254
 44
279.4
 45
215.9
 46
123.8825823195973
 47
89.69297670134952
 48
0.0
 49
0.0
140
0.0
141
0.0
142
0.0835797067868893
143
1.0
 70
  1696
 72
     0
 73
     0
 74
     0
  7

 75
     0
147
0.0235690232323232
148
0.0
149
0.0
100
AcDbLayout
  1
Model
 70
     1
 71
     0
 10
0.0
 20
0.0
 11
420.0
 21
297.0
 12
0.0
 22
0.0
 32
0.0
 14
-60.72145802161209
 24
-49.97180738881174
 34
0.0
 15
44.00784002006634
 25
49.83332450504428
 35
0.0
146
0.0
 13
0.0
 23
0.0
 33
0.0
 16
1.0
 26
0.0
 36
0.0
 17
0.0
 27
1.0
 37
0.0
 76
     0
330
1F
331
29
  0
MLINESTYLE
  5
18
102
{ACAD_REACTORS
330
17
102
}
330
17
100
AcDbMlineStyle
  2
Standard
 70
     0
  3

 62
   256
 51
90.0
 52
90.0
 71
     2
 49
0.5
 62
   256
  6
BYLAYER
 49
-0.5
 62
   256
  6
BYLAYER
  0
ACDBPLACEHOLDER
  5
F
102
{ACAD_REACTORS
330
E
102
}
330
E
  0
SCALE
  5
48
102
{ACAD_REACTORS
330
47
102
}
330
47
100
AcDbScale
 70
     0
300
1:1
140
1.0
141
1.0
290
     1
  0
SCALE
  5
49
102
{ACAD_REACTORS
330
47
102
}
330
47
100
AcDbScale
 70
     0
300
1:2
140
1.0
141
2.0
290
     0
  0
SCALE
  5
4A
102
{ACAD_REACTORS
330
47
102
}
330
47
100
AcDbScale
 70
     0
300
1:4
140
1.0
141
4.0
290
     0
  0
SCALE
  5
4B
102
{ACAD_REACTORS
330
47
102
}
330
47
100
AcDbScale
 70
     0
300
1:5
140
1.0
141
5.0
290
     0
  0
SCALE
  5
4C
102
{ACAD_REACTORS
330
47
102
}
330
47
100
AcDbScale
 70
     0
300
1:8
140
1.0
141
8.0
290
     0
  0
SCALE
  5
4D
102
{ACAD_REACTORS
330
47
102
}
330
47
100
AcDbScale
 70
     0
300
1:10
140
1.0
141
10.0
290
     0
  0
SCALE
  5
4E
102
{ACAD_REACTORS
330
47
102
}
330
47
100
AcDbScale
 70
     0
300
1:16
140
1.0
141
16.0
290
     0
  0
SCALE
  5
4F
102
{ACAD_REACTORS
330
47
102
}
330
47
100
AcDbScale
 70
     0
300
1:20
140
1.0
141
20.0
290
     0
  0
SCALE
  5
50
102
{ACAD_REACTORS
330
47
102
}
330
47
100
AcDbScale
 70
     0
300
1:30
140
1.0
141
30.0
290
     0
  0
SCALE
  5
51
102
{ACAD_REACTORS
330
47
102
}
330
47
100
AcDbScale
 70
     0
300
1:40
140
1.0
141
40.0
290
     0
  0
SCALE
  5
52
102
{ACAD_REACTORS
330
47
102
}
330
47
100
AcDbScale
 70
     0
300
1:50
140
1.0
141
50.0
290
     0
  0
SCALE
  5
53
102
{ACAD_REACTORS
330
47
102
}
330
47
100
AcDbScale
 70
     0
300
1:100
140
1.0
141
100.0
290
     0
  0
SCALE
  5
54
102
{ACAD_REACTORS
330
47
102
}
330
47
100
AcDbScale
 70
     0
300
2:1
140
2.0
141
1.0
290
     0
  0
SCALE
  5
55
102
{ACAD_REACTORS
330
47
102
}
330
47
100
AcDbScale
 70
     0
300
4:1
140
4.0
141
1.0
290
     0
  0
SCALE
  5
56
102
{ACAD_REACTORS
330
47
102
}
330
47
100
AcDbScale
 70
     0
300
8:1
140
8.0
141
1.0
290
     0
  0
SCALE
  5
57
102
{ACAD_REACTORS
330
47
102
}
330
47
100
AcDbScale
 70
     0
300
10:1
140
10.0
141
1.0
290
     0
  0
SCALE
  5
58
102
{ACAD_REACTORS
330
47
102
}
330
47
100
AcDbScale
 70
     0
300
100:1
140
100.0
141
1.0
290
     0
  0
SCALE
  5
59
102
{ACAD_REACTORS
330
47
102
}
330
47
100
AcDbScale
 70
     0
300
1/128" = 1'-0"
140
0.0078125
141
12.0
290
     0
  0
SCALE
  5
5A
102
{ACAD_REACTORS
330
47
102
}
330
47
100
AcDbScale
 70
     0
300
1/64" = 1'-0"
140
0.015625
141
12.0
290
     0
  0
SCALE
  5
5B
102
{ACAD_REACTORS
330
47
102
}
330
47
100
AcDbScale
 70
     0
300
1/32" = 1'-0"
140
0.03125
141
12.0
290
     0
  0
SCALE
  5
5C
102
{ACAD_REACTORS
330
47
102
}
330
47
100
AcDbScale
 70
     0
300
1/16" = 1'-0"
140
0.0625
141
12.0
290
     0
  0
SCALE
  5
5D
102
{ACAD_REACTORS
330
47
102
}
330
47
100
AcDbScale
 70
     0
300
3/32" = 1'-0"
140
0.09375
141
12.0
290
     0
  0
SCALE
  5
5E
102
{ACAD_REACTORS
330
47
102
}
330
47
100
AcDbScale
 70
     0
300
1/8" = 1'-0"
140
0.125
141
12.0
290
     0
  0
SCALE
  5
5F
102
{ACAD_REACTORS
330
47
102
}
330
47
100
AcDbScale
 70
     0
300
3/16" = 1'-0"
140
0.1875
141
12.0
290
     0
  0
SCALE
  5
60
102
{ACAD_REACTORS
330
47
102
}
330
47
100
AcDbScale
 70
     0
300
1/4" = 1'-0"
140
0.25
141
12.0
290
     0
  0
SCALE
  5
61
102
{ACAD_REACTORS
330
47
102
}
330
47
100
AcDbScale
 70
     0
300
3/8" = 1'-0"
140
0.375
141
12.0
290
     0
  0
SCALE
  5
62
102
{ACAD_REACTORS
330
47
102
}
330
47
100
AcDbScale
 70
     0
300
1/2" = 1'-0"
140
0.5
141
12.0
290
     0
  0
SCALE
  5
63
102
{ACAD_REACTORS
330
47
102
}
330
47
100
AcDbScale
 70
     0
300
3/4" = 1'-0"
140
0.75
141
12.0
290
     0
  0
SCALE
  5
64
102
{ACAD_REACTORS
330
47
102
}
330
47
100
AcDbScale
 70
     0
300
1" = 1'-0"
140
1.0
141
12.0
290
     0
  0
SCALE
  5
65
102
{ACAD_REACTORS
330
47
102
}
330
47
100
AcDbScale
 70
     0
300
1-1/2" = 1'-0"
140
1.5
141
12.0
290
     0
  0
SCALE
  5
66
102
{ACAD_REACTORS
330
47
102
}
330
47
100
AcDbScale
 70
     0
300
3" = 1'-0"
140
3.0
141
12.0
290
     0
  0
SCALE
  5
67
102
{ACAD_REACTORS
330
47
102
}
330
47
100
AcDbScale
 70
     0
300
6" = 1'-0"
140
6.0
141
12.0
290
     0
  0
SCALE
  5
68
102
{ACAD_REACTORS
330
47
102
}
330
47
100
AcDbScale
 70
     0
300
1'-0" = 1'-0"
140
12.0
141
12.0
290
     0
  0
ENDSEC
  0
EOF
