  0
SECTION
  2
HEADER
  9
$ACADVER
  1
AC1015
  9
$ACADMAINTVER
 70
     6
  9
$DWGCODEPAGE
  3
ANSI_949
  9
$INSBASE
 10
0.0
 20
0.0
 30
0.0
  9
$EXTMIN
 10
-63.72145802161211
 20
-49.97180738881174
 30
0.0
  9
$EXTMAX
 10
47.5569824987451
 20
50.73332450504429
 30
0.0
  9
$LIMMIN
 10
0.0
 20
0.0
  9
$LIMMAX
 10
420.0
 20
297.0
  9
$ORTHOMODE
 70
     0
  9
$REGENMODE
 70
     1
  9
$FILLMODE
 70
     1
  9
$QTEXTMODE
 70
     0
  9
$MIRRTEXT
 70
     1
  9
$LTSCALE
 40
1.0
  9
$ATTMODE
 70
     1
  9
$TEXTSIZE
 40
3.5
  9
$TRACEWID
 40
1.0
  9
$TEXTSTYLE
  7
Standard
  9
$CLAYER
  8
0
  9
$CELTYPE
  6
ByLayer
  9
$CECOLOR
 62
   256
  9
$CELTSCALE
 40
1.0
  9
$DISPSILH
 70
     0
  9
$DIMSCALE
 40
1.0
  9
$DIMASZ
 40
3.302
  9
$DIMEXO
 40
1.0
  9
$DIMDLI
 40
3.75
  9
$DIMRND
 40
0.0
  9
$DIMDLE
 40
0.0
  9
$DIMEXE
 40
1.0
  9
$DIMTP
 40
0.0
  9
$DIMTM
 40
0.0
  9
$DIMTXT
 40
3.5
  9
$DIMCEN
 40
2.5
  9
$DIMTSZ
 40
0.0
  9
$DIMTOL
 70
     0
  9
$DIMLIM
 70
     0
  9
$DIMTIH
 70
     1
  9
$DIMTOH
 70
     1
  9
$DIMSE1
 70
     0
  9
$DIMSE2
 70
     0
  9
$DIMTAD
 70
     1
  9
$DIMZIN
 70
     0
  9
$DIMBLK
  1

  9
$DIMASO
 70
     1
  9
$DIMSHO
 70
     1
  9
$DIMPOST
  1

  9
$DIMAPOST
  1

  9
$DIMALT
 70
     0
  9
$DIMALTD
 70
     3
  9
$DIMALTF
 40
0.0393700787401575
  9
$DIMLFAC
 40
1.0
  9
$DIMTOFL
 70
     1
  9
$DIMTVP
 40
0.0
  9
$DIMTIX
 70
     0
  9
$DIMSOXD
 70
     0
  9
$DIMSAH
 70
     0
  9
$DIMBLK1
  1

  9
$DIMBLK2
  1

  9
$DIMSTYLE
  2
ISO-25
  9
$DIMCLRD
 70
     0
  9
$DIMCLRE
 70
     0
  9
$DIMCLRT
 70
     0
  9
$DIMTFAC
 40
1.0
  9
$DIMGAP
 40
1.524
  9
$DIMJUST
 70
     0
  9
$DIMSD1
 70
     0
  9
$DIMSD2
 70
     0
  9
$DIMTOLJ
 70
     0
  9
$DIMTZIN
 70
     0
  9
$DIMALTZ
 70
     0
  9
$DIMALTTZ
 70
     0
  9
$DIMUPT
 70
     0
  9
$DIMDEC
 70
     2
  9
$DIMTDEC
 70
     2
  9
$DIMALTU
 70
     2
  9
$DIMALTTD
 70
     3
  9
$DIMTXSTY
  7
Standard
  9
$DIMAUNIT
 70
     0
  9
$DIMADEC
 70
     2
  9
$DIMALTRND
 40
0.0
  9
$DIMAZIN
 70
     0
  9
$DIMDSEP
 70
    44
  9
$DIMATFIT
 70
     3
  9
$DIMFRAC
 70
     0
  9
$DIMLDRBLK
  1

  9
$DIMLUNIT
 70
     2
  9
$DIMLWD
 70
    -2
  9
$DIMLWE
 70
    -2
  9
$DIMTMOVE
 70
     0
  9
$LUNITS
 70
     2
  9
$LUPREC
 70
     2
  9
$SKETCHINC
 40
1.0
  9
$FILLETRAD
 40
10.0
  9
$AUNITS
 70
     0
  9
$AUPREC
 70
     2
  9
$MENU
  1
.
  9
$ELEVATION
 40
0.0
  9
$PELEVATION
 40
0.0
  9
$THICKNESS
 40
0.0
  9
$LIMCHECK
 70
     0
  9
$CHAMFERA
 40
0.0
  9
$CHAMFERB
 40
0.0
  9
$CHAMFERC
 40
0.0
  9
$CHAMFERD
 40
0.0
  9
$SKPOLY
 70
     0
  9
$TDCREATE
 40
2458263.809652338
  9
$TDUCREATE
 40
2458263.434652338
  9
$TDUPDATE
 40
2459577.345635116
  9
$TDUUPDATE
 40
2459576.970635116
  9
$TDINDWG
 40
0.0017494097
  9
$TDUSRTIMER
 40
0.0007582407
  9
$USRTIMER
 70
     1
  9
$ANGBASE
 50
0.0
  9
$ANGDIR
 70
     0
  9
$PDMODE
 70
     0
  9
$PDSIZE
 40
-1.0
  9
$PLINEWID
 40
0.0
  9
$SPLFRAME
 70
     0
  9
$SPLINETYPE
 70
     6
  9
$SPLINESEGS
 70
     8
  9
$HANDSEED
  5
309
  9
$SURFTAB1
 70
     6
  9
$SURFTAB2
 70
     6
  9
$SURFTYPE
 70
     6
  9
$SURFU
 70
     6
  9
$SURFV
 70
     6
  9
$UCSBASE
  2

  9
$UCSNAME
  2

  9
$UCSORG
 10
0.0
 20
0.0
 30
0.0
  9
$UCSXDIR
 10
1.0
 20
0.0
 30
0.0
  9
$UCSYDIR
 10
0.0
 20
1.0
 30
0.0
  9
$UCSORTHOREF
  2

  9
$UCSORTHOVIEW
 70
     0
  9
$UCSORGTOP
 10
0.0
 20
0.0
 30
0.0
  9
$UCSORGBOTTOM
 10
0.0
 20
0.0
 30
0.0
  9
$UCSORGLEFT
 10
0.0
 20
0.0
 30
0.0
  9
$UCSORGRIGHT
 10
0.0
 20
0.0
 30
0.0
  9
$UCSORGFRONT
 10
0.0
 20
0.0
 30
0.0
  9
$UCSORGBACK
 10
0.0
 20
0.0
 30
0.0
  9
$PUCSBASE
  2

  9
$PUCSNAME
  2

  9
$PUCSORG
 10
0.0
 20
0.0
 30
0.0
  9
$PUCSXDIR
 10
1.0
 20
0.0
 30
0.0
  9
$PUCSYDIR
 10
0.0
 20
1.0
 30
0.0
  9
$PUCSORTHOREF
  2

  9
$PUCSORTHOVIEW
 70
     0
  9
$PUCSORGTOP
 10
0.0
 20
0.0
 30
0.0
  9
$PUCSORGBOTTOM
 10
0.0
 20
0.0
 30
0.0
  9
$PUCSORGLEFT
 10
0.0
 20
0.0
 30
0.0
  9
$PUCSORGRIGHT
 10
0.0
 20
0.0
 30
0.0
  9
$PUCSORGFRONT
 10
0.0
 20
0.0
 30
0.0
  9
$PUCSORGBACK
 10
0.0
 20
0.0
 30
0.0
  9
$USERI1
 70
     0
  9
$USERI2
 70
     0
  9
$USERI3
 70
     0
  9
$USERI4
 70
     0
  9
$USERI5
 70
     0
  9
$USERR1
 40
0.0
  9
$USERR2
 40
0.0
  9
$USERR3
 40
0.0
  9
$USERR4
 40
0.0
  9
$USERR5
 40
0.0
  9
$WORLDVIEW
 70
     1
  9
$SHADEDGE
 70
     3
  9
$SHADEDIF
 70
    70
  9
$TILEMODE
 70
     1
  9
$MAXACTVP
 70
    64
  9
$PINSBASE
 10
0.0
 20
0.0
 30
0.0
  9
$PLIMCHECK
 70
     0
  9
$PEXTMIN
 10
1.000000000000000E+20
 20
1.000000000000000E+20
 30
1.000000000000000E+20
  9
$PEXTMAX
 10
-1.000000000000000E+20
 20
-1.000000000000000E+20
 30
-1.000000000000000E+20
  9
$PLIMMIN
 10
0.0
 20
0.0
  9
$PLIMMAX
 10
0.0
 20
0.0
  9
$UNITMODE
 70
     0
  9
$VISRETAIN
 70
     1
  9
$PLINEGEN
 70
     0
  9
$PSLTSCALE
 70
     1
  9
$TREEDEPTH
 70
  3020
  9
$CMLSTYLE
  2
Standard
  9
$CMLJUST
 70
     0
  9
$CMLSCALE
 40
20.0
  9
$PROXYGRAPHICS
 70
     1
  9
$MEASUREMENT
 70
     1
  9
$CELWEIGHT
370
    -1
  9
$ENDCAPS
280
     0
  9
$JOINSTYLE
280
     0
  9
$LWDISPLAY
290
     1
  9
$INSUNITS
 70
     4
  9
$HYPERLINKBASE
  1

  9
$STYLESHEET
  1

  9
$XEDIT
290
     1
  9
$CEPSNTYPE
380
     0
  9
$PSTYLEMODE
290
     1
  9
$FINGERPRINTGUID
  2
{72662FC0-11B5-4590-8D37-B6D97EF6D544}
  9
$VERSIONGUID
  2
{FAEB1C32-E019-11D5-929B-00C0DF256EC4}
  9
$EXTNAMES
290
     1
  9
$PSVPSCALE
 40
0.0
  9
$OLESTARTUP
290
     0
  0
ENDSEC
  0
SECTION
  2
CLASSES
  0
CLASS
  1
ACDBDICTIONARYWDFLT
  2
AcDbDictionaryWithDefault
  3
ObjectDBX Classes
 90
        0
280
     0
281
     0
  0
CLASS
  1
VISUALSTYLE
  2
AcDbVisualStyle
  3
ObjectDBX Classes
 90
     4095
280
     0
281
     0
  0
CLASS
  1
MATERIAL
  2
AcDbMaterial
  3
ObjectDBX Classes
 90
     1153
280
     0
281
     0
  0
CLASS
  1
SCALE
  2
AcDbScale
  3
ObjectDBX Classes
 90
     1153
280
     0
281
     0
  0
CLASS
  1
TABLESTYLE
  2
AcDbTableStyle
  3
ObjectDBX Classes
 90
     4095
280
     0
281
     0
  0
CLASS
  1
MLEADERSTYLE
  2
AcDbMLeaderStyle
  3
ACDB_MLEADERSTYLE_CLASS
 90
     4095
280
     0
281
     0
  0
CLASS
  1
SUN
  2
AcDbSun
  3
SCENEOE
 90
     1153
280
     0
281
     0
  0
CLASS
  1
ACDBPLACEHOLDER
  2
AcDbPlaceHolder
  3
ObjectDBX Classes
 90
        0
280
     0
281
     0
  0
CLASS
  1
LAYOUT
  2
AcDbLayout
  3
ObjectDBX Classes
 90
        0
280
     0
281
     0
  0
CLASS
  1
RASTERVARIABLES
  2
AcDbRasterVariables
  3
ISM
 90
        0
280
     0
281
     0
  0
CLASS
  1
DIMASSOC
  2
AcDbDimAssoc
  3
"AcDbDimAssoc|Product Desc:     AcDim ARX App For Dimension|Company:          Autodesk, Inc.|WEB Address:      www.autodesk.com"
 90
        0
280
     0
281
     0
  0
ENDSEC
  0
SECTION
  2
TABLES
  0
TABLE
  2
VPORT
  5
8
330
0
100
AcDbSymbolTable
 70
     1
  0
VPORT
  5
29
330
8
100
AcDbSymbolTableRecord
100
AcDbViewportTableRecord
  2
*Active
 70
     0
 10
0.0
 20
0.0
 11
1.0
 21
1.0
 12
-8.082237761433504
 22
0.3807585581162769
 13
0.0
 23
0.0
 14
10.0
 24
10.0
 15
10.0
 25
10.0
 16
0.0
 26
0.0
 36
1.0
 17
0.0
 27
0.0
 37
0.0
 40
102.7192345317332
 41
2.070175438596491
 42
50.0
 43
0.0
 44
0.0
 50
0.0
 51
0.0
 71
    16
 72
  2000
 73
     1
 74
     3
 75
     0
 76
     0
 77
     0
 78
     0
281
     0
 65
     1
110
0.0
120
0.0
130
0.0
111
1.0
121
0.0
131
0.0
112
0.0
122
1.0
132
0.0
 79
     0
146
0.0
  0
ENDTAB
  0
TABLE
  2
LTYPE
  5
5
330
0
100
AcDbSymbolTable
 70
     6
  0
LTYPE
  5
14
330
5
100
AcDbSymbolTableRecord
100
AcDbLinetypeTableRecord
  2
ByBlock
 70
     0
  3

 72
    65
 73
     0
 40
0.0
  0
LTYPE
  5
15
330
5
100
AcDbSymbolTableRecord
100
AcDbLinetypeTableRecord
  2
ByLayer
 70
     0
  3

 72
    65
 73
     0
 40
0.0
  0
LTYPE
  5
16
330
5
100
AcDbSymbolTableRecord
100
AcDbLinetypeTableRecord
  2
Continuous
 70
     0
  3
Solid line
 72
    65
 73
     0
 40
0.0
  0
LTYPE
  5
6E
330
5
100
AcDbSymbolTableRecord
100
AcDbLinetypeTableRecord
  2
HIDDEN
 70
     0
  3
Hidden __ __ __ __ __ __ __ __ __ __ __ __ __ __
 72
    65
 73
     2
 40
1.905
 49
1.27
 74
     0
 49
-0.635
 74
     0
  0
LTYPE
  5
6F
330
5
100
AcDbSymbolTableRecord
100
AcDbLinetypeTableRecord
  2
PHANTOM
 70
     0
  3
Phantom ______  __  __  ______  __  __  ______
 72
    65
 73
     6
 40
12.7
 49
6.35
 74
     0
 49
-1.27
 74
     0
 49
1.27
 74
     0
 49
-1.27
 74
     0
 49
1.27
 74
     0
 49
-1.27
 74
     0
  0
LTYPE
  5
70
330
5
100
AcDbSymbolTableRecord
100
AcDbLinetypeTableRecord
  2
CENTER
 70
     0
  3
Center ____ _ ____ _ ____ _ ____ _ ____ _ ____
 72
    65
 73
     4
 40
10.16
 49
6.35
 74
     0
 49
-1.27
 74
     0
 49
1.27
 74
     0
 49
-1.27
 74
     0
  0
LTYPE
  5
71
330
5
100
AcDbSymbolTableRecord
100
AcDbLinetypeTableRecord
  2
CENTERX2
 70
     0
  3
Center (2x) ________  __  ________  __  _____
 72
    65
 73
     4
 40
20.32
 49
12.7
 74
     0
 49
-2.54
 74
     0
 49
2.54
 74
     0
 49
-2.54
 74
     0
  0
LTYPE
  5
72
330
5
100
AcDbSymbolTableRecord
100
AcDbLinetypeTableRecord
  2
DOT2
 70
     0
  3
Dot (.5x) ........................................
 72
    65
 73
     2
 40
0.635
 49
0.0
 74
     0
 49
-0.635
 74
     0
  0
ENDTAB
  0
TABLE
  2
LAYER
  5
2
330
0
100
AcDbSymbolTable
 70
    17
  0
LAYER
  5
10
330
2
100
AcDbSymbolTableRecord
100
AcDbLayerTableRecord
  2
0
 70
     0
 62
     7
  6
Continuous
370
    -3
390
F
  0
LAYER
  5
73
330
2
100
AcDbSymbolTableRecord
100
AcDbLayerTableRecord
  2
FORMAT
 70
     0
 62
     2
  6
Continuous
370
    -3
390
F
  0
LAYER
  5
74
330
2
100
AcDbSymbolTableRecord
100
AcDbLayerTableRecord
  2
외형선
 70
     0
 62
   100
  6
Continuous
370
    35
390
F
  0
LAYER
  5
75
330
2
100
AcDbSymbolTableRecord
100
AcDbLayerTableRecord
  2
숨은선
 70
     0
 62
     2
  6
HIDDEN
370
    25
390
F
  0
LAYER
  5
76
330
2
100
AcDbSymbolTableRecord
100
AcDbLayerTableRecord
  2
중심선
 70
     0
 62
     1
  6
CENTERX2
370
    -3
390
F
  0
LAYER
  5
77
330
2
100
AcDbSymbolTableRecord
100
AcDbLayerTableRecord
  2
파단선
 70
     0
 62
     4
  6
Continuous
370
    -3
390
F
  0
LAYER
  5
78
330
2
100
AcDbSymbolTableRecord
100
AcDbLayerTableRecord
  2
해칭선
 70
     0
 62
     4
  6
Continuous
370
    -3
390
F
  0
LAYER
  5
79
330
2
100
AcDbSymbolTableRecord
100
AcDbLayerTableRecord
  2
가는실선
 70
     0
 62
     4
  6
Continuous
370
    -3
390
F
  0
LAYER
  5
7A
330
2
100
AcDbSymbolTableRecord
100
AcDbLayerTableRecord
  2
치수_보조선
 70
     0
 62
     4
  6
Continuous
370
    -3
390
F
  0
LAYER
  5
7B
330
2
100
AcDbSymbolTableRecord
100
AcDbLayerTableRecord
  2
치수문자_일반주서
 70
     0
 62
     7
  6
Continuous
370
    25
390
F
  0
LAYER
  5
7C
330
2
100
AcDbSymbolTableRecord
100
AcDbLayerTableRecord
  2
개별주서
 70
     0
 62
   100
  6
Continuous
370
    35
390
F
  0
LAYER
  5
7D
330
2
100
AcDbSymbolTableRecord
100
AcDbLayerTableRecord
  2
중간선
 70
     0
 62
     2
  6
Continuous
370
    25
390
F
  0
LAYER
  5
7E
330
2
100
AcDbSymbolTableRecord
100
AcDbLayerTableRecord
  2
윤곽선
 70
     0
 62
     3
  6
Continuous
370
    50
390
F
  0
LAYER
  5
7F
330
2
100
AcDbSymbolTableRecord
100
AcDbLayerTableRecord
  2
중심마크
 70
     0
 62
   100
  6
Continuous
370
    35
390
F
  0
LAYER
  5
80
330
2
100
AcDbSymbolTableRecord
100
AcDbLayerTableRecord
  2
가상선
 70
     0
 62
     4
  6
PHANTOM
370
    -3
390
F
  0
LAYER
  5
81
330
2
100
AcDbSymbolTableRecord
100
AcDbLayerTableRecord
  2
특수지정선
 70
     0
 62
     5
  6
CENTERX2
370
    70
390
F
  0
LAYER
  5
13B
330
2
100
AcDbSymbolTableRecord
100
AcDbLayerTableRecord
  2
Defpoints
 70
     0
 62
     7
  6
Continuous
290
     0
370
    -3
390
F
  0
ENDTAB
  0
TABLE
  2
STYLE
  5
3
330
0
100
AcDbSymbolTable
 70
     2
  0
STYLE
  5
11
330
3
100
AcDbSymbolTableRecord
100
AcDbTextStyleTableRecord
  2
Standard
 70
     0
 40
0.0
 41
1.0
 50
0.0
 71
     0
 42
3.5
  3
txt
  4

  0
STYLE
  5
97
330
3
100
AcDbSymbolTableRecord
100
AcDbTextStyleTableRecord
  2
SLDTEXTSTYLE0
 70
     0
 40
0.0
 41
0.75
 50
0.0
 71
     0
 42
3.5
  3
TXT
  4

  0
ENDTAB
  0
TABLE
  2
VIEW
  5
6
330
0
100
AcDbSymbolTable
 70
     0
  0
ENDTAB
  0
TABLE
  2
UCS
  5
7
330
0
100
AcDbSymbolTable
 70
     0
  0
ENDTAB
  0
TABLE
  2
APPID
  5
9
330
0
100
AcDbSymbolTable
 70
     3
  0
APPID
  5
12
330
9
100
AcDbSymbolTableRecord
100
AcDbRegAppTableRecord
  2
ACAD
 70
     0
  0
APPID
  5
147
330
9
100
AcDbSymbolTableRecord
100
AcDbRegAppTableRecord
  2
ACAD_DSTYLE_DIMRADIAL_EXTENSION
 70
     0
  0
APPID
  5
307
330
9
100
AcDbSymbolTableRecord
100
AcDbRegAppTableRecord
  2
PE_URL
 70
     0
  0
ENDTAB
  0
TABLE
  2
DIMSTYLE
  5
A
330
0
100
AcDbSymbolTable
 70
     3
100
AcDbDimStyleTable
  0
DIMSTYLE
105
27
330
A
100
AcDbSymbolTableRecord
100
AcDbDimStyleTableRecord
  2
ISO-25
 70
     0
 41
2.5
 42
0.625
 43
3.75
 44
1.25
 73
     0
 74
     0
 77
     1
 78
     8
140
2.5
141
2.5
143
0.03937007874016
147
0.625
171
     3
172
     1
178
     0
271
     2
272
     2
274
     3
278
    44
283
     0
284
     8
340
11
  0
DIMSTYLE
105
D4
102
{ACAD_REACTORS
330
27F
330
282
102
}
330
A
100
AcDbSymbolTableRecord
100
AcDbDimStyleTableRecord
  2
SLDDIMSTYLE0
 70
     0
 41
3.302
 44
0.0
 45
0.000000001
 73
     0
 74
     0
 77
     1
 78
    12
 79
     3
140
3.5
147
0.875
172
     1
173
     1
178
     0
271
     2
272
     2
276
     2
284
    12
289
     0
340
97
  0
DIMSTYLE
105
E2
102
{ACAD_REACTORS
330
280
330
281
330
283
330
2D5
102
}
330
A
100
AcDbSymbolTableRecord
100
AcDbDimStyleTableRecord
  2
SLDDIMSTYLE1
 70
     0
 41
3.302
 44
0.0
 45
0.000000001
 73
     0
 74
     0
 77
     1
 78
    12
 79
     3
140
3.5
147
0.875
173
     1
178
     0
271
     2
272
     2
276
     2
284
    12
340
97
  0
ENDTAB
  0
TABLE
  2
BLOCK_RECORD
  5
1
330
0
100
AcDbSymbolTable
 70
    21
  0
BLOCK_RECORD
  5
1F
330
1
100
AcDbSymbolTableRecord
100
AcDbBlockTableRecord
  2
*Model_Space
340
22
  0
BLOCK_RECORD
  5
1B
330
1
100
AcDbSymbolTableRecord
100
AcDbBlockTableRecord
  2
*Paper_Space
340
1E
  0
BLOCK_RECORD
  5
23
330
1
100
AcDbSymbolTableRecord
100
AcDbBlockTableRecord
  2
*Paper_Space0
340
26
  0
BLOCK_RECORD
  5
82
330
1
100
AcDbSymbolTableRecord
100
AcDbBlockTableRecord
  2
블럭10
340
0
102
{BLKREFS
331
CC
331
278
102
}
  0
BLOCK_RECORD
  5
D5
330
1
100
AcDbSymbolTableRecord
100
AcDbBlockTableRecord
  2
_D
340
0
  0
BLOCK_RECORD
  5
E3
330
1
100
AcDbSymbolTableRecord
100
AcDbBlockTableRecord
  2
_D_1
340
0
  0
BLOCK_RECORD
  5
EE
330
1
100
AcDbSymbolTableRecord
100
AcDbBlockTableRecord
  2
_D_2
340
0
  0
BLOCK_RECORD
  5
F8
330
1
100
AcDbSymbolTableRecord
100
AcDbBlockTableRecord
  2
_D_3
340
0
  0
BLOCK_RECORD
  5
104
330
1
100
AcDbSymbolTableRecord
100
AcDbBlockTableRecord
  2
_D_4
340
0
  0
BLOCK_RECORD
  5
10F
330
1
100
AcDbSymbolTableRecord
100
AcDbBlockTableRecord
  2
SW_DOWELSYMBOL_0
340
0
102
{BLKREFS
331
284
102
}
  0
BLOCK_RECORD
  5
1FE
330
1
100
AcDbSymbolTableRecord
100
AcDbBlockTableRecord
  2
*D8
340
0
  0
BLOCK_RECORD
  5
20A
330
1
100
AcDbSymbolTableRecord
100
AcDbBlockTableRecord
  2
*D9
340
0
  0
BLOCK_RECORD
  5
216
330
1
100
AcDbSymbolTableRecord
100
AcDbBlockTableRecord
  2
*D10
340
0
  0
BLOCK_RECORD
  5
222
330
1
100
AcDbSymbolTableRecord
100
AcDbBlockTableRecord
  2
*D11
340
0
  0
BLOCK_RECORD
  5
22E
330
1
100
AcDbSymbolTableRecord
100
AcDbBlockTableRecord
  2
*D12
340
0
  0
BLOCK_RECORD
  5
23A
330
1
100
AcDbSymbolTableRecord
100
AcDbBlockTableRecord
  2
*D13
340
0
  0
BLOCK_RECORD
  5
28A
330
1
100
AcDbSymbolTableRecord
100
AcDbBlockTableRecord
  2
*D14
340
0
  0
BLOCK_RECORD
  5
296
330
1
100
AcDbSymbolTableRecord
100
AcDbBlockTableRecord
  2
*D15
340
0
  0
BLOCK_RECORD
  5
2A2
330
1
100
AcDbSymbolTableRecord
100
AcDbBlockTableRecord
  2
*D16
340
0
  0
BLOCK_RECORD
  5
2AE
330
1
100
AcDbSymbolTableRecord
100
AcDbBlockTableRecord
  2
*D17
340
0
  0
BLOCK_RECORD
  5
2BA
330
1
100
AcDbSymbolTableRecord
100
AcDbBlockTableRecord
  2
*D18
340
0
  0
BLOCK_RECORD
  5
2C6
330
1
100
AcDbSymbolTableRecord
100
AcDbBlockTableRecord
  2
*D19
340
0
  0
BLOCK_RECORD
  5
2D8
330
1
100
AcDbSymbolTableRecord
100
AcDbBlockTableRecord
  2
*D20
340
0
  0
ENDTAB
  0
ENDSEC
  0
SECTION
  2
BLOCKS
  0
BLOCK
  5
20
330
1F
100
AcDbEntity
  8
0
100
AcDbBlockBegin
  2
*Model_Space
 70
     0
 10
0.0
 20
0.0
 30
0.0
  3
*Model_Space
  1
*Model_Space
  0
ENDBLK
  5
21
330
1F
100
AcDbEntity
  8
0
100
AcDbBlockEnd
  0
BLOCK
  5
1C
330
1B
100
AcDbEntity
 67
     1
  8
0
100
AcDbBlockBegin
  2
*Paper_Space
 70
     0
 10
0.0
 20
0.0
 30
0.0
  3
*Paper_Space
  1
*Paper_Space
  0
ENDBLK
  5
1D
330
1B
100
AcDbEntity
 67
     1
  8
0
100
AcDbBlockEnd
  0
BLOCK
  5
24
330
23
100
AcDbEntity
  8
0
100
AcDbBlockBegin
  2
*Paper_Space0
 70
     0
 10
0.0
 20
0.0
 30
0.0
  3
*Paper_Space0
  1
*Paper_Space0
  0
ENDBLK
  5
25
330
23
100
AcDbEntity
  8
0
100
AcDbBlockEnd
  0
BLOCK
  5
83
330
82
100
AcDbEntity
  8
0
100
AcDbBlockBegin
  2
블럭10
 70
     2
 10
0.0
 20
0.0
 30
0.0
  3
블럭10
  1
블럭10
  0
ELLIPSE
  5
85
330
82
100
AcDbEntity
  8
중심선
100
AcDbEllipse
 10
20.54032771741204
 20
12.0471743016438
 30
0.0
 11
6.600054785286829
 21
-1.261213355974178E-13
 31
0.0
210
0.0
220
0.0
230
1.0
 40
0.636358354079598
 41
0.9219305317359503
 42
6.513795318482858
  0
ELLIPSE
  5
86
330
82
100
AcDbEntity
  8
중심선
100
AcDbEllipse
 10
20.54032771746488
 20
12.04717430159265
 30
0.0
 11
3.960054785062283
 21
1.540847449632565E-10
 31
0.0
210
0.0
220
0.0
230
1.0
 40
0.3939339440162632
 41
1.131841032648279
 42
5.62031148352944
  0
LINE
  5
87
330
82
100
AcDbEntity
  8
중심선
100
AcDbLine
 10
2.268634060543552
 20
16.24717430164393
 30
0.0
 11
5.714909304380834
 21
16.24717430164393
 31
0.0
  0
LINE
  5
88
330
82
100
AcDbEntity
  8
중심선
100
AcDbLine
 10
5.245725140726316
 20
7.84717430164391
 30
0.0
 11
8.692000384563599
 21
7.84717430164391
 31
0.0
  0
LINE
  5
89
330
82
100
AcDbEntity
  8
중심선
100
AcDbLine
 10
15.74043728645272
 20
16.24717430164393
 30
0.0
 11
8.692000384563599
 21
7.84717430164391
 31
0.0
  0
LINE
  5
8A
330
82
100
AcDbEntity
  8
중심선
100
AcDbLine
 10
0.1404042013395286
 20
13.71084872107135
 30
0.0
 11
3.58671253028996
 21
13.71088815037384
 31
0.0
  0
LINE
  5
8B
330
82
100
AcDbEntity
  8
중심선
100
AcDbLine
 10
2.750260043222114
 20
10.84717430164391
 30
0.0
 11
6.196535287059397
 21
10.84717430164391
 31
0.0
  0
LINE
  5
8C
330
82
100
AcDbEntity
  8
중심선
100
AcDbLine
 10
12.29416204261559
 20
16.24717430164393
 30
0.0
 11
5.245725140726316
 21
7.84717430164391
 31
0.0
  0
LINE
  5
8D
330
82
100
AcDbEntity
  8
중심선
100
AcDbLine
 10
10.72767329541681
 20
16.24717430164393
 30
0.0
 11
6.196535287059397
 21
10.84717430164391
 31
0.0
  0
LINE
  5
8E
330
82
100
AcDbEntity
  8
중심선
100
AcDbLine
 10
7.28139805157953
 20
16.24717430164393
 30
0.0
 11
2.750260043222114
 21
10.84717430164391
 31
0.0
  0
LINE
  5
8F
330
82
100
AcDbEntity
  8
중심선
100
AcDbLine
 10
5.714909304380834
 20
16.24717430164393
 30
0.0
 11
3.58671253028996
 21
13.71088815037384
 31
0.0
  0
LINE
  5
90
330
82
100
AcDbEntity
  8
중심선
100
AcDbLine
 10
2.268634060543552
 20
16.24717430164393
 30
0.0
 11
0.1404042013395286
 21
13.71084872107135
 31
0.0
  0
LINE
  5
91
330
82
100
AcDbEntity
  8
중심선
100
AcDbLine
 10
7.28139805157953
 20
16.24717430164393
 30
0.0
 11
10.72767329541681
 21
16.24717430164393
 31
0.0
  0
LINE
  5
92
330
82
100
AcDbEntity
  8
중심선
100
AcDbLine
 10
12.29416204261559
 20
16.24717430164393
 30
0.0
 11
15.74043728645272
 21
16.24717430164393
 31
0.0
  0
LINE
  5
93
330
82
100
AcDbEntity
  8
중심선
100
AcDbLine
 10
19.22036997980202
 20
11.08717430171403
 30
0.0
 11
23.66174974927406
 21
11.08717430171406
 31
0.0
  0
LINE
  5
94
330
82
100
AcDbEntity
  8
중심선
100
AcDbLine
 10
19.22039502424796
 20
13.00717430171391
 30
0.0
 11
19.22036997980202
 21
11.08717430171403
 31
0.0
  0
LINE
  5
95
330
82
100
AcDbEntity
  8
중심선
100
AcDbLine
 10
19.22039502424796
 20
13.00717430171391
 30
0.0
 11
26.96566020931264
 21
13.00717430171391
 31
0.0
  0
LINE
  5
96
330
82
100
AcDbEntity
  8
중심선
100
AcDbLine
 10
22.22332737316547
 20
13.45928029700563
 30
0.0
 11
24.52862924686651
 21
15.39360700705356
 31
0.0
  0
ATTDEF
  5
98
330
82
100
AcDbEntity
  8
FORMAT
 62
     2
100
AcDbText
 10
-16.11926103943555
 20
2.075366912832191
 30
0.0
 40
4.233333333333333
  1
SEME6112003E [ 2 FLUTE ]
 41
0.75
  7
SLDTEXTSTYLE0
 11
-16.11926103943555
 21
-0.0412997538344756
 31
0.0
100
AcDbAttributeDefinition
  3

  2
AUTOATTR0
 70
     0
 74
     1
  0
ENDBLK
  5
84
330
82
100
AcDbEntity
  8
0
100
AcDbBlockEnd
  0
BLOCK
  5
D6
330
D5
100
AcDbEntity
  8
0
100
AcDbBlockBegin
  2
_D
 70
     0
 10
0.0
 20
0.0
 30
0.0
  3
_D
  1
_D
  0
SOLID
  5
D8
330
D5
100
AcDbEntity
  8
치수문자_일반주서
100
AcDbTrace
 10
-49.00250885508847
 20
6.001074928723888
 30
0.0
 11
-48.49450885508847
 21
9.303074928723888
 31
0.0
 12
-49.51050885508847
 22
9.303074928723888
 32
0.0
 13
-49.51050885508847
 23
9.303074928723888
 33
0.0
  0
SOLID
  5
D9
330
D5
100
AcDbEntity
  8
치수문자_일반주서
100
AcDbTrace
 10
-49.00250885508847
 20
-5.998925071276107
 30
0.0
 11
-49.51050885508847
 21
-9.300925071276106
 31
0.0
 12
-48.49450885508847
 22
-9.300925071276106
 32
0.0
 13
-48.49450885508847
 23
-9.300925071276106
 33
0.0
  0
LINE
  5
DA
330
D5
100
AcDbEntity
  8
치수문자_일반주서
100
AcDbLine
 10
-37.50605083347639
 20
6.001074928723888
 30
0.0
 11
-50.00250885508847
 21
6.001074928723888
 31
0.0
  0
LINE
  5
DB
330
D5
100
AcDbEntity
  8
치수문자_일반주서
100
AcDbLine
 10
-37.50605083347639
 20
-5.998925071276107
 30
0.0
 11
-50.00250885508847
 21
-5.998925071276107
 31
0.0
  0
LINE
  5
DC
330
D5
100
AcDbEntity
  8
치수문자_일반주서
100
AcDbLine
 10
-49.00250885508847
 20
6.001074928723888
 30
0.0
 11
-49.00250885508847
 21
12.35107492872389
 31
0.0
  0
LINE
  5
DD
330
D5
100
AcDbEntity
  8
치수문자_일반주서
100
AcDbLine
 10
-49.00250885508847
 20
6.001074928723888
 30
0.0
 11
-49.00250885508847
 21
-5.998925071276107
 31
0.0
  0
LINE
  5
DE
330
D5
100
AcDbEntity
  8
치수문자_일반주서
100
AcDbLine
 10
-49.00250885508847
 20
-5.998925071276107
 30
0.0
 11
-49.00250885508847
 21
-12.34892507127611
 31
0.0
  0
MTEXT
  5
DF
330
D5
100
AcDbEntity
  8
치수문자_일반주서
100
AcDbMText
 10
-53.51424594429032
 20
-5.224255196816636
 30
0.0
 40
3.5
 41
0.0
 71
     1
 72
     1
  1
%%c
  7
SLDTEXTSTYLE0
 11
-7.044195017643634E-15
 21
1.0
 31
0.0
 73
     1
 44
1.0
  0
MTEXT
  5
E0
330
D5
100
AcDbEntity
  8
치수문자_일반주서
100
AcDbMText
 10
-53.5677181209502
 20
0.0541822015574444
 30
0.0
 40
3.5
 41
0.0
 71
     1
 72
     1
  1
12
  7
SLDTEXTSTYLE0
 11
-7.044195017643634E-15
 21
1.0
 31
0.0
 73
     1
 44
1.0
  0
ENDBLK
  5
D7
330
D5
100
AcDbEntity
  8
0
100
AcDbBlockEnd
  0
BLOCK
  5
E4
330
E3
100
AcDbEntity
  8
0
100
AcDbBlockBegin
  2
_D_1
 70
     0
 10
0.0
 20
0.0
 30
0.0
  3
_D_1
  1
_D_1
  0
SOLID
  5
E6
330
E3
100
AcDbEntity
  8
치수문자_일반주서
100
AcDbTrace
 10
42.49394916652362
 20
24.20107492872355
 30
0.0
 11
39.19194916652362
 21
24.70907492872355
 31
0.0
 12
39.19194916652362
 22
23.69307492872355
 32
0.0
 13
39.19194916652362
 23
23.69307492872355
 33
0.0
  0
SOLID
  5
E7
330
E3
100
AcDbEntity
  8
치수문자_일반주서
100
AcDbTrace
 10
24.49394916652362
 20
24.20107492872354
 30
0.0
 11
27.79594916652362
 21
23.69307492872354
 31
0.0
 12
27.79594916652362
 22
24.70907492872354
 32
0.0
 13
27.79594916652362
 23
24.70907492872354
 33
0.0
  0
LINE
  5
E8
330
E3
100
AcDbEntity
  8
치수문자_일반주서
100
AcDbLine
 10
42.49394916652362
 20
6.701074928723895
 30
0.0
 11
42.49394916652362
 21
25.20107492872355
 31
0.0
  0
LINE
  5
E9
330
E3
100
AcDbEntity
  8
치수문자_일반주서
100
AcDbLine
 10
24.49394916652362
 20
5.745576609624538
 30
0.0
 11
24.49394916652362
 21
25.20107492872354
 31
0.0
  0
LINE
  5
EA
330
E3
100
AcDbEntity
  8
치수문자_일반주서
100
AcDbLine
 10
42.49394916652362
 20
24.20107492872355
 30
0.0
 11
64.76831319529828
 21
24.20107492872355
 31
0.0
  0
LINE
  5
EB
330
E3
100
AcDbEntity
  8
치수문자_일반주서
100
AcDbLine
 10
42.49394916652362
 20
24.20107492872355
 30
0.0
 11
24.49394916652362
 21
24.20107492872354
 31
0.0
  0
MTEXT
  5
EC
330
E3
100
AcDbEntity
  8
치수문자_일반주서
100
AcDbMText
 10
59.59609080825265
 20
28.71281184330244
 30
0.0
 40
3.5
 41
0.0
 71
     1
 72
     1
  1
18
  7
SLDTEXTSTYLE0
 73
     1
 44
1.0
  0
ENDBLK
  5
E5
330
E3
100
AcDbEntity
  8
0
100
AcDbBlockEnd
  0
BLOCK
  5
EF
330
EE
100
AcDbEntity
  8
0
100
AcDbBlockBegin
  2
_D_2
 70
     0
 10
0.0
 20
0.0
 30
0.0
  3
_D_2
  1
_D_2
  0
SOLID
  5
F1
330
EE
100
AcDbEntity
  8
치수문자_일반주서
100
AcDbTrace
 10
42.49394916652362
 20
46.25939943376818
 30
0.0
 11
39.19194916652362
 21
46.76739943376818
 31
0.0
 12
39.19194916652362
 22
45.75139943376818
 32
0.0
 13
39.19194916652362
 23
45.75139943376818
 33
0.0
  0
SOLID
  5
F2
330
EE
100
AcDbEntity
  8
치수문자_일반주서
100
AcDbTrace
 10
-37.50605083347639
 20
46.25939943376818
 30
0.0
 11
-34.20405083347639
 21
45.75139943376818
 31
0.0
 12
-34.20405083347639
 22
46.76739943376818
 32
0.0
 13
-34.20405083347639
 23
46.76739943376818
 33
0.0
  0
LINE
  5
F3
330
EE
100
AcDbEntity
  8
치수문자_일반주서
100
AcDbLine
 10
42.49394916652362
 20
6.701074928723895
 30
0.0
 11
42.49394916652362
 21
47.25939943376818
 31
0.0
  0
LINE
  5
F4
330
EE
100
AcDbEntity
  8
치수문자_일반주서
100
AcDbLine
 10
-37.50605083347639
 20
6.001074928723885
 30
0.0
 11
-37.50605083347639
 21
47.25939943376818
 31
0.0
  0
LINE
  5
F5
330
EE
100
AcDbEntity
  8
치수문자_일반주서
100
AcDbLine
 10
42.49394916652362
 20
46.25939943376818
 30
0.0
 11
-37.50605083347639
 21
46.25939943376818
 31
0.0
  0
MTEXT
  5
F6
330
EE
100
AcDbEntity
  8
치수문자_일반주서
100
AcDbMText
 10
-0.0921620269992018
 20
50.77113634834708
 30
0.0
 40
3.5
 41
0.0
 71
     1
 72
     1
  1
80
  7
SLDTEXTSTYLE0
 73
     1
 44
1.0
  0
ENDBLK
  5
F0
330
EE
100
AcDbEntity
  8
0
100
AcDbBlockEnd
  0
BLOCK
  5
F9
330
F8
100
AcDbEntity
  8
0
100
AcDbBlockBegin
  2
_D_3
 70
     0
 10
0.0
 20
0.0
 30
0.0
  3
_D_3
  1
_D_3
  0
SOLID
  5
FB
330
F8
100
AcDbEntity
  8
치수문자_일반주서
100
AcDbTrace
 10
14.49394916652476
 20
30.32107492872395
 30
0.0
 11
17.79594916652475
 21
29.81307492872382
 31
0.0
 12
17.79594916652478
 22
30.82907492872382
 32
0.0
 13
17.79594916652478
 23
30.82907492872382
 33
0.0
  0
SOLID
  5
FC
330
F8
100
AcDbEntity
  8
치수문자_일반주서
100
AcDbTrace
 10
10.2140453559571
 20
30.32107492872411
 30
0.0
 11
6.912045355957115
 21
30.82907492872424
 31
0.0
 12
6.912045355957076
 22
29.81307492872424
 32
0.0
 13
6.912045355957076
 23
29.81307492872424
 33
0.0
  0
LINE
  5
FD
330
F8
100
AcDbEntity
  8
치수문자_일반주서
100
AcDbLine
 10
14.49394916652365
 20
1.401074928723893
 30
0.0
 11
14.4939491665248
 21
31.32107492872394
 31
0.0
  0
LINE
  5
FE
330
F8
100
AcDbEntity
  8
치수문자_일반주서
100
AcDbLine
 10
10.21404535595599
 20
1.551074928723894
 30
0.0
 11
10.21404535595713
 21
31.32107492872411
 31
0.0
  0
LINE
  5
FF
330
F8
100
AcDbEntity
  8
치수문자_일반주서
100
AcDbLine
 10
14.49394916652476
 20
30.32107492872395
 30
0.0
 11
55.42440269528608
 21
30.32107492872239
 31
0.0
  0
LINE
  5
100
330
F8
100
AcDbEntity
  8
치수문자_일반주서
100
AcDbLine
 10
14.49394916652476
 20
30.32107492872395
 30
0.0
 11
10.2140453559571
 21
30.32107492872411
 31
0.0
  0
LINE
  5
101
330
F8
100
AcDbEntity
  8
치수문자_일반주서
100
AcDbLine
 10
10.2140453559571
 20
30.32107492872411
 30
0.0
 11
3.864045355957095
 21
30.32107492872435
 31
0.0
  0
MTEXT
  5
102
330
F8
100
AcDbEntity
  8
치수문자_일반주서
100
AcDbMText
 10
46.3730136343715
 20
34.83281184330144
 30
0.0
 40
3.5
 41
0.0
 71
     1
 72
     1
  1
4.28
  7
SLDTEXTSTYLE0
 73
     1
 44
1.0
  0
ENDBLK
  5
FA
330
F8
100
AcDbEntity
  8
0
100
AcDbBlockEnd
  0
BLOCK
  5
105
330
104
100
AcDbEntity
  8
0
100
AcDbBlockBegin
  2
_D_4
 70
     0
 10
0.0
 20
0.0
 30
0.0
  3
_D_4
  1
_D_4
  0
SOLID
  5
107
330
104
100
AcDbEntity
  8
치수문자_일반주서
100
AcDbTrace
 10
57.35059833193548
 20
5.001074928723893
 30
0.0
 11
56.84259833193548
 21
1.699074928723894
 31
0.0
 12
57.85859833193548
 22
1.699074928723894
 32
0.0
 13
57.85859833193548
 23
1.699074928723894
 33
0.0
  0
SOLID
  5
108
330
104
100
AcDbEntity
  8
치수문자_일반주서
100
AcDbTrace
 10
57.35059833193547
 20
-4.937756798710939
 30
0.0
 11
57.85859833193548
 21
-1.635756798710939
 31
0.0
 12
56.84259833193547
 22
-1.635756798710939
 32
0.0
 13
56.84259833193547
 23
-1.635756798710939
 33
0.0
  0
LINE
  5
109
330
104
100
AcDbEntity
  8
치수문자_일반주서
100
AcDbLine
 10
40.49394916652361
 20
5.001074928723894
 30
0.0
 11
58.35059833193548
 21
5.001074928723893
 31
0.0
  0
LINE
  5
10A
330
104
100
AcDbEntity
  8
치수문자_일반주서
100
AcDbLine
 10
40.49394916652361
 20
-4.937756798710938
 30
0.0
 11
58.35059833193547
 21
-4.937756798710939
 31
0.0
  0
LINE
  5
10B
330
104
100
AcDbEntity
  8
치수문자_일반주서
100
AcDbLine
 10
57.35059833193548
 20
5.001074928723893
 30
0.0
 11
57.35059833193547
 21
-4.937756798710939
 31
0.0
  0
LINE
  5
10C
330
104
100
AcDbEntity
  8
치수문자_일반주서
100
AcDbLine
 10
57.35059833193547
 20
-4.937756798710939
 30
0.0
 11
57.35059833193545
 21
-31.02355930264757
 31
0.0
  0
MTEXT
  5
10D
330
104
100
AcDbEntity
  8
치수문자_일반주서
100
AcDbMText
 10
52.83886124273366
 20
-31.02355930264756
 30
0.0
 40
3.5
 41
0.0
 71
     1
 72
     1
  1
%%c
  7
SLDTEXTSTYLE0
 11
-7.044195017643634E-15
 21
1.0
 31
0.0
 73
     1
 44
1.0
  0
MTEXT
  5
10E
330
104
100
AcDbEntity
  8
치수문자_일반주서
100
AcDbMText
 10
52.78538906607378
 20
-25.74512190427348
 30
0.0
 40
3.5
 41
0.0
 71
     1
 72
     1
  1
9.94
  7
SLDTEXTSTYLE0
 11
-7.044195017643634E-15
 21
1.0
 31
0.0
 73
     1
 44
1.0
  0
ENDBLK
  5
106
330
104
100
AcDbEntity
  8
0
100
AcDbBlockEnd
  0
BLOCK
  5
110
330
10F
100
AcDbEntity
  8
0
100
AcDbBlockBegin
  2
SW_DOWELSYMBOL_0
 70
     0
 10
0.0
 20
0.0
 30
0.0
  3
SW_DOWELSYMBOL_0
  1
SW_DOWELSYMBOL_0
  0
CIRCLE
  5
112
330
10F
100
AcDbEntity
  8
외형선
 62
     0
100
AcDbCircle
 10
0.0
 20
0.0
 30
0.0
 40
3.000000000000004
  0
HATCH
  5
113
330
10F
100
AcDbEntity
  8
0
  6
Continuous
 62
     0
370
    35
100
AcDbHatch
 10
0.0
 20
0.0
 30
0.0
210
0.0
220
0.0
230
1.0
  2
SOLID
 70
     1
 71
     0
 91
        1
 92
        0
 93
        3
 72
     2
 10
0.0000000000000104
 20
0.0
 40
3.000000000000004
 50
0.0
 51
90.0
 73
     1
 72
     1
 10
0.0000000000000104
 20
3.000000000000004
 11
0.0000000000000104
 21
0.0
 72
     1
 10
0.0000000000000104
 20
0.0
 11
3.000000000000015
 21
0.0
 97
        0
 75
     0
 76
     1
 98
        1
 10
0.0
 20
0.0
  0
HATCH
  5
114
330
10F
100
AcDbEntity
  8
0
  6
Continuous
 62
     0
370
    35
100
AcDbHatch
 10
0.0
 20
0.0
 30
0.0
210
0.0
220
0.0
230
1.0
  2
SOLID
 70
     1
 71
     0
 91
        1
 92
        0
 93
        3
 72
     2
 10
0.0000000000000104
 20
0.0
 40
3.000000000000004
 50
180.0
 51
270.0000000000007
 73
     1
 72
     1
 10
0.0000000000000104
 20
-3.000000000000004
 11
0.0000000000000104
 21
0.0
 72
     1
 10
0.0000000000000104
 20
0.0
 11
-2.999999999999994
 21
0.0
 97
        0
 75
     0
 76
     1
 98
        1
 10
0.0
 20
0.0
  0
ENDBLK
  5
111
330
10F
100
AcDbEntity
  8
0
100
AcDbBlockEnd
  0
BLOCK
  5
1FF
330
1FE
100
AcDbEntity
  8
0
100
AcDbBlockBegin
  2
*D8
 70
     1
 10
0.0
 20
0.0
 30
0.0
  3
*D8
  1
*D9
  0
LINE
  5
200
330
1FE
100
AcDbEntity
  8
치수문자_일반주서
 62
     0
370
    -2
100
AcDbLine
 10
97.26871700236626
 20
41.06622235543005
 30
0.0
 11
104.5946900199918
 21
26.77196891066033
 31
0.0
  0
MTEXT
  5
201
330
1FE
100
AcDbEntity
  8
치수문자_일반주서
 62
     0
100
AcDbMText
 10
104.8355484980103
 20
32.0573403504048
 30
0.0
 40
3.5
 41
0.0
 71
     5
 72
     1
  1
\A1;R0.2
  7
SLDTEXTSTYLE0
 11
0.4560990807407699
 21
-0.8899290019700588
 31
0.0
 73
     1
 44
1.0
  0
SOLID
  5
202
330
1FE
100
AcDbEntity
  8
치수문자_일반주서
 62
     0
100
AcDbTrace
 10
97.75847459645044
 20
41.31722888286438
 30
0.0
 11
96.77895940828208
 21
40.81521582799571
 31
0.0
 12
95.76267783776024
 22
44.00476791993518
 32
0.0
 13
95.76267783776024
 23
44.00476791993518
 33
0.0
  0
LINE
  5
203
330
1FE
100
AcDbEntity
  8
치수문자_일반주서
 62
     0
100
AcDbLine
 10
95.58145802161208
 20
44.1827537203292
 30
0.0
 11
95.76145802161209
 21
44.1827537203292
 31
0.0
  0
LINE
  5
204
330
1FE
100
AcDbEntity
  8
치수문자_일반주서
 62
     0
100
AcDbLine
 10
95.67145802161208
 20
44.09275372032919
 30
0.0
 11
95.67145802161208
 21
44.2727537203292
 31
0.0
  0
POINT
  5
205
330
1FE
100
AcDbEntity
  8
Defpoints
 62
     0
100
AcDbPoint
 10
95.76267783776024
 20
44.00476791993518
 30
0.0
  0
POINT
  5
206
330
1FE
100
AcDbEntity
  8
Defpoints
 62
     0
100
AcDbPoint
 10
95.67145802161208
 20
44.1827537203292
 30
0.0
  0
ENDBLK
  5
207
330
1FE
100
AcDbEntity
  8
0
100
AcDbBlockEnd
  0
BLOCK
  5
20B
330
20A
100
AcDbEntity
  8
0
100
AcDbBlockBegin
  2
*D9
 70
     1
 10
0.0
 20
0.0
 30
0.0
  3
*D9
  1
*D10
  0
LINE
  5
20D
330
20A
100
AcDbEntity
  8
치수문자_일반주서
 62
     0
370
    -2
100
AcDbLine
 10
16.80895802161208
 20
55.97180738881174
 30
0.0
 11
4.374999999999987
 21
55.9718073888117
 31
0.0
  0
LINE
  5
20E
330
20A
100
AcDbEntity
  8
치수문자_일반주서
 62
     0
370
    -2
100
AcDbLine
 10
16.80895802161208
 20
43.97180738881175
 30
0.0
 11
4.375000000000028
 21
43.9718073888117
 31
0.0
  0
LINE
  5
20F
330
20A
100
AcDbEntity
  8
치수문자_일반주서
 62
     0
370
    -2
100
AcDbLine
 10
4.374999999999998
 20
52.6698073888117
 30
0.0
 11
4.375000000000017
 21
47.2738073888117
 31
0.0
  0
SOLID
  5
210
330
20A
100
AcDbEntity
  8
치수문자_일반주서
 62
     0
100
AcDbTrace
 10
4.925333333333332
 20
52.6698073888117
 30
0.0
 11
3.824666666666665
 21
52.6698073888117
 31
0.0
 12
4.374999999999987
 22
55.9718073888117
 32
0.0
 13
4.374999999999987
 23
55.9718073888117
 33
0.0
  0
SOLID
  5
211
330
20A
100
AcDbEntity
  8
치수문자_일반주서
 62
     0
100
AcDbTrace
 10
3.824666666666684
 20
47.2738073888117
 30
0.0
 11
4.92533333333335
 21
47.2738073888117
 31
0.0
 12
4.375000000000028
 22
43.9718073888117
 32
0.0
 13
4.375000000000028
 23
43.9718073888117
 33
0.0
  0
MTEXT
  5
212
330
20A
100
AcDbEntity
  8
치수문자_일반주서
 62
     0
100
AcDbMText
 10
0.0000000000000071
 20
49.97180738881173
 30
0.0
 40
3.5
 41
0.0
 71
     2
 72
     1
  1
\A1;%%c12
  7
SLDTEXTSTYLE0
 11
-3.478698810492157E-15
 21
1.0
 31
0.0
 73
     1
 44
1.0
  0
POINT
  5
213
330
20A
100
AcDbEntity
  8
Defpoints
 62
     0
100
AcDbPoint
 10
16.87145802161208
 20
55.97180738881174
 30
0.0
  0
POINT
  5
214
330
20A
100
AcDbEntity
  8
Defpoints
 62
     0
100
AcDbPoint
 10
16.87145802161208
 20
43.97180738881175
 30
0.0
  0
POINT
  5
215
330
20A
100
AcDbEntity
  8
Defpoints
 62
     0
100
AcDbPoint
 10
4.375000000000007
 20
43.9718073888117
 30
0.0
  0
ENDBLK
  5
20C
330
20A
100
AcDbEntity
  8
0
100
AcDbBlockEnd
  0
BLOCK
  5
217
330
216
100
AcDbEntity
  8
0
100
AcDbBlockBegin
  2
*D10
 70
     1
 10
0.0
 20
0.0
 30
0.0
  3
*D10
  1
*D11
  0
LINE
  5
219
330
216
100
AcDbEntity
  8
치수문자_일반주서
 62
     0
370
    -2
100
AcDbLine
 10
95.87145802161209
 20
55.83430738881175
 30
0.0
 11
95.87145802161209
 21
74.2718073888114
 31
0.0
  0
LINE
  5
21A
330
216
100
AcDbEntity
  8
치수문자_일반주서
 62
     0
370
    -2
100
AcDbLine
 10
77.87145802161209
 20
54.77880906971239
 30
0.0
 11
77.87145802161209
 21
74.2718073888114
 31
0.0
  0
LINE
  5
21B
330
216
100
AcDbEntity
  8
치수문자_일반주서
 62
     0
370
    -2
100
AcDbLine
 10
92.56945802161209
 20
74.2718073888114
 30
0.0
 11
81.17345802161208
 21
74.2718073888114
 31
0.0
  0
SOLID
  5
21C
330
216
100
AcDbEntity
  8
치수문자_일반주서
 62
     0
100
AcDbTrace
 10
92.56945802161209
 20
73.72147405547807
 30
0.0
 11
92.56945802161209
 21
74.82214072214472
 31
0.0
 12
95.87145802161209
 22
74.2718073888114
 32
0.0
 13
95.87145802161209
 23
74.2718073888114
 33
0.0
  0
SOLID
  5
21D
330
216
100
AcDbEntity
  8
치수문자_일반주서
 62
     0
100
AcDbTrace
 10
81.17345802161208
 20
74.82214072214472
 30
0.0
 11
81.17345802161208
 21
73.72147405547807
 31
0.0
 12
77.87145802161209
 22
74.2718073888114
 32
0.0
 13
77.87145802161209
 23
74.2718073888114
 33
0.0
  0
MTEXT
  5
21E
330
216
100
AcDbEntity
  8
치수문자_일반주서
 62
     0
100
AcDbMText
 10
86.87145802161209
 20
78.6468073888114
 30
0.0
 40
3.5
 41
0.0
 71
     2
 72
     1
  1
\A1;18
  7
SLDTEXTSTYLE0
 73
     1
 44
1.0
  0
POINT
  5
21F
330
216
100
AcDbEntity
  8
Defpoints
 62
     0
100
AcDbPoint
 10
95.87145802161209
 20
55.77180738881175
 30
0.0
  0
POINT
  5
220
330
216
100
AcDbEntity
  8
Defpoints
 62
     0
100
AcDbPoint
 10
77.87145802161209
 20
54.71630906971239
 30
0.0
  0
POINT
  5
221
330
216
100
AcDbEntity
  8
Defpoints
 62
     0
100
AcDbPoint
 10
77.87145802161209
 20
74.2718073888114
 30
0.0
  0
ENDBLK
  5
218
330
216
100
AcDbEntity
  8
0
100
AcDbBlockEnd
  0
BLOCK
  5
223
330
222
100
AcDbEntity
  8
0
100
AcDbBlockBegin
  2
*D11
 70
     1
 10
0.0
 20
0.0
 30
0.0
  3
*D11
  1
*D12
  0
LINE
  5
225
330
222
100
AcDbEntity
  8
치수문자_일반주서
 62
     0
370
    -2
100
AcDbLine
 10
95.87145802161209
 20
55.83430738881175
 30
0.0
 11
95.87145802161209
 21
96.33013189385603
 31
0.0
  0
LINE
  5
226
330
222
100
AcDbEntity
  8
치수문자_일반주서
 62
     0
370
    -2
100
AcDbLine
 10
15.87145802161208
 20
55.03430738881174
 30
0.0
 11
15.87145802161208
 21
96.33013189385603
 31
0.0
  0
LINE
  5
227
330
222
100
AcDbEntity
  8
치수문자_일반주서
 62
     0
370
    -2
100
AcDbLine
 10
92.56945802161209
 20
96.33013189385603
 30
0.0
 11
19.17345802161208
 21
96.33013189385603
 31
0.0
  0
SOLID
  5
228
330
222
100
AcDbEntity
  8
치수문자_일반주서
 62
     0
100
AcDbTrace
 10
92.56945802161209
 20
95.7797985605227
 30
0.0
 11
92.56945802161209
 21
96.88046522718936
 31
0.0
 12
95.87145802161209
 22
96.33013189385603
 32
0.0
 13
95.87145802161209
 23
96.33013189385603
 33
0.0
  0
SOLID
  5
229
330
222
100
AcDbEntity
  8
치수문자_일반주서
 62
     0
100
AcDbTrace
 10
19.17345802161208
 20
96.88046522718936
 30
0.0
 11
19.17345802161208
 21
95.7797985605227
 31
0.0
 12
15.87145802161208
 22
96.33013189385603
 32
0.0
 13
15.87145802161208
 23
96.33013189385603
 33
0.0
  0
MTEXT
  5
22A
330
222
100
AcDbEntity
  8
치수문자_일반주서
 62
     0
100
AcDbMText
 10
55.87145802161208
 20
100.705131893856
 30
0.0
 40
3.5
 41
0.0
 71
     2
 72
     1
  1
\A1;80
  7
SLDTEXTSTYLE0
 73
     1
 44
1.0
  0
POINT
  5
22B
330
222
100
AcDbEntity
  8
Defpoints
 62
     0
100
AcDbPoint
 10
95.87145802161209
 20
55.77180738881175
 30
0.0
  0
POINT
  5
22C
330
222
100
AcDbEntity
  8
Defpoints
 62
     0
100
AcDbPoint
 10
15.87145802161208
 20
54.97180738881174
 30
0.0
  0
POINT
  5
22D
330
222
100
AcDbEntity
  8
Defpoints
 62
     0
100
AcDbPoint
 10
15.87145802161208
 20
96.33013189385603
 30
0.0
  0
ENDBLK
  5
224
330
222
100
AcDbEntity
  8
0
100
AcDbBlockEnd
  0
BLOCK
  5
22F
330
22E
100
AcDbEntity
  8
0
100
AcDbBlockBegin
  2
*D12
 70
     1
 10
0.0
 20
0.0
 30
0.0
  3
*D12
  1
*D13
  0
LINE
  5
231
330
22E
100
AcDbEntity
  8
치수문자_일반주서
 62
     0
370
    -2
100
AcDbLine
 10
95.87145802161209
 20
54.9927566481853
 30
0.0
 11
95.87145802161209
 21
86.01397403546113
 31
0.0
  0
LINE
  5
232
330
22E
100
AcDbEntity
  8
치수문자_일반주서
 62
     0
370
    -2
100
AcDbLine
 10
63.87145802161209
 20
55.88430738881174
 30
0.0
 11
63.87145802161209
 21
86.01397403546113
 31
0.0
  0
LINE
  5
233
330
22E
100
AcDbEntity
  8
치수문자_일반주서
 62
     0
370
    -2
100
AcDbLine
 10
92.56945802161209
 20
86.01397403546113
 30
0.0
 11
67.17345802161208
 21
86.01397403546113
 31
0.0
  0
SOLID
  5
234
330
22E
100
AcDbEntity
  8
치수문자_일반주서
 62
     0
100
AcDbTrace
 10
92.56945802161209
 20
85.4636407021278
 30
0.0
 11
92.56945802161209
 21
86.56430736879446
 31
0.0
 12
95.87145802161209
 22
86.01397403546113
 32
0.0
 13
95.87145802161209
 23
86.01397403546113
 33
0.0
  0
SOLID
  5
235
330
22E
100
AcDbEntity
  8
치수문자_일반주서
 62
     0
100
AcDbTrace
 10
67.17345802161208
 20
86.56430736879446
 30
0.0
 11
67.17345802161208
 21
85.4636407021278
 31
0.0
 12
63.87145802161209
 22
86.01397403546113
 32
0.0
 13
63.87145802161209
 23
86.01397403546113
 33
0.0
  0
MTEXT
  5
236
330
22E
100
AcDbEntity
  8
치수문자_일반주서
 62
     0
100
AcDbMText
 10
79.87145802161209
 20
90.38897403546113
 30
0.0
 40
3.5
 41
0.0
 71
     2
 72
     1
  1
\A1;32
  7
SLDTEXTSTYLE0
 73
     1
 44
1.0
  0
POINT
  5
237
330
22E
100
AcDbEntity
  8
Defpoints
 62
     0
100
AcDbPoint
 10
95.87145802161209
 20
54.9302566481853
 30
0.0
  0
POINT
  5
238
330
22E
100
AcDbEntity
  8
Defpoints
 62
     0
100
AcDbPoint
 10
63.87145802161209
 20
55.82180738881174
 30
0.0
  0
POINT
  5
239
330
22E
100
AcDbEntity
  8
Defpoints
 62
     0
100
AcDbPoint
 10
63.87145802161209
 20
86.01397403546113
 30
0.0
  0
ENDBLK
  5
230
330
22E
100
AcDbEntity
  8
0
100
AcDbBlockEnd
  0
BLOCK
  5
23B
330
23A
100
AcDbEntity
  8
0
100
AcDbBlockBegin
  2
*D13
 70
     1
 10
0.0
 20
0.0
 30
0.0
  3
*D13
  1
*D14
  0
LINE
  5
23D
330
23A
100
AcDbEntity
  8
치수문자_일반주서
 62
     0
370
    -2
100
AcDbLine
 10
95.93395802161209
 20
55.98386526722786
 30
0.0
 11
110.7281071870238
 21
55.98386526722792
 31
0.0
  0
LINE
  5
23E
330
23A
100
AcDbEntity
  8
치수문자_일반주서
 62
     0
370
    -2
100
AcDbLine
 10
95.73395802161207
 20
43.98275372032919
 30
0.0
 11
110.7281071870239
 21
43.98275372032924
 31
0.0
  0
LINE
  5
23F
330
23A
100
AcDbEntity
  8
치수문자_일반주서
 62
     0
370
    -2
100
AcDbLine
 10
110.7281071870238
 20
52.68186526722792
 30
0.0
 11
110.7281071870239
 21
47.28475372032924
 31
0.0
  0
SOLID
  5
240
330
23A
100
AcDbEntity
  8
치수문자_일반주서
 62
     0
100
AcDbTrace
 10
111.2784405203572
 20
52.68186526722792
 30
0.0
 11
110.1777738536905
 21
52.68186526722792
 31
0.0
 12
110.7281071870238
 22
55.98386526722792
 32
0.0
 13
110.7281071870238
 23
55.98386526722792
 33
0.0
  0
SOLID
  5
241
330
23A
100
AcDbEntity
  8
치수문자_일반주서
 62
     0
100
AcDbTrace
 10
110.1777738536905
 20
47.28475372032924
 30
0.0
 11
111.2784405203572
 21
47.28475372032924
 31
0.0
 12
110.7281071870239
 22
43.98275372032924
 32
0.0
 13
110.7281071870239
 23
43.98275372032924
 33
0.0
  0
MTEXT
  5
242
330
23A
100
AcDbEntity
  8
치수문자_일반주서
 62
     0
100
AcDbMText
 10
106.3531071870239
 20
49.97180738881178
 30
0.0
 40
3.5
 41
0.0
 71
     2
 72
     1
  1
\A1;%%c12
  7
SLDTEXTSTYLE0
 11
-3.552384625291072E-15
 21
1.0
 31
0.0
 73
     1
 44
1.0
  0
POINT
  5
243
330
23A
100
AcDbEntity
  8
Defpoints
 62
     0
100
AcDbPoint
 10
95.87145802161209
 20
55.98386526722786
 30
0.0
  0
POINT
  5
244
330
23A
100
AcDbEntity
  8
Defpoints
 62
     0
100
AcDbPoint
 10
95.67145802161207
 20
43.98275372032919
 30
0.0
  0
POINT
  5
245
330
23A
100
AcDbEntity
  8
Defpoints
 62
     0
100
AcDbPoint
 10
110.7281071870239
 20
43.98275372032924
 30
0.0
  0
ENDBLK
  5
23C
330
23A
100
AcDbEntity
  8
0
100
AcDbBlockEnd
  0
BLOCK
  5
28B
330
28A
100
AcDbEntity
  8
0
100
AcDbBlockBegin
  2
*D14
 70
     1
 10
0.0
 20
0.0
 30
0.0
  3
*D14
  1
*D15
  0
LINE
  5
28D
330
28A
100
AcDbEntity
  8
치수문자_일반주서
 62
     0
370
    -2
100
AcDbLine
 10
-46.9125
 20
5.999999999999996
 30
0.0
 11
-59.3464580216121
 21
5.999999999999949
 31
0.0
  0
LINE
  5
28E
330
28A
100
AcDbEntity
  8
치수문자_일반주서
 62
     0
370
    -2
100
AcDbLine
 10
-46.9125
 20
-5.999999999999996
 30
0.0
 11
-59.34645802161206
 21
-6.000000000000044
 31
0.0
  0
LINE
  5
28F
330
28A
100
AcDbEntity
  8
치수문자_일반주서
 62
     0
370
    -2
100
AcDbLine
 10
-59.34645802161209
 20
2.697999999999949
 30
0.0
 11
-59.34645802161207
 21
-2.698000000000043
 31
0.0
  0
SOLID
  5
290
330
28A
100
AcDbEntity
  8
치수문자_일반주서
 62
     0
100
AcDbTrace
 10
-58.79612468827875
 20
2.697999999999951
 30
0.0
 11
-59.89679135494542
 21
2.697999999999948
 31
0.0
 12
-59.3464580216121
 22
5.999999999999949
 32
0.0
 13
-59.3464580216121
 23
5.999999999999949
 33
0.0
  0
SOLID
  5
291
330
28A
100
AcDbEntity
  8
치수문자_일반주서
 62
     0
100
AcDbTrace
 10
-59.89679135494541
 20
-2.698000000000045
 30
0.0
 11
-58.79612468827874
 21
-2.698000000000042
 31
0.0
 12
-59.34645802161206
 22
-6.000000000000044
 32
0.0
 13
-59.34645802161206
 23
-6.000000000000044
 33
0.0
  0
MTEXT
  5
292
330
28A
100
AcDbEntity
  8
치수문자_일반주서
 62
     0
100
AcDbMText
 10
-63.72145802161208
 20
-0.000000000000019
 30
0.0
 40
3.5
 41
0.0
 71
     2
 72
     1
  1
\A1;%%c12
  7
SLDTEXTSTYLE0
 11
-3.552713678800503E-15
 21
1.0
 31
0.0
 73
     1
 44
1.0
  0
POINT
  5
293
330
28A
100
AcDbEntity
  8
Defpoints
 62
     0
100
AcDbPoint
 10
-46.85
 20
5.999999999999996
 30
0.0
  0
POINT
  5
294
330
28A
100
AcDbEntity
  8
Defpoints
 62
     0
100
AcDbPoint
 10
-46.85
 20
-5.999999999999996
 30
0.0
  0
POINT
  5
295
330
28A
100
AcDbEntity
  8
Defpoints
 62
     0
100
AcDbPoint
 10
-59.34645802161207
 20
-6.000000000000044
 30
0.0
  0
ENDBLK
  5
28C
330
28A
100
AcDbEntity
  8
0
100
AcDbBlockEnd
  0
BLOCK
  5
297
330
296
100
AcDbEntity
  8
0
100
AcDbBlockBegin
  2
*D15
 70
     1
 10
0.0
 20
0.0
 30
0.0
  3
*D15
  1
*D16
  0
LINE
  5
299
330
296
100
AcDbEntity
  8
치수문자_일반주서
 62
     0
370
    -2
100
AcDbLine
 10
32.15
 20
5.862500000000008
 30
0.0
 11
32.15
 21
24.29999999999965
 31
0.0
  0
LINE
  5
29A
330
296
100
AcDbEntity
  8
치수문자_일반주서
 62
     0
370
    -2
100
AcDbLine
 10
14.15
 20
4.807001680900644
 30
0.0
 11
14.15
 21
24.29999999999965
 31
0.0
  0
LINE
  5
29B
330
296
100
AcDbEntity
  8
치수문자_일반주서
 62
     0
370
    -2
100
AcDbLine
 10
28.848
 20
24.29999999999965
 30
0.0
 11
17.452
 21
24.29999999999965
 31
0.0
  0
SOLID
  5
29C
330
296
100
AcDbEntity
  8
치수문자_일반주서
 62
     0
100
AcDbTrace
 10
28.848
 20
23.74966666666632
 30
0.0
 11
28.848
 21
24.85033333333299
 31
0.0
 12
32.15
 22
24.29999999999965
 32
0.0
 13
32.15
 23
24.29999999999965
 33
0.0
  0
SOLID
  5
29D
330
296
100
AcDbEntity
  8
치수문자_일반주서
 62
     0
100
AcDbTrace
 10
17.452
 20
24.85033333333299
 30
0.0
 11
17.452
 21
23.74966666666632
 31
0.0
 12
14.15
 22
24.29999999999965
 32
0.0
 13
14.15
 23
24.29999999999965
 33
0.0
  0
MTEXT
  5
29E
330
296
100
AcDbEntity
  8
치수문자_일반주서
 62
     0
100
AcDbMText
 10
23.15
 20
28.67499999999965
 30
0.0
 40
3.5
 41
0.0
 71
     2
 72
     1
  1
\A1;18
  7
SLDTEXTSTYLE0
 73
     1
 44
1.0
  0
POINT
  5
29F
330
296
100
AcDbEntity
  8
Defpoints
 62
     0
100
AcDbPoint
 10
32.15
 20
5.800000000000008
 30
0.0
  0
POINT
  5
2A0
330
296
100
AcDbEntity
  8
Defpoints
 62
     0
100
AcDbPoint
 10
14.15
 20
4.744501680900644
 30
0.0
  0
POINT
  5
2A1
330
296
100
AcDbEntity
  8
Defpoints
 62
     0
100
AcDbPoint
 10
14.15
 20
24.29999999999965
 30
0.0
  0
ENDBLK
  5
298
330
296
100
AcDbEntity
  8
0
100
AcDbBlockEnd
  0
BLOCK
  5
2A3
330
2A2
100
AcDbEntity
  8
0
100
AcDbBlockBegin
  2
*D16
 70
     1
 10
0.0
 20
0.0
 30
0.0
  3
*D16
  1
*D17
  0
LINE
  5
2A5
330
2A2
100
AcDbEntity
  8
치수문자_일반주서
 62
     0
370
    -2
100
AcDbLine
 10
32.15
 20
5.862500000000008
 30
0.0
 11
32.15
 21
46.35832450504429
 31
0.0
  0
LINE
  5
2A6
330
2A2
100
AcDbEntity
  8
치수문자_일반주서
 62
     0
370
    -2
100
AcDbLine
 10
-47.85
 20
5.062499999999996
 30
0.0
 11
-47.85
 21
46.35832450504429
 31
0.0
  0
LINE
  5
2A7
330
2A2
100
AcDbEntity
  8
치수문자_일반주서
 62
     0
370
    -2
100
AcDbLine
 10
28.848
 20
46.35832450504429
 30
0.0
 11
-44.548
 21
46.35832450504429
 31
0.0
  0
SOLID
  5
2A8
330
2A2
100
AcDbEntity
  8
치수문자_일반주서
 62
     0
100
AcDbTrace
 10
28.848
 20
45.80799117171096
 30
0.0
 11
28.848
 21
46.90865783837763
 31
0.0
 12
32.15
 22
46.35832450504429
 32
0.0
 13
32.15
 23
46.35832450504429
 33
0.0
  0
SOLID
  5
2A9
330
2A2
100
AcDbEntity
  8
치수문자_일반주서
 62
     0
100
AcDbTrace
 10
-44.548
 20
46.90865783837763
 30
0.0
 11
-44.548
 21
45.80799117171096
 31
0.0
 12
-47.85
 22
46.35832450504429
 32
0.0
 13
-47.85
 23
46.35832450504429
 33
0.0
  0
MTEXT
  5
2AA
330
2A2
100
AcDbEntity
  8
치수문자_일반주서
 62
     0
100
AcDbMText
 10
-7.850000000000001
 20
50.73332450504429
 30
0.0
 40
3.5
 41
0.0
 71
     2
 72
     1
  1
\A1;80
  7
SLDTEXTSTYLE0
 73
     1
 44
1.0
  0
POINT
  5
2AB
330
2A2
100
AcDbEntity
  8
Defpoints
 62
     0
100
AcDbPoint
 10
32.15
 20
5.800000000000008
 30
0.0
  0
POINT
  5
2AC
330
2A2
100
AcDbEntity
  8
Defpoints
 62
     0
100
AcDbPoint
 10
-47.85
 20
4.999999999999996
 30
0.0
  0
POINT
  5
2AD
330
2A2
100
AcDbEntity
  8
Defpoints
 62
     0
100
AcDbPoint
 10
-47.85
 20
46.35832450504429
 30
0.0
  0
ENDBLK
  5
2A4
330
2A2
100
AcDbEntity
  8
0
100
AcDbBlockEnd
  0
BLOCK
  5
2AF
330
2AE
100
AcDbEntity
  8
0
100
AcDbBlockBegin
  2
*D17
 70
     1
 10
0.0
 20
0.0
 30
0.0
  3
*D17
  1
*D18
  0
LINE
  5
2B1
330
2AE
100
AcDbEntity
  8
치수문자_일반주서
 62
     0
370
    -2
100
AcDbLine
 10
32.15
 20
5.020949259373555
 30
0.0
 11
32.15
 21
36.04216664664938
 31
0.0
  0
LINE
  5
2B2
330
2AE
100
AcDbEntity
  8
치수문자_일반주서
 62
     0
370
    -2
100
AcDbLine
 10
0.1499999999999981
 20
5.912499999999998
 30
0.0
 11
0.1499999999999986
 21
36.04216664664938
 31
0.0
  0
LINE
  5
2B3
330
2AE
100
AcDbEntity
  8
치수문자_일반주서
 62
     0
370
    -2
100
AcDbLine
 10
28.848
 20
36.04216664664938
 30
0.0
 11
3.451999999999999
 21
36.04216664664938
 31
0.0
  0
SOLID
  5
2B4
330
2AE
100
AcDbEntity
  8
치수문자_일반주서
 62
     0
100
AcDbTrace
 10
28.848
 20
35.49183331331604
 30
0.0
 11
28.848
 21
36.59249997998271
 31
0.0
 12
32.15
 22
36.04216664664938
 32
0.0
 13
32.15
 23
36.04216664664938
 33
0.0
  0
SOLID
  5
2B5
330
2AE
100
AcDbEntity
  8
치수문자_일반주서
 62
     0
100
AcDbTrace
 10
3.451999999999999
 20
36.59249997998271
 30
0.0
 11
3.451999999999999
 21
35.49183331331604
 31
0.0
 12
0.1499999999999986
 22
36.04216664664938
 32
0.0
 13
0.1499999999999986
 23
36.04216664664938
 33
0.0
  0
MTEXT
  5
2B6
330
2AE
100
AcDbEntity
  8
치수문자_일반주서
 62
     0
100
AcDbMText
 10
16.15
 20
40.41716664664938
 30
0.0
 40
3.5
 41
0.0
 71
     2
 72
     1
  1
\A1;32
  7
SLDTEXTSTYLE0
 73
     1
 44
1.0
  0
POINT
  5
2B7
330
2AE
100
AcDbEntity
  8
Defpoints
 62
     0
100
AcDbPoint
 10
32.15
 20
4.958449259373555
 30
0.0
  0
POINT
  5
2B8
330
2AE
100
AcDbEntity
  8
Defpoints
 62
     0
100
AcDbPoint
 10
0.1499999999999981
 20
5.849999999999998
 30
0.0
  0
POINT
  5
2B9
330
2AE
100
AcDbEntity
  8
Defpoints
 62
     0
100
AcDbPoint
 10
0.1499999999999981
 20
36.04216664664938
 30
0.0
  0
ENDBLK
  5
2B0
330
2AE
100
AcDbEntity
  8
0
100
AcDbBlockEnd
  0
BLOCK
  5
2BB
330
2BA
100
AcDbEntity
  8
0
100
AcDbBlockBegin
  2
*D18
 70
     1
 10
0.0
 20
0.0
 30
0.0
  3
*D18
  1
*D19
  0
LINE
  5
2BD
330
2BA
100
AcDbEntity
  8
치수문자_일반주서
 62
     0
370
    -2
100
AcDbLine
 10
32.2125
 20
6.012057878416119
 30
0.0
 11
47.00664916541174
 21
6.012057878416173
 31
0.0
  0
LINE
  5
2BE
330
2BA
100
AcDbEntity
  8
치수문자_일반주서
 62
     0
370
    -2
100
AcDbLine
 10
32.01249999999998
 20
-5.989053668482558
 30
0.0
 11
47.00664916541179
 21
-5.989053668482503
 31
0.0
  0
LINE
  5
2BF
330
2BA
100
AcDbEntity
  8
치수문자_일반주서
 62
     0
370
    -2
100
AcDbLine
 10
47.00664916541176
 20
2.710057878416173
 30
0.0
 11
47.00664916541177
 21
-2.687053668482503
 31
0.0
  0
SOLID
  5
2C0
330
2BA
100
AcDbEntity
  8
치수문자_일반주서
 62
     0
100
AcDbTrace
 10
47.55698249874509
 20
2.710057878416175
 30
0.0
 11
46.45631583207842
 21
2.710057878416171
 31
0.0
 12
47.00664916541174
 22
6.012057878416173
 32
0.0
 13
47.00664916541174
 23
6.012057878416173
 33
0.0
  0
SOLID
  5
2C1
330
2BA
100
AcDbEntity
  8
치수문자_일반주서
 62
     0
100
AcDbTrace
 10
46.45631583207844
 20
-2.687053668482505
 30
0.0
 11
47.55698249874511
 21
-2.687053668482501
 31
0.0
 12
47.00664916541179
 22
-5.989053668482503
 32
0.0
 13
47.00664916541179
 23
-5.989053668482503
 33
0.0
  0
MTEXT
  5
2C2
330
2BA
100
AcDbEntity
  8
치수문자_일반주서
 62
     0
100
AcDbMText
 10
42.63164916541177
 20
0.0000000000000378
 30
0.0
 40
3.5
 41
0.0
 71
     2
 72
     1
  1
\A1;%%c12
  7
SLDTEXTSTYLE0
 11
-3.552384625291072E-15
 21
1.0
 31
0.0
 73
     1
 44
1.0
  0
POINT
  5
2C3
330
2BA
100
AcDbEntity
  8
Defpoints
 62
     0
100
AcDbPoint
 10
32.15
 20
6.012057878416119
 30
0.0
  0
POINT
  5
2C4
330
2BA
100
AcDbEntity
  8
Defpoints
 62
     0
100
AcDbPoint
 10
31.94999999999998
 20
-5.989053668482558
 30
0.0
  0
POINT
  5
2C5
330
2BA
100
AcDbEntity
  8
Defpoints
 62
     0
100
AcDbPoint
 10
47.00664916541179
 20
-5.989053668482502
 30
0.0
  0
ENDBLK
  5
2BC
330
2BA
100
AcDbEntity
  8
0
100
AcDbBlockEnd
  0
BLOCK
  5
2C7
330
2C6
100
AcDbEntity
  8
0
100
AcDbBlockBegin
  2
*D19
 70
     1
 10
0.0
 20
0.0
 30
0.0
  3
*D19
  1
*D20
  0
LINE
  5
2C9
330
2C6
100
AcDbEntity
  8
치수문자_일반주서
 62
     0
370
    -2
100
AcDbLine
 10
35.95706660188968
 20
-8.905585033381602
 30
0.0
 11
43.2830396195161
 21
-23.19983847815087
 31
0.0
  0
MTEXT
  5
2CA
330
2C6
100
AcDbEntity
  8
치수문자_일반주서
 62
     0
100
AcDbMText
 10
43.52389809753426
 20
-17.91446703840638
 30
0.0
 40
3.5
 41
0.0
 71
     5
 72
     1
  1
\A1;R0.2
  7
SLDTEXTSTYLE0
 11
0.4560990807408261
 21
-0.8899290019700299
 31
0.0
 73
     1
 44
1.0
  0
SOLID
  5
2CB
330
2C6
100
AcDbEntity
  8
치수문자_일반주서
 62
     0
100
AcDbTrace
 10
36.44682419597385
 20
-8.654578505947233
 30
0.0
 11
35.4673090078055
 21
-9.15659156081597
 31
0.0
 12
34.45102743728347
 22
-5.967039468876564
 32
0.0
 13
34.45102743728347
 23
-5.967039468876564
 33
0.0
  0
LINE
  5
2CC
330
2C6
100
AcDbEntity
  8
치수문자_일반주서
 62
     0
100
AcDbLine
 10
34.2698076211353
 20
-5.789053668482552
 30
0.0
 11
34.44980762113531
 21
-5.789053668482552
 31
0.0
  0
LINE
  5
2CD
330
2C6
100
AcDbEntity
  8
치수문자_일반주서
 62
     0
100
AcDbLine
 10
34.3598076211353
 20
-5.879053668482552
 30
0.0
 11
34.3598076211353
 21
-5.699053668482552
 31
0.0
  0
POINT
  5
2CE
330
2C6
100
AcDbEntity
  8
Defpoints
 62
     0
100
AcDbPoint
 10
34.45102743728347
 20
-5.967039468876564
 30
0.0
  0
POINT
  5
2CF
330
2C6
100
AcDbEntity
  8
Defpoints
 62
     0
100
AcDbPoint
 10
34.3598076211353
 20
-5.789053668482552
 30
0.0
  0
ENDBLK
  5
2C8
330
2C6
100
AcDbEntity
  8
0
100
AcDbBlockEnd
  0
BLOCK
  5
2D9
330
2D8
100
AcDbEntity
  8
0
100
AcDbBlockBegin
  2
*D20
 70
     1
 10
0.0
 20
0.0
 30
0.0
  3
*D20
  1
*D21
  0
LINE
  5
2DB
330
2D8
100
AcDbEntity
  8
치수문자_일반주서
 62
     0
370
    -2
100
AcDbLine
 10
33.65087382567731
 20
-8.80863625248756
 30
0.0
 11
42.7430800926774
 21
-24.55584466806825
 31
0.0
  0
MTEXT
  5
2DC
330
2D8
100
AcDbEntity
  8
치수문자_일반주서
 62
     0
100
AcDbMText
 10
42.71938287167605
 20
-19.26504108976213
 30
0.0
 40
3.5
 41
0.0
 71
     5
 72
     1
  1
\A1;R0.3
  7
SLDTEXTSTYLE0
 11
0.5000227366501722
 21
-0.866012276375383
 31
0.0
 73
     1
 44
1.0
  0
SOLID
  5
2DD
330
2D8
100
AcDbEntity
  8
치수문자_일반주서
 62
     0
100
AcDbTrace
 10
34.12746924844256
 20
-8.533457073084417
 30
0.0
 11
33.17427840291206
 21
-9.083815431890706
 31
0.0
 12
31.99979874925844
 22
-5.949063715896046
 32
0.0
 13
31.99979874925844
 23
-5.949063715896046
 33
0.0
  0
LINE
  5
2DE
330
2D8
100
AcDbEntity
  8
치수문자_일반주서
 62
     0
100
AcDbLine
 10
31.7595837980928
 20
-5.688899562809578
 30
0.0
 11
31.9395837980928
 21
-5.688899562809578
 31
0.0
  0
LINE
  5
2DF
330
2D8
100
AcDbEntity
  8
치수문자_일반주서
 62
     0
100
AcDbLine
 10
31.8495837980928
 20
-5.778899562809578
 30
0.0
 11
31.8495837980928
 21
-5.598899562809578
 31
0.0
  0
POINT
  5
2E0
330
2D8
100
AcDbEntity
  8
Defpoints
 62
     0
100
AcDbPoint
 10
31.99979874925844
 20
-5.949063715896046
 30
0.0
  0
POINT
  5
2E1
330
2D8
100
AcDbEntity
  8
Defpoints
 62
     0
100
AcDbPoint
 10
31.8495837980928
 20
-5.688899562809578
 30
0.0
  0
ENDBLK
  5
2DA
330
2D8
100
AcDbEntity
  8
0
100
AcDbBlockEnd
  0
ENDSEC
  0
SECTION
  2
ENTITIES
  0
INSERT
  5
CC
330
1F
100
AcDbEntity
  8
0
  6
Continuous
 62
     7
100
AcDbBlockReference
 66
     1
  2
블럭10
 10
-22.93944368806589
 20
-52.04609937292004
 30
0.0
  0
ATTRIB
  5
CD
330
CC
100
AcDbEntity
  8
FORMAT
 62
     2
100
AcDbText
 10
-39.05870472750145
 20
-49.97073246008785
 30
0.0
 40
4.233333333333333
  1
SEME6112003E [ 2 FLUTE ]
 41
0.75
  7
SLDTEXTSTYLE0
 11
-39.05870472750145
 21
-52.08739912675452
 31
0.0
100
AcDbAttribute
  2
AUTOATTR0
 70
     0
 74
     1
  0
SEQEND
  5
CE
330
CC
100
AcDbEntity
  8
0
  6
Continuous
 62
     7
  0
HATCH
  5
CF
330
1F
100
AcDbEntity
  8
중심선
100
AcDbHatch
 10
0.0
 20
0.0
 30
0.0
210
0.0
220
0.0
230
1.0
  2
SOLID
 70
     1
 71
     0
 91
        1
 92
        0
 93
        4
 72
     1
 10
-17.22453438368504
 20
-35.7989250712761
 11
-20.67080962752232
 21
-35.7989250712761
 72
     1
 10
-20.67080962752232
 20
-35.7989250712761
 11
-22.79903948672635
 21
-38.3352506518487
 72
     1
 10
-22.79903948672635
 20
-38.3352506518487
 11
-19.35273115777591
 21
-38.33521122254621
 72
     1
 10
-19.35273115777591
 20
-38.33521122254621
 11
-17.22453438368504
 21
-35.7989250712761
 97
        0
 75
     0
 76
     1
 98
        1
 10
0.0
 20
0.0
  0
HATCH
  5
D0
330
1F
100
AcDbEntity
  8
중심선
100
AcDbHatch
 10
0.0
 20
0.0
 30
0.0
210
0.0
220
0.0
230
1.0
  2
SOLID
 70
     1
 71
     0
 91
        1
 92
        0
 93
        4
 72
     1
 10
-12.21177039264909
 20
-35.7989250712761
 11
-15.65804563648637
 21
-35.7989250712761
 72
     1
 10
-15.65804563648637
 20
-35.7989250712761
 11
-20.18918364484376
 21
-41.19892507127612
 72
     1
 10
-20.18918364484376
 20
-41.19892507127612
 11
-16.74290840100648
 21
-41.19892507127612
 72
     1
 10
-16.74290840100648
 20
-41.19892507127612
 11
-12.21177039264909
 21
-35.7989250712761
 97
        0
 75
     0
 76
     1
 98
        1
 10
0.0
 20
0.0
  0
HATCH
  5
D1
330
1F
100
AcDbEntity
  8
중심선
100
AcDbHatch
 10
0.0
 20
0.0
 30
0.0
210
0.0
220
0.0
230
1.0
  2
SOLID
 70
     1
 71
     0
 91
        1
 92
        0
 93
        4
 72
     1
 10
-7.199006401613195
 20
-35.79892507127613
 11
-10.64528164545031
 21
-35.7989250712761
 72
     1
 10
-10.64528164545031
 20
-35.7989250712761
 11
-17.69371854733956
 21
-44.19892507127612
 72
     1
 10
-17.69371854733956
 20
-44.19892507127612
 11
-14.24744330350228
 21
-44.19892507127612
 72
     1
 10
-14.24744330350228
 20
-44.19892507127612
 11
-7.199006401613195
 21
-35.79892507127613
 97
        0
 75
     0
 76
     1
 98
        1
 10
0.0
 20
0.0
  0
HATCH
  5
D2
330
1F
100
AcDbEntity
  8
중심선
100
AcDbHatch
 10
0.0
 20
0.0
 30
0.0
210
0.0
220
0.0
230
1.0
  2
SOLID
 70
     1
 71
     0
 91
        1
 92
        0
 93
        6
 72
     3
 10
-2.399115970600996
 20
-39.99892507132738
 11
3.960054785062284
 21
1.540850780301639E-10
 40
0.3939339440162633
 50
17.09539180608433
 51
320.0019657685079
 73
     0
 72
     1
 10
-0.7161163149004002
 20
-38.58681907591441
 11
1.589185558800638
 21
-36.65249236586649
 72
     3
 10
-2.399115970653842
 20
-39.99892507127625
 11
6.600054785286829
 21
-1.249000902703301E-13
 40
0.6363583540795982
 50
39.99873849337408
 51
368.4976242363724
 73
     1
 72
     1
 10
4.026216521246767
 20
-39.03892507120613
 11
-3.71904866381792
 21
-39.0389250712061
 72
     1
 10
-3.71904866381792
 20
-39.0389250712061
 11
-3.719073708263854
 21
-40.95892507120602
 72
     1
 10
-3.719073708263854
 20
-40.95892507120602
 11
0.7223060612081835
 21
-40.95892507120599
 97
        0
 75
     0
 76
     1
 98
        1
 10
0.0
 20
0.0
  0
LINE
  5
249
330
1F
100
AcDbEntity
  8
0
  6
Continuous
 62
     4
370
    25
100
AcDbLine
 10
-0.0000000000000004
 20
5.999999999999996
 30
0.0
 11
-46.85
 21
5.999999999999996
 31
0.0
  0
LINE
  5
24A
330
1F
100
AcDbEntity
  8
0
  6
Continuous
 62
     4
370
    25
100
AcDbLine
 10
-46.85
 20
-5.999999999999996
 30
0.0
 11
0.0000000000000071
 21
-5.999999999999996
 31
0.0
1001
PE_URL
1000

  0
LINE
  5
24B
330
1F
100
AcDbEntity
  8
0
  6
Continuous
 62
     4
370
    25
100
AcDbLine
 10
-46.85
 20
5.999999999999996
 30
0.0
 11
-47.85
 21
4.999999999999996
 31
0.0
  0
LINE
  5
24C
330
1F
100
AcDbEntity
  8
0
  6
Continuous
 62
     4
370
    25
100
AcDbLine
 10
-47.85
 20
-4.999999999999996
 30
0.0
 11
-46.85
 21
-5.999999999999996
 31
0.0
  0
LINE
  5
24D
330
1F
100
AcDbEntity
  8
0
  6
Continuous
 62
     4
370
    25
100
AcDbLine
 10
11.0999156494027
 20
5.850000000000005
 30
0.0
 11
0.1499999999999981
 21
5.849999999999998
 31
0.0
  0
LINE
  5
24E
330
1F
100
AcDbEntity
  8
0
  6
Continuous
 62
     4
370
    25
100
AcDbLine
 10
0.1499999999999981
 20
-5.849999999999998
 30
0.0
 11
11.0999156494027
 21
-5.849999999999998
 31
0.0
  0
SPLINE
  5
24F
330
1F
100
AcDbEntity
  8
0
  6
Continuous
 62
     4
370
    25
100
AcDbSpline
210
0.0
220
0.0
230
1.0
 70
     8
 71
     3
 72
    11
 73
     7
 74
     0
 42
0.000000001
 43
0.00000001
 40
0.0
 40
0.0
 40
0.0
 40
0.0
 40
0.2741164247645201
 40
0.5305921804980367
 40
0.7718597600176149
 40
1.0
 40
1.0
 40
1.0
 40
1.0
 10
14.15
 20
4.723513496760301
 30
0.0
 10
13.87015355078824
 20
4.717466816417389
 30
0.0
 10
13.32847007516488
 20
4.705762587782875
 30
0.0
 10
12.53571641235106
 20
4.69160355786418
 30
0.0
 10
11.79000515653535
 20
4.684249031098705
 30
0.0
 10
11.31322760130512
 20
4.686619485220714
 30
0.0
 10
11.08150554353488
 20
4.68777156652357
 30
0.0
  0
SPLINE
  5
250
330
1F
100
AcDbEntity
  8
0
  6
Continuous
 62
     4
370
    25
100
AcDbSpline
210
0.0
220
0.0
230
1.0
 70
     8
 71
     3
 72
    11
 73
     7
 74
     0
 42
0.000000001
 43
0.00000001
 40
0.0
 40
0.0
 40
0.0
 40
0.0
 40
0.1920175390014708
 40
0.4308031808578827
 40
0.7178250895602526
 40
1.0
 40
1.0
 40
1.0
 40
1.0
 10
11.08150554353488
 20
-4.687771566523563
 30
0.0
 10
11.2651178432572
 20
-4.686725281992569
 30
0.0
 10
11.67706335186193
 20
-4.684377878175308
 30
0.0
 10
12.37635980443428
 20
-4.689591535000555
 30
0.0
 10
13.16143070056227
 20
-4.701741994820377
 30
0.0
 10
13.71245002622163
 20
-4.713979470774621
 30
0.0
 10
13.98561358518676
 20
-4.720046104608944
 30
0.0
  0
SPLINE
  5
251
330
1F
100
AcDbEntity
  8
0
  6
Continuous
 62
     1
370
    25
100
AcDbSpline
210
0.0
220
0.0
230
1.0
 70
     8
 71
     3
 72
    10
 73
     6
 74
     0
 42
0.000000001
 43
0.00000001
 40
0.0
 40
0.0
 40
0.0
 40
0.0
 40
0.4424653392890533
 40
0.6176905226125808
 40
1.0
 40
1.0
 40
1.0
 40
1.0
 10
16.60603785285792
 20
1.537489610720794
 30
0.0
 10
16.36002814202538
 20
1.654660626997459
 30
0.0
 10
16.01659363233903
 20
1.818233724938356
 30
0.0
 10
15.4649219070886
 20
2.095013344741691
 30
0.0
 10
15.15381034442304
 20
2.258158079865535
 30
0.0
 10
14.94047670381999
 20
2.370028754137461
 30
0.0
  0
SPLINE
  5
252
330
1F
100
AcDbEntity
  8
0
  6
Continuous
 62
     1
370
    25
100
AcDbSpline
210
0.0
220
0.0
230
1.0
 70
     8
 71
     3
 72
     9
 73
     5
 74
     0
 42
0.000000001
 43
0.00000001
 40
0.0
 40
0.0
 40
0.0
 40
0.0
 40
0.4971231981768353
 40
1.0
 40
1.0
 40
1.0
 40
1.0
 10
14.65585884777803
 20
4.769601031847163
 30
0.0
 10
14.5714763254831
 20
4.764081889461618
 30
0.0
 10
14.4017346545967
 20
4.752979727249549
 30
0.0
 10
14.23423279796327
 20
4.73337317636427
 30
0.0
 10
14.15
 20
4.723513496760301
 30
0.0
  0
SPLINE
  5
253
330
1F
100
AcDbEntity
  8
0
  6
Continuous
 62
     1
370
    25
100
AcDbSpline
210
0.0
220
0.0
230
1.0
 70
     8
 71
     3
 72
    28
 73
    24
 74
     0
 42
0.000000001
 43
0.00000001
 40
0.0
 40
0.0
 40
0.0
 40
0.0
 40
0.1043795212691607
 40
0.1907388641452072
 40
0.2587616904786091
 40
0.3019710050008748
 40
0.3336163979269795
 40
0.3616386472249219
 40
0.3872908578568182
 40
0.4105905464357162
 40
0.4346375325650723
 40
0.5026759431645208
 40
0.5796106070769561
 40
0.647266633340808
 40
0.7063239844147895
 40
0.7608031529549089
 40
0.7914492256049861
 40
0.8251089166961578
 40
0.8617325927976035
 40
0.8914277902304428
 40
0.9240279656257174
 40
0.960124013506058
 40
1.0
 40
1.0
 40
1.0
 40
1.0
 10
29.92063775422226
 20
4.103714582082052
 30
0.0
 10
29.5521802790424
 20
4.074698304472701
 30
0.0
 10
28.87887617257504
 20
4.021675146619177
 30
0.0
 10
27.96827224861792
 20
3.97817391233976
 30
0.0
 10
27.27402488850628
 20
3.957485382501471
 30
0.0
 10
26.77169481588305
 20
3.949991797542229
 30
0.0
 10
26.40933883399898
 20
3.948046143538126
 30
0.0
 10
26.10892405301089
 20
3.948759948075474
 30
0.0
 10
25.83803966467812
 20
3.951286118331236
 30
0.0
 10
25.58110754690588
 20
3.955328541840143
 30
0.0
 10
25.17593155228536
 20
3.964190623928755
 30
0.0
 10
24.58533430646298
 20
3.98408547008918
 30
0.0
 10
23.84471447613032
 20
4.022210639138091
 30
0.0
 10
23.11962828405523
 20
4.073508614133569
 30
0.0
 10
22.47392013099823
 20
4.128893721014574
 30
0.0
 10
21.96152696956175
 20
4.180005579577131
 30
0.0
 10
21.53121475279738
 20
4.226237317758166
 30
0.0
 10
21.16800076610979
 20
4.266520683382364
 30
0.0
 10
20.805466003405
 20
4.307070835579896
 30
0.0
 10
20.45396645855447
 20
4.353947027179129
 30
0.0
 10
20.12303068413805
 20
4.403201890480066
 30
0.0
 10
19.77858918893073
 20
4.45837792132836
 30
0.0
 10
19.55529768323384
 20
4.494082688496415
 30
0.0
 10
19.43809706936698
 20
4.512823305686528
 30
0.0
  0
SPLINE
  5
254
330
1F
100
AcDbEntity
  8
0
  6
Continuous
 62
     1
370
    25
100
AcDbSpline
210
0.0
220
0.0
230
1.0
 70
     8
 71
     3
 72
    17
 73
    13
 74
     0
 42
0.000000001
 43
0.00000001
 40
0.0
 40
0.0
 40
0.0
 40
0.0
 40
0.092562215507416
 40
0.1763502407484615
 40
0.2520234648071421
 40
0.32095350280711
 40
0.46903083069958
 40
0.5946011670873613
 40
0.7076727383975769
 40
0.8334146552369086
 40
0.975807675901098
 40
1.0
 40
1.0
 40
1.0
 40
1.0
 10
19.43809706936698
 20
-4.512823305686521
 30
0.0
 10
19.55529418509212
 20
-4.494081374679244
 30
0.0
 10
19.77857902610264
 20
-4.458374104416694
 30
0.0
 10
20.12306543551417
 20
-4.403214942253801
 30
0.0
 10
20.45385413226827
 20
-4.353904840151269
 30
0.0
 10
20.90256757813756
 20
-4.294407059782127
 30
0.0
 10
21.43697370786668
 20
-4.236745683933886
 30
0.0
 10
22.04078636014736
 20
-4.17137589765451
 30
0.0
 10
22.59590791194716
 20
-4.117969262935549
 30
0.0
 10
23.18232259272059
 20
-4.069393811730993
 30
0.0
 10
23.63113550213901
 20
-4.036204404637675
 30
0.0
 10
23.88226907452164
 20
-4.022849880320874
 30
0.0
 10
23.91873989843378
 20
-4.020910472139928
 30
0.0
  0
SPLINE
  5
255
330
1F
100
AcDbEntity
  8
0
  6
Continuous
 62
     4
370
    25
100
AcDbSpline
210
0.0
220
0.0
230
1.0
 70
     8
 71
     3
 72
     9
 73
     5
 74
     0
 42
0.000000001
 43
0.00000001
 40
0.0
 40
0.0
 40
0.0
 40
0.0
 40
0.041699011625364
 40
1.0
 40
1.0
 40
1.0
 40
1.0
 10
14.39237046502103
 20
-4.749762052518432
 30
0.0
 10
14.39600123972937
 20
-4.750157892900437
 30
0.0
 10
14.48307224133924
 20
-4.759650693007192
 30
0.0
 10
14.57130515725185
 20
-4.764731801018183
 30
0.0
 10
14.65585884777811
 20
-4.769601031847156
 30
0.0
  0
LINE
  5
256
330
1F
100
AcDbEntity
  8
0
  6
Continuous
 62
     4
370
    25
100
AcDbLine
 10
0.1499999999999981
 20
5.849999999999998
 30
0.0
 11
0.1499999999999981
 21
-5.849999999999991
 31
0.0
1001
PE_URL
1000

  0
LINE
  5
258
330
1F
100
AcDbEntity
  8
0
  6
Continuous
 62
     4
370
    25
100
AcDbLine
 10
-46.85
 20
5.999999999999996
 30
0.0
 11
-46.85
 21
-5.999999999999996
 31
0.0
  0
LINE
  5
259
330
1F
100
AcDbEntity
  8
0
  6
Continuous
 62
     4
370
    25
100
AcDbLine
 10
-47.85
 20
4.999999999999996
 30
0.0
 11
-47.85
 21
-4.999999999999996
 31
0.0
  0
SPLINE
  5
25A
330
1F
100
AcDbEntity
  8
0
  6
Continuous
 62
     4
370
    25
100
AcDbSpline
210
0.0
220
0.0
230
1.0
 70
     8
 71
     3
 72
    10
 73
     6
 74
     0
 42
0.000000001
 43
0.00000001
 40
0.0
 40
0.0
 40
0.0
 40
0.0
 40
0.5
 40
0.5
 40
1.0
 40
1.0
 40
1.0
 40
1.0
 10
14.14999999998951
 20
2.768107051394562
 30
0.0
 10
13.64145729119633
 20
3.020129445133986
 30
0.0
 10
13.13022604560802
 20
3.262606645341311
 30
0.0
 10
12.11878130244963
 20
3.720813845862406
 30
0.0
 10
11.60876391632677
 20
3.938032901285493
 30
0.0
 10
11.0998272681864
 20
4.140193675889758
 30
0.0
  0
SPLINE
  5
25B
330
1F
100
AcDbEntity
  8
0
  6
Continuous
 62
     4
370
    25
100
AcDbSpline
210
0.0
220
0.0
230
1.0
 70
     8
 71
     3
 72
    10
 73
     6
 74
     0
 42
0.000000001
 43
0.00000001
 40
0.0
 40
0.0
 40
0.0
 40
0.0
 40
0.5
 40
0.5
 40
1.0
 40
1.0
 40
1.0
 40
1.0
 10
11.09991564940273
 20
2.818053802771783
 30
0.0
 10
11.60883779967033
 20
2.567301159406175
 30
0.0
 10
12.11883953342444
 20
2.306222435833757
 30
0.0
 10
13.13025563768076
 20
1.770943208035913
 30
0.0
 10
13.64147201000261
 20
1.495012472517214
 30
0.0
 10
14.14999999999997
 20
1.215185347271902
 30
0.0
  0
LINE
  5
25C
330
1F
100
AcDbEntity
  8
0
  6
Continuous
 62
     4
370
    25
100
AcDbLine
 10
11.0999156494027
 20
4.140386813626048
 30
0.0
 11
11.09991564940264
 21
5.850000000000005
 31
0.0
  0
LINE
  5
25D
330
1F
100
AcDbEntity
  8
0
  6
Continuous
 62
     4
370
    25
100
AcDbLine
 10
11.09991564940267
 20
-5.849999999999998
 30
0.0
 11
11.09991564940273
 21
2.818103767362854
 31
0.0
  0
SPLINE
  5
25E
330
1F
100
AcDbEntity
  8
0
  6
Continuous
 62
     4
370
    25
100
AcDbSpline
210
0.0
220
0.0
230
1.0
 70
    24
 71
     3
 72
    11
 73
     7
 74
     0
 42
0.000000001
 43
0.00000001
 40
0.0
 40
0.0
 40
0.0
 40
0.0
 40
0.3638674301411698
 40
0.7411706705430645
 40
0.8703628208811826
 40
1.0
 40
1.0
 40
1.0
 40
1.0
 10
14.15
 20
1.151595494729972
 30
0.0
 10
14.15
 20
1.115320838940587
 30
0.0
 10
14.15
 20
1.041432085158189
 30
0.0
 10
14.15
 20
0.8906780732108537
 30
0.0
 10
14.15
 20
0.7618644499897194
 30
0.0
 10
14.15
 20
0.7037383923027072
 30
0.0
 10
14.15
 20
0.6746253927533452
 30
0.0
  0
SPLINE
  5
25F
330
1F
100
AcDbEntity
  8
0
  6
Continuous
 62
     4
370
    25
100
AcDbSpline
210
0.0
220
0.0
230
1.0
 70
     8
 71
     3
 72
    10
 73
     6
 74
     0
 42
0.000000001
 43
0.00000001
 40
0.0
 40
0.0
 40
0.0
 40
0.0
 40
0.5
 40
0.5
 40
1.0
 40
1.0
 40
1.0
 40
1.0
 10
14.14999999999997
 20
0.6746253927532528
 30
0.0
 10
13.64146846425123
 20
0.8773414416242709
 30
0.0
 10
13.13024850896644
 20
1.07797654009708
 30
0.0
 10
12.11882550560545
 20
1.468685453110549
 30
0.0
 10
11.60882000121065
 20
1.660021291346933
 30
0.0
 10
11.09989435840566
 20
1.844584021399708
 30
0.0
  0
LINE
  5
260
330
1F
100
AcDbEntity
  8
0
  6
Continuous
 62
     4
370
    25
100
AcDbLine
 10
14.15
 20
4.737674356459767
 30
0.0
 11
13.98586929890578
 21
4.720073526496858
 31
0.0
  0
SPLINE
  5
261
330
1F
100
AcDbEntity
  8
0
  6
Continuous
 62
     4
370
    25
100
AcDbSpline
210
0.0
220
0.0
230
1.0
 70
    24
 71
     3
 72
    12
 73
     8
 74
     0
 42
0.000000001
 43
0.00000001
 40
0.0
 40
0.0
 40
0.0
 40
0.0
 40
0.1439814882156197
 40
0.3782168564640001
 40
0.6192450662598145
 40
0.8306628346127619
 40
1.0
 40
1.0
 40
1.0
 40
1.0
 10
14.15
 20
4.719402725890308
 30
0.0
 10
14.15
 20
4.696298482348805
 30
0.0
 10
14.15
 20
4.635607247166124
 30
0.0
 10
14.14999999999997
 20
4.372677323621705
 30
0.0
 10
14.15000000000003
 20
3.920124596910338
 30
0.0
 10
14.14999999999997
 20
3.383913545735747
 30
0.0
 10
14.15
 20
2.967767318186108
 30
0.0
 10
14.15
 20
2.782690208698317
 30
0.0
  0
SPLINE
  5
262
330
1F
100
AcDbEntity
  8
0
  6
Continuous
 62
     4
370
    25
100
AcDbSpline
210
0.0
220
0.0
230
1.0
 70
     8
 71
     3
 72
    10
 73
     6
 74
     0
 42
0.000000001
 43
0.00000001
 40
0.0
 40
0.0
 40
0.0
 40
0.0
 40
0.5
 40
0.5
 40
1.0
 40
1.0
 40
1.0
 40
1.0
 10
14.15
 20
-4.73767435645976
 30
0.0
 10
13.64146663580103
 20
-4.699971776821439
 30
0.0
 10
13.13024483287696
 20
-4.645118914280477
 30
0.0
 10
12.11881827183159
 20
-4.503057483139361
 30
0.0
 10
11.6088108230152
 20
-4.41541228974567
 30
0.0
 10
11.09988337920259
 20
-4.312297759451059
 30
0.0
  0
SPLINE
  5
263
330
1F
100
AcDbEntity
  8
0
  6
Continuous
 62
     4
370
    25
100
AcDbSpline
210
0.0
220
0.0
230
1.0
 70
    24
 71
     3
 72
    14
 73
    10
 74
     0
 42
0.000000001
 43
0.00000001
 40
0.0
 40
0.0
 40
0.0
 40
0.0
 40
0.2499999999999998
 40
0.2499999999999998
 40
0.4999999999999999
 40
0.4999999999999999
 40
0.75
 40
0.75
 40
1.0
 40
1.0
 40
1.0
 40
1.0
 10
14.15
 20
0.6746253927532386
 30
0.0
 10
14.15
 20
0.1438704445996954
 30
0.0
 10
14.15
 20
-0.4004628912179093
 30
0.0
 10
14.15
 20
-1.465302376518618
 30
0.0
 10
14.15
 20
-1.985244533033824
 30
0.0
 10
14.15
 20
-2.947166241078857
 30
0.0
 10
14.15
 20
-3.388633240506405
 30
0.0
 10
14.15
 20
-4.154457021472769
 30
0.0
 10
14.15
 20
-4.478669793734571
 30
0.0
 10
14.15
 20
-4.73767435645976
 30
0.0
  0
SPLINE
  5
264
330
1F
100
AcDbEntity
  8
0
  6
Continuous
 62
     1
370
    25
100
AcDbSpline
210
0.0
220
0.0
230
1.0
 70
     8
 71
     3
 72
    38
 73
    34
 74
     0
 42
0.000000001
 43
0.00000001
 40
0.0
 40
0.0
 40
0.0
 40
0.0
 40
0.0625
 40
0.0625
 40
0.125
 40
0.125
 40
0.1875
 40
0.1875
 40
0.25
 40
0.25
 40
0.3125
 40
0.3125
 40
0.375
 40
0.375
 40
0.4375
 40
0.4375
 40
0.5
 40
0.5
 40
0.5625
 40
0.5625
 40
0.625
 40
0.625
 40
0.6875
 40
0.6875
 40
0.75
 40
0.75
 40
0.8125
 40
0.8125
 40
0.875
 40
0.875
 40
0.9375
 40
0.9375
 40
0.9965313277929292
 40
0.9965313277929292
 40
0.9965313277929292
 40
0.9965313277929292
 10
14.14999999999997
 20
1.206366106376902
 30
0.0
 10
14.52121214652828
 20
0.996564043541678
 30
0.0
 10
14.88926745286821
 20
0.7850570380780901
 30
0.0
 10
15.63133631871664
 20
0.3587236679856253
 30
0.0
 10
16.00399274908733
 20
0.1441518235876594
 30
0.0
 10
16.74615479502025
 20
-0.284120234409702
 30
0.0
 10
17.11420023247816
 20
-0.4975394871157626
 30
0.0
 10
17.85653943156779
 20
-0.9228635131742813
 30
0.0
 10
18.22919178895381
 20
-1.13444614279609
 30
0.0
 10
18.97106744115865
 20
-1.551824346043819
 30
0.0
 10
19.33916197376004
 20
-1.757421924089019
 30
0.0
 10
20.08174734022645
 20
-2.162306618082755
 30
0.0
 10
20.4543833803508
 20
-2.361234570885645
 30
0.0
 10
21.19594852334773
 20
-2.748660090973306
 30
0.0
 10
21.56415110979116
 20
-2.937057150613423
 30
0.0
 10
22.30695845099742
 20
-3.303002249376104
 30
0.0
 10
22.67956593137515
 20
-3.480188719831891
 30
0.0
 10
23.42079648341328
 20
-3.819976798503301
 30
0.0
 10
23.78916607067387
 20
-3.982575451741755
 30
0.0
 10
24.53217116983236
 20
-4.292856568396285
 30
0.0
 10
24.90473785111478
 20
-4.440208883734538
 30
0.0
 10
25.64560976676858
 20
-4.71685683792828
 30
0.0
 10
26.01420528370414
 20
-4.846230737008379
 30
0.0
 10
26.75738390250393
 20
-5.086664449974183
 30
0.0
 10
27.12989754982231
 20
-5.197454043615902
 30
0.0
 10
27.87038682257991
 20
-5.398349211029223
 30
0.0
 10
28.23926717354117
 20
-5.488581178512877
 30
0.0
 10
28.9825950547802
 20
-5.648174021673857
 30
0.0
 10
29.35504343908814
 20
-5.71734397279295
 30
0.0
 10
30.0951261039309
 20
-5.833339238346608
 30
0.0
 10
30.46435016237734
 20
-5.88029066357721
 30
0.0
 10
31.18717267813342
 20
-5.949759552801769
 30
0.0
 10
31.53884367417122
 20
-5.973395559917168
 30
0.0
 10
31.88840237072269
 20
-5.986797257536935
 30
0.0
  0
SPLINE
  5
265
330
1F
100
AcDbEntity
  8
0
  6
Continuous
 62
     1
370
    25
100
AcDbSpline
210
0.0
220
0.0
230
1.0
 70
     8
 71
     3
 72
     9
 73
     5
 74
     0
 42
0.000000001
 43
0.00000001
 40
0.0
 40
0.0
 40
0.0
 40
0.0
 40
0.2842098883058433
 40
1.0
 40
1.0
 40
1.0
 40
1.0
 10
17.24325659095202
 20
-0.5688622586171839
 30
0.0
 10
16.95024782268995
 20
-0.451756064435795
 30
0.0
 10
15.9192887311232
 20
-0.0397148266046337
 30
0.0
 10
14.88810856574957
 20
0.3766182752644163
 30
0.0
 10
14.14999999999997
 20
0.6746253927532386
 30
0.0
  0
SPLINE
  5
266
330
1F
100
AcDbEntity
  8
0
  6
Continuous
 62
     4
370
    25
100
AcDbSpline
210
0.0
220
0.0
230
1.0
 70
    24
 71
     3
 72
    11
 73
     7
 74
     0
 42
0.000000001
 43
0.00000001
 40
0.0
 40
0.0
 40
0.0
 40
0.0
 40
0.2439265477454921
 40
0.6110384018629667
 40
0.8047205902028117
 40
1.0
 40
1.0
 40
1.0
 40
1.0
 10
14.15
 20
1.151605494729968
 30
0.0
 10
14.15
 20
1.131716929824254
 30
0.0
 10
14.15
 20
1.081895879070832
 30
0.0
 10
14.15
 20
0.9531398675484972
 30
0.0
 10
14.14999999999997
 20
0.8080223917029805
 30
0.0
 10
14.15
 20
0.7192126210885625
 30
0.0
 10
14.15
 20
0.6746253927532386
 30
0.0
  0
SPLINE
  5
267
330
1F
100
AcDbEntity
  8
0
  6
Continuous
 62
     1
370
    25
100
AcDbSpline
210
0.0
220
0.0
230
1.0
 70
     8
 71
     3
 72
    16
 73
    12
 74
     0
 42
0.000000001
 43
0.00000001
 40
0.0
 40
0.0
 40
0.0
 40
0.0
 40
0.1126026171247276
 40
0.2251129981386085
 40
0.3375895695708778
 40
0.4500910239843818
 40
0.5626758581058298
 40
0.6752941206782523
 40
0.7878147823933142
 40
0.9002927140963065
 40
1.0
 40
1.0
 40
1.0
 40
1.0
 10
32.15
 20
-4.73383358620929
 30
0.0
 10
31.56489991917598
 20
-4.614054817473903
 30
0.0
 10
30.39517903018867
 20
-4.374595394310521
 30
0.0
 10
28.64132055302601
 20
-3.854822350443083
 30
0.0
 10
26.88803789562345
 20
-3.23522153531172
 30
0.0
 10
25.13433033281052
 20
-2.520973327334933
 30
0.0
 10
23.37964244773917
 20
-1.735946373189786
 30
0.0
 10
21.62471127468032
 20
-0.9013551707840897
 30
0.0
 10
19.87069006465472
 20
-0.0418288712842348
 30
0.0
 10
18.18382224538447
 20
0.789979456970638
 30
0.0
 10
17.08145900762451
 20
1.310754420576653
 30
0.0
 10
16.56345097786254
 20
1.55547014004775
 30
0.0
  0
SPLINE
  5
268
330
1F
100
AcDbEntity
  8
0
  6
Continuous
 62
     1
370
    25
100
AcDbSpline
210
0.0
220
0.0
230
1.0
 70
    24
 71
     3
 72
     8
 73
     4
 74
     0
 42
0.000000001
 43
0.00000001
 40
0.0
 40
0.0
 40
0.0
 40
0.0
 40
1.0
 40
1.0
 40
1.0
 40
1.0
 10
32.15
 20
-5.477445364777932
 30
0.0
 10
32.15
 20
-5.229287701408968
 30
0.0
 10
32.15
 20
-4.980466400031791
 30
0.0
 10
32.15
 20
-4.73383358620929
 30
0.0
  0
SPLINE
  5
269
330
1F
100
AcDbEntity
  8
0
  6
Continuous
 62
     1
370
    25
100
AcDbSpline
210
0.0
220
0.0
230
1.0
 70
     8
 71
     3
 72
    10
 73
     6
 74
     0
 42
0.000000001
 43
0.00000001
 40
0.0
 40
0.0
 40
0.0
 40
0.0
 40
0.5
 40
0.5
 40
1.0
 40
1.0
 40
1.0
 40
1.0
 10
32.15
 20
-5.477445364777925
 30
0.0
 10
32.15
 20
-5.532599322854065
 30
0.0
 10
32.12798375129176
 20
-5.587949999663504
 30
0.0
 10
32.04993967337509
 20
-5.655067019845315
 30
0.0
 10
31.99778543193229
 20
-5.665286353033462
 30
0.0
 10
31.94999999999998
 20
-5.656062944059681
 30
0.0
  0
SPLINE
  5
26A
330
1F
100
AcDbEntity
  8
0
  6
Continuous
 62
     1
370
    25
100
AcDbSpline
210
0.0
220
0.0
230
1.0
 70
     8
 71
     3
 72
    38
 73
    34
 74
     0
 42
0.000000001
 43
0.00000001
 40
0.0
 40
0.0
 40
0.0
 40
0.0
 40
0.0625
 40
0.0625
 40
0.125
 40
0.125
 40
0.1874999999999999
 40
0.1874999999999999
 40
0.2499999999999999
 40
0.2499999999999999
 40
0.3125
 40
0.3125
 40
0.375
 40
0.375
 40
0.4375000000000001
 40
0.4375000000000001
 40
0.5000000000000001
 40
0.5000000000000001
 40
0.5625000000000001
 40
0.5625000000000001
 40
0.6250000000000001
 40
0.6250000000000001
 40
0.6875000000000001
 40
0.6875000000000001
 40
0.75
 40
0.75
 40
0.8125
 40
0.8125
 40
0.875
 40
0.875
 40
0.9375
 40
0.9375
 40
1.0
 40
1.0
 40
1.0
 40
1.0
 10
31.95000000000001
 20
-5.656062944059595
 30
0.0
 10
31.5801739320139
 20
-5.584680161980064
 30
0.0
 10
31.2078030325992
 20
-5.502319490884691
 30
0.0
 10
30.46435016237745
 20
-5.316946521835366
 30
0.0
 10
30.09512610393102
 20
-5.214130348776099
 30
0.0
 10
29.35504343908823
 20
-4.988893521072018
 30
0.0
 10
28.98259505478028
 20
-4.866273508783859
 30
0.0
 10
28.23926717354129
 20
-4.603051256458084
 30
0.0
 10
27.87038682258003
 20
-4.462726545191398
 30
0.0
 10
27.12989754982237
 20
-4.165276672445248
 30
0.0
 10
26.75738390250398
 20
-4.007994009028277
 30
0.0
 10
26.01420528370422
 20
-3.678954805954955
 30
0.0
 10
25.64560976676864
 20
-3.50754094272158
 30
0.0
 10
24.90473785111487
 20
-3.151440641414001
 30
0.0
 10
24.53217116983242
 20
-2.966677011215677
 30
0.0
 10
23.78916607067395
 20
-2.586859118482248
 30
0.0
 10
23.42079648341334
 20
-2.392186547698846
 30
0.0
 10
22.6795659313752
 20
-1.993683883708183
 30
0.0
 10
22.30695845099748
 20
-1.789877731287969
 30
0.0
 10
21.56415110979125
 20
-1.376637358299047
 30
0.0
 10
21.19594852334779
 20
-1.167591512437784
 30
0.0
 10
20.45438338035086
 20
-0.7448779624952131
 30
0.0
 10
20.08174734022648
 20
-0.5313387259363118
 30
0.0
 10
19.33916197376009
 20
-0.1035561417021534
 30
0.0
 10
18.9710674411587
 20
0.1103262588067331
 30
0.0
 10
18.22919178895386
 20
0.5379470150591921
 30
0.0
 10
17.85653943156782
 20
0.7514645503388202
 30
0.0
 10
17.11420023247819
 20
1.174248464078037
 30
0.0
 10
16.74615479502028
 20
1.383212484059019
 30
0.0
 10
16.00399274908733
 20
1.79620692479173
 30
0.0
 10
15.63133631871664
 20
1.999948670729186
 30
0.0
 10
14.88926745286823
 20
2.398425896685299
 30
0.0
 10
14.52121214652828
 20
2.592941257423977
 30
0.0
 10
14.15
 20
2.782690208698558
 30
0.0
  0
LINE
  5
26B
330
1F
100
AcDbEntity
  8
0
  6
Continuous
 62
     4
370
    25
100
AcDbLine
 10
14.15
 20
1.206366106376886
 30
0.0
 11
14.15
 21
2.782690208698558
 31
0.0
  0
SPLINE
  5
26C
330
1F
100
AcDbEntity
  8
0
  6
Continuous
 62
     1
370
    25
100
AcDbSpline
210
0.0
220
0.0
230
1.0
 70
     8
 71
     3
 72
    18
 73
    14
 74
     0
 42
0.000000001
 43
0.00000001
 40
0.0
 40
0.0
 40
0.0
 40
0.0
 40
0.1003225793400555
 40
0.2005618317365743
 40
0.3007705407855625
 40
0.4010017315920299
 40
0.5013082514571234
 40
0.6016449606136576
 40
0.7018934970085254
 40
0.8021034340628023
 40
0.9023277871638867
 40
0.9657306191806062
 40
1.0
 40
1.0
 40
1.0
 40
1.0
 10
32.15
 20
0.0000000000000107
 30
0.0
 10
31.56490308611171
 20
0.2700861835321965
 30
0.0
 10
30.39519523405291
 20
0.8100342196801229
 30
0.0
 10
28.64133313543152
 20
1.597334137750434
 30
0.0
 10
26.8880495867267
 20
2.339086827443015
 30
0.0
 10
25.13433882354061
 20
3.014453296030386
 30
0.0
 10
23.37966207973104
 20
3.603994284478507
 30
0.0
 10
21.62474807094071
 20
4.091093516882705
 30
0.0
 10
19.87074146081829
 20
4.46178736131915
 30
0.0
 10
18.11737666332675
 20
4.706945749250867
 30
0.0
 10
16.57908686151256
 20
4.8001578550363
 30
0.0
 10
15.42462679694878
 20
4.806925289604042
 30
0.0
 10
14.85530556969521
 20
4.774325646535619
 30
0.0
 10
14.65555289307616
 20
4.762887699647255
 30
0.0
  0
SPLINE
  5
26D
330
1F
100
AcDbEntity
  8
0
  6
Continuous
 62
     1
370
    25
100
AcDbSpline
210
0.0
220
0.0
230
1.0
 70
    24
 71
     3
 72
    14
 73
    10
 74
     0
 42
0.000000001
 43
0.00000001
 40
0.0
 40
0.0
 40
0.0
 40
0.0
 40
0.2500000000000001
 40
0.2500000000000001
 40
0.5000000000000001
 40
0.5000000000000001
 40
0.75
 40
0.75
 40
1.0
 40
1.0
 40
1.0
 40
1.0
 10
32.15
 20
-4.73383358620929
 30
0.0
 10
32.15
 20
-4.477694494611601
 30
0.0
 10
32.15
 20
-4.174493812518218
 30
0.0
 10
32.15000000000003
 20
-3.485937613174659
 30
0.0
 10
32.15
 20
-3.100679136584259
 30
0.0
 10
32.14999999999997
 20
-2.273324430659112
 30
0.0
 10
32.15
 20
-1.831467116248173
 30
0.0
 10
32.15000000000003
 20
-0.9244851556766385
 30
0.0
 10
32.15
 20
-0.4596295477466192
 30
0.0
 10
32.15
 20
0.0000000000000107
 30
0.0
  0
SPLINE
  5
26E
330
1F
100
AcDbEntity
  8
0
  6
Continuous
 62
     4
370
    25
100
AcDbSpline
210
0.0
220
0.0
230
1.0
 70
    24
 71
     3
 72
    12
 73
     8
 74
     0
 42
0.000000001
 43
0.00000001
 40
0.0
 40
0.0
 40
0.0
 40
0.0
 40
0.1440148935520702
 40
0.378241120980273
 40
0.6192599248715056
 40
0.8306694428401608
 40
1.0
 40
1.0
 40
1.0
 40
1.0
 10
14.15
 20
4.719425436876723
 30
0.0
 10
14.15
 20
4.696315696592823
 30
0.0
 10
14.15000000000003
 20
4.635620209793164
 30
0.0
 10
14.14999999999997
 20
4.372678520420305
 30
0.0
 10
14.15000000000003
 20
3.920124315590638
 30
0.0
 10
14.15
 20
3.383913596937926
 30
0.0
 10
14.15
 20
2.967767333947894
 30
0.0
 10
14.15
 20
2.782690208698324
 30
0.0
  0
SPLINE
  5
26F
330
1F
100
AcDbEntity
  8
0
  6
Continuous
 62
     1
370
    25
100
AcDbSpline
210
0.0
220
0.0
230
1.0
 70
     8
 71
     3
 72
     9
 73
     5
 74
     0
 42
0.000000001
 43
0.00000001
 40
0.0
 40
0.0
 40
0.0
 40
0.0
 40
0.7859587554015839
 40
1.0
 40
1.0
 40
1.0
 40
1.0
 10
32.15
 20
4.200000000000006
 30
0.0
 10
31.56489864954423
 20
4.195527498485841
 30
0.0
 10
30.82045583185868
 20
4.189836994393328
 30
0.0
 10
30.07611127500524
 20
4.109203792002713
 30
0.0
 10
29.91679083964626
 20
4.091944961007069
 30
0.0
  0
SPLINE
  5
270
330
1F
100
AcDbEntity
  8
0
  6
Continuous
 62
     1
370
    25
100
AcDbSpline
210
0.0
220
0.0
230
1.0
 70
    24
 71
     3
 72
    14
 73
    10
 74
     0
 42
0.000000001
 43
0.00000001
 40
0.0
 40
0.0
 40
0.0
 40
0.0
 40
0.2499999999999999
 40
0.2499999999999999
 40
0.4999999999999999
 40
0.4999999999999999
 40
0.7499999999999998
 40
0.7499999999999998
 40
1.0
 40
1.0
 40
1.0
 40
1.0
 10
32.15
 20
0.0000000000000107
 30
0.0
 10
32.15
 20
0.4997061102083826
 30
0.0
 10
32.15
 20
0.9932614582527286
 30
0.0
 10
32.15
 20
1.916235299746536
 30
0.0
 10
32.15
 20
2.345080382248608
 30
0.0
 10
32.15
 20
3.091541472910964
 30
0.0
 10
32.15
 20
3.408759735393939
 30
0.0
 10
32.15
 20
3.906399325268143
 30
0.0
 10
32.14999999999997
 20
4.086844646618342
 30
0.0
 10
32.15
 20
4.200000000000006
 30
0.0
  0
SPLINE
  5
271
330
1F
100
AcDbEntity
  8
0
  6
Continuous
 62
     1
370
    25
100
AcDbSpline
210
0.0
220
0.0
230
1.0
 70
     8
 71
     3
 72
    11
 73
     7
 74
     0
 42
0.000000001
 43
0.00000001
 40
0.0
 40
0.0
 40
0.0
 40
0.0
 40
0.2501328967266028
 40
0.5814972857944508
 40
0.7911213945697092
 40
1.0
 40
1.0
 40
1.0
 40
1.0
 10
19.44096675383292
 20
-4.500435456750883
 30
0.0
 10
18.9998042805887
 20
-4.567766191244768
 30
0.0
 10
17.97421034975013
 20
-4.724293540790224
 30
0.0
 10
16.5790666586179
 20
-4.800172290412686
 30
0.0
 10
15.25603470337622
 20
-4.804590648413001
 30
0.0
 10
14.51824014226758
 20
-4.75995328206098
 30
0.0
 10
14.15
 20
-4.73767435645976
 30
0.0
  0
SPLINE
  5
272
330
1F
100
AcDbEntity
  8
0
  6
Continuous
 62
     4
370
    25
100
AcDbSpline
210
0.0
220
0.0
230
1.0
 70
    24
 71
     3
 72
    14
 73
    10
 74
     0
 42
0.000000001
 43
0.00000001
 40
0.0
 40
0.0
 40
0.0
 40
0.0
 40
0.2499999999999998
 40
0.2499999999999998
 40
0.4999999999999999
 40
0.4999999999999999
 40
0.75
 40
0.75
 40
1.0
 40
1.0
 40
1.0
 40
1.0
 10
14.15
 20
0.6746253927532386
 30
0.0
 10
14.15
 20
0.1438704445996954
 30
0.0
 10
14.15
 20
-0.4004628912179093
 30
0.0
 10
14.15
 20
-1.465302376518618
 30
0.0
 10
14.15
 20
-1.985244533033824
 30
0.0
 10
14.15
 20
-2.947166241078857
 30
0.0
 10
14.15
 20
-3.388633240506405
 30
0.0
 10
14.15
 20
-4.154457021472769
 30
0.0
 10
14.15
 20
-4.478669793734571
 30
0.0
 10
14.15
 20
-4.73767435645976
 30
0.0
  0
LINE
  5
273
330
1F
100
AcDbEntity
  8
0
  6
Continuous
 62
     1
370
    25
100
AcDbLine
 10
32.15
 20
-5.477445364777932
 30
0.0
 11
32.15
 21
-5.689053668482542
 31
0.0
  0
SPLINE
  5
274
330
1F
100
AcDbEntity
  8
0
  6
Continuous
 62
     1
370
    25
100
AcDbSpline
210
0.0
220
0.0
230
1.0
 70
     8
 71
     3
 72
    12
 73
     8
 74
     0
 42
0.000000001
 43
0.00000001
 40
0.0
 40
0.0
 40
0.0
 40
0.0
 40
0.1203516653831856
 40
0.3363831625005902
 40
0.5539292355727096
 40
0.7761411529607339
 40
0.9932178962668776
 40
0.9932178962668776
 40
0.9932178962668776
 40
0.9932178962668776
 10
23.91929045090949
 20
4.021143438292203
 30
0.0
 10
24.24145946179228
 20
4.160868711288519
 30
0.0
 10
25.14192253719212
 20
4.551401148559851
 30
0.0
 10
26.62450803433554
 20
5.063206299361664
 30
0.0
 10
28.3798211079648
 20
5.54285557557807
 30
0.0
 10
30.13817918923413
 20
5.87129969160526
 30
0.0
 10
31.31432516208124
 20
5.94848958635729
 30
0.0
 10
31.89552492549459
 20
5.98557935229231
 30
0.0
  0
SPLINE
  5
275
330
1F
100
AcDbEntity
  8
0
  6
Continuous
 62
     1
370
    25
100
AcDbSpline
210
0.0
220
0.0
230
1.0
 70
    24
 71
     3
 72
    10
 73
     6
 74
     0
 42
0.000000001
 43
0.00000001
 40
0.0
 40
0.0
 40
0.0
 40
0.0
 40
0.5
 40
0.5
 40
1.0
 40
1.0
 40
1.0
 40
1.0
 10
32.15
 20
4.200000000000006
 30
0.0
 10
32.15
 20
4.426460191318224
 30
0.0
 10
32.15
 20
4.685316547715895
 30
0.0
 10
32.15
 20
5.231581971031215
 30
0.0
 10
32.15
 20
5.518161361956803
 30
0.0
 10
32.15
 20
5.584973117393518
 30
0.0
  0
LINE
  5
276
330
1F
100
AcDbEntity
  8
중심선
100
AcDbLine
 10
-50.85
 20
-0.0000000000000035
 30
0.0
 11
35.15
 21
0.0000000000000107
 31
0.0
  0
CIRCLE
  5
277
330
1F
100
AcDbEntity
  8
외형선
100
AcDbCircle
 10
0.0
 20
0.0
 30
0.0
 40
3.000000000000005
  0
INSERT
  5
278
330
1F
100
AcDbEntity
  8
0
  6
Continuous
 62
     7
100
AcDbBlockReference
 66
     1
  2
블럭10
 10
-30.87358523345421
 20
-52.04717430164394
 30
0.0
  0
ATTRIB
  5
279
330
278
100
AcDbEntity
  8
FORMAT
 62
     2
100
AcDbText
 10
-46.99284627288975
 20
-49.97180738881174
 30
0.0
 40
4.233333333333333
  1
SEME6112002E [ 2 FLUTE ]
 41
0.75
  7
SLDTEXTSTYLE0
 11
-46.99284627288975
 21
-52.08847405547841
 31
0.0
100
AcDbAttribute
  2
AUTOATTR0
 70
     0
 74
     1
  0
SEQEND
  5
27A
330
278
100
AcDbEntity
  8
0
  6
Continuous
 62
     7
  0
HATCH
  5
27B
330
1F
100
AcDbEntity
  8
중심선
100
AcDbHatch
 10
0.0
 20
0.0
 30
0.0
210
0.0
220
0.0
230
1.0
  2
SOLID
 70
     1
 71
     0
 91
        1
 92
        0
 93
        4
 72
     1
 10
-25.15867592907335
 20
-35.79999999999999
 11
-28.60495117291063
 21
-35.79999999999999
 72
     1
 10
-28.60495117291063
 20
-35.79999999999999
 11
-30.73318103211465
 21
-38.33632558057259
 72
     1
 10
-30.73318103211466
 20
-38.3363255805726
 11
-27.28687270316422
 21
-38.33628615127011
 72
     1
 10
-27.28687270316422
 20
-38.33628615127011
 11
-25.15867592907335
 21
-35.8
 97
        0
 75
     0
 76
     1
 98
        1
 10
-7.934141545388286
 20
-0.0010749287238951
  0
HATCH
  5
27C
330
1F
100
AcDbEntity
  8
중심선
100
AcDbHatch
 10
0.0
 20
0.0
 30
0.0
210
0.0
220
0.0
230
1.0
  2
SOLID
 70
     1
 71
     0
 91
        1
 92
        0
 93
        4
 72
     1
 10
-20.14591193803739
 20
-35.79999999999999
 11
-23.59218718187467
 21
-35.79999999999999
 72
     1
 10
-23.59218718187466
 20
-35.79999999999999
 11
-28.12332519023205
 21
-41.20000000000001
 72
     1
 10
-28.12332519023207
 20
-41.20000000000002
 11
-24.67704994639478
 21
-41.20000000000002
 72
     1
 10
-24.67704994639479
 20
-41.20000000000002
 11
-20.1459119380374
 21
-35.8
 97
        0
 75
     0
 76
     1
 98
        1
 10
-7.934141545388286
 20
-0.0010749287238951
  0
HATCH
  5
27D
330
1F
100
AcDbEntity
  8
중심선
100
AcDbHatch
 10
0.0
 20
0.0
 30
0.0
210
0.0
220
0.0
230
1.0
  2
SOLID
 70
     1
 71
     0
 91
        1
 92
        0
 93
        4
 72
     1
 10
-15.1331479470015
 20
-35.80000000000002
 11
-18.57942319083862
 21
-35.79999999999999
 72
     1
 10
-18.57942319083861
 20
-35.79999999999999
 11
-25.62786009272786
 21
-44.20000000000001
 72
     1
 10
-25.62786009272787
 20
-44.20000000000002
 11
-22.18158484889059
 21
-44.20000000000002
 72
     1
 10
-22.18158484889057
 20
-44.20000000000002
 11
-15.13314794700148
 21
-35.80000000000003
 97
        0
 75
     0
 76
     1
 98
        1
 10
-7.934141545388286
 20
-0.0010749287238951
  0
HATCH
  5
27E
330
1F
100
AcDbEntity
  8
중심선
100
AcDbHatch
 10
0.0
 20
0.0
 30
0.0
210
0.0
220
0.0
230
1.0
  2
SOLID
 70
     1
 71
     0
 91
        1
 92
        0
 93
        6
 72
     3
 10
-10.33325751598929
 20
-40.00000000005128
 11
3.960054785062283
 21
1.541025085316505E-10
 40
0.3939339440162628
 50
17.09539180608443
 51
320.0019657685078
 73
     0
 72
     1
 10
-8.65025786028869
 20
-38.58789400463829
 11
-6.344955986587649
 21
-36.65356729459037
 72
     3
 10
-10.33325751604215
 20
-40.00000000000015
 11
6.600054785286858
 21
-1.278976924368180E-13
 40
0.6363583540795953
 50
39.99873849337413
 51
368.4976242363724
 73
     1
 72
     1
 10
-3.907925024141548
 20
-39.03999999993002
 11
-11.65319020920624
 21
-39.03999999993
 72
     1
 10
-11.65319020920623
 20
-39.03999999993
 11
-11.65321525365216
 21
-40.95999999992991
 72
     1
 10
-11.65321525365215
 20
-40.95999999992991
 11
-7.211835484180114
 21
-40.95999999992988
 97
        0
 75
     0
 76
     1
 98
        1
 10
-7.934141545388286
 20
-0.0010749287238951
  0
DIMENSION
  5
27F
330
1F
100
AcDbEntity
  8
치수문자_일반주서
100
AcDbDimension
  2
*D14
 10
-59.34645802161206
 20
-6.000000000000044
 30
0.0
 11
-59.34645802161208
 21
-0.0000000000000035
 31
0.0
 70
   160
  1
%%c<>
 71
     2
 42
11.99999999999999
 52
-270.0
  3
SLDDIMSTYLE0
100
AcDbAlignedDimension
 13
-46.85
 23
5.999999999999996
 33
0.0
 14
-46.85
 24
-5.999999999999996
 34
0.0
 50
90.0000000000002
100
AcDbRotatedDimension
  0
DIMENSION
  5
280
330
1F
100
AcDbEntity
  8
치수문자_일반주서
100
AcDbDimension
  2
*D15
 10
14.15
 20
24.29999999999965
 30
0.0
 11
23.15
 21
24.29999999999965
 31
0.0
 70
   160
  1
<>
 71
     2
 42
18.0
  3
SLDDIMSTYLE1
100
AcDbAlignedDimension
 13
32.15
 23
5.800000000000008
 33
0.0
 14
14.15
 24
4.744501680900644
 34
0.0
 50
0.0000000000000113
100
AcDbRotatedDimension
  0
DIMENSION
  5
281
330
1F
100
AcDbEntity
  8
치수문자_일반주서
100
AcDbDimension
  2
*D16
 10
-47.85
 20
46.35832450504429
 30
0.0
 11
-7.850000000000001
 21
46.35832450504429
 31
0.0
 70
   160
  1
<>
 71
     2
 42
80.0
  3
SLDDIMSTYLE1
100
AcDbAlignedDimension
 13
32.15
 23
5.800000000000008
 33
0.0
 14
-47.85
 24
4.999999999999996
 34
0.0
 50
-0.0000000000000051
100
AcDbRotatedDimension
  0
DIMENSION
  5
282
330
1F
100
AcDbEntity
  8
치수문자_일반주서
100
AcDbDimension
  2
*D17
 10
0.1499999999999986
 20
36.04216664664938
 30
0.0
 11
16.15
 21
36.04216664664938
 31
0.0
 70
   160
  1
<>
 71
     2
 42
32.00000000000004
  3
SLDDIMSTYLE0
100
AcDbAlignedDimension
 13
32.15
 23
4.958449259373555
 33
0.0
 14
0.1499999999999981
 24
5.849999999999998
 34
0.0
 50
-0.0000000000022354
100
AcDbRotatedDimension
  0
DIMENSION
  5
283
330
1F
100
AcDbEntity
  8
치수문자_일반주서
100
AcDbDimension
  2
*D18
 10
47.00664916541179
 20
-5.989053668482503
 30
0.0
 11
47.00664916541177
 21
0.0000000000000533
 31
0.0
 70
   160
  1
%%c<>
 71
     2
 42
12.00111154689868
 52
-270.0
  3
SLDDIMSTYLE1
100
AcDbAlignedDimension
 13
32.15
 23
6.012057878416119
 33
0.0
 14
31.94999999999998
 24
-5.989053668482558
 34
0.0
 50
90.0000000000002
100
AcDbRotatedDimension
  0
INSERT
  5
284
330
1F
100
AcDbEntity
  8
외형선
100
AcDbBlockReference
  2
SW_DOWELSYMBOL_0
 10
0.0
 20
0.0
 30
0.0
  0
ARC
  5
2D2
330
1F
100
AcDbEntity
  8
0
  6
Continuous
 62
     1
370
    25
100
AcDbCircle
 10
31.85
 20
5.689053668482562
 30
0.0
 40
0.2999999999999999
100
AcDbArc
 50
359.9999925573575
 51
81.27165913989737
  0
ARC
  5
2D3
330
1F
100
AcDbEntity
  8
0
  6
Continuous
 62
     1
370
    25
100
AcDbCircle
 10
31.8495837980928
 20
-5.688899562809578
 30
0.0
 40
0.300416241413304
100
AcDbArc
 50
277.4242879268744
 51
359.9706161950082
  0
DIMENSION
  5
2D5
330
1F
100
AcDbEntity
  8
치수문자_일반주서
100
AcDbDimension
  2
*D20
 10
31.8495837980928
 20
-5.688899562809578
 30
0.0
 11
40.44610064619067
 21
-20.57760077346883
 31
0.0
 70
   164
  1
<>
 71
     5
 42
0.3004162414132999
  3
SLDDIMSTYLE1
100
AcDbRadialDimension
 15
31.99979874925844
 25
-5.949063715896046
 35
0.0
 40
0.0
1001
ACAD_DSTYLE_DIMRADIAL_EXTENSION
1070
   387
1070
     1
1070
   388
1040
4.841967249324711
1070
   390
1040
6.282672463035715
1001
ACAD
1000
DSTYLE
1002
{
1070
    78
1070
     8
1002
}
  0
LINE
  5
304
330
1F
100
AcDbEntity
  8
0
  6
Continuous
 62
     4
370
    25
100
AcDbLine
 10
0.1499999999999981
 20
5.849999999999998
 30
0.0
 11
-0.0000000000000004
 21
5.999999999999996
 31
0.0
1001
PE_URL
1000

  0
LINE
  5
305
330
1F
100
AcDbEntity
  8
0
  6
Continuous
 62
     4
370
    25
100
AcDbLine
 10
-0.0000000000000004
 20
5.999999999999996
 30
0.0
 11
0.0
 21
-5.999999999999996
 31
0.0
1001
PE_URL
1000

  0
LINE
  5
306
330
1F
100
AcDbEntity
  8
0
  6
Continuous
 62
     4
370
    25
100
AcDbLine
 10
0.0000000000000071
 20
-5.999999999999996
 30
0.0
 11
0.1499999999999981
 21
-5.849999999999998
 31
0.0
1001
PE_URL
1000

  0
ENDSEC
  0
SECTION
  2
OBJECTS
  0
DICTIONARY
  5
C
330
0
100
AcDbDictionary
281
     1
  3
ACAD_GROUP
350
D
  3
ACAD_IMAGE_VARS
350
139
  3
ACAD_LAYOUT
350
1A
  3
ACAD_MLINESTYLE
350
17
  3
ACAD_PLOTSETTINGS
350
19
  3
ACAD_PLOTSTYLENAME
350
E
  3
ACAD_SCALELIST
350
47
  3
APPDATA
350
137
  3
DWGPROPS
350
308
  0
DICTIONARY
  5
D
102
{ACAD_REACTORS
330
C
102
}
330
C
100
AcDbDictionary
281
     1
  0
RASTERVARIABLES
  5
139
102
{ACAD_REACTORS
330
C
102
}
330
C
100
AcDbRasterVariables
 90
        0
 70
     1
 71
     1
 72
     1
  0
DICTIONARY
  5
1A
102
{ACAD_REACTORS
330
C
102
}
330
C
100
AcDbDictionary
281
     1
  3
Layout1
350
1E
  3
Layout2
350
26
  3
Model
350
22
  0
DICTIONARY
  5
17
102
{ACAD_REACTORS
330
C
102
}
330
C
100
AcDbDictionary
281
     1
  3
Standard
350
18
  0
DICTIONARY
  5
19
102
{ACAD_REACTORS
330
C
102
}
330
C
100
AcDbDictionary
281
     1
  0
ACDBDICTIONARYWDFLT
  5
E
102
{ACAD_REACTORS
330
C
102
}
330
C
100
AcDbDictionary
281
     1
  3
Normal
350
F
100
AcDbDictionaryWithDefault
340
F
  0
DICTIONARY
  5
47
102
{ACAD_REACTORS
330
C
102
}
330
C
100
AcDbDictionary
281
     1
  3
A0
350
48
  3
A1
350
49
  3
A2
350
4A
  3
A3
350
4B
  3
A4
350
4C
  3
A5
350
4D
  3
A6
350
4E
  3
A7
350
4F
  3
A8
350
50
  3
A9
350
51
  3
B0
350
52
  3
B1
350
53
  3
B2
350
54
  3
B3
350
55
  3
B4
350
56
  3
B5
350
57
  3
B6
350
58
  3
B7
350
59
  3
B8
350
5A
  3
B9
350
5B
  3
C0
350
5C
  3
C1
350
5D
  3
C2
350
5E
  3
C3
350
5F
  3
C4
350
60
  3
C5
350
61
  3
C6
350
62
  3
C7
350
63
  3
C8
350
64
  3
C9
350
65
  3
D0
350
66
  3
D1
350
67
  3
D2
350
68
  0
DICTIONARY
  5
137
102
{ACAD_REACTORS
330
C
102
}
330
C
100
AcDbDictionary
281
     1
  0
XRECORD
  5
308
102
{ACAD_REACTORS
330
C
102
}
330
C
100
AcDbXrecord
280
     1
  1
DWGPROPS COOKIE
  2

  3

  4

  6

  7

  8
12014102
  9

300
=
301
=
302
=
303
=
304
=
305
=
306
=
307
=
308
=
309
=
 40
0.0
 41
2458263.434652338
 42
2459576.970635116
  1

 90
        0
  0
LAYOUT
  5
1E
102
{ACAD_REACTORS
330
1A
102
}
330
1A
100
AcDbPlotSettings
  1

  2
none_device
  4

  6

 40
0.0
 41
0.0
 42
0.0
 43
0.0
 44
0.0
 45
0.0
 46
0.0
 47
0.0
 48
0.0
 49
0.0
140
0.0
141
0.0
142
1.0
143
1.0
 70
   688
 72
     1
 73
     0
 74
     5
  7

 75
    16
147
1.0
148
0.0
149
0.0
100
AcDbLayout
  1
Layout1
 70
     1
 71
     1
 10
0.0
 20
0.0
 11
420.0
 21
297.0
 12
0.0
 22
0.0
 32
0.0
 14
1.000000000000000E+20
 24
1.000000000000000E+20
 34
1.000000000000000E+20
 15
-1.000000000000000E+20
 25
-1.000000000000000E+20
 35
-1.000000000000000E+20
146
0.0
 13
0.0
 23
0.0
 33
0.0
 16
1.0
 26
0.0
 36
0.0
 17
0.0
 27
1.0
 37
0.0
 76
     0
330
1B
  0
LAYOUT
  5
26
102
{ACAD_REACTORS
330
1A
102
}
330
1A
100
AcDbPlotSettings
  1

  2
none_device
  4

  6

 40
0.0
 41
0.0
 42
0.0
 43
0.0
 44
0.0
 45
0.0
 46
0.0
 47
0.0
 48
0.0
 49
0.0
140
0.0
141
0.0
142
1.0
143
1.0
 70
   688
 72
     1
 73
     0
 74
     5
  7

 75
    16
147
1.0
148
0.0
149
0.0
100
AcDbLayout
  1
Layout2
 70
     1
 71
     2
 10
0.0
 20
0.0
 11
0.0
 21
0.0
 12
0.0
 22
0.0
 32
0.0
 14
0.0
 24
0.0
 34
0.0
 15
0.0
 25
0.0
 35
0.0
146
0.0
 13
0.0
 23
0.0
 33
0.0
 16
1.0
 26
0.0
 36
0.0
 17
0.0
 27
1.0
 37
0.0
 76
     0
330
23
  0
LAYOUT
  5
22
102
{ACAD_REACTORS
330
1A
102
}
330
1A
100
AcDbPlotSettings
  1

  2
none_device
  4
ANSI_A_(11.00_x_8.50_Inches)
  6

 40
6.35
 41
19.05
 42
6.35000508
 43
19.05000254
 44
279.4
 45
215.9
 46
121.5551178963215
 47
88.84056606752351
 48
0.0
 49
0.0
140
0.0
141
0.0
142
0.0829179760665036
143
1.0
 70
  1696
 72
     0
 73
     0
 74
     0
  7

 75
     0
147
0.0235690232323232
148
0.0
149
0.0
100
AcDbLayout
  1
Model
 70
     1
 71
     0
 10
0.0
 20
0.0
 11
420.0
 21
297.0
 12
0.0
 22
0.0
 32
0.0
 14
-63.72145802161211
 24
-49.97180738881174
 34
0.0
 15
47.5569824987451
 25
50.73332450504429
 35
0.0
146
0.0
 13
0.0
 23
0.0
 33
0.0
 16
1.0
 26
0.0
 36
0.0
 17
0.0
 27
1.0
 37
0.0
 76
     0
330
1F
331
29
  0
MLINESTYLE
  5
18
102
{ACAD_REACTORS
330
17
102
}
330
17
100
AcDbMlineStyle
  2
Standard
 70
     0
  3

 62
   256
 51
90.0
 52
90.0
 71
     2
 49
0.5
 62
   256
  6
BYLAYER
 49
-0.5
 62
   256
  6
BYLAYER
  0
ACDBPLACEHOLDER
  5
F
102
{ACAD_REACTORS
330
E
102
}
330
E
  0
SCALE
  5
48
102
{ACAD_REACTORS
330
47
102
}
330
47
100
AcDbScale
 70
     0
300
1:1
140
1.0
141
1.0
290
     1
  0
SCALE
  5
49
102
{ACAD_REACTORS
330
47
102
}
330
47
100
AcDbScale
 70
     0
300
1:2
140
1.0
141
2.0
290
     0
  0
SCALE
  5
4A
102
{ACAD_REACTORS
330
47
102
}
330
47
100
AcDbScale
 70
     0
300
1:4
140
1.0
141
4.0
290
     0
  0
SCALE
  5
4B
102
{ACAD_REACTORS
330
47
102
}
330
47
100
AcDbScale
 70
     0
300
1:5
140
1.0
141
5.0
290
     0
  0
SCALE
  5
4C
102
{ACAD_REACTORS
330
47
102
}
330
47
100
AcDbScale
 70
     0
300
1:8
140
1.0
141
8.0
290
     0
  0
SCALE
  5
4D
102
{ACAD_REACTORS
330
47
102
}
330
47
100
AcDbScale
 70
     0
300
1:10
140
1.0
141
10.0
290
     0
  0
SCALE
  5
4E
102
{ACAD_REACTORS
330
47
102
}
330
47
100
AcDbScale
 70
     0
300
1:16
140
1.0
141
16.0
290
     0
  0
SCALE
  5
4F
102
{ACAD_REACTORS
330
47
102
}
330
47
100
AcDbScale
 70
     0
300
1:20
140
1.0
141
20.0
290
     0
  0
SCALE
  5
50
102
{ACAD_REACTORS
330
47
102
}
330
47
100
AcDbScale
 70
     0
300
1:30
140
1.0
141
30.0
290
     0
  0
SCALE
  5
51
102
{ACAD_REACTORS
330
47
102
}
330
47
100
AcDbScale
 70
     0
300
1:40
140
1.0
141
40.0
290
     0
  0
SCALE
  5
52
102
{ACAD_REACTORS
330
47
102
}
330
47
100
AcDbScale
 70
     0
300
1:50
140
1.0
141
50.0
290
     0
  0
SCALE
  5
53
102
{ACAD_REACTORS
330
47
102
}
330
47
100
AcDbScale
 70
     0
300
1:100
140
1.0
141
100.0
290
     0
  0
SCALE
  5
54
102
{ACAD_REACTORS
330
47
102
}
330
47
100
AcDbScale
 70
     0
300
2:1
140
2.0
141
1.0
290
     0
  0
SCALE
  5
55
102
{ACAD_REACTORS
330
47
102
}
330
47
100
AcDbScale
 70
     0
300
4:1
140
4.0
141
1.0
290
     0
  0
SCALE
  5
56
102
{ACAD_REACTORS
330
47
102
}
330
47
100
AcDbScale
 70
     0
300
8:1
140
8.0
141
1.0
290
     0
  0
SCALE
  5
57
102
{ACAD_REACTORS
330
47
102
}
330
47
100
AcDbScale
 70
     0
300
10:1
140
10.0
141
1.0
290
     0
  0
SCALE
  5
58
102
{ACAD_REACTORS
330
47
102
}
330
47
100
AcDbScale
 70
     0
300
100:1
140
100.0
141
1.0
290
     0
  0
SCALE
  5
59
102
{ACAD_REACTORS
330
47
102
}
330
47
100
AcDbScale
 70
     0
300
1/128" = 1'-0"
140
0.0078125
141
12.0
290
     0
  0
SCALE
  5
5A
102
{ACAD_REACTORS
330
47
102
}
330
47
100
AcDbScale
 70
     0
300
1/64" = 1'-0"
140
0.015625
141
12.0
290
     0
  0
SCALE
  5
5B
102
{ACAD_REACTORS
330
47
102
}
330
47
100
AcDbScale
 70
     0
300
1/32" = 1'-0"
140
0.03125
141
12.0
290
     0
  0
SCALE
  5
5C
102
{ACAD_REACTORS
330
47
102
}
330
47
100
AcDbScale
 70
     0
300
1/16" = 1'-0"
140
0.0625
141
12.0
290
     0
  0
SCALE
  5
5D
102
{ACAD_REACTORS
330
47
102
}
330
47
100
AcDbScale
 70
     0
300
3/32" = 1'-0"
140
0.09375
141
12.0
290
     0
  0
SCALE
  5
5E
102
{ACAD_REACTORS
330
47
102
}
330
47
100
AcDbScale
 70
     0
300
1/8" = 1'-0"
140
0.125
141
12.0
290
     0
  0
SCALE
  5
5F
102
{ACAD_REACTORS
330
47
102
}
330
47
100
AcDbScale
 70
     0
300
3/16" = 1'-0"
140
0.1875
141
12.0
290
     0
  0
SCALE
  5
60
102
{ACAD_REACTORS
330
47
102
}
330
47
100
AcDbScale
 70
     0
300
1/4" = 1'-0"
140
0.25
141
12.0
290
     0
  0
SCALE
  5
61
102
{ACAD_REACTORS
330
47
102
}
330
47
100
AcDbScale
 70
     0
300
3/8" = 1'-0"
140
0.375
141
12.0
290
     0
  0
SCALE
  5
62
102
{ACAD_REACTORS
330
47
102
}
330
47
100
AcDbScale
 70
     0
300
1/2" = 1'-0"
140
0.5
141
12.0
290
     0
  0
SCALE
  5
63
102
{ACAD_REACTORS
330
47
102
}
330
47
100
AcDbScale
 70
     0
300
3/4" = 1'-0"
140
0.75
141
12.0
290
     0
  0
SCALE
  5
64
102
{ACAD_REACTORS
330
47
102
}
330
47
100
AcDbScale
 70
     0
300
1" = 1'-0"
140
1.0
141
12.0
290
     0
  0
SCALE
  5
65
102
{ACAD_REACTORS
330
47
102
}
330
47
100
AcDbScale
 70
     0
300
1-1/2" = 1'-0"
140
1.5
141
12.0
290
     0
  0
SCALE
  5
66
102
{ACAD_REACTORS
330
47
102
}
330
47
100
AcDbScale
 70
     0
300
3" = 1'-0"
140
3.0
141
12.0
290
     0
  0
SCALE
  5
67
102
{ACAD_REACTORS
330
47
102
}
330
47
100
AcDbScale
 70
     0
300
6" = 1'-0"
140
6.0
141
12.0
290
     0
  0
SCALE
  5
68
102
{ACAD_REACTORS
330
47
102
}
330
47
100
AcDbScale
 70
     0
300
1'-0" = 1'-0"
140
12.0
141
12.0
290
     0
  0
ENDSEC
  0
EOF
