  0
SECTION
  2
HEADER
  9
$ACADVER
  1
AC1015
  9
$ACADMAINTVER
 70
     6
  9
$DWGCODEPAGE
  3
ANSI_949
  9
$INSBASE
 10
0.0
 20
0.0
 30
0.0
  9
$EXTMIN
 10
-115.721458021612
 20
-49.97180738881174
 30
0.0
  9
$EXTMAX
 10
67.66423970298096
 20
52.43332450504428
 30
0.0
  9
$LIMMIN
 10
0.0
 20
0.0
  9
$LIMMAX
 10
420.0
 20
297.0
  9
$ORTHOMODE
 70
     1
  9
$REGENMODE
 70
     1
  9
$FILLMODE
 70
     1
  9
$QTEXTMODE
 70
     0
  9
$MIRRTEXT
 70
     1
  9
$LTSCALE
 40
1.0
  9
$ATTMODE
 70
     1
  9
$TEXTSIZE
 40
3.5
  9
$TRACEWID
 40
1.0
  9
$TEXTSTYLE
  7
Standard
  9
$CLAYER
  8
0
  9
$CELTYPE
  6
ByLayer
  9
$CECOLOR
 62
   256
  9
$CELTSCALE
 40
1.0
  9
$DISPSILH
 70
     0
  9
$DIMSCALE
 40
1.0
  9
$DIMASZ
 40
3.302
  9
$DIMEXO
 40
1.0
  9
$DIMDLI
 40
3.75
  9
$DIMRND
 40
0.0
  9
$DIMDLE
 40
0.0
  9
$DIMEXE
 40
1.0
  9
$DIMTP
 40
0.0
  9
$DIMTM
 40
0.0
  9
$DIMTXT
 40
3.5
  9
$DIMCEN
 40
2.5
  9
$DIMTSZ
 40
0.0
  9
$DIMTOL
 70
     0
  9
$DIMLIM
 70
     0
  9
$DIMTIH
 70
     1
  9
$DIMTOH
 70
     1
  9
$DIMSE1
 70
     0
  9
$DIMSE2
 70
     0
  9
$DIMTAD
 70
     1
  9
$DIMZIN
 70
     0
  9
$DIMBLK
  1

  9
$DIMASO
 70
     1
  9
$DIMSHO
 70
     1
  9
$DIMPOST
  1

  9
$DIMAPOST
  1

  9
$DIMALT
 70
     0
  9
$DIMALTD
 70
     3
  9
$DIMALTF
 40
0.0393700787401575
  9
$DIMLFAC
 40
1.0
  9
$DIMTOFL
 70
     1
  9
$DIMTVP
 40
0.0
  9
$DIMTIX
 70
     0
  9
$DIMSOXD
 70
     0
  9
$DIMSAH
 70
     0
  9
$DIMBLK1
  1

  9
$DIMBLK2
  1

  9
$DIMSTYLE
  2
ISO-25
  9
$DIMCLRD
 70
     0
  9
$DIMCLRE
 70
     0
  9
$DIMCLRT
 70
     0
  9
$DIMTFAC
 40
1.0
  9
$DIMGAP
 40
1.524
  9
$DIMJUST
 70
     0
  9
$DIMSD1
 70
     0
  9
$DIMSD2
 70
     0
  9
$DIMTOLJ
 70
     0
  9
$DIMTZIN
 70
     0
  9
$DIMALTZ
 70
     0
  9
$DIMALTTZ
 70
     0
  9
$DIMUPT
 70
     0
  9
$DIMDEC
 70
     2
  9
$DIMTDEC
 70
     2
  9
$DIMALTU
 70
     2
  9
$DIMALTTD
 70
     3
  9
$DIMTXSTY
  7
Standard
  9
$DIMAUNIT
 70
     0
  9
$DIMADEC
 70
     2
  9
$DIMALTRND
 40
0.0
  9
$DIMAZIN
 70
     0
  9
$DIMDSEP
 70
    44
  9
$DIMATFIT
 70
     3
  9
$DIMFRAC
 70
     0
  9
$DIMLDRBLK
  1

  9
$DIMLUNIT
 70
     2
  9
$DIMLWD
 70
    -2
  9
$DIMLWE
 70
    -2
  9
$DIMTMOVE
 70
     0
  9
$LUNITS
 70
     2
  9
$LUPREC
 70
     2
  9
$SKETCHINC
 40
1.0
  9
$FILLETRAD
 40
10.0
  9
$AUNITS
 70
     0
  9
$AUPREC
 70
     2
  9
$MENU
  1
.
  9
$ELEVATION
 40
0.0
  9
$PELEVATION
 40
0.0
  9
$THICKNESS
 40
0.0
  9
$LIMCHECK
 70
     0
  9
$CHAMFERA
 40
0.0
  9
$CHAMFERB
 40
0.0
  9
$CHAMFERC
 40
0.0
  9
$CHAMFERD
 40
0.0
  9
$SKPOLY
 70
     0
  9
$TDCREATE
 40
2458263.810975636
  9
$TDUCREATE
 40
2458263.435975636
  9
$TDUPDATE
 40
2459577.329397072
  9
$TDUUPDATE
 40
2459576.954397072
  9
$TDINDWG
 40
0.0023568519
  9
$TDUSRTIMER
 40
0.000643669
  9
$USRTIMER
 70
     1
  9
$ANGBASE
 50
0.0
  9
$ANGDIR
 70
     0
  9
$PDMODE
 70
     0
  9
$PDSIZE
 40
-1.0
  9
$PLINEWID
 40
0.0
  9
$SPLFRAME
 70
     0
  9
$SPLINETYPE
 70
     6
  9
$SPLINESEGS
 70
     8
  9
$HANDSEED
  5
184
  9
$SURFTAB1
 70
     6
  9
$SURFTAB2
 70
     6
  9
$SURFTYPE
 70
     6
  9
$SURFU
 70
     6
  9
$SURFV
 70
     6
  9
$UCSBASE
  2

  9
$UCSNAME
  2

  9
$UCSORG
 10
0.0
 20
0.0
 30
0.0
  9
$UCSXDIR
 10
1.0
 20
0.0
 30
0.0
  9
$UCSYDIR
 10
0.0
 20
1.0
 30
0.0
  9
$UCSORTHOREF
  2

  9
$UCSORTHOVIEW
 70
     0
  9
$UCSORGTOP
 10
0.0
 20
0.0
 30
0.0
  9
$UCSORGBOTTOM
 10
0.0
 20
0.0
 30
0.0
  9
$UCSORGLEFT
 10
0.0
 20
0.0
 30
0.0
  9
$UCSORGRIGHT
 10
0.0
 20
0.0
 30
0.0
  9
$UCSORGFRONT
 10
0.0
 20
0.0
 30
0.0
  9
$UCSORGBACK
 10
0.0
 20
0.0
 30
0.0
  9
$PUCSBASE
  2

  9
$PUCSNAME
  2

  9
$PUCSORG
 10
0.0
 20
0.0
 30
0.0
  9
$PUCSXDIR
 10
1.0
 20
0.0
 30
0.0
  9
$PUCSYDIR
 10
0.0
 20
1.0
 30
0.0
  9
$PUCSORTHOREF
  2

  9
$PUCSORTHOVIEW
 70
     0
  9
$PUCSORGTOP
 10
0.0
 20
0.0
 30
0.0
  9
$PUCSORGBOTTOM
 10
0.0
 20
0.0
 30
0.0
  9
$PUCSORGLEFT
 10
0.0
 20
0.0
 30
0.0
  9
$PUCSORGRIGHT
 10
0.0
 20
0.0
 30
0.0
  9
$PUCSORGFRONT
 10
0.0
 20
0.0
 30
0.0
  9
$PUCSORGBACK
 10
0.0
 20
0.0
 30
0.0
  9
$USERI1
 70
     0
  9
$USERI2
 70
     0
  9
$USERI3
 70
     0
  9
$USERI4
 70
     0
  9
$USERI5
 70
     0
  9
$USERR1
 40
0.0
  9
$USERR2
 40
0.0
  9
$USERR3
 40
0.0
  9
$USERR4
 40
0.0
  9
$USERR5
 40
0.0
  9
$WORLDVIEW
 70
     1
  9
$SHADEDGE
 70
     3
  9
$SHADEDIF
 70
    70
  9
$TILEMODE
 70
     1
  9
$MAXACTVP
 70
    64
  9
$PINSBASE
 10
0.0
 20
0.0
 30
0.0
  9
$PLIMCHECK
 70
     0
  9
$PEXTMIN
 10
1.000000000000000E+20
 20
1.000000000000000E+20
 30
1.000000000000000E+20
  9
$PEXTMAX
 10
-1.000000000000000E+20
 20
-1.000000000000000E+20
 30
-1.000000000000000E+20
  9
$PLIMMIN
 10
0.0
 20
0.0
  9
$PLIMMAX
 10
0.0
 20
0.0
  9
$UNITMODE
 70
     0
  9
$VISRETAIN
 70
     1
  9
$PLINEGEN
 70
     0
  9
$PSLTSCALE
 70
     1
  9
$TREEDEPTH
 70
  3020
  9
$CMLSTYLE
  2
Standard
  9
$CMLJUST
 70
     0
  9
$CMLSCALE
 40
20.0
  9
$PROXYGRAPHICS
 70
     1
  9
$MEASUREMENT
 70
     1
  9
$CELWEIGHT
370
    -1
  9
$ENDCAPS
280
     0
  9
$JOINSTYLE
280
     0
  9
$LWDISPLAY
290
     1
  9
$INSUNITS
 70
     4
  9
$HYPERLINKBASE
  1

  9
$STYLESHEET
  1

  9
$XEDIT
290
     1
  9
$CEPSNTYPE
380
     0
  9
$PSTYLEMODE
290
     1
  9
$FINGERPRINTGUID
  2
{1EB98AD6-EA3F-4BF8-81FA-9419209C037D}
  9
$VERSIONGUID
  2
{FAEB1C32-E019-11D5-929B-00C0DF256EC4}
  9
$EXTNAMES
290
     1
  9
$PSVPSCALE
 40
0.0
  9
$OLESTARTUP
290
     0
  0
ENDSEC
  0
SECTION
  2
CLASSES
  0
CLASS
  1
ACDBDICTIONARYWDFLT
  2
AcDbDictionaryWithDefault
  3
ObjectDBX Classes
 90
        0
280
     0
281
     0
  0
CLASS
  1
VISUALSTYLE
  2
AcDbVisualStyle
  3
ObjectDBX Classes
 90
     4095
280
     0
281
     0
  0
CLASS
  1
MATERIAL
  2
AcDbMaterial
  3
ObjectDBX Classes
 90
     1153
280
     0
281
     0
  0
CLASS
  1
SCALE
  2
AcDbScale
  3
ObjectDBX Classes
 90
     1153
280
     0
281
     0
  0
CLASS
  1
TABLESTYLE
  2
AcDbTableStyle
  3
ObjectDBX Classes
 90
     4095
280
     0
281
     0
  0
CLASS
  1
MLEADERSTYLE
  2
AcDbMLeaderStyle
  3
ACDB_MLEADERSTYLE_CLASS
 90
     4095
280
     0
281
     0
  0
CLASS
  1
SUN
  2
AcDbSun
  3
SCENEOE
 90
     1153
280
     0
281
     0
  0
CLASS
  1
ACDBPLACEHOLDER
  2
AcDbPlaceHolder
  3
ObjectDBX Classes
 90
        0
280
     0
281
     0
  0
CLASS
  1
LAYOUT
  2
AcDbLayout
  3
ObjectDBX Classes
 90
        0
280
     0
281
     0
  0
CLASS
  1
RASTERVARIABLES
  2
AcDbRasterVariables
  3
ISM
 90
        0
280
     0
281
     0
  0
CLASS
  1
DIMASSOC
  2
AcDbDimAssoc
  3
"AcDbDimAssoc|Product Desc:     AcDim ARX App For Dimension|Company:          Autodesk, Inc.|WEB Address:      www.autodesk.com"
 90
        0
280
     0
281
     0
  0
ENDSEC
  0
SECTION
  2
TABLES
  0
TABLE
  2
VPORT
  5
8
330
0
100
AcDbSymbolTable
 70
     1
  0
VPORT
  5
29
330
8
100
AcDbSymbolTableRecord
100
AcDbViewportTableRecord
  2
*Active
 70
     0
 10
0.0
 20
0.0
 11
1.0
 21
1.0
 12
-24.02860915931554
 22
1.230758558116278
 13
0.0
 23
0.0
 14
10.0
 24
10.0
 15
10.0
 25
10.0
 16
0.0
 26
0.0
 36
1.0
 17
0.0
 27
0.0
 37
0.0
 40
104.4532345317331
 41
2.070175438596491
 42
50.0
 43
0.0
 44
0.0
 50
0.0
 51
0.0
 71
    16
 72
  2000
 73
     1
 74
     3
 75
     0
 76
     0
 77
     0
 78
     0
281
     0
 65
     1
110
0.0
120
0.0
130
0.0
111
1.0
121
0.0
131
0.0
112
0.0
122
1.0
132
0.0
 79
     0
146
0.0
  0
ENDTAB
  0
TABLE
  2
LTYPE
  5
5
330
0
100
AcDbSymbolTable
 70
     6
  0
LTYPE
  5
14
330
5
100
AcDbSymbolTableRecord
100
AcDbLinetypeTableRecord
  2
ByBlock
 70
     0
  3

 72
    65
 73
     0
 40
0.0
  0
LTYPE
  5
15
330
5
100
AcDbSymbolTableRecord
100
AcDbLinetypeTableRecord
  2
ByLayer
 70
     0
  3

 72
    65
 73
     0
 40
0.0
  0
LTYPE
  5
16
330
5
100
AcDbSymbolTableRecord
100
AcDbLinetypeTableRecord
  2
Continuous
 70
     0
  3
Solid line
 72
    65
 73
     0
 40
0.0
  0
LTYPE
  5
6E
330
5
100
AcDbSymbolTableRecord
100
AcDbLinetypeTableRecord
  2
HIDDEN
 70
     0
  3
Hidden __ __ __ __ __ __ __ __ __ __ __ __ __ __
 72
    65
 73
     2
 40
1.905
 49
1.27
 74
     0
 49
-0.635
 74
     0
  0
LTYPE
  5
6F
330
5
100
AcDbSymbolTableRecord
100
AcDbLinetypeTableRecord
  2
PHANTOM
 70
     0
  3
Phantom ______  __  __  ______  __  __  ______
 72
    65
 73
     6
 40
12.7
 49
6.35
 74
     0
 49
-1.27
 74
     0
 49
1.27
 74
     0
 49
-1.27
 74
     0
 49
1.27
 74
     0
 49
-1.27
 74
     0
  0
LTYPE
  5
70
330
5
100
AcDbSymbolTableRecord
100
AcDbLinetypeTableRecord
  2
CENTER
 70
     0
  3
Center ____ _ ____ _ ____ _ ____ _ ____ _ ____
 72
    65
 73
     4
 40
10.16
 49
6.35
 74
     0
 49
-1.27
 74
     0
 49
1.27
 74
     0
 49
-1.27
 74
     0
  0
LTYPE
  5
71
330
5
100
AcDbSymbolTableRecord
100
AcDbLinetypeTableRecord
  2
CENTERX2
 70
     0
  3
Center (2x) ________  __  ________  __  _____
 72
    65
 73
     4
 40
20.32
 49
12.7
 74
     0
 49
-2.54
 74
     0
 49
2.54
 74
     0
 49
-2.54
 74
     0
  0
LTYPE
  5
72
330
5
100
AcDbSymbolTableRecord
100
AcDbLinetypeTableRecord
  2
DOT2
 70
     0
  3
Dot (.5x) ........................................
 72
    65
 73
     2
 40
0.635
 49
0.0
 74
     0
 49
-0.635
 74
     0
  0
ENDTAB
  0
TABLE
  2
LAYER
  5
2
330
0
100
AcDbSymbolTable
 70
    17
  0
LAYER
  5
10
330
2
100
AcDbSymbolTableRecord
100
AcDbLayerTableRecord
  2
0
 70
     0
 62
     7
  6
Continuous
370
    -3
390
F
  0
LAYER
  5
73
330
2
100
AcDbSymbolTableRecord
100
AcDbLayerTableRecord
  2
FORMAT
 70
     0
 62
     2
  6
Continuous
370
    -3
390
F
  0
LAYER
  5
74
330
2
100
AcDbSymbolTableRecord
100
AcDbLayerTableRecord
  2
외형선
 70
     0
 62
   100
  6
Continuous
370
    35
390
F
  0
LAYER
  5
75
330
2
100
AcDbSymbolTableRecord
100
AcDbLayerTableRecord
  2
숨은선
 70
     0
 62
     2
  6
HIDDEN
370
    25
390
F
  0
LAYER
  5
76
330
2
100
AcDbSymbolTableRecord
100
AcDbLayerTableRecord
  2
중심선
 70
     0
 62
     1
  6
CENTERX2
370
    -3
390
F
  0
LAYER
  5
77
330
2
100
AcDbSymbolTableRecord
100
AcDbLayerTableRecord
  2
파단선
 70
     0
 62
     4
  6
Continuous
370
    -3
390
F
  0
LAYER
  5
78
330
2
100
AcDbSymbolTableRecord
100
AcDbLayerTableRecord
  2
해칭선
 70
     0
 62
     4
  6
Continuous
370
    -3
390
F
  0
LAYER
  5
79
330
2
100
AcDbSymbolTableRecord
100
AcDbLayerTableRecord
  2
가는실선
 70
     0
 62
     4
  6
Continuous
370
    -3
390
F
  0
LAYER
  5
7A
330
2
100
AcDbSymbolTableRecord
100
AcDbLayerTableRecord
  2
치수_보조선
 70
     0
 62
     4
  6
Continuous
370
    -3
390
F
  0
LAYER
  5
7B
330
2
100
AcDbSymbolTableRecord
100
AcDbLayerTableRecord
  2
치수문자_일반주서
 70
     0
 62
     7
  6
Continuous
370
    25
390
F
  0
LAYER
  5
7C
330
2
100
AcDbSymbolTableRecord
100
AcDbLayerTableRecord
  2
개별주서
 70
     0
 62
   100
  6
Continuous
370
    35
390
F
  0
LAYER
  5
7D
330
2
100
AcDbSymbolTableRecord
100
AcDbLayerTableRecord
  2
중간선
 70
     0
 62
     2
  6
Continuous
370
    25
390
F
  0
LAYER
  5
7E
330
2
100
AcDbSymbolTableRecord
100
AcDbLayerTableRecord
  2
윤곽선
 70
     0
 62
     3
  6
Continuous
370
    50
390
F
  0
LAYER
  5
7F
330
2
100
AcDbSymbolTableRecord
100
AcDbLayerTableRecord
  2
중심마크
 70
     0
 62
   100
  6
Continuous
370
    35
390
F
  0
LAYER
  5
80
330
2
100
AcDbSymbolTableRecord
100
AcDbLayerTableRecord
  2
가상선
 70
     0
 62
     4
  6
PHANTOM
370
    -3
390
F
  0
LAYER
  5
81
330
2
100
AcDbSymbolTableRecord
100
AcDbLayerTableRecord
  2
특수지정선
 70
     0
 62
     5
  6
CENTERX2
370
    70
390
F
  0
LAYER
  5
13E
330
2
100
AcDbSymbolTableRecord
100
AcDbLayerTableRecord
  2
Defpoints
 70
     0
 62
     7
  6
Continuous
290
     0
370
    -3
390
F
  0
ENDTAB
  0
TABLE
  2
STYLE
  5
3
330
0
100
AcDbSymbolTable
 70
     2
  0
STYLE
  5
11
330
3
100
AcDbSymbolTableRecord
100
AcDbTextStyleTableRecord
  2
Standard
 70
     0
 40
0.0
 41
1.0
 50
0.0
 71
     0
 42
3.5
  3
txt
  4

  0
STYLE
  5
97
330
3
100
AcDbSymbolTableRecord
100
AcDbTextStyleTableRecord
  2
SLDTEXTSTYLE0
 70
     0
 40
0.0
 41
0.75
 50
0.0
 71
     0
 42
3.5
  3
TXT
  4

  0
ENDTAB
  0
TABLE
  2
VIEW
  5
6
330
0
100
AcDbSymbolTable
 70
     0
  0
ENDTAB
  0
TABLE
  2
UCS
  5
7
330
0
100
AcDbSymbolTable
 70
     0
  0
ENDTAB
  0
TABLE
  2
APPID
  5
9
330
0
100
AcDbSymbolTable
 70
     3
  0
APPID
  5
12
330
9
100
AcDbSymbolTableRecord
100
AcDbRegAppTableRecord
  2
ACAD
 70
     0
  0
APPID
  5
14F
330
9
100
AcDbSymbolTableRecord
100
AcDbRegAppTableRecord
  2
ACAD_DSTYLE_DIMRADIAL_EXTENSION
 70
     0
  0
APPID
  5
180
330
9
100
AcDbSymbolTableRecord
100
AcDbRegAppTableRecord
  2
PE_URL
 70
     0
  0
ENDTAB
  0
TABLE
  2
DIMSTYLE
  5
A
330
0
100
AcDbSymbolTable
 70
     3
100
AcDbDimStyleTable
  0
DIMSTYLE
105
27
330
A
100
AcDbSymbolTableRecord
100
AcDbDimStyleTableRecord
  2
ISO-25
 70
     0
 41
2.5
 42
0.625
 43
3.75
 44
1.25
 73
     0
 74
     0
 77
     1
 78
     8
140
2.5
141
2.5
143
0.03937007874016
147
0.625
171
     3
172
     1
178
     0
271
     2
272
     2
274
     3
278
    44
283
     0
284
     8
340
11
  0
DIMSTYLE
105
D8
102
{ACAD_REACTORS
330
D7
330
FB
102
}
330
A
100
AcDbSymbolTableRecord
100
AcDbDimStyleTableRecord
  2
SLDDIMSTYLE0
 70
     0
 41
3.302
 44
0.0
 45
0.000000001
 73
     0
 74
     0
 77
     1
 78
    12
 79
     3
140
3.5
147
0.875
172
     1
173
     1
178
     0
271
     2
272
     2
276
     2
284
    12
289
     0
340
97
  0
DIMSTYLE
105
E6
102
{ACAD_REACTORS
330
E5
330
F1
330
107
330
150
102
}
330
A
100
AcDbSymbolTableRecord
100
AcDbDimStyleTableRecord
  2
SLDDIMSTYLE1
 70
     0
 41
3.302
 44
0.0
 45
0.000000001
 73
     0
 74
     0
 77
     1
 78
    12
 79
     3
140
3.5
147
0.875
173
     1
178
     0
271
     2
272
     2
276
     2
284
    12
340
97
  0
ENDTAB
  0
TABLE
  2
BLOCK_RECORD
  5
1
330
0
100
AcDbSymbolTable
 70
     9
  0
BLOCK_RECORD
  5
1F
330
1
100
AcDbSymbolTableRecord
100
AcDbBlockTableRecord
  2
*Model_Space
340
22
  0
BLOCK_RECORD
  5
1B
330
1
100
AcDbSymbolTableRecord
100
AcDbBlockTableRecord
  2
*Paper_Space
340
1E
  0
BLOCK_RECORD
  5
23
330
1
100
AcDbSymbolTableRecord
100
AcDbBlockTableRecord
  2
*Paper_Space0
340
26
  0
BLOCK_RECORD
  5
82
330
1
100
AcDbSymbolTableRecord
100
AcDbBlockTableRecord
  2
블럭10
340
0
102
{BLKREFS
331
D0
102
}
  0
BLOCK_RECORD
  5
D9
330
1
100
AcDbSymbolTableRecord
100
AcDbBlockTableRecord
  2
_D
340
0
  0
BLOCK_RECORD
  5
E7
330
1
100
AcDbSymbolTableRecord
100
AcDbBlockTableRecord
  2
_D_1
340
0
  0
BLOCK_RECORD
  5
F2
330
1
100
AcDbSymbolTableRecord
100
AcDbBlockTableRecord
  2
_D_2
340
0
  0
BLOCK_RECORD
  5
FC
330
1
100
AcDbSymbolTableRecord
100
AcDbBlockTableRecord
  2
_D_3
340
0
  0
BLOCK_RECORD
  5
108
330
1
100
AcDbSymbolTableRecord
100
AcDbBlockTableRecord
  2
_D_4
340
0
  0
BLOCK_RECORD
  5
113
330
1
100
AcDbSymbolTableRecord
100
AcDbBlockTableRecord
  2
SW_DOWELSYMBOL_0
340
0
102
{BLKREFS
331
119
102
}
  0
BLOCK_RECORD
  5
153
330
1
100
AcDbSymbolTableRecord
100
AcDbBlockTableRecord
  2
*D8
340
0
  0
ENDTAB
  0
ENDSEC
  0
SECTION
  2
BLOCKS
  0
BLOCK
  5
20
330
1F
100
AcDbEntity
  8
0
100
AcDbBlockBegin
  2
*Model_Space
 70
     0
 10
0.0
 20
0.0
 30
0.0
  3
*Model_Space
  1
*Model_Space
  0
ENDBLK
  5
21
330
1F
100
AcDbEntity
  8
0
100
AcDbBlockEnd
  0
BLOCK
  5
1C
330
1B
100
AcDbEntity
 67
     1
  8
0
100
AcDbBlockBegin
  2
*Paper_Space
 70
     0
 10
0.0
 20
0.0
 30
0.0
  3
*Paper_Space
  1
*Paper_Space
  0
ENDBLK
  5
1D
330
1B
100
AcDbEntity
 67
     1
  8
0
100
AcDbBlockEnd
  0
BLOCK
  5
24
330
23
100
AcDbEntity
  8
0
100
AcDbBlockBegin
  2
*Paper_Space0
 70
     0
 10
0.0
 20
0.0
 30
0.0
  3
*Paper_Space0
  1
*Paper_Space0
  0
ENDBLK
  5
25
330
23
100
AcDbEntity
  8
0
100
AcDbBlockEnd
  0
BLOCK
  5
83
330
82
100
AcDbEntity
  8
0
100
AcDbBlockBegin
  2
블럭10
 70
     2
 10
0.0
 20
0.0
 30
0.0
  3
블럭10
  1
블럭10
  0
ELLIPSE
  5
85
330
82
100
AcDbEntity
  8
중심선
100
AcDbEllipse
 10
20.54032771741204
 20
12.0471743016438
 30
0.0
 11
6.600054785286829
 21
-1.261213355974178E-13
 31
0.0
210
0.0
220
0.0
230
1.0
 40
0.636358354079598
 41
0.9219305317359503
 42
6.513795318482858
  0
ELLIPSE
  5
86
330
82
100
AcDbEntity
  8
중심선
100
AcDbEllipse
 10
20.54032771746488
 20
12.04717430159265
 30
0.0
 11
3.960054785062283
 21
1.540847449632565E-10
 31
0.0
210
0.0
220
0.0
230
1.0
 40
0.3939339440162632
 41
1.131841032648279
 42
5.62031148352944
  0
LINE
  5
87
330
82
100
AcDbEntity
  8
중심선
100
AcDbLine
 10
2.268634060543552
 20
16.24717430164393
 30
0.0
 11
5.714909304380834
 21
16.24717430164393
 31
0.0
  0
LINE
  5
88
330
82
100
AcDbEntity
  8
중심선
100
AcDbLine
 10
5.245725140726316
 20
7.84717430164391
 30
0.0
 11
8.692000384563599
 21
7.84717430164391
 31
0.0
  0
LINE
  5
89
330
82
100
AcDbEntity
  8
중심선
100
AcDbLine
 10
15.74043728645272
 20
16.24717430164393
 30
0.0
 11
8.692000384563599
 21
7.84717430164391
 31
0.0
  0
LINE
  5
8A
330
82
100
AcDbEntity
  8
중심선
100
AcDbLine
 10
0.1404042013395286
 20
13.71084872107135
 30
0.0
 11
3.58671253028996
 21
13.71088815037384
 31
0.0
  0
LINE
  5
8B
330
82
100
AcDbEntity
  8
중심선
100
AcDbLine
 10
2.750260043222114
 20
10.84717430164391
 30
0.0
 11
6.196535287059397
 21
10.84717430164391
 31
0.0
  0
LINE
  5
8C
330
82
100
AcDbEntity
  8
중심선
100
AcDbLine
 10
12.29416204261559
 20
16.24717430164393
 30
0.0
 11
5.245725140726316
 21
7.84717430164391
 31
0.0
  0
LINE
  5
8D
330
82
100
AcDbEntity
  8
중심선
100
AcDbLine
 10
10.72767329541681
 20
16.24717430164393
 30
0.0
 11
6.196535287059397
 21
10.84717430164391
 31
0.0
  0
LINE
  5
8E
330
82
100
AcDbEntity
  8
중심선
100
AcDbLine
 10
7.28139805157953
 20
16.24717430164393
 30
0.0
 11
2.750260043222114
 21
10.84717430164391
 31
0.0
  0
LINE
  5
8F
330
82
100
AcDbEntity
  8
중심선
100
AcDbLine
 10
5.714909304380834
 20
16.24717430164393
 30
0.0
 11
3.58671253028996
 21
13.71088815037384
 31
0.0
  0
LINE
  5
90
330
82
100
AcDbEntity
  8
중심선
100
AcDbLine
 10
2.268634060543552
 20
16.24717430164393
 30
0.0
 11
0.1404042013395286
 21
13.71084872107135
 31
0.0
  0
LINE
  5
91
330
82
100
AcDbEntity
  8
중심선
100
AcDbLine
 10
7.28139805157953
 20
16.24717430164393
 30
0.0
 11
10.72767329541681
 21
16.24717430164393
 31
0.0
  0
LINE
  5
92
330
82
100
AcDbEntity
  8
중심선
100
AcDbLine
 10
12.29416204261559
 20
16.24717430164393
 30
0.0
 11
15.74043728645272
 21
16.24717430164393
 31
0.0
  0
LINE
  5
93
330
82
100
AcDbEntity
  8
중심선
100
AcDbLine
 10
19.22036997980202
 20
11.08717430171403
 30
0.0
 11
23.66174974927406
 21
11.08717430171406
 31
0.0
  0
LINE
  5
94
330
82
100
AcDbEntity
  8
중심선
100
AcDbLine
 10
19.22039502424796
 20
13.00717430171391
 30
0.0
 11
19.22036997980202
 21
11.08717430171403
 31
0.0
  0
LINE
  5
95
330
82
100
AcDbEntity
  8
중심선
100
AcDbLine
 10
19.22039502424796
 20
13.00717430171391
 30
0.0
 11
26.96566020931264
 21
13.00717430171391
 31
0.0
  0
LINE
  5
96
330
82
100
AcDbEntity
  8
중심선
100
AcDbLine
 10
22.22332737316547
 20
13.45928029700563
 30
0.0
 11
24.52862924686651
 21
15.39360700705356
 31
0.0
  0
ATTDEF
  5
98
330
82
100
AcDbEntity
  8
FORMAT
 62
     2
100
AcDbText
 10
-20.85824753159254
 20
2.075366912832191
 30
0.0
 40
4.233333333333333
  1
SEME6116005150E [ 2 FLUTE ]
 41
0.75
  7
SLDTEXTSTYLE0
 11
-20.85824753159254
 21
-0.0412997538344756
 31
0.0
100
AcDbAttributeDefinition
  3

  2
AUTOATTR0
 70
     0
 74
     1
  0
ENDBLK
  5
84
330
82
100
AcDbEntity
  8
0
100
AcDbBlockEnd
  0
BLOCK
  5
DA
330
D9
100
AcDbEntity
  8
0
100
AcDbBlockBegin
  2
_D
 70
     0
 10
0.0
 20
0.0
 30
0.0
  3
_D
  1
_D
  0
LINE
  5
DC
330
D9
100
AcDbEntity
  8
치수문자_일반주서
 62
     0
370
    -2
100
AcDbLine
 10
-98.9125
 20
7.999999999999988
 30
0.0
 11
-111.3464580216121
 21
7.999999999999941
 31
0.0
  0
LINE
  5
DD
330
D9
100
AcDbEntity
  8
치수문자_일반주서
 62
     0
370
    -2
100
AcDbLine
 10
-98.9125
 20
-8.000000000000002
 30
0.0
 11
-111.346458021612
 21
-8.000000000000048
 31
0.0
  0
LINE
  5
DE
330
D9
100
AcDbEntity
  8
치수문자_일반주서
 62
     0
370
    -2
100
AcDbLine
 10
-111.346458021612
 20
4.697999999999942
 30
0.0
 11
-111.346458021612
 21
-4.698000000000048
 31
0.0
  0
SOLID
  5
DF
330
D9
100
AcDbEntity
  8
치수문자_일반주서
 62
     0
100
AcDbTrace
 10
-110.7961246882787
 20
4.697999999999944
 30
0.0
 11
-111.8967913549454
 21
4.69799999999994
 31
0.0
 12
-111.3464580216121
 22
7.999999999999941
 32
0.0
 13
-111.3464580216121
 23
7.999999999999941
 33
0.0
  0
SOLID
  5
E0
330
D9
100
AcDbEntity
  8
치수문자_일반주서
 62
     0
100
AcDbTrace
 10
-111.8967913549453
 20
-4.69800000000005
 30
0.0
 11
-110.7961246882787
 21
-4.698000000000047
 31
0.0
 12
-111.346458021612
 22
-8.000000000000048
 32
0.0
 13
-111.346458021612
 23
-8.000000000000048
 33
0.0
  0
MTEXT
  5
E1
330
D9
100
AcDbEntity
  8
치수문자_일반주서
 62
     0
100
AcDbMText
 10
-115.721458021612
 20
-0.0000000000000222
 30
0.0
 40
3.5
 41
0.0
 71
     2
 72
     1
  1
\A1;%%c16
  7
SLDTEXTSTYLE0
 11
-3.552713678800503E-15
 21
1.0
 31
0.0
 73
     1
 44
1.0
  0
POINT
  5
E2
330
D9
100
AcDbEntity
  8
Defpoints
 62
     0
100
AcDbPoint
 10
-98.85
 20
7.999999999999988
 30
0.0
  0
POINT
  5
E3
330
D9
100
AcDbEntity
  8
Defpoints
 62
     0
100
AcDbPoint
 10
-98.85
 20
-8.000000000000002
 30
0.0
  0
POINT
  5
E4
330
D9
100
AcDbEntity
  8
Defpoints
 62
     0
100
AcDbPoint
 10
-111.346458021612
 20
-8.000000000000048
 30
0.0
  0
ENDBLK
  5
DB
330
D9
100
AcDbEntity
  8
0
100
AcDbBlockEnd
  0
BLOCK
  5
E8
330
E7
100
AcDbEntity
  8
0
100
AcDbBlockBegin
  2
_D_1
 70
     0
 10
0.0
 20
0.0
 30
0.0
  3
_D_1
  1
_D_1
  0
LINE
  5
EA
330
E7
100
AcDbEntity
  8
치수문자_일반주서
 62
     0
370
    -2
100
AcDbLine
 10
50.15000000000001
 20
7.562499999999994
 30
0.0
 11
50.15000000000001
 21
25.99999999999964
 31
0.0
  0
LINE
  5
EB
330
E7
100
AcDbEntity
  8
치수문자_일반주서
 62
     0
370
    -2
100
AcDbLine
 10
15.15
 20
7.717372457964236
 30
0.0
 11
15.15
 21
25.99999999999964
 31
0.0
  0
LINE
  5
EC
330
E7
100
AcDbEntity
  8
치수문자_일반주서
 62
     0
370
    -2
100
AcDbLine
 10
46.84800000000001
 20
25.99999999999964
 30
0.0
 11
18.45199999999999
 21
25.99999999999964
 31
0.0
  0
SOLID
  5
ED
330
E7
100
AcDbEntity
  8
치수문자_일반주서
 62
     0
100
AcDbTrace
 10
46.84800000000001
 20
25.4496666666663
 30
0.0
 11
46.84800000000001
 21
26.55033333333297
 31
0.0
 12
50.15000000000001
 22
25.99999999999964
 32
0.0
 13
50.15000000000001
 23
25.99999999999964
 33
0.0
  0
SOLID
  5
EE
330
E7
100
AcDbEntity
  8
치수문자_일반주서
 62
     0
100
AcDbTrace
 10
18.45199999999999
 20
26.55033333333297
 30
0.0
 11
18.45199999999999
 21
25.4496666666663
 31
0.0
 12
15.15
 22
25.99999999999964
 32
0.0
 13
15.15
 23
25.99999999999964
 33
0.0
  0
MTEXT
  5
EF
330
E7
100
AcDbEntity
  8
치수문자_일반주서
 62
     0
100
AcDbMText
 10
32.65000000000001
 20
30.37499999999964
 30
0.0
 40
3.5
 41
0.0
 71
     2
 72
     1
  1
\A1;35
  7
SLDTEXTSTYLE0
 73
     1
 44
1.0
  0
POINT
  5
F0
330
E7
100
AcDbEntity
  8
Defpoints
 62
     0
100
AcDbPoint
 10
50.15000000000001
 20
7.499999999999994
 30
0.0
  0
POINT
  5
145
330
E7
100
AcDbEntity
  8
Defpoints
 62
     0
100
AcDbPoint
 10
15.15
 20
7.654872457964236
 30
0.0
  0
POINT
  5
146
330
E7
100
AcDbEntity
  8
Defpoints
 62
     0
100
AcDbPoint
 10
15.15
 20
25.99999999999964
 30
0.0
  0
ENDBLK
  5
E9
330
E7
100
AcDbEntity
  8
0
100
AcDbBlockEnd
  0
BLOCK
  5
F3
330
F2
100
AcDbEntity
  8
0
100
AcDbBlockBegin
  2
_D_2
 70
     0
 10
0.0
 20
0.0
 30
0.0
  3
_D_2
  1
_D_2
  0
LINE
  5
F5
330
F2
100
AcDbEntity
  8
치수문자_일반주서
 62
     0
370
    -2
100
AcDbLine
 10
50.15000000000001
 20
7.562499999999994
 30
0.0
 11
50.15000000000001
 21
48.05832450504428
 31
0.0
  0
LINE
  5
F6
330
F2
100
AcDbEntity
  8
치수문자_일반주서
 62
     0
370
    -2
100
AcDbLine
 10
-99.85
 20
7.062499999999986
 30
0.0
 11
-99.85
 21
48.05832450504428
 31
0.0
  0
LINE
  5
F7
330
F2
100
AcDbEntity
  8
치수문자_일반주서
 62
     0
370
    -2
100
AcDbLine
 10
46.84800000000001
 20
48.05832450504428
 30
0.0
 11
-96.54799999999999
 21
48.05832450504428
 31
0.0
  0
SOLID
  5
F8
330
F2
100
AcDbEntity
  8
치수문자_일반주서
 62
     0
100
AcDbTrace
 10
46.84800000000001
 20
47.50799117171095
 30
0.0
 11
46.84800000000001
 21
48.60865783837762
 31
0.0
 12
50.15000000000001
 22
48.05832450504428
 32
0.0
 13
50.15000000000001
 23
48.05832450504428
 33
0.0
  0
SOLID
  5
F9
330
F2
100
AcDbEntity
  8
치수문자_일반주서
 62
     0
100
AcDbTrace
 10
-96.54799999999999
 20
48.60865783837762
 30
0.0
 11
-96.54799999999999
 21
47.50799117171095
 31
0.0
 12
-99.85
 22
48.05832450504428
 32
0.0
 13
-99.85
 23
48.05832450504428
 33
0.0
  0
MTEXT
  5
FA
330
F2
100
AcDbEntity
  8
치수문자_일반주서
 62
     0
100
AcDbMText
 10
-24.84999999999999
 20
52.43332450504428
 30
0.0
 40
3.5
 41
0.0
 71
     2
 72
     1
  1
\A1;150
  7
SLDTEXTSTYLE0
 73
     1
 44
1.0
  0
POINT
  5
148
330
F2
100
AcDbEntity
  8
Defpoints
 62
     0
100
AcDbPoint
 10
50.15000000000001
 20
7.499999999999994
 30
0.0
  0
POINT
  5
149
330
F2
100
AcDbEntity
  8
Defpoints
 62
     0
100
AcDbPoint
 10
-99.85
 20
6.999999999999986
 30
0.0
  0
POINT
  5
14A
330
F2
100
AcDbEntity
  8
Defpoints
 62
     0
100
AcDbPoint
 10
-99.85
 20
48.05832450504428
 30
0.0
  0
ENDBLK
  5
F4
330
F2
100
AcDbEntity
  8
0
100
AcDbBlockEnd
  0
BLOCK
  5
FD
330
FC
100
AcDbEntity
  8
0
100
AcDbBlockBegin
  2
_D_3
 70
     0
 10
0.0
 20
0.0
 30
0.0
  3
_D_3
  1
_D_3
  0
LINE
  5
FF
330
FC
100
AcDbEntity
  8
치수문자_일반주서
 62
     0
370
    -2
100
AcDbLine
 10
50.15000000000001
 20
7.550971275547952
 30
0.0
 11
50.15000000000001
 21
34.69499999999866
 31
0.0
  0
LINE
  5
100
330
FC
100
AcDbEntity
  8
치수문자_일반주서
 62
     0
370
    -2
100
AcDbLine
 10
0.1500000000000004
 20
7.912499999999997
 30
0.0
 11
0.1499999999999986
 21
34.69499999999866
 31
0.0
  0
LINE
  5
101
330
FC
100
AcDbEntity
  8
치수문자_일반주서
 62
     0
370
    -2
100
AcDbLine
 10
46.84800000000001
 20
34.69499999999866
 30
0.0
 11
3.451999999999999
 21
34.69499999999866
 31
0.0
  0
SOLID
  5
102
330
FC
100
AcDbEntity
  8
치수문자_일반주서
 62
     0
100
AcDbTrace
 10
46.84800000000001
 20
34.14466666666532
 30
0.0
 11
46.84800000000001
 21
35.24533333333199
 31
0.0
 12
50.15000000000001
 22
34.69499999999866
 32
0.0
 13
50.15000000000001
 23
34.69499999999866
 33
0.0
  0
SOLID
  5
103
330
FC
100
AcDbEntity
  8
치수문자_일반주서
 62
     0
100
AcDbTrace
 10
3.451999999999999
 20
35.24533333333199
 30
0.0
 11
3.451999999999999
 21
34.14466666666532
 31
0.0
 12
0.1499999999999986
 22
34.69499999999866
 32
0.0
 13
0.1499999999999986
 23
34.69499999999866
 33
0.0
  0
MTEXT
  5
104
330
FC
100
AcDbEntity
  8
치수문자_일반주서
 62
     0
100
AcDbMText
 10
25.15000000000001
 20
39.06999999999866
 30
0.0
 40
3.5
 41
0.0
 71
     2
 72
     1
  1
\A1;50
  7
SLDTEXTSTYLE0
 73
     1
 44
1.0
  0
POINT
  5
105
330
FC
100
AcDbEntity
  8
Defpoints
 62
     0
100
AcDbPoint
 10
50.15000000000001
 20
7.488471275547952
 30
0.0
  0
POINT
  5
106
330
FC
100
AcDbEntity
  8
Defpoints
 62
     0
100
AcDbPoint
 10
0.1500000000000004
 20
7.849999999999997
 30
0.0
  0
POINT
  5
13F
330
FC
100
AcDbEntity
  8
Defpoints
 62
     0
100
AcDbPoint
 10
0.1500000000000004
 20
34.69499999999866
 30
0.0
  0
ENDBLK
  5
FE
330
FC
100
AcDbEntity
  8
0
100
AcDbBlockEnd
  0
BLOCK
  5
109
330
108
100
AcDbEntity
  8
0
100
AcDbBlockBegin
  2
_D_4
 70
     0
 10
0.0
 20
0.0
 30
0.0
  3
_D_4
  1
_D_4
  0
LINE
  5
10B
330
108
100
AcDbEntity
  8
치수문자_일반주서
 62
     0
370
    -2
100
AcDbLine
 10
50.21250000000001
 20
8.023052492482547
 30
0.0
 11
66.73842689177252
 21
8.02305249248261
 31
0.0
  0
LINE
  5
10C
330
108
100
AcDbEntity
  8
치수문자_일반주서
 62
     0
370
    -2
100
AcDbLine
 10
49.71250000000001
 20
-7.976134633533746
 30
0.0
 11
66.73842689177258
 21
-7.976134633533682
 31
0.0
  0
LINE
  5
10D
330
108
100
AcDbEntity
  8
치수문자_일반주서
 62
     0
370
    -2
100
AcDbLine
 10
66.73842689177253
 20
4.72105249248261
 30
0.0
 11
66.73842689177256
 21
-4.674134633533681
 31
0.0
  0
SOLID
  5
10E
330
108
100
AcDbEntity
  8
치수문자_일반주서
 62
     0
100
AcDbTrace
 10
67.28876022510586
 20
4.721052492482611
 30
0.0
 11
66.1880935584392
 21
4.721052492482608
 31
0.0
 12
66.73842689177252
 22
8.02305249248261
 32
0.0
 13
66.73842689177252
 23
8.02305249248261
 33
0.0
  0
SOLID
  5
10F
330
108
100
AcDbEntity
  8
치수문자_일반주서
 62
     0
100
AcDbTrace
 10
66.18809355843923
 20
-4.674134633533683
 30
0.0
 11
67.28876022510589
 21
-4.674134633533679
 31
0.0
 12
66.73842689177258
 22
-7.976134633533682
 32
0.0
 13
66.73842689177258
 23
-7.976134633533682
 33
0.0
  0
MTEXT
  5
110
330
108
100
AcDbEntity
  8
치수문자_일반주서
 62
     0
100
AcDbMText
 10
62.36342689177255
 20
0.000000000000045
 30
0.0
 40
3.5
 41
0.0
 71
     2
 72
     1
  1
\A1;%%c16
  7
SLDTEXTSTYLE0
 11
-3.552894182253477E-15
 21
1.0
 31
0.0
 73
     1
 44
1.0
  0
POINT
  5
111
330
108
100
AcDbEntity
  8
Defpoints
 62
     0
100
AcDbPoint
 10
50.15000000000001
 20
8.023052492482547
 30
0.0
  0
POINT
  5
112
330
108
100
AcDbEntity
  8
Defpoints
 62
     0
100
AcDbPoint
 10
49.65000000000001
 20
-7.976134633533746
 30
0.0
  0
POINT
  5
143
330
108
100
AcDbEntity
  8
Defpoints
 62
     0
100
AcDbPoint
 10
66.73842689177258
 20
-7.976134633533682
 30
0.0
  0
ENDBLK
  5
10A
330
108
100
AcDbEntity
  8
0
100
AcDbBlockEnd
  0
BLOCK
  5
114
330
113
100
AcDbEntity
  8
0
100
AcDbBlockBegin
  2
SW_DOWELSYMBOL_0
 70
     0
 10
0.0
 20
0.0
 30
0.0
  3
SW_DOWELSYMBOL_0
  1
SW_DOWELSYMBOL_0
  0
CIRCLE
  5
116
330
113
100
AcDbEntity
  8
외형선
 62
     0
100
AcDbCircle
 10
0.0
 20
0.0
 30
0.0
 40
3.000000000000004
  0
HATCH
  5
117
330
113
100
AcDbEntity
  8
0
  6
Continuous
 62
     0
370
    35
100
AcDbHatch
 10
0.0
 20
0.0
 30
0.0
210
0.0
220
0.0
230
1.0
  2
SOLID
 70
     1
 71
     0
 91
        1
 92
        0
 93
        3
 72
     2
 10
0.0000000000000104
 20
0.0
 40
3.000000000000004
 50
0.0
 51
90.0
 73
     1
 72
     1
 10
0.0000000000000104
 20
3.000000000000004
 11
0.0000000000000104
 21
0.0
 72
     1
 10
0.0000000000000104
 20
0.0
 11
3.000000000000015
 21
0.0
 97
        0
 75
     0
 76
     1
 98
        1
 10
0.0
 20
0.0
  0
HATCH
  5
118
330
113
100
AcDbEntity
  8
0
  6
Continuous
 62
     0
370
    35
100
AcDbHatch
 10
0.0
 20
0.0
 30
0.0
210
0.0
220
0.0
230
1.0
  2
SOLID
 70
     1
 71
     0
 91
        1
 92
        0
 93
        3
 72
     2
 10
0.0000000000000104
 20
0.0
 40
3.000000000000004
 50
180.0
 51
270.0000000000007
 73
     1
 72
     1
 10
0.0000000000000104
 20
-3.000000000000004
 11
0.0000000000000104
 21
0.0
 72
     1
 10
0.0000000000000104
 20
0.0
 11
-2.999999999999994
 21
0.0
 97
        0
 75
     0
 76
     1
 98
        1
 10
0.0
 20
0.0
  0
ENDBLK
  5
115
330
113
100
AcDbEntity
  8
0
100
AcDbBlockEnd
  0
BLOCK
  5
154
330
153
100
AcDbEntity
  8
0
100
AcDbBlockBegin
  2
*D8
 70
     1
 10
0.0
 20
0.0
 30
0.0
  3
*D8
  1
*D8
  0
LINE
  5
156
330
153
100
AcDbEntity
  8
치수문자_일반주서
 62
     0
370
    -2
100
AcDbLine
 10
51.97073652720086
 20
-10.48767675864434
 30
0.0
 11
64.73292662142963
 21
-27.04874374189043
 31
0.0
  0
MTEXT
  5
157
330
153
100
AcDbEntity
  8
치수문자_일반주서
 62
     0
100
AcDbMText
 10
64.00815404294104
 20
-21.80776398883174
 30
0.0
 40
3.5
 41
0.0
 71
     5
 72
     1
  1
\A1;R0.5
  7
SLDTEXTSTYLE0
 11
0.6103988761706615
 21
-0.7920941938744366
 31
0.0
 73
     1
 44
1.0
  0
SOLID
  5
158
330
153
100
AcDbEntity
  8
치수문자_일반주서
 62
     0
100
AcDbTrace
 10
52.40665236522976
 20
-10.15175391045842
 30
0.0
 11
51.53482068917197
 21
-10.82359960683026
 31
0.0
 12
49.95519943808534
 22
-7.872181730470952
 32
0.0
 13
49.95519943808534
 23
-7.872181730470952
 33
0.0
  0
LINE
  5
159
330
153
100
AcDbEntity
  8
치수문자_일반주서
 62
     0
100
AcDbLine
 10
49.56
 20
-7.476134633533732
 30
0.0
 11
49.74000000000001
 21
-7.476134633533732
 31
0.0
  0
LINE
  5
15A
330
153
100
AcDbEntity
  8
치수문자_일반주서
 62
     0
100
AcDbLine
 10
49.65000000000001
 20
-7.566134633533732
 30
0.0
 11
49.65000000000001
 21
-7.386134633533732
 31
0.0
  0
POINT
  5
15B
330
153
100
AcDbEntity
  8
Defpoints
 62
     0
100
AcDbPoint
 10
49.95519943808534
 20
-7.872181730470952
 30
0.0
  0
POINT
  5
15C
330
153
100
AcDbEntity
  8
Defpoints
 62
     0
100
AcDbPoint
 10
49.65000000000001
 20
-7.476134633533732
 30
0.0
  0
ENDBLK
  5
155
330
153
100
AcDbEntity
  8
0
100
AcDbBlockEnd
  0
ENDSEC
  0
SECTION
  2
ENTITIES
  0
LINE
  5
99
330
1F
100
AcDbEntity
  8
0
  6
Continuous
 62
     4
370
    25
100
AcDbLine
 10
0.0000000000000009
 20
7.999999999999996
 30
0.0
 11
-98.85
 21
7.999999999999991
 31
0.0
  0
LINE
  5
9A
330
1F
100
AcDbEntity
  8
0
  6
Continuous
 62
     4
370
    25
100
AcDbLine
 10
-98.85
 20
-8.000000000000005
 30
0.0
 11
0.0000000000000355
 21
-8.0
 31
0.0
1001
PE_URL
1000

  0
LINE
  5
9D
330
1F
100
AcDbEntity
  8
0
  6
Continuous
 62
     4
370
    25
100
AcDbLine
 10
-98.85
 20
7.999999999999988
 30
0.0
 11
-99.85
 21
6.999999999999988
 31
0.0
  0
LINE
  5
9E
330
1F
100
AcDbEntity
  8
0
  6
Continuous
 62
     4
370
    25
100
AcDbLine
 10
-99.85
 20
-7.000000000000001
 30
0.0
 11
-98.85
 21
-8.000000000000002
 31
0.0
  0
LINE
  5
9F
330
1F
100
AcDbEntity
  8
0
  6
Continuous
 62
     4
370
    25
100
AcDbLine
 10
12.0999827341602
 20
7.849999999999997
 30
0.0
 11
0.1500000000000004
 21
7.849999999999997
 31
0.0
  0
LINE
  5
A0
330
1F
100
AcDbEntity
  8
0
  6
Continuous
 62
     4
370
    25
100
AcDbLine
 10
0.1500000000000004
 20
-7.850000000000001
 30
0.0
 11
12.0999827341602
 21
-7.850000000000001
 31
0.0
  0
SPLINE
  5
A1
330
1F
100
AcDbEntity
  8
0
  6
Continuous
 62
     4
370
    25
100
AcDbSpline
210
0.0
220
0.0
230
1.0
 70
     8
 71
     3
 72
     9
 73
     5
 74
     0
 42
0.000000001
 43
0.00000001
 40
0.0
 40
0.0
 40
0.0
 40
0.0
 40
0.4988080734081353
 40
1.0
 40
1.0
 40
1.0
 40
1.0
 10
14.59217138274758
 20
-6.672243414265771
 30
0.0
 10
14.68515462368036
 20
-6.662310980124044
 30
0.0
 10
14.8715654816632
 20
-6.642398643754142
 30
0.0
 10
15.05704111166403
 20
-6.622100004181226
 30
0.0
 10
15.15
 20
-6.611926489906481
 30
0.0
  0
SPLINE
  5
A2
330
1F
100
AcDbEntity
  8
0
  6
Continuous
 62
     1
370
    25
100
AcDbSpline
210
0.0
220
0.0
230
1.0
 70
     8
 71
     3
 72
     9
 73
     5
 74
     0
 42
0.000000001
 43
0.00000001
 40
0.0
 40
0.0
 40
0.0
 40
0.0
 40
0.5251651274780796
 40
1.0
 40
1.0
 40
1.0
 40
1.0
 10
29.42330261539377
 20
2.049986706068184
 30
0.0
 10
29.03512169080508
 20
2.23540659526657
 30
0.0
 10
28.29596194032283
 20
2.588476286106098
 30
0.0
 10
27.55632798205648
 20
2.975969807692705
 30
0.0
 10
27.2051239857702
 20
3.159965244618351
 30
0.0
  0
SPLINE
  5
A3
330
1F
100
AcDbEntity
  8
0
  6
Continuous
 62
     1
370
    25
100
AcDbSpline
210
0.0
220
0.0
230
1.0
 70
     8
 71
     3
 72
    15
 73
    11
 74
     0
 42
0.000000001
 43
0.00000001
 40
0.0
 40
0.0
 40
0.0
 40
0.0
 40
0.1363779886903609
 40
0.2375206850696127
 40
0.3099685382253313
 40
0.3850644529259089
 40
0.4672847013603399
 40
0.6410215595410617
 40
0.8223769348137668
 40
1.0
 40
1.0
 40
1.0
 40
1.0
 10
26.77877154707268
 20
6.357100618279539
 30
0.0
 10
26.4816580343134
 20
6.342192911125954
 30
0.0
 10
25.96419472684191
 20
6.316229125841104
 30
0.0
 10
25.28958407514468
 20
6.290946667112445
 30
0.0
 10
24.74620959750195
 20
6.27436041747451
 30
0.0
 10
24.24031649430488
 20
6.262409741476295
 30
0.0
 10
23.50749590397321
 20
6.250182913786475
 30
0.0
 10
22.54233901258356
 20
6.244994183641372
 30
0.0
 10
21.37471959460708
 20
6.255201765732441
 30
0.0
 10
20.58686970899116
 20
6.278579162890965
 30
0.0
 10
20.19704041614892
 20
6.290146333705078
 30
0.0
  0
SPLINE
  5
A4
330
1F
100
AcDbEntity
  8
0
  6
Continuous
 62
     1
370
    25
100
AcDbSpline
210
0.0
220
0.0
230
1.0
 70
     8
 71
     3
 72
    25
 73
    21
 74
     0
 42
0.000000001
 43
0.00000001
 40
0.0
 40
0.0
 40
0.0
 40
0.0
 40
0.0732154655526986
 40
0.1327433365919865
 40
0.1829388849223777
 40
0.2161937002903647
 40
0.2418533252143877
 40
0.2671519001226464
 40
0.292118735912871
 40
0.3170167352659894
 40
0.3422051682607003
 40
0.4138788894273148
 40
0.5000329856969098
 40
0.6179712088204133
 40
0.7201414408740381
 40
0.7645729379204734
 40
0.8092343571912357
 40
0.8520549344011872
 40
0.9157580493278578
 40
1.0
 40
1.0
 40
1.0
 40
1.0
 10
47.17819126218498
 20
5.471646593124327
 30
0.0
 10
46.83106172420236
 20
5.443465177974126
 30
0.0
 10
46.20169834102092
 20
5.392370849082244
 30
0.0
 10
45.33948343629491
 20
5.340653900626323
 30
0.0
 10
44.66891519221156
 20
5.309130036503324
 30
0.0
 10
44.17164529754408
 20
5.29203491790539
 30
0.0
 10
43.79774388300169
 20
5.281806996053077
 30
0.0
 10
43.45107891511496
 20
5.274113267338016
 30
0.0
 10
43.10321367063295
 20
5.268581685245597
 30
0.0
 10
42.75247618036436
 20
5.265239017682303
 30
0.0
 10
42.18499816845551
 20
5.263487639955755
 30
0.0
 10
41.33192074950839
 20
5.271565719538191
 30
0.0
 10
40.0464557520388
 20
5.309582382827505
 30
0.0
 10
38.61708092799903
 20
5.389392104629779
 30
0.0
 10
37.38075620414529
 20
5.491653191774978
 30
0.0
 10
36.49335060169875
 20
5.581089134949778
 30
0.0
 10
35.88630683689711
 20
5.648379272335633
 30
0.0
 10
35.1835114069288
 20
5.733184700801184
 30
0.0
 10
34.29171293024235
 20
5.850614255779152
 30
0.0
 10
33.59788404297289
 20
5.956673781477153
 30
0.0
 10
33.20280835281937
 20
6.017065530914678
 30
0.0
  0
SPLINE
  5
A5
330
1F
100
AcDbEntity
  8
0
  6
Continuous
 62
     1
370
    25
100
AcDbSpline
210
0.0
220
0.0
230
1.0
 70
     8
 71
     3
 72
    14
 73
    10
 74
     0
 42
0.000000001
 43
0.00000001
 40
0.0
 40
0.0
 40
0.0
 40
0.0
 40
0.1962774807402986
 40
0.3447010014844732
 40
0.4444697621975866
 40
0.6001865828422054
 40
0.764339054108462
 40
0.9566546364201856
 40
1.0
 40
1.0
 40
1.0
 40
1.0
 10
33.20280835281935
 20
-6.017065530914679
 30
0.0
 10
33.59786836832838
 20
-5.956678851913885
 30
0.0
 10
34.29166972790773
 20
-5.850628230877861
 30
0.0
 10
35.18361971852218
 20
-5.733149664148123
 30
0.0
 10
35.98905254790673
 20
-5.636046455903926
 30
0.0
 10
36.81812732779712
 20
-5.545721646931453
 30
0.0
 10
37.8423746093108
 20
-5.452786711637861
 30
0.0
 10
38.64533693230671
 20
-5.389237016815219
 30
0.0
 10
39.11711557305271
 20
-5.365539038080434
 30
0.0
 10
39.20389031052549
 20
-5.361180244133986
 30
0.0
  0
SPLINE
  5
A6
330
1F
100
AcDbEntity
  8
0
  6
Continuous
 62
     1
370
    25
100
AcDbSpline
210
0.0
220
0.0
230
1.0
 70
     8
 71
     3
 72
    19
 73
    15
 74
     0
 42
0.000000001
 43
0.00000001
 40
0.0
 40
0.0
 40
0.0
 40
0.0
 40
0.1161084368084952
 40
0.2044327287780091
 40
0.2718451657998116
 40
0.3420006354121133
 40
0.4429279235265687
 40
0.5243962304190701
 40
0.62852436561695
 40
0.7280193950585951
 40
0.765439994668619
 40
0.8213201812556769
 40
0.8994862522114929
 40
1.0
 40
1.0
 40
1.0
 40
1.0
 10
15.15
 20
-6.611926489906481
 30
0.0
 10
15.60471792601868
 20
-6.572643058563421
 30
0.0
 10
16.40534214416745
 20
-6.503476516613754
 30
0.0
 10
17.47157665160626
 20
-6.425880331524588
 30
0.0
 10
18.34409508160936
 20
-6.371539043007139
 30
0.0
 10
19.26641612563389
 20
-6.323723844192381
 30
0.0
 10
20.24238931378578
 20
-6.285318584594674
 30
0.0
 10
21.34995025212885
 20
-6.257209211872701
 30
0.0
 10
22.45246421598969
 20
-6.244913075084093
 30
0.0
 10
23.38401323593049
 20
-6.249172739017487
 30
0.0
 10
24.12918135324817
 20
-6.260387049823624
 30
0.0
 10
24.79160013113551
 20
-6.275190528434933
 30
0.0
 10
25.69798765655601
 20
-6.303937929466453
 30
0.0
 10
26.38967361500231
 20
-6.337961276490697
 30
0.0
 10
26.77877154707268
 20
-6.357100618279536
 30
0.0
  0
LINE
  5
A8
330
1F
100
AcDbEntity
  8
0
  6
Continuous
 62
     4
370
    25
100
AcDbLine
 10
-98.85
 20
7.999999999999988
 30
0.0
 11
-98.85
 21
-8.000000000000002
 31
0.0
  0
LINE
  5
A9
330
1F
100
AcDbEntity
  8
0
  6
Continuous
 62
     4
370
    25
100
AcDbLine
 10
0.1500000000000004
 20
7.849999999999997
 30
0.0
 11
0.1500000000000004
 21
-7.850000000000001
 31
0.0
1001
PE_URL
1000

  0
LINE
  5
AA
330
1F
100
AcDbEntity
  8
0
  6
Continuous
 62
     4
370
    25
100
AcDbLine
 10
-99.85
 20
6.999999999999986
 30
0.0
 11
-99.85
 21
-7.000000000000001
 31
0.0
  0
SPLINE
  5
AB
330
1F
100
AcDbEntity
  8
0
  6
Continuous
 62
     4
370
    25
100
AcDbSpline
210
0.0
220
0.0
230
1.0
 70
     8
 71
     3
 72
    10
 73
     6
 74
     0
 42
0.000000001
 43
0.00000001
 40
0.0
 40
0.0
 40
0.0
 40
0.0
 40
0.5
 40
0.5
 40
1.0
 40
1.0
 40
1.0
 40
1.0
 10
15.15
 20
7.529349498681153
 30
0.0
 10
14.64222818442689
 20
7.610804099722048
 30
0.0
 10
14.13575805608401
 20
7.677008474782842
 30
0.0
 10
13.1164801227259
 20
7.778389845051638
 30
0.0
 10
12.60622358793657
 20
7.813419491837342
 30
0.0
 10
12.09996468656076
 20
7.832575017576568
 30
0.0
  0
LINE
  5
AC
330
1F
100
AcDbEntity
  8
0
  6
Continuous
 62
     4
370
    25
100
AcDbLine
 10
15.15
 20
6.715181527006581
 30
0.0
 11
15.15
 21
6.611523775009469
 31
0.0
  0
SPLINE
  5
AD
330
1F
100
AcDbEntity
  8
0
  6
Continuous
 62
     4
370
    25
100
AcDbSpline
210
0.0
220
0.0
230
1.0
 70
     8
 71
     3
 72
    10
 73
     6
 74
     0
 42
0.000000001
 43
0.00000001
 40
0.0
 40
0.0
 40
0.0
 40
0.0
 40
0.5
 40
0.5
 40
1.0
 40
1.0
 40
1.0
 40
1.0
 10
15.15
 20
6.611523775009469
 30
0.0
 10
14.64223120134882
 20
6.76675495562285
 30
0.0
 10
14.13576410470268
 20
6.908523944033117
 30
0.0
 10
13.11649224220064
 20
7.164150160410029
 30
0.0
 10
12.60623872235156
 20
7.27773564269492
 30
0.0
 10
12.09998273416023
 20
7.376161055986502
 30
0.0
  0
SPLINE
  5
AE
330
1F
100
AcDbEntity
  8
0
  6
Continuous
 62
     4
370
    25
100
AcDbSpline
210
0.0
220
0.0
230
1.0
 70
     8
 71
     3
 72
    10
 73
     6
 74
     0
 42
0.000000001
 43
0.00000001
 40
0.0
 40
0.0
 40
0.0
 40
0.0
 40
0.5
 40
0.5
 40
1.0
 40
1.0
 40
1.0
 40
1.0
 10
15.15
 20
-7.529349498681153
 30
0.0
 10
14.64222818442689
 20
-7.610804099722051
 30
0.0
 10
14.13575805608403
 20
-7.677008474782844
 30
0.0
 10
13.1164801227259
 20
-7.77838984505164
 30
0.0
 10
12.60622358793657
 20
-7.813419491837346
 30
0.0
 10
12.09996468656076
 20
-7.832575017576571
 30
0.0
  0
LINE
  5
AF
330
1F
100
AcDbEntity
  8
0
  6
Continuous
 62
     4
370
    25
100
AcDbLine
 10
12.0999827341602
 20
7.832599285755204
 30
0.0
 11
12.0999827341602
 21
7.849999999999997
 31
0.0
  0
LINE
  5
B0
330
1F
100
AcDbEntity
  8
0
  6
Continuous
 62
     4
370
    25
100
AcDbLine
 10
12.0999827341602
 20
-7.850000000000001
 30
0.0
 11
12.09998273416022
 21
7.376180221805247
 31
0.0
  0
SPLINE
  5
B1
330
1F
100
AcDbEntity
  8
0
  6
Continuous
 62
     4
370
    25
100
AcDbSpline
210
0.0
220
0.0
230
1.0
 70
    24
 71
     3
 72
    14
 73
    10
 74
     0
 42
0.000000001
 43
0.00000001
 40
0.0
 40
0.0
 40
0.0
 40
0.0
 40
0.25
 40
0.25
 40
0.5
 40
0.5
 40
0.75
 40
0.75
 40
1.0
 40
1.0
 40
1.0
 40
1.0
 10
15.15
 20
4.571541647192605
 30
0.0
 10
15.15
 20
4.048454951901056
 30
0.0
 10
15.15000000000001
 20
3.449964526396155
 30
0.0
 10
15.15
 20
2.139865530096873
 30
0.0
 10
15.15000000000001
 20
1.428673884704297
 30
0.0
 10
15.15
 20
-0.0407773131627263
 30
0.0
 10
15.15
 20
-0.7982538806038106
 30
0.0
 10
15.15
 20
-2.284713384865316
 30
0.0
 10
15.15000000000001
 20
-3.013031688434526
 30
0.0
 10
15.15
 20
-3.696397711260952
 30
0.0
  0
SPLINE
  5
B2
330
1F
100
AcDbEntity
  8
0
  6
Continuous
 62
     4
370
    25
100
AcDbSpline
210
0.0
220
0.0
230
1.0
 70
     8
 71
     3
 72
    10
 73
     6
 74
     0
 42
0.000000001
 43
0.00000001
 40
0.0
 40
0.0
 40
0.0
 40
0.0
 40
0.5
 40
0.5
 40
1.0
 40
1.0
 40
1.0
 40
1.0
 10
15.15
 20
-3.696397711260955
 30
0.0
 10
14.64223009893172
 20
-3.5047588126942
 30
0.0
 10
14.13576189446963
 20
-3.305829954026957
 30
0.0
 10
13.11648781360864
 20
-2.894585559045423
 30
0.0
 10
12.6062331920665
 20
-2.682591616871451
 30
0.0
 10
12.0999761393646
 20
-2.466183775697815
 30
0.0
  0
SPLINE
  5
B3
330
1F
100
AcDbEntity
  8
0
  6
Continuous
 62
     4
370
    25
100
AcDbSpline
210
0.0
220
0.0
230
1.0
 70
     8
 71
     3
 72
    10
 73
     6
 74
     0
 42
0.000000001
 43
0.00000001
 40
0.0
 40
0.0
 40
0.0
 40
0.0
 40
0.5
 40
0.5
 40
1.0
 40
1.0
 40
1.0
 40
1.0
 10
15.15
 20
4.571541647192605
 30
0.0
 10
14.64223047394496
 20
4.690177365321058
 30
0.0
 10
14.13576264633265
 20
4.799495015241213
 30
0.0
 10
13.11648932009888
 20
4.9987406136643
 30
0.0
 10
12.60623507332364
 20
5.088461443490698
 30
0.0
 10
12.09997838274013
 20
5.16753493860754
 30
0.0
  0
LINE
  5
B4
330
1F
100
AcDbEntity
  8
0
  6
Continuous
 62
     4
370
    25
100
AcDbLine
 10
14.59517028647508
 20
-6.647622310334826
 30
0.0
 11
12.09996468656076
 21
-6.799301514049993
 31
0.0
  0
SPLINE
  5
B5
330
1F
100
AcDbEntity
  8
0
  6
Continuous
 62
     4
370
    25
100
AcDbSpline
210
0.0
220
0.0
230
1.0
 70
    24
 71
     3
 72
    13
 73
     9
 74
     0
 42
0.000000001
 43
0.00000001
 40
0.0
 40
0.0
 40
0.0
 40
0.0
 40
0.1403504369649545
 40
0.2825283242696593
 40
0.4891269409367215
 40
0.701716931483113
 40
0.8882823822176241
 40
1.0
 40
1.0
 40
1.0
 40
1.0
 10
15.15
 20
-3.696397711260951
 30
0.0
 10
15.15
 20
-3.935581406068697
 30
0.0
 10
15.15000000000002
 20
-4.417063116763559
 30
0.0
 10
15.15
 20
-5.128904293915722
 30
0.0
 10
15.14999999999998
 20
-5.80399618877764
 30
0.0
 10
15.15000000000002
 20
-6.300970172832416
 30
0.0
 10
15.15
 20
-6.564720567268457
 30
0.0
 10
15.15
 20
-6.581062259325024
 30
0.0
 10
15.15
 20
-6.587182804202648
 30
0.0
  0
SPLINE
  5
B6
330
1F
100
AcDbEntity
  8
0
  6
Continuous
 62
     4
370
    25
100
AcDbSpline
210
0.0
220
0.0
230
1.0
 70
    24
 71
     3
 72
    10
 73
     6
 74
     0
 42
0.000000001
 43
0.00000001
 40
0.0
 40
0.0
 40
0.0
 40
0.0
 40
0.5
 40
0.5
 40
1.0
 40
1.0
 40
1.0
 40
1.0
 10
15.15
 20
6.61152377500946
 30
0.0
 10
15.15000000000001
 20
6.344883352597441
 30
0.0
 10
15.15000000000001
 20
6.019684074043266
 30
0.0
 10
15.15000000000001
 20
5.315129103412185
 30
0.0
 10
15.15000000000001
 20
4.93743800260497
 30
0.0
 10
15.15
 20
4.571541647192602
 30
0.0
  0
SPLINE
  5
B7
330
1F
100
AcDbEntity
  8
0
  6
Continuous
 62
     4
370
    25
100
AcDbSpline
210
0.0
220
0.0
230
1.0
 70
    24
 71
     3
 72
    11
 73
     7
 74
     0
 42
0.000000001
 43
0.00000001
 40
0.0
 40
0.0
 40
0.0
 40
0.0
 40
0.4459871014986248
 40
0.7166309667810672
 40
0.9876060303860645
 40
1.0
 40
1.0
 40
1.0
 40
1.0
 10
15.15
 20
-6.685415457747408
 30
0.0
 10
15.15
 20
-6.815541712501958
 30
0.0
 10
15.14999999999998
 20
-7.024634090812901
 30
0.0
 10
15.15000000000001
 20
-7.299453310094484
 30
0.0
 10
15.14999999999993
 20
-7.45016623473339
 30
0.0
 10
15.15
 20
-7.526031318388498
 30
0.0
 10
15.15
 20
-7.529349498681171
 30
0.0
  0
SPLINE
  5
B8
330
1F
100
AcDbEntity
  8
0
  6
Continuous
 62
     1
370
    25
100
AcDbSpline
210
0.0
220
0.0
230
1.0
 70
     8
 71
     3
 72
    14
 73
    10
 74
     0
 42
0.000000001
 43
0.00000001
 40
0.0
 40
0.0
 40
0.0
 40
0.0
 40
0.1525534796531132
 40
0.3051673387993267
 40
0.4578117991096184
 40
0.6104569240325189
 40
0.7630727735766418
 40
0.9156295591314179
 40
0.9999999999999999
 40
0.9999999999999999
 40
0.9999999999999999
 40
0.9999999999999999
 10
50.15000000000001
 20
-6.311778114945724
 30
0.0
 10
49.09347812163534
 20
-6.08686345837879
 30
0.0
 10
46.9800162016782
 20
-5.636945125754928
 30
0.0
 10
43.80914198729372
 20
-4.580072614935783
 30
0.0
 10
40.6375568496595
 20
-3.308314449328513
 30
0.0
 10
37.46595671245372
 20
-1.85635848703117
 30
0.0
 10
34.29503255571096
 20
-0.3145321260651469
 30
0.0
 10
31.59721856833127
 20
1.028221472811448
 30
0.0
 10
29.95633962210165
 20
1.790037392152292
 30
0.0
 10
29.37201808930327
 20
2.061322148850708
 30
0.0
  0
SPLINE
  5
B9
330
1F
100
AcDbEntity
  8
0
  6
Continuous
 62
     1
370
    25
100
AcDbSpline
210
0.0
220
0.0
230
1.0
 70
    24
 71
     3
 72
     8
 73
     4
 74
     0
 42
0.000000001
 43
0.00000001
 40
0.0
 40
0.0
 40
0.0
 40
0.0
 40
1.0
 40
1.0
 40
1.0
 40
1.0
 10
50.15000000000001
 20
-7.052700766019715
 30
0.0
 10
50.15000000000001
 20
-6.805153355823829
 30
0.0
 10
50.15000000000001
 20
-6.557651211643244
 30
0.0
 10
50.15000000000001
 20
-6.311778114945724
 30
0.0
  0
SPLINE
  5
BA
330
1F
100
AcDbEntity
  8
0
  6
Continuous
 62
     1
370
    25
100
AcDbSpline
210
0.0
220
0.0
230
1.0
 70
     8
 71
     3
 72
    14
 73
    10
 74
     0
 42
0.000000001
 43
0.00000001
 40
0.0
 40
0.0
 40
0.0
 40
0.0
 40
0.25
 40
0.25
 40
0.5
 40
0.5
 40
0.75
 40
0.75
 40
1.0
 40
1.0
 40
1.0
 40
1.0
 10
50.15000000000001
 20
-7.052700766019715
 30
0.0
 10
50.15000000000001
 20
-7.121634948419779
 30
0.0
 10
50.13735481629553
 20
-7.190170240048139
 30
0.0
 10
50.08554813348422
 20
-7.314194761580973
 30
0.0
 10
50.04582949766442
 20
-7.369712050156188
 30
0.0
 10
49.94839563971466
 20
-7.452911251733098
 30
0.0
 10
49.89052665122158
 20
-7.481033250873419
 30
0.0
 10
49.77088053180093
 20
-7.508024597747939
 30
0.0
 10
49.70968739867887
 20
-7.507422727070937
 30
0.0
 10
49.65000000000009
 20
-7.495373581295132
 30
0.0
  0
SPLINE
  5
BB
330
1F
100
AcDbEntity
  8
0
  6
Continuous
 62
     1
370
    25
100
AcDbSpline
210
0.0
220
0.0
230
1.0
 70
     8
 71
     3
 72
    56
 73
    52
 74
     0
 42
0.000000001
 43
0.00000001
 40
0.0
 40
0.0
 40
0.0
 40
0.0
 40
0.0625000000000005
 40
0.0625000000000005
 40
0.1250000000000009
 40
0.1250000000000009
 40
0.1562500000000012
 40
0.1562500000000012
 40
0.1875000000000014
 40
0.1875000000000014
 40
0.2500000000000019
 40
0.2500000000000019
 40
0.2812500000000023
 40
0.2812500000000023
 40
0.3125000000000028
 40
0.3125000000000028
 40
0.3750000000000037
 40
0.3750000000000037
 40
0.4375000000000046
 40
0.4375000000000046
 40
0.468750000000005
 40
0.468750000000005
 40
0.5000000000000054
 40
0.5000000000000054
 40
0.5312500000000054
 40
0.5312500000000054
 40
0.5625000000000052
 40
0.5625000000000052
 40
0.593750000000005
 40
0.593750000000005
 40
0.6250000000000049
 40
0.6250000000000049
 40
0.6875000000000043
 40
0.6875000000000043
 40
0.7187500000000039
 40
0.7187500000000039
 40
0.7500000000000034
 40
0.7500000000000034
 40
0.781250000000003
 40
0.781250000000003
 40
0.8125000000000026
 40
0.8125000000000026
 40
0.8437500000000021
 40
0.8437500000000021
 40
0.8750000000000017
 40
0.8750000000000017
 40
0.9062500000000013
 40
0.9062500000000013
 40
0.937500000000001
 40
0.937500000000001
 40
1.0
 40
1.0
 40
1.0
 40
1.0
 10
49.65000000000004
 20
-7.495373581294726
 30
0.0
 10
48.93164183362953
 20
-7.35035800920675
 30
0.0
 10
48.20807940261452
 20
-7.17457685706412
 30
0.0
 10
46.77665772953046
 20
-6.768042839930523
 30
0.0
 10
46.05422129908976
 20
-6.535943376634516
 30
0.0
 10
44.97583381594598
 20
-6.150200816536874
 30
0.0
 10
44.61876357409493
 20
-6.015583470192933
 30
0.0
 10
43.90065960754725
 20
-5.734010506517815
 30
0.0
 10
43.54022776341601
 20
-5.587111382325255
 30
0.0
 10
42.45969397610548
 20
-5.130021572051548
 30
0.0
 10
41.74521417644233
 20
-4.804192379233406
 30
0.0
 10
40.66522680497518
 20
-4.287143677369257
 30
0.0
 10
40.30462868471568
 20
-4.110187172113484
 30
0.0
 10
39.5855003480867
 20
-3.748676552349715
 30
0.0
 10
39.22832216367365
 20
-3.564363525570674
 30
0.0
 10
38.15156939341639
 20
-3.000325411189394
 30
0.0
 10
37.42790875884712
 20
-2.609597495761805
 30
0.0
 10
35.99505995441429
 20
-1.81288662018415
 30
0.0
 10
35.27416369966648
 20
-1.40476824531559
 30
0.0
 10
34.19518815725905
 20
-0.7869911335023994
 30
0.0
 10
33.83785382371121
 20
-0.5805088549673031
 30
0.0
 10
33.12030199820829
 20
-0.1662396698768593
 30
0.0
 10
32.75999229281207
 20
0.0415666402581295
 30
0.0
 10
32.03956916895132
 20
0.4566385779471826
 30
0.0
 10
31.67945905029986
 20
0.6639023047879572
 30
0.0
 10
30.96269956228275
 20
1.07601236089486
 30
0.0
 10
30.60474525251654
 20
1.281111269031523
 30
0.0
 10
29.88501173817419
 20
1.689036444002836
 30
0.0
 10
29.52438725732467
 20
1.891639895026952
 30
0.0
 10
28.80489620648092
 20
2.292290710019395
 30
0.0
 10
28.44735752782185
 20
2.490097279517578
 30
0.0
 10
27.37147664514672
 20
3.076003434022138
 30
0.0
 10
26.64777766369403
 20
3.456879042228172
 30
0.0
 10
25.57215754591081
 20
4.003291297681998
 30
0.0
 10
25.21448284101325
 20
4.181438807361196
 30
0.0
 10
24.49490041079737
 20
4.529633887298846
 30
0.0
 10
24.13427384988758
 20
4.699461531437672
 30
0.0
 10
23.41462345739387
 20
5.029034616798849
 30
0.0
 10
23.05683225151295
 20
5.188604371230125
 30
0.0
 10
22.33989076228046
 20
5.497187672982617
 30
0.0
 10
21.97973271039866
 20
5.646331617616039
 30
0.0
 10
21.25930129771801
 20
5.932917591912187
 30
0.0
 10
20.89903123699743
 20
6.070358301491822
 30
0.0
 10
20.18164508500718
 20
6.332340026964826
 30
0.0
 10
19.82420181209688
 20
6.456941039343884
 30
0.0
 10
19.10478515315435
 20
6.693386441798301
 30
0.0
 10
18.74416391269979
 20
6.805061150782088
 30
0.0
 10
18.02436887033319
 20
7.014293770811749
 30
0.0
 10
17.66627697225293
 20
7.11176210733181
 30
0.0
 10
16.59135514868586
 20
7.382481707360841
 30
0.0
 10
15.8676776876534
 20
7.53436716988922
 30
0.0
 10
15.15
 20
7.654872457964235
 30
0.0
  0
SPLINE
  5
BC
330
1F
100
AcDbEntity
  8
0
  6
Continuous
 62
     1
370
    25
100
AcDbSpline
210
0.0
220
0.0
230
1.0
 70
     8
 71
     3
 72
    56
 73
    52
 74
     0
 42
0.000000001
 43
0.00000001
 40
0.0
 40
0.0
 40
0.0
 40
0.0
 40
0.0625000000000009
 40
0.0625000000000009
 40
0.1250000000000017
 40
0.1250000000000017
 40
0.156250000000002
 40
0.156250000000002
 40
0.1875000000000022
 40
0.1875000000000022
 40
0.2500000000000022
 40
0.2500000000000022
 40
0.2812500000000019
 40
0.2812500000000019
 40
0.3125000000000017
 40
0.3125000000000017
 40
0.3750000000000012
 40
0.3750000000000012
 40
0.4375000000000008
 40
0.4375000000000008
 40
0.4687500000000006
 40
0.4687500000000006
 40
0.5000000000000003
 40
0.5000000000000003
 40
0.5312500000000001
 40
0.5312500000000001
 40
0.5625000000000001
 40
0.5625000000000001
 40
0.5937500000000001
 40
0.5937500000000001
 40
0.6250000000000001
 40
0.6250000000000001
 40
0.6875000000000003
 40
0.6875000000000003
 40
0.7187500000000003
 40
0.7187500000000003
 40
0.7500000000000002
 40
0.7500000000000002
 40
0.7812500000000002
 40
0.7812500000000002
 40
0.8125000000000002
 40
0.8125000000000002
 40
0.8437500000000002
 40
0.8437500000000002
 40
0.8750000000000002
 40
0.8750000000000002
 40
0.9062500000000002
 40
0.9062500000000002
 40
0.9375000000000002
 40
0.9375000000000002
 40
1.0
 40
1.0
 40
1.0
 40
1.0
 10
49.65000000000001
 20
-7.976134633533746
 30
0.0
 10
48.93164183362946
 20
-7.944112627678397
 30
0.0
 10
48.20807940261447
 20
-7.879643253831538
 30
0.0
 10
46.77665772953044
 20
-7.688370396741253
 30
0.0
 10
46.05422129908973
 20
-7.560949148492064
 30
0.0
 10
44.97583381594595
 20
-7.325138003667697
 30
0.0
 10
44.61876357409489
 20
-7.239254277018222
 30
0.0
 10
43.9006596075472
 20
-7.0527653822613
 30
0.0
 10
43.54022776341596
 20
-6.952185431931746
 30
0.0
 10
42.45969397610543
 20
-6.629741543164195
 30
0.0
 10
41.74521417644228
 20
-6.387742051107117
 30
0.0
 10
40.66522680497518
 20
-5.98668347785763
 30
0.0
 10
40.30462868471565
 20
-5.846731714788135
 30
0.0
 10
39.58550034808668
 20
-5.555581597576777
 30
0.0
 10
39.22832216367367
 20
-5.404586527940878
 30
0.0
 10
38.15156939341637
 20
-4.935005900213223
 30
0.0
 10
37.42790875884708
 20
-4.599825477636113
 30
0.0
 10
35.99505995441425
 20
-3.897386774926009
 30
0.0
 10
35.27416369966643
 20
-3.528265817072162
 30
0.0
 10
34.19518815725901
 20
-2.955857927756526
 30
0.0
 10
33.83785382371121
 20
-2.762296046710769
 30
0.0
 10
33.12030199820826
 20
-2.369485261421431
 30
0.0
 10
32.75999229281204
 20
-2.170210512090002
 30
0.0
 10
32.03956916895128
 20
-1.767711291141594
 30
0.0
 10
31.67945905029983
 20
-1.564488667631512
 30
0.0
 10
30.96269956228274
 20
-1.155956525931175
 30
0.0
 10
30.60474525251654
 20
-0.9504021207995582
 30
0.0
 10
29.88501173817419
 20
-0.5370592185059475
 30
0.0
 10
29.52438725732465
 20
-0.3294909164236743
 30
0.0
 10
28.8048962064809
 20
0.0855549996505554
 30
0.0
 10
28.44735752782183
 20
0.2927761210033543
 30
0.0
 10
27.3714766451467
 20
0.913557194931384
 30
0.0
 10
26.647777663694
 20
1.326613383999756
 30
0.0
 10
25.57215754591076
 20
1.933817973054595
 30
0.0
 10
25.21448284101324
 20
2.13431560488454
 30
0.0
 10
24.49490041079735
 20
2.531385919874851
 30
0.0
 10
24.13427384988757
 20
2.727715400707674
 30
0.0
 10
23.41462345739385
 20
3.114180417272643
 30
0.0
 10
23.05683225151293
 20
3.304102380483793
 30
0.0
 10
22.33989076228044
 20
3.677157456961918
 30
0.0
 10
21.97973271039865
 20
3.860456252623462
 30
0.0
 10
21.25930129771801
 20
4.218897855959511
 30
0.0
 10
20.89903123699742
 20
4.394039016604159
 30
0.0
 10
20.18164508500717
 20
4.734610586201454
 30
0.0
 10
19.82420181209686
 20
4.900107763963084
 30
0.0
 10
19.10478515315434
 20
5.22157648368581
 30
0.0
 10
18.74416391269978
 20
5.377329799817055
 30
0.0
 10
18.02436887033319
 20
5.677454969903862
 30
0.0
 10
17.66627697225291
 20
5.821688324524466
 30
0.0
 10
16.59135514868585
 20
6.236480466780221
 30
0.0
 10
15.86767768765339
 20
6.489760083106711
 30
0.0
 10
15.15
 20
6.715181527006581
 30
0.0
  0
SPLINE
  5
BE
330
1F
100
AcDbEntity
  8
0
  6
Continuous
 62
     1
370
    25
100
AcDbSpline
210
0.0
220
0.0
230
1.0
 70
     8
 71
     3
 72
    12
 73
     8
 74
     0
 42
0.000000001
 43
0.00000001
 40
0.0
 40
0.0
 40
0.0
 40
0.0
 40
0.1861213826918638
 40
0.3896048311786269
 40
0.5930935784518784
 40
0.7965658685400103
 40
1.0
 40
1.0
 40
1.0
 40
1.0
 10
30.28944842586272
 20
-0.7663426684530226
 30
0.0
 10
29.35019827184587
 20
-0.3876593557587782
 30
0.0
 10
27.38408136255952
 20
0.4050321984226201
 30
0.0
 10
24.39100948490922
 20
1.606109998026291
 30
0.0
 10
21.31037529533294
 20
2.755975517050238
 30
0.0
 10
18.23000732289347
 20
3.787137157997965
 30
0.0
 10
16.17660492004849
 20
4.310089831175871
 30
0.0
 10
15.15
 20
4.571541647192605
 30
0.0
  0
SPLINE
  5
BF
330
1F
100
AcDbEntity
  8
0
  6
Continuous
 62
     4
370
    25
100
AcDbSpline
210
0.0
220
0.0
230
1.0
 70
    24
 71
     3
 72
    10
 73
     6
 74
     0
 42
0.000000001
 43
0.00000001
 40
0.0
 40
0.0
 40
0.0
 40
0.0
 40
0.5
 40
0.5
 40
1.0
 40
1.0
 40
1.0
 40
1.0
 10
15.15
 20
6.715181527006579
 30
0.0
 10
15.15
 20
6.44732062722758
 30
0.0
 10
15.15000000000001
 20
6.10949815253361
 30
0.0
 10
15.15000000000001
 20
5.365631914376336
 30
0.0
 10
15.15000000000001
 20
4.961851326489991
 30
0.0
 10
15.15
 20
4.571541647192602
 30
0.0
  0
LINE
  5
C0
330
1F
100
AcDbEntity
  8
0
  6
Continuous
 62
     4
370
    25
100
AcDbLine
 10
15.15
 20
6.715181527006581
 30
0.0
 11
15.15
 21
7.654872457964236
 31
0.0
  0
SPLINE
  5
C1
330
1F
100
AcDbEntity
  8
0
  6
Continuous
 62
     1
370
    25
100
AcDbSpline
210
0.0
220
0.0
230
1.0
 70
     8
 71
     3
 72
    15
 73
    11
 74
     0
 42
0.000000001
 43
0.00000001
 40
0.0
 40
0.0
 40
0.0
 40
0.0
 40
0.1396999953102857
 40
0.2794716444893969
 40
0.4192669854639401
 40
0.5590378752878186
 40
0.6987363873608877
 40
0.8384378837697067
 40
0.9702171587562823
 40
1.0
 40
1.0
 40
1.0
 40
1.0
 10
50.15000000000001
 20
0.0000000000000084
 30
0.0
 10
49.06158398221262
 20
0.502891333457253
 30
0.0
 10
46.8841936844962
 20
1.508931939604746
 30
0.0
 10
43.61732081760687
 20
2.933921630174033
 30
0.0
 10
40.3498577511453
 20
4.19731464296031
 30
0.0
 10
37.08299905634941
 20
5.226392040990042
 30
0.0
 10
33.81722582941357
 20
5.97414699140613
 30
0.0
 10
30.61361185166353
 20
6.355658058161949
 30
0.0
 10
28.26639104633979
 20
6.462996827313945
 30
0.0
 10
27.00758624397161
 20
6.35035617438677
 30
0.0
 10
26.7755344210534
 20
6.329591661257115
 30
0.0
  0
SPLINE
  5
C2
330
1F
100
AcDbEntity
  8
0
  6
Continuous
 62
     1
370
    25
100
AcDbSpline
210
0.0
220
0.0
230
1.0
 70
    24
 71
     3
 72
    14
 73
    10
 74
     0
 42
0.000000001
 43
0.00000001
 40
0.0
 40
0.0
 40
0.0
 40
0.0
 40
0.25
 40
0.25
 40
0.5
 40
0.5
 40
0.75
 40
0.75
 40
1.0
 40
1.0
 40
1.0
 40
1.0
 10
50.15000000000001
 20
-6.311778114945722
 30
0.0
 10
50.15000000000001
 20
-5.9702593261488
 30
0.0
 10
50.15000000000001
 20
-5.565991750024299
 30
0.0
 10
50.15000000000001
 20
-4.647916817566212
 30
0.0
 10
50.15000000000001
 20
-4.134238848779018
 30
0.0
 10
50.15000000000001
 20
-3.031099240878821
 30
0.0
 10
50.15000000000001
 20
-2.44195615499757
 30
0.0
 10
50.15000000000001
 20
-1.232646874235522
 30
0.0
 10
50.15000000000001
 20
-0.6128393969954924
 30
0.0
 10
50.15000000000001
 20
0.0000000000000084
 30
0.0
  0
LINE
  5
C3
330
1F
100
AcDbEntity
  8
0
  6
Continuous
 62
     1
370
    25
100
AcDbLine
 10
50.15000000000001
 20
5.600000000000006
 30
0.0
 11
47.17400828385721
 21
5.458868627199839
 31
0.0
  0
LINE
  5
C4
330
1F
100
AcDbEntity
  8
0
  6
Continuous
 62
     1
370
    25
100
AcDbLine
 10
50.15000000000001
 20
0.0000000000000084
 30
0.0
 11
50.15000000000001
 21
5.600000000000006
 31
0.0
  0
SPLINE
  5
C5
330
1F
100
AcDbEntity
  8
0
  6
Continuous
 62
     1
370
    25
100
AcDbSpline
210
0.0
220
0.0
230
1.0
 70
     8
 71
     3
 72
    13
 73
     9
 74
     0
 42
0.000000001
 43
0.00000001
 40
0.0
 40
0.0
 40
0.0
 40
0.0
 40
0.0822781559276854
 40
0.2684178399637219
 40
0.4512400027528204
 40
0.6341620109235959
 40
0.8171075251493995
 40
1.0
 40
1.0
 40
1.0
 40
1.0
 10
33.22485734561835
 20
-5.969825158258852
 30
0.0
 10
32.7291065105423
 20
-6.058121181199037
 30
0.0
 10
31.11180764414233
 20
-6.346171241239539
 30
0.0
 10
28.39328280237057
 20
-6.449433751563861
 30
0.0
 10
25.06843213825528
 20
-6.280734748308865
 30
0.0
 10
21.76247551806063
 20
-5.733635366643386
 30
0.0
 10
18.45604749637024
 20
-4.882129909218897
 30
0.0
 10
16.25190931310352
 20
-4.091603573612017
 30
0.0
 10
15.15
 20
-3.696397711260956
 30
0.0
  0
SPLINE
  5
C6
330
1F
100
AcDbEntity
  8
0
  6
Continuous
 62
     4
370
    25
100
AcDbSpline
210
0.0
220
0.0
230
1.0
 70
    24
 71
     3
 72
    14
 73
    10
 74
     0
 42
0.000000001
 43
0.00000001
 40
0.0
 40
0.0
 40
0.0
 40
0.0
 40
0.25
 40
0.25
 40
0.5
 40
0.5
 40
0.75
 40
0.75
 40
1.0
 40
1.0
 40
1.0
 40
1.0
 10
15.15
 20
4.571541647192605
 30
0.0
 10
15.15
 20
4.048454951901056
 30
0.0
 10
15.15000000000001
 20
3.449964526396155
 30
0.0
 10
15.15
 20
2.139865530096873
 30
0.0
 10
15.15000000000001
 20
1.428673884704297
 30
0.0
 10
15.15
 20
-0.0407773131627263
 30
0.0
 10
15.15
 20
-0.7982538806038106
 30
0.0
 10
15.15
 20
-2.284713384865316
 30
0.0
 10
15.15000000000001
 20
-3.013031688434526
 30
0.0
 10
15.15
 20
-3.696397711260952
 30
0.0
  0
SPLINE
  5
C7
330
1F
100
AcDbEntity
  8
0
  6
Continuous
 62
     4
370
    25
100
AcDbSpline
210
0.0
220
0.0
230
1.0
 70
    24
 71
     3
 72
    13
 73
     9
 74
     0
 42
0.000000001
 43
0.00000001
 40
0.0
 40
0.0
 40
0.0
 40
0.0
 40
0.140592110822111
 40
0.2830148187285203
 40
0.4899691840890161
 40
0.7029252400650506
 40
0.8898119437508611
 40
0.9999999999999999
 40
0.9999999999999999
 40
0.9999999999999999
 40
0.9999999999999999
 10
15.15
 20
-3.69639771126095
 30
0.0
 10
15.15
 20
-3.935581754046167
 30
0.0
 10
15.15000000000001
 20
-4.417064165226859
 30
0.0
 10
15.15
 20
-5.128899231430361
 30
0.0
 10
15.15
 20
-5.804025350897375
 30
0.0
 10
15.15
 20
-6.300864950511392
 30
0.0
 10
15.15
 20
-6.564114058974466
 30
0.0
 10
15.15
 20
-6.580518566003271
 30
0.0
 10
15.15
 20
-6.586603164855172
 30
0.0
  0
LINE
  5
C8
330
1F
100
AcDbEntity
  8
0
  6
Continuous
 62
     1
370
    25
100
AcDbLine
 10
50.15000000000001
 20
-7.052700766019715
 30
0.0
 11
50.15000000000001
 21
-7.488471275550987
 31
0.0
  0
SPLINE
  5
C9
330
1F
100
AcDbEntity
  8
0
  6
Continuous
 62
     1
370
    25
100
AcDbSpline
210
0.0
220
0.0
230
1.0
 70
     8
 71
     3
 72
    11
 73
     7
 74
     0
 42
0.000000001
 43
0.00000001
 40
0.0
 40
0.0
 40
0.0
 40
0.0
 40
0.127406604594893
 40
0.4182918127845525
 40
0.709162793911743
 40
1.0
 40
1.0
 40
1.0
 40
1.0
 10
39.21118657570933
 20
5.364321842623742
 30
0.0
 10
39.65451490367192
 20
5.560588896417025
 30
0.0
 10
41.11001723459
 20
6.20495817367792
 30
0.0
 10
43.57766340197693
 20
7.002446192039645
 30
0.0
 10
46.61396454233086
 20
7.732209585947277
 30
0.0
 10
48.63802735437051
 20
7.894829431673264
 30
0.0
 10
49.65000000000001
 20
7.976134633533749
 30
0.0
  0
SPLINE
  5
CB
330
1F
100
AcDbEntity
  8
0
  6
Continuous
 62
     1
370
    25
100
AcDbSpline
210
0.0
220
0.0
230
1.0
 70
    24
 71
     3
 72
    10
 73
     6
 74
     0
 42
0.000000001
 43
0.00000001
 40
0.0
 40
0.0
 40
0.0
 40
0.0
 40
0.5
 40
0.5
 40
1.0
 40
1.0
 40
1.0
 40
1.0
 10
50.15000000000001
 20
5.600000000000004
 30
0.0
 10
50.15000000000003
 20
5.869867430825424
 30
0.0
 10
50.15000000000001
 20
6.174020627729046
 30
0.0
 10
50.14999999999998
 20
6.817639151719494
 30
0.0
 10
50.15000000000001
 20
7.156519194544427
 30
0.0
 10
50.15000000000001
 20
7.488471275547952
 30
0.0
  0
SPLINE
  5
CC
330
1F
100
AcDbEntity
  8
0
  6
Continuous
 62
     1
370
    25
100
AcDbSpline
210
0.0
220
0.0
230
1.0
 70
     8
 71
     3
 72
     9
 73
     5
 74
     0
 42
0.000000001
 43
0.00000001
 40
0.0
 40
0.0
 40
0.0
 40
0.0
 40
0.3985312074642322
 40
1.0
 40
1.0
 40
1.0
 40
1.0
 10
20.19718028247393
 20
-6.290099286754357
 30
0.0
 10
19.52667854878217
 20
-6.530289982085082
 30
0.0
 10
17.84424635493212
 20
-7.132979786125796
 30
0.0
 10
16.16188678133965
 20
-7.458863546253318
 30
0.0
 10
15.15
 20
-7.654872457964236
 30
0.0
  0
SPLINE
  5
CD
330
1F
100
AcDbEntity
  8
0
  6
Continuous
 62
     4
370
    25
100
AcDbSpline
210
0.0
220
0.0
230
1.0
 70
    24
 71
     3
 72
    12
 73
     8
 74
     0
 42
0.000000001
 43
0.00000001
 40
0.0
 40
0.0
 40
0.0
 40
0.0
 40
0.1416421225651836
 40
0.3741795552496359
 40
0.6064463018766085
 40
0.8389837345610615
 40
1.0
 40
1.0
 40
1.0
 40
1.0
 10
15.15
 20
-6.704210691033204
 30
0.0
 10
15.15000000000001
 20
-6.751428727394385
 30
0.0
 10
15.15000000000001
 20
-6.876165800839876
 30
0.0
 10
15.14999999999997
 20
-7.072731624703356
 30
0.0
 10
15.15000000000001
 20
-7.294125355786592
 30
0.0
 10
15.15
 20
-7.487928882212866
 30
0.0
 10
15.15000000000001
 20
-7.606401331001384
 30
0.0
 10
15.15000000000001
 20
-7.654872457946176
 30
0.0
  0
LINE
  5
CE
330
1F
100
AcDbEntity
  8
중심선
100
AcDbLine
 10
-102.8499999999999
 20
-0.0000000000000064
 30
0.0
 11
57.15000000000001
 21
0.0000000000000091
 31
0.0
  0
CIRCLE
  5
CF
330
1F
100
AcDbEntity
  8
외형선
100
AcDbCircle
 10
0.0
 20
0.0
 30
0.0
 40
3.000000000000005
  0
INSERT
  5
D0
330
1F
100
AcDbEntity
  8
0
  6
Continuous
 62
     7
100
AcDbBlockReference
 66
     1
  2
블럭10
 10
-30.87358523345417
 20
-52.04717430164393
 30
0.0
  0
ATTRIB
  5
D1
330
D0
100
AcDbEntity
  8
FORMAT
 62
     2
100
AcDbText
 10
-51.73183276504671
 20
-49.97180738881174
 30
0.0
 40
4.233333333333333
  1
SEME6116005150E [ 2 FLUTE ]
 41
0.75
  7
SLDTEXTSTYLE0
 11
-51.73183276504671
 21
-52.08847405547841
 31
0.0
100
AcDbAttribute
  2
AUTOATTR0
 70
     0
 74
     1
  0
SEQEND
  5
D2
330
D0
100
AcDbEntity
  8
0
  6
Continuous
 62
     7
  0
HATCH
  5
D3
330
1F
100
AcDbEntity
  8
중심선
100
AcDbHatch
 10
0.0
 20
0.0
 30
0.0
210
0.0
220
0.0
230
1.0
  2
SOLID
 70
     1
 71
     0
 91
        1
 92
        0
 93
        4
 72
     1
 10
-25.15867592907333
 20
-35.8
 11
-28.60495117291061
 21
-35.8
 72
     1
 10
-28.6049511729106
 20
-35.8
 11
-30.73318103211463
 21
-38.3363255805726
 72
     1
 10
-30.73318103211463
 20
-38.3363255805726
 11
-27.2868727031642
 21
-38.33628615127011
 72
     1
 10
-27.28687270316419
 20
-38.33628615127011
 11
-25.15867592907332
 21
-35.8
 97
        0
 75
     0
 76
     1
 98
        1
 10
-7.934141545388281
 20
-0.0010749287238934
  0
HATCH
  5
D4
330
1F
100
AcDbEntity
  8
중심선
100
AcDbHatch
 10
0.0
 20
0.0
 30
0.0
210
0.0
220
0.0
230
1.0
  2
SOLID
 70
     1
 71
     0
 91
        1
 92
        0
 93
        4
 72
     1
 10
-20.14591193803737
 20
-35.8
 11
-23.59218718187466
 21
-35.8
 72
     1
 10
-23.59218718187465
 20
-35.8
 11
-28.12332519023204
 21
-41.20000000000002
 72
     1
 10
-28.12332519023204
 20
-41.20000000000002
 11
-24.67704994639476
 21
-41.20000000000002
 72
     1
 10
-24.67704994639476
 20
-41.20000000000002
 11
-20.14591193803737
 21
-35.8
 97
        0
 75
     0
 76
     1
 98
        1
 10
-7.934141545388281
 20
-0.0010749287238934
  0
HATCH
  5
D5
330
1F
100
AcDbEntity
  8
중심선
100
AcDbHatch
 10
0.0
 20
0.0
 30
0.0
210
0.0
220
0.0
230
1.0
  2
SOLID
 70
     1
 71
     0
 91
        1
 92
        0
 93
        4
 72
     1
 10
-15.13314794700148
 20
-35.80000000000003
 11
-18.57942319083859
 21
-35.8
 72
     1
 10
-18.57942319083859
 20
-35.8
 11
-25.62786009272784
 21
-44.20000000000002
 72
     1
 10
-25.62786009272784
 20
-44.20000000000002
 11
-22.18158484889056
 21
-44.20000000000002
 72
     1
 10
-22.18158484889056
 20
-44.20000000000002
 11
-15.13314794700148
 21
-35.80000000000003
 97
        0
 75
     0
 76
     1
 98
        1
 10
-7.934141545388281
 20
-0.0010749287238934
  0
HATCH
  5
D6
330
1F
100
AcDbEntity
  8
중심선
100
AcDbHatch
 10
0.0
 20
0.0
 30
0.0
210
0.0
220
0.0
230
1.0
  2
SOLID
 70
     1
 71
     0
 91
        1
 92
        0
 93
        6
 72
     3
 10
-10.33325751598928
 20
-40.00000000005127
 11
3.960054785062283
 21
1.540882976769353E-10
 40
0.3939339440162628
 50
17.09539180608436
 51
320.0019657685078
 73
     0
 72
     1
 10
-8.650257860288681
 20
-38.5878940046383
 11
-6.344955986587643
 21
-36.65356729459038
 72
     3
 10
-10.33325751604212
 20
-40.00000000000015
 11
6.600054785286829
 21
-1.278976924368180E-13
 40
0.636358354079598
 50
39.99873849337411
 51
368.4976242363724
 73
     1
 72
     1
 10
-3.907925024141513
 20
-39.03999999993002
 11
-11.6531902092062
 21
-39.03999999993
 72
     1
 10
-11.6531902092062
 20
-39.03999999993
 11
-11.65321525365214
 21
-40.95999999992991
 72
     1
 10
-11.65321525365214
 20
-40.95999999992991
 11
-7.211835484180098
 21
-40.95999999992988
 97
        0
 75
     0
 76
     1
 98
        1
 10
-7.934141545388281
 20
-0.0010749287238934
  0
DIMENSION
  5
D7
330
1F
100
AcDbEntity
  8
치수문자_일반주서
100
AcDbDimension
  2
_D
 10
-111.346458021612
 20
-8.000000000000048
 30
0.0
 11
-111.346458021612
 21
-0.0000000000000068
 31
0.0
 70
   160
  1
%%c<>
 71
     2
 42
15.99999999999999
 52
-270.0
  3
SLDDIMSTYLE0
100
AcDbAlignedDimension
 13
-98.85
 23
7.999999999999988
 33
0.0
 14
-98.85
 24
-8.000000000000002
 34
0.0
 50
90.0000000000002
100
AcDbRotatedDimension
  0
DIMENSION
  5
E5
330
1F
100
AcDbEntity
  8
치수문자_일반주서
100
AcDbDimension
  2
_D_1
 10
15.15
 20
25.99999999999964
 30
0.0
 11
32.65000000000001
 21
25.99999999999964
 31
0.0
 70
   160
  1
<>
 71
     2
 42
35.00000000000001
  3
SLDDIMSTYLE1
100
AcDbAlignedDimension
 13
50.15000000000001
 23
7.499999999999994
 33
0.0
 14
15.15
 24
7.654872457964236
 34
0.0
 50
0.0000000000000058
100
AcDbRotatedDimension
  0
DIMENSION
  5
F1
330
1F
100
AcDbEntity
  8
치수문자_일반주서
100
AcDbDimension
  2
_D_2
 10
-99.85
 20
48.05832450504428
 30
0.0
 11
-24.84999999999999
 21
48.05832450504428
 31
0.0
 70
   160
  1
<>
 71
     2
 42
150.0
  3
SLDDIMSTYLE1
100
AcDbAlignedDimension
 13
50.15000000000001
 23
7.499999999999994
 33
0.0
 14
-99.85
 24
6.999999999999986
 34
0.0
 50
0.0000000000000054
100
AcDbRotatedDimension
  0
DIMENSION
  5
FB
330
1F
100
AcDbEntity
  8
치수문자_일반주서
100
AcDbDimension
  2
_D_3
 10
0.1499999999999986
 20
34.69499999999866
 30
0.0
 11
25.15000000000001
 21
34.69499999999866
 31
0.0
 70
   160
  1
<>
 71
     2
 42
50.00000000000002
  3
SLDDIMSTYLE0
100
AcDbAlignedDimension
 13
50.15000000000001
 23
7.488471275547952
 33
0.0
 14
0.1500000000000004
 24
7.849999999999997
 34
0.0
 50
-0.0000000000022354
100
AcDbRotatedDimension
  0
DIMENSION
  5
107
330
1F
100
AcDbEntity
  8
치수문자_일반주서
100
AcDbDimension
  2
_D_4
 10
66.73842689177258
 20
-7.976134633533682
 30
0.0
 11
66.73842689177255
 21
0.0000000000000604
 31
0.0
 70
   160
  1
%%c<>
 71
     2
 42
15.99918712601629
 52
-270.0
  3
SLDDIMSTYLE1
100
AcDbAlignedDimension
 13
50.15000000000001
 23
8.023052492482547
 33
0.0
 14
49.65000000000001
 24
-7.976134633533746
 34
0.0
 50
90.0000000000002
100
AcDbRotatedDimension
  0
INSERT
  5
119
330
1F
100
AcDbEntity
  8
외형선
100
AcDbBlockReference
  2
SW_DOWELSYMBOL_0
 10
0.0
 20
0.0
 30
0.0
  0
ARC
  5
14C
330
1F
100
AcDbEntity
  8
0
  6
Continuous
 62
     1
370
    25
100
AcDbCircle
 10
49.65000000000001
 20
7.476134633533749
 30
0.0
 40
0.4999999999999998
100
AcDbArc
 50
359.9999999999998
 51
90.0
  0
ARC
  5
14D
330
1F
100
AcDbEntity
  8
0
  6
Continuous
 62
     1
370
    25
100
AcDbCircle
 10
49.65000000000001
 20
-7.476134633533732
 30
0.0
 40
0.4999999999999998
100
AcDbArc
 50
270.0
 51
0.0000000000001018
  0
DIMENSION
  5
150
330
1F
100
AcDbEntity
  8
치수문자_일반주서
100
AcDbDimension
  2
*D8
 10
49.65000000000001
 20
-7.476134633533732
 30
0.0
 11
61.92890678402065
 21
-23.41006103877973
 31
0.0
 70
   164
  1
<>
 71
     5
 42
0.5000000000000014
  3
SLDDIMSTYLE1
100
AcDbRadialDimension
 15
49.95519943808534
 25
-7.872181730470952
 35
0.0
 40
0.0
1001
ACAD_DSTYLE_DIMRADIAL_EXTENSION
1070
   387
1070
     1
1070
   388
1040
4.71238898038469
1070
   390
1040
0.0000000000000018
1001
ACAD
1000
DSTYLE
1002
{
1070
    78
1070
     8
1002
}
  0
LINE
  5
17F
330
1F
100
AcDbEntity
  8
0
  6
Continuous
 62
     4
370
    25
100
AcDbLine
 10
0.1500000000000004
 20
7.849999999999997
 30
0.0
 11
0.0000000000000009
 21
7.999999999999996
 31
0.0
1001
PE_URL
1000

  0
LINE
  5
181
330
1F
100
AcDbEntity
  8
0
  6
Continuous
 62
     4
370
    25
100
AcDbLine
 10
0.0000000000000009
 20
7.999999999999996
 30
0.0
 11
-0.0000000000000013
 21
-7.999999999999996
 31
0.0
1001
PE_URL
1000

  0
LINE
  5
182
330
1F
100
AcDbEntity
  8
0
  6
Continuous
 62
     4
370
    25
100
AcDbLine
 10
-0.0000000000000013
 20
-7.999999999999996
 30
0.0
 11
0.1500000000000004
 21
-7.850000000000001
 31
0.0
1001
PE_URL
1000

  0
ENDSEC
  0
SECTION
  2
OBJECTS
  0
DICTIONARY
  5
C
330
0
100
AcDbDictionary
281
     1
  3
ACAD_GROUP
350
D
  3
ACAD_IMAGE_VARS
350
13D
  3
ACAD_LAYOUT
350
1A
  3
ACAD_MLINESTYLE
350
17
  3
ACAD_PLOTSETTINGS
350
19
  3
ACAD_PLOTSTYLENAME
350
E
  3
ACAD_SCALELIST
350
47
  3
APPDATA
350
13B
  3
DWGPROPS
350
183
  0
DICTIONARY
  5
D
102
{ACAD_REACTORS
330
C
102
}
330
C
100
AcDbDictionary
281
     1
  0
RASTERVARIABLES
  5
13D
102
{ACAD_REACTORS
330
C
102
}
330
C
100
AcDbRasterVariables
 90
        0
 70
     1
 71
     1
 72
     1
  0
DICTIONARY
  5
1A
102
{ACAD_REACTORS
330
C
102
}
330
C
100
AcDbDictionary
281
     1
  3
Layout1
350
1E
  3
Layout2
350
26
  3
Model
350
22
  0
DICTIONARY
  5
17
102
{ACAD_REACTORS
330
C
102
}
330
C
100
AcDbDictionary
281
     1
  3
Standard
350
18
  0
DICTIONARY
  5
19
102
{ACAD_REACTORS
330
C
102
}
330
C
100
AcDbDictionary
281
     1
  0
ACDBDICTIONARYWDFLT
  5
E
102
{ACAD_REACTORS
330
C
102
}
330
C
100
AcDbDictionary
281
     1
  3
Normal
350
F
100
AcDbDictionaryWithDefault
340
F
  0
DICTIONARY
  5
47
102
{ACAD_REACTORS
330
C
102
}
330
C
100
AcDbDictionary
281
     1
  3
A0
350
48
  3
A1
350
49
  3
A2
350
4A
  3
A3
350
4B
  3
A4
350
4C
  3
A5
350
4D
  3
A6
350
4E
  3
A7
350
4F
  3
A8
350
50
  3
A9
350
51
  3
B0
350
52
  3
B1
350
53
  3
B2
350
54
  3
B3
350
55
  3
B4
350
56
  3
B5
350
57
  3
B6
350
58
  3
B7
350
59
  3
B8
350
5A
  3
B9
350
5B
  3
C0
350
5C
  3
C1
350
5D
  3
C2
350
5E
  3
C3
350
5F
  3
C4
350
60
  3
C5
350
61
  3
C6
350
62
  3
C7
350
63
  3
C8
350
64
  3
C9
350
65
  3
D0
350
66
  3
D1
350
67
  3
D2
350
68
  0
DICTIONARY
  5
13B
102
{ACAD_REACTORS
330
C
102
}
330
C
100
AcDbDictionary
281
     1
  0
XRECORD
  5
183
102
{ACAD_REACTORS
330
C
102
}
330
C
100
AcDbXrecord
280
     1
  1
DWGPROPS COOKIE
  2

  3

  4

  6

  7

  8
12014102
  9

300
=
301
=
302
=
303
=
304
=
305
=
306
=
307
=
308
=
309
=
 40
0.0
 41
2458263.435975636
 42
2459576.954397072
  1

 90
        0
  0
LAYOUT
  5
1E
102
{ACAD_REACTORS
330
1A
102
}
330
1A
100
AcDbPlotSettings
  1

  2
none_device
  4

  6

 40
0.0
 41
0.0
 42
0.0
 43
0.0
 44
0.0
 45
0.0
 46
0.0
 47
0.0
 48
0.0
 49
0.0
140
0.0
141
0.0
142
1.0
143
1.0
 70
   688
 72
     1
 73
     0
 74
     5
  7

 75
    16
147
1.0
148
0.0
149
0.0
100
AcDbLayout
  1
Layout1
 70
     1
 71
     1
 10
0.0
 20
0.0
 11
420.0
 21
297.0
 12
0.0
 22
0.0
 32
0.0
 14
1.000000000000000E+20
 24
1.000000000000000E+20
 34
1.000000000000000E+20
 15
-1.000000000000000E+20
 25
-1.000000000000000E+20
 35
-1.000000000000000E+20
146
0.0
 13
0.0
 23
0.0
 33
0.0
 16
1.0
 26
0.0
 36
0.0
 17
0.0
 27
1.0
 37
0.0
 76
     0
330
1B
  0
LAYOUT
  5
26
102
{ACAD_REACTORS
330
1A
102
}
330
1A
100
AcDbPlotSettings
  1

  2
none_device
  4

  6

 40
0.0
 41
0.0
 42
0.0
 43
0.0
 44
0.0
 45
0.0
 46
0.0
 47
0.0
 48
0.0
 49
0.0
140
0.0
141
0.0
142
1.0
143
1.0
 70
   688
 72
     1
 73
     0
 74
     5
  7

 75
    16
147
1.0
148
0.0
149
0.0
100
AcDbLayout
  1
Layout2
 70
     1
 71
     2
 10
0.0
 20
0.0
 11
0.0
 21
0.0
 12
0.0
 22
0.0
 32
0.0
 14
0.0
 24
0.0
 34
0.0
 15
0.0
 25
0.0
 35
0.0
146
0.0
 13
0.0
 23
0.0
 33
0.0
 16
1.0
 26
0.0
 36
0.0
 17
0.0
 27
1.0
 37
0.0
 76
     0
330
23
  0
LAYOUT
  5
22
102
{ACAD_REACTORS
330
1A
102
}
330
1A
100
AcDbPlotSettings
  1

  2
none_device
  4
ANSI_A_(11.00_x_8.50_Inches)
  6

 40
6.35
 41
19.05
 42
6.35000508
 43
19.05000254
 44
279.4
 45
215.9
 46
136.1603921566808
 47
87.65923927195651
 48
0.0
 49
0.0
140
0.0
141
0.0
142
0.0526263668419363
143
1.0
 70
  1696
 72
     0
 73
     0
 74
     0
  7

 75
     0
147
0.0235690232323232
148
0.0
149
0.0
100
AcDbLayout
  1
Model
 70
     1
 71
     0
 10
0.0
 20
0.0
 11
420.0
 21
297.0
 12
0.0
 22
0.0
 32
0.0
 14
-115.721458021612
 24
-49.97180738881174
 34
0.0
 15
67.66423970298096
 25
52.43332450504428
 35
0.0
146
0.0
 13
0.0
 23
0.0
 33
0.0
 16
1.0
 26
0.0
 36
0.0
 17
0.0
 27
1.0
 37
0.0
 76
     0
330
1F
331
29
  0
MLINESTYLE
  5
18
102
{ACAD_REACTORS
330
17
102
}
330
17
100
AcDbMlineStyle
  2
Standard
 70
     0
  3

 62
   256
 51
90.0
 52
90.0
 71
     2
 49
0.5
 62
   256
  6
BYLAYER
 49
-0.5
 62
   256
  6
BYLAYER
  0
ACDBPLACEHOLDER
  5
F
102
{ACAD_REACTORS
330
E
102
}
330
E
  0
SCALE
  5
48
102
{ACAD_REACTORS
330
47
102
}
330
47
100
AcDbScale
 70
     0
300
1:1
140
1.0
141
1.0
290
     1
  0
SCALE
  5
49
102
{ACAD_REACTORS
330
47
102
}
330
47
100
AcDbScale
 70
     0
300
1:2
140
1.0
141
2.0
290
     0
  0
SCALE
  5
4A
102
{ACAD_REACTORS
330
47
102
}
330
47
100
AcDbScale
 70
     0
300
1:4
140
1.0
141
4.0
290
     0
  0
SCALE
  5
4B
102
{ACAD_REACTORS
330
47
102
}
330
47
100
AcDbScale
 70
     0
300
1:5
140
1.0
141
5.0
290
     0
  0
SCALE
  5
4C
102
{ACAD_REACTORS
330
47
102
}
330
47
100
AcDbScale
 70
     0
300
1:8
140
1.0
141
8.0
290
     0
  0
SCALE
  5
4D
102
{ACAD_REACTORS
330
47
102
}
330
47
100
AcDbScale
 70
     0
300
1:10
140
1.0
141
10.0
290
     0
  0
SCALE
  5
4E
102
{ACAD_REACTORS
330
47
102
}
330
47
100
AcDbScale
 70
     0
300
1:16
140
1.0
141
16.0
290
     0
  0
SCALE
  5
4F
102
{ACAD_REACTORS
330
47
102
}
330
47
100
AcDbScale
 70
     0
300
1:20
140
1.0
141
20.0
290
     0
  0
SCALE
  5
50
102
{ACAD_REACTORS
330
47
102
}
330
47
100
AcDbScale
 70
     0
300
1:30
140
1.0
141
30.0
290
     0
  0
SCALE
  5
51
102
{ACAD_REACTORS
330
47
102
}
330
47
100
AcDbScale
 70
     0
300
1:40
140
1.0
141
40.0
290
     0
  0
SCALE
  5
52
102
{ACAD_REACTORS
330
47
102
}
330
47
100
AcDbScale
 70
     0
300
1:50
140
1.0
141
50.0
290
     0
  0
SCALE
  5
53
102
{ACAD_REACTORS
330
47
102
}
330
47
100
AcDbScale
 70
     0
300
1:100
140
1.0
141
100.0
290
     0
  0
SCALE
  5
54
102
{ACAD_REACTORS
330
47
102
}
330
47
100
AcDbScale
 70
     0
300
2:1
140
2.0
141
1.0
290
     0
  0
SCALE
  5
55
102
{ACAD_REACTORS
330
47
102
}
330
47
100
AcDbScale
 70
     0
300
4:1
140
4.0
141
1.0
290
     0
  0
SCALE
  5
56
102
{ACAD_REACTORS
330
47
102
}
330
47
100
AcDbScale
 70
     0
300
8:1
140
8.0
141
1.0
290
     0
  0
SCALE
  5
57
102
{ACAD_REACTORS
330
47
102
}
330
47
100
AcDbScale
 70
     0
300
10:1
140
10.0
141
1.0
290
     0
  0
SCALE
  5
58
102
{ACAD_REACTORS
330
47
102
}
330
47
100
AcDbScale
 70
     0
300
100:1
140
100.0
141
1.0
290
     0
  0
SCALE
  5
59
102
{ACAD_REACTORS
330
47
102
}
330
47
100
AcDbScale
 70
     0
300
1/128" = 1'-0"
140
0.0078125
141
12.0
290
     0
  0
SCALE
  5
5A
102
{ACAD_REACTORS
330
47
102
}
330
47
100
AcDbScale
 70
     0
300
1/64" = 1'-0"
140
0.015625
141
12.0
290
     0
  0
SCALE
  5
5B
102
{ACAD_REACTORS
330
47
102
}
330
47
100
AcDbScale
 70
     0
300
1/32" = 1'-0"
140
0.03125
141
12.0
290
     0
  0
SCALE
  5
5C
102
{ACAD_REACTORS
330
47
102
}
330
47
100
AcDbScale
 70
     0
300
1/16" = 1'-0"
140
0.0625
141
12.0
290
     0
  0
SCALE
  5
5D
102
{ACAD_REACTORS
330
47
102
}
330
47
100
AcDbScale
 70
     0
300
3/32" = 1'-0"
140
0.09375
141
12.0
290
     0
  0
SCALE
  5
5E
102
{ACAD_REACTORS
330
47
102
}
330
47
100
AcDbScale
 70
     0
300
1/8" = 1'-0"
140
0.125
141
12.0
290
     0
  0
SCALE
  5
5F
102
{ACAD_REACTORS
330
47
102
}
330
47
100
AcDbScale
 70
     0
300
3/16" = 1'-0"
140
0.1875
141
12.0
290
     0
  0
SCALE
  5
60
102
{ACAD_REACTORS
330
47
102
}
330
47
100
AcDbScale
 70
     0
300
1/4" = 1'-0"
140
0.25
141
12.0
290
     0
  0
SCALE
  5
61
102
{ACAD_REACTORS
330
47
102
}
330
47
100
AcDbScale
 70
     0
300
3/8" = 1'-0"
140
0.375
141
12.0
290
     0
  0
SCALE
  5
62
102
{ACAD_REACTORS
330
47
102
}
330
47
100
AcDbScale
 70
     0
300
1/2" = 1'-0"
140
0.5
141
12.0
290
     0
  0
SCALE
  5
63
102
{ACAD_REACTORS
330
47
102
}
330
47
100
AcDbScale
 70
     0
300
3/4" = 1'-0"
140
0.75
141
12.0
290
     0
  0
SCALE
  5
64
102
{ACAD_REACTORS
330
47
102
}
330
47
100
AcDbScale
 70
     0
300
1" = 1'-0"
140
1.0
141
12.0
290
     0
  0
SCALE
  5
65
102
{ACAD_REACTORS
330
47
102
}
330
47
100
AcDbScale
 70
     0
300
1-1/2" = 1'-0"
140
1.5
141
12.0
290
     0
  0
SCALE
  5
66
102
{ACAD_REACTORS
330
47
102
}
330
47
100
AcDbScale
 70
     0
300
3" = 1'-0"
140
3.0
141
12.0
290
     0
  0
SCALE
  5
67
102
{ACAD_REACTORS
330
47
102
}
330
47
100
AcDbScale
 70
     0
300
6" = 1'-0"
140
6.0
141
12.0
290
     0
  0
SCALE
  5
68
102
{ACAD_REACTORS
330
47
102
}
330
47
100
AcDbScale
 70
     0
300
1'-0" = 1'-0"
140
12.0
141
12.0
290
     0
  0
ENDSEC
  0
EOF
