  0
SECTION
  2
HEADER
  9
$ACADVER
  1
AC1015
  9
$ACADMAINTVER
 70
     6
  9
$DWGCODEPAGE
  3
ANSI_949
  9
$INSBASE
 10
0.0
 20
0.0
 30
0.0
  9
$EXTMIN
 10
-80.7214580216121
 20
-49.97180738881174
 30
0.0
  9
$EXTMAX
 10
54.88534186814972
 20
52.43332450504428
 30
0.0
  9
$LIMMIN
 10
0.0
 20
0.0
  9
$LIMMAX
 10
420.0
 20
297.0
  9
$ORTHOMODE
 70
     1
  9
$REGENMODE
 70
     1
  9
$FILLMODE
 70
     1
  9
$QTEXTMODE
 70
     0
  9
$MIRRTEXT
 70
     1
  9
$LTSCALE
 40
1.0
  9
$ATTMODE
 70
     1
  9
$TEXTSIZE
 40
3.5
  9
$TRACEWID
 40
1.0
  9
$TEXTSTYLE
  7
Standard
  9
$CLAYER
  8
0
  9
$CELTYPE
  6
ByLayer
  9
$CECOLOR
 62
   256
  9
$CELTSCALE
 40
1.0
  9
$DISPSILH
 70
     0
  9
$DIMSCALE
 40
1.0
  9
$DIMASZ
 40
3.302
  9
$DIMEXO
 40
1.0
  9
$DIMDLI
 40
3.75
  9
$DIMRND
 40
0.0
  9
$DIMDLE
 40
0.0
  9
$DIMEXE
 40
1.0
  9
$DIMTP
 40
0.0
  9
$DIMTM
 40
0.0
  9
$DIMTXT
 40
3.5
  9
$DIMCEN
 40
2.5
  9
$DIMTSZ
 40
0.0
  9
$DIMTOL
 70
     0
  9
$DIMLIM
 70
     0
  9
$DIMTIH
 70
     1
  9
$DIMTOH
 70
     1
  9
$DIMSE1
 70
     0
  9
$DIMSE2
 70
     0
  9
$DIMTAD
 70
     1
  9
$DIMZIN
 70
     0
  9
$DIMBLK
  1

  9
$DIMASO
 70
     1
  9
$DIMSHO
 70
     1
  9
$DIMPOST
  1

  9
$DIMAPOST
  1

  9
$DIMALT
 70
     0
  9
$DIMALTD
 70
     3
  9
$DIMALTF
 40
0.0393700787401575
  9
$DIMLFAC
 40
1.0
  9
$DIMTOFL
 70
     1
  9
$DIMTVP
 40
0.0
  9
$DIMTIX
 70
     0
  9
$DIMSOXD
 70
     0
  9
$DIMSAH
 70
     0
  9
$DIMBLK1
  1

  9
$DIMBLK2
  1

  9
$DIMSTYLE
  2
ISO-25
  9
$DIMCLRD
 70
     0
  9
$DIMCLRE
 70
     0
  9
$DIMCLRT
 70
     0
  9
$DIMTFAC
 40
1.0
  9
$DIMGAP
 40
1.524
  9
$DIMJUST
 70
     0
  9
$DIMSD1
 70
     0
  9
$DIMSD2
 70
     0
  9
$DIMTOLJ
 70
     0
  9
$DIMTZIN
 70
     0
  9
$DIMALTZ
 70
     0
  9
$DIMALTTZ
 70
     0
  9
$DIMUPT
 70
     0
  9
$DIMDEC
 70
     2
  9
$DIMTDEC
 70
     2
  9
$DIMALTU
 70
     2
  9
$DIMALTTD
 70
     3
  9
$DIMTXSTY
  7
Standard
  9
$DIMAUNIT
 70
     0
  9
$DIMADEC
 70
     2
  9
$DIMALTRND
 40
0.0
  9
$DIMAZIN
 70
     0
  9
$DIMDSEP
 70
    44
  9
$DIMATFIT
 70
     3
  9
$DIMFRAC
 70
     0
  9
$DIMLDRBLK
  1

  9
$DIMLUNIT
 70
     2
  9
$DIMLWD
 70
    -2
  9
$DIMLWE
 70
    -2
  9
$DIMTMOVE
 70
     0
  9
$LUNITS
 70
     2
  9
$LUPREC
 70
     2
  9
$SKETCHINC
 40
1.0
  9
$FILLETRAD
 40
10.0
  9
$AUNITS
 70
     0
  9
$AUPREC
 70
     2
  9
$MENU
  1
.
  9
$ELEVATION
 40
0.0
  9
$PELEVATION
 40
0.0
  9
$THICKNESS
 40
0.0
  9
$LIMCHECK
 70
     0
  9
$CHAMFERA
 40
0.0
  9
$CHAMFERB
 40
0.0
  9
$CHAMFERC
 40
0.0
  9
$CHAMFERD
 40
0.0
  9
$SKPOLY
 70
     0
  9
$TDCREATE
 40
2458263.811164873
  9
$TDUCREATE
 40
2458263.436164873
  9
$TDUPDATE
 40
2459577.348569375
  9
$TDUUPDATE
 40
2459576.973569375
  9
$TDINDWG
 40
0.002250625
  9
$TDUSRTIMER
 40
0.0006197106
  9
$USRTIMER
 70
     1
  9
$ANGBASE
 50
0.0
  9
$ANGDIR
 70
     0
  9
$PDMODE
 70
     0
  9
$PDSIZE
 40
-1.0
  9
$PLINEWID
 40
0.0
  9
$SPLFRAME
 70
     0
  9
$SPLINETYPE
 70
     6
  9
$SPLINESEGS
 70
     8
  9
$HANDSEED
  5
17C
  9
$SURFTAB1
 70
     6
  9
$SURFTAB2
 70
     6
  9
$SURFTYPE
 70
     6
  9
$SURFU
 70
     6
  9
$SURFV
 70
     6
  9
$UCSBASE
  2

  9
$UCSNAME
  2

  9
$UCSORG
 10
0.0
 20
0.0
 30
0.0
  9
$UCSXDIR
 10
1.0
 20
0.0
 30
0.0
  9
$UCSYDIR
 10
0.0
 20
1.0
 30
0.0
  9
$UCSORTHOREF
  2

  9
$UCSORTHOVIEW
 70
     0
  9
$UCSORGTOP
 10
0.0
 20
0.0
 30
0.0
  9
$UCSORGBOTTOM
 10
0.0
 20
0.0
 30
0.0
  9
$UCSORGLEFT
 10
0.0
 20
0.0
 30
0.0
  9
$UCSORGRIGHT
 10
0.0
 20
0.0
 30
0.0
  9
$UCSORGFRONT
 10
0.0
 20
0.0
 30
0.0
  9
$UCSORGBACK
 10
0.0
 20
0.0
 30
0.0
  9
$PUCSBASE
  2

  9
$PUCSNAME
  2

  9
$PUCSORG
 10
0.0
 20
0.0
 30
0.0
  9
$PUCSXDIR
 10
1.0
 20
0.0
 30
0.0
  9
$PUCSYDIR
 10
0.0
 20
1.0
 30
0.0
  9
$PUCSORTHOREF
  2

  9
$PUCSORTHOVIEW
 70
     0
  9
$PUCSORGTOP
 10
0.0
 20
0.0
 30
0.0
  9
$PUCSORGBOTTOM
 10
0.0
 20
0.0
 30
0.0
  9
$PUCSORGLEFT
 10
0.0
 20
0.0
 30
0.0
  9
$PUCSORGRIGHT
 10
0.0
 20
0.0
 30
0.0
  9
$PUCSORGFRONT
 10
0.0
 20
0.0
 30
0.0
  9
$PUCSORGBACK
 10
0.0
 20
0.0
 30
0.0
  9
$USERI1
 70
     0
  9
$USERI2
 70
     0
  9
$USERI3
 70
     0
  9
$USERI4
 70
     0
  9
$USERI5
 70
     0
  9
$USERR1
 40
0.0
  9
$USERR2
 40
0.0
  9
$USERR3
 40
0.0
  9
$USERR4
 40
0.0
  9
$USERR5
 40
0.0
  9
$WORLDVIEW
 70
     1
  9
$SHADEDGE
 70
     3
  9
$SHADEDIF
 70
    70
  9
$TILEMODE
 70
     1
  9
$MAXACTVP
 70
    64
  9
$PINSBASE
 10
0.0
 20
0.0
 30
0.0
  9
$PLIMCHECK
 70
     0
  9
$PEXTMIN
 10
1.000000000000000E+20
 20
1.000000000000000E+20
 30
1.000000000000000E+20
  9
$PEXTMAX
 10
-1.000000000000000E+20
 20
-1.000000000000000E+20
 30
-1.000000000000000E+20
  9
$PLIMMIN
 10
0.0
 20
0.0
  9
$PLIMMAX
 10
0.0
 20
0.0
  9
$UNITMODE
 70
     0
  9
$VISRETAIN
 70
     1
  9
$PLINEGEN
 70
     0
  9
$PSLTSCALE
 70
     1
  9
$TREEDEPTH
 70
  3020
  9
$CMLSTYLE
  2
Standard
  9
$CMLJUST
 70
     0
  9
$CMLSCALE
 40
20.0
  9
$PROXYGRAPHICS
 70
     1
  9
$MEASUREMENT
 70
     1
  9
$CELWEIGHT
370
    -1
  9
$ENDCAPS
280
     0
  9
$JOINSTYLE
280
     0
  9
$LWDISPLAY
290
     1
  9
$INSUNITS
 70
     4
  9
$HYPERLINKBASE
  1

  9
$STYLESHEET
  1

  9
$XEDIT
290
     1
  9
$CEPSNTYPE
380
     0
  9
$PSTYLEMODE
290
     1
  9
$FINGERPRINTGUID
  2
{67BC870B-760B-42A7-8960-812AD66E0555}
  9
$VERSIONGUID
  2
{FAEB1C32-E019-11D5-929B-00C0DF256EC4}
  9
$EXTNAMES
290
     1
  9
$PSVPSCALE
 40
0.0
  9
$OLESTARTUP
290
     0
  0
ENDSEC
  0
SECTION
  2
CLASSES
  0
CLASS
  1
ACDBDICTIONARYWDFLT
  2
AcDbDictionaryWithDefault
  3
ObjectDBX Classes
 90
        0
280
     0
281
     0
  0
CLASS
  1
VISUALSTYLE
  2
AcDbVisualStyle
  3
ObjectDBX Classes
 90
     4095
280
     0
281
     0
  0
CLASS
  1
MATERIAL
  2
AcDbMaterial
  3
ObjectDBX Classes
 90
     1153
280
     0
281
     0
  0
CLASS
  1
SCALE
  2
AcDbScale
  3
ObjectDBX Classes
 90
     1153
280
     0
281
     0
  0
CLASS
  1
TABLESTYLE
  2
AcDbTableStyle
  3
ObjectDBX Classes
 90
     4095
280
     0
281
     0
  0
CLASS
  1
MLEADERSTYLE
  2
AcDbMLeaderStyle
  3
ACDB_MLEADERSTYLE_CLASS
 90
     4095
280
     0
281
     0
  0
CLASS
  1
SUN
  2
AcDbSun
  3
SCENEOE
 90
     1153
280
     0
281
     0
  0
CLASS
  1
ACDBPLACEHOLDER
  2
AcDbPlaceHolder
  3
ObjectDBX Classes
 90
        0
280
     0
281
     0
  0
CLASS
  1
LAYOUT
  2
AcDbLayout
  3
ObjectDBX Classes
 90
        0
280
     0
281
     0
  0
CLASS
  1
RASTERVARIABLES
  2
AcDbRasterVariables
  3
ISM
 90
        0
280
     0
281
     0
  0
CLASS
  1
DIMASSOC
  2
AcDbDimAssoc
  3
"AcDbDimAssoc|Product Desc:     AcDim ARX App For Dimension|Company:          Autodesk, Inc.|WEB Address:      www.autodesk.com"
 90
        0
280
     0
281
     0
  0
ENDSEC
  0
SECTION
  2
TABLES
  0
TABLE
  2
VPORT
  5
8
330
0
100
AcDbSymbolTable
 70
     1
  0
VPORT
  5
29
330
8
100
AcDbSymbolTableRecord
100
AcDbViewportTableRecord
  2
*Active
 70
     0
 10
0.0
 20
0.0
 11
1.0
 21
1.0
 12
-12.91805807673119
 22
1.230758558116271
 13
0.0
 23
0.0
 14
10.0
 24
10.0
 15
10.0
 25
10.0
 16
0.0
 26
0.0
 36
1.0
 17
0.0
 27
0.0
 37
0.0
 40
104.4532345317331
 41
2.070175438596491
 42
50.0
 43
0.0
 44
0.0
 50
0.0
 51
0.0
 71
    16
 72
  2000
 73
     1
 74
     3
 75
     0
 76
     0
 77
     0
 78
     0
281
     0
 65
     1
110
0.0
120
0.0
130
0.0
111
1.0
121
0.0
131
0.0
112
0.0
122
1.0
132
0.0
 79
     0
146
0.0
  0
ENDTAB
  0
TABLE
  2
LTYPE
  5
5
330
0
100
AcDbSymbolTable
 70
     6
  0
LTYPE
  5
14
330
5
100
AcDbSymbolTableRecord
100
AcDbLinetypeTableRecord
  2
ByBlock
 70
     0
  3

 72
    65
 73
     0
 40
0.0
  0
LTYPE
  5
15
330
5
100
AcDbSymbolTableRecord
100
AcDbLinetypeTableRecord
  2
ByLayer
 70
     0
  3

 72
    65
 73
     0
 40
0.0
  0
LTYPE
  5
16
330
5
100
AcDbSymbolTableRecord
100
AcDbLinetypeTableRecord
  2
Continuous
 70
     0
  3
Solid line
 72
    65
 73
     0
 40
0.0
  0
LTYPE
  5
6E
330
5
100
AcDbSymbolTableRecord
100
AcDbLinetypeTableRecord
  2
HIDDEN
 70
     0
  3
Hidden __ __ __ __ __ __ __ __ __ __ __ __ __ __
 72
    65
 73
     2
 40
1.905
 49
1.27
 74
     0
 49
-0.635
 74
     0
  0
LTYPE
  5
6F
330
5
100
AcDbSymbolTableRecord
100
AcDbLinetypeTableRecord
  2
PHANTOM
 70
     0
  3
Phantom ______  __  __  ______  __  __  ______
 72
    65
 73
     6
 40
12.7
 49
6.35
 74
     0
 49
-1.27
 74
     0
 49
1.27
 74
     0
 49
-1.27
 74
     0
 49
1.27
 74
     0
 49
-1.27
 74
     0
  0
LTYPE
  5
70
330
5
100
AcDbSymbolTableRecord
100
AcDbLinetypeTableRecord
  2
CENTER
 70
     0
  3
Center ____ _ ____ _ ____ _ ____ _ ____ _ ____
 72
    65
 73
     4
 40
10.16
 49
6.35
 74
     0
 49
-1.27
 74
     0
 49
1.27
 74
     0
 49
-1.27
 74
     0
  0
LTYPE
  5
71
330
5
100
AcDbSymbolTableRecord
100
AcDbLinetypeTableRecord
  2
CENTERX2
 70
     0
  3
Center (2x) ________  __  ________  __  _____
 72
    65
 73
     4
 40
20.32
 49
12.7
 74
     0
 49
-2.54
 74
     0
 49
2.54
 74
     0
 49
-2.54
 74
     0
  0
LTYPE
  5
72
330
5
100
AcDbSymbolTableRecord
100
AcDbLinetypeTableRecord
  2
DOT2
 70
     0
  3
Dot (.5x) ........................................
 72
    65
 73
     2
 40
0.635
 49
0.0
 74
     0
 49
-0.635
 74
     0
  0
ENDTAB
  0
TABLE
  2
LAYER
  5
2
330
0
100
AcDbSymbolTable
 70
    17
  0
LAYER
  5
10
330
2
100
AcDbSymbolTableRecord
100
AcDbLayerTableRecord
  2
0
 70
     0
 62
     7
  6
Continuous
370
    -3
390
F
  0
LAYER
  5
73
330
2
100
AcDbSymbolTableRecord
100
AcDbLayerTableRecord
  2
FORMAT
 70
     0
 62
     2
  6
Continuous
370
    -3
390
F
  0
LAYER
  5
74
330
2
100
AcDbSymbolTableRecord
100
AcDbLayerTableRecord
  2
외형선
 70
     0
 62
   100
  6
Continuous
370
    35
390
F
  0
LAYER
  5
75
330
2
100
AcDbSymbolTableRecord
100
AcDbLayerTableRecord
  2
숨은선
 70
     0
 62
     2
  6
HIDDEN
370
    25
390
F
  0
LAYER
  5
76
330
2
100
AcDbSymbolTableRecord
100
AcDbLayerTableRecord
  2
중심선
 70
     0
 62
     1
  6
CENTERX2
370
    -3
390
F
  0
LAYER
  5
77
330
2
100
AcDbSymbolTableRecord
100
AcDbLayerTableRecord
  2
파단선
 70
     0
 62
     4
  6
Continuous
370
    -3
390
F
  0
LAYER
  5
78
330
2
100
AcDbSymbolTableRecord
100
AcDbLayerTableRecord
  2
해칭선
 70
     0
 62
     4
  6
Continuous
370
    -3
390
F
  0
LAYER
  5
79
330
2
100
AcDbSymbolTableRecord
100
AcDbLayerTableRecord
  2
가는실선
 70
     0
 62
     4
  6
Continuous
370
    -3
390
F
  0
LAYER
  5
7A
330
2
100
AcDbSymbolTableRecord
100
AcDbLayerTableRecord
  2
치수_보조선
 70
     0
 62
     4
  6
Continuous
370
    -3
390
F
  0
LAYER
  5
7B
330
2
100
AcDbSymbolTableRecord
100
AcDbLayerTableRecord
  2
치수문자_일반주서
 70
     0
 62
     7
  6
Continuous
370
    25
390
F
  0
LAYER
  5
7C
330
2
100
AcDbSymbolTableRecord
100
AcDbLayerTableRecord
  2
개별주서
 70
     0
 62
   100
  6
Continuous
370
    35
390
F
  0
LAYER
  5
7D
330
2
100
AcDbSymbolTableRecord
100
AcDbLayerTableRecord
  2
중간선
 70
     0
 62
     2
  6
Continuous
370
    25
390
F
  0
LAYER
  5
7E
330
2
100
AcDbSymbolTableRecord
100
AcDbLayerTableRecord
  2
윤곽선
 70
     0
 62
     3
  6
Continuous
370
    50
390
F
  0
LAYER
  5
7F
330
2
100
AcDbSymbolTableRecord
100
AcDbLayerTableRecord
  2
중심마크
 70
     0
 62
   100
  6
Continuous
370
    35
390
F
  0
LAYER
  5
80
330
2
100
AcDbSymbolTableRecord
100
AcDbLayerTableRecord
  2
가상선
 70
     0
 62
     4
  6
PHANTOM
370
    -3
390
F
  0
LAYER
  5
81
330
2
100
AcDbSymbolTableRecord
100
AcDbLayerTableRecord
  2
특수지정선
 70
     0
 62
     5
  6
CENTERX2
370
    70
390
F
  0
LAYER
  5
137
330
2
100
AcDbSymbolTableRecord
100
AcDbLayerTableRecord
  2
Defpoints
 70
     0
 62
     7
  6
Continuous
290
     0
370
    -3
390
F
  0
ENDTAB
  0
TABLE
  2
STYLE
  5
3
330
0
100
AcDbSymbolTable
 70
     2
  0
STYLE
  5
11
330
3
100
AcDbSymbolTableRecord
100
AcDbTextStyleTableRecord
  2
Standard
 70
     0
 40
0.0
 41
1.0
 50
0.0
 71
     0
 42
3.5
  3
txt
  4

  0
STYLE
  5
97
330
3
100
AcDbSymbolTableRecord
100
AcDbTextStyleTableRecord
  2
SLDTEXTSTYLE0
 70
     0
 40
0.0
 41
0.75
 50
0.0
 71
     0
 42
3.5
  3
TXT
  4

  0
ENDTAB
  0
TABLE
  2
VIEW
  5
6
330
0
100
AcDbSymbolTable
 70
     0
  0
ENDTAB
  0
TABLE
  2
UCS
  5
7
330
0
100
AcDbSymbolTable
 70
     0
  0
ENDTAB
  0
TABLE
  2
APPID
  5
9
330
0
100
AcDbSymbolTable
 70
     3
  0
APPID
  5
12
330
9
100
AcDbSymbolTableRecord
100
AcDbRegAppTableRecord
  2
ACAD
 70
     0
  0
APPID
  5
147
330
9
100
AcDbSymbolTableRecord
100
AcDbRegAppTableRecord
  2
ACAD_DSTYLE_DIMRADIAL_EXTENSION
 70
     0
  0
APPID
  5
178
330
9
100
AcDbSymbolTableRecord
100
AcDbRegAppTableRecord
  2
PE_URL
 70
     0
  0
ENDTAB
  0
TABLE
  2
DIMSTYLE
  5
A
330
0
100
AcDbSymbolTable
 70
     3
100
AcDbDimStyleTable
  0
DIMSTYLE
105
27
330
A
100
AcDbSymbolTableRecord
100
AcDbDimStyleTableRecord
  2
ISO-25
 70
     0
 41
2.5
 42
0.625
 43
3.75
 44
1.25
 73
     0
 74
     0
 77
     1
 78
     8
140
2.5
141
2.5
143
0.03937007874016
147
0.625
171
     3
172
     1
178
     0
271
     2
272
     2
274
     3
278
    44
283
     0
284
     8
340
11
  0
DIMSTYLE
105
D1
102
{ACAD_REACTORS
330
D0
330
F4
102
}
330
A
100
AcDbSymbolTableRecord
100
AcDbDimStyleTableRecord
  2
SLDDIMSTYLE0
 70
     0
 41
3.302
 44
0.0
 45
0.000000001
 73
     0
 74
     0
 77
     1
 78
    12
 79
     3
140
3.5
147
0.875
172
     1
173
     1
178
     0
271
     2
272
     2
276
     2
284
    12
289
     0
340
97
  0
DIMSTYLE
105
DF
102
{ACAD_REACTORS
330
DE
330
EA
330
100
330
148
102
}
330
A
100
AcDbSymbolTableRecord
100
AcDbDimStyleTableRecord
  2
SLDDIMSTYLE1
 70
     0
 41
3.302
 44
0.0
 45
0.000000001
 73
     0
 74
     0
 77
     1
 78
    12
 79
     3
140
3.5
147
0.875
173
     1
178
     0
271
     2
272
     2
276
     2
284
    12
340
97
  0
ENDTAB
  0
TABLE
  2
BLOCK_RECORD
  5
1
330
0
100
AcDbSymbolTable
 70
     9
  0
BLOCK_RECORD
  5
1F
330
1
100
AcDbSymbolTableRecord
100
AcDbBlockTableRecord
  2
*Model_Space
340
22
  0
BLOCK_RECORD
  5
1B
330
1
100
AcDbSymbolTableRecord
100
AcDbBlockTableRecord
  2
*Paper_Space
340
1E
  0
BLOCK_RECORD
  5
23
330
1
100
AcDbSymbolTableRecord
100
AcDbBlockTableRecord
  2
*Paper_Space0
340
26
  0
BLOCK_RECORD
  5
82
330
1
100
AcDbSymbolTableRecord
100
AcDbBlockTableRecord
  2
블럭10
340
0
102
{BLKREFS
331
C9
102
}
  0
BLOCK_RECORD
  5
D2
330
1
100
AcDbSymbolTableRecord
100
AcDbBlockTableRecord
  2
_D
340
0
  0
BLOCK_RECORD
  5
E0
330
1
100
AcDbSymbolTableRecord
100
AcDbBlockTableRecord
  2
_D_1
340
0
  0
BLOCK_RECORD
  5
EB
330
1
100
AcDbSymbolTableRecord
100
AcDbBlockTableRecord
  2
_D_2
340
0
  0
BLOCK_RECORD
  5
F5
330
1
100
AcDbSymbolTableRecord
100
AcDbBlockTableRecord
  2
_D_3
340
0
  0
BLOCK_RECORD
  5
101
330
1
100
AcDbSymbolTableRecord
100
AcDbBlockTableRecord
  2
_D_4
340
0
  0
BLOCK_RECORD
  5
10C
330
1
100
AcDbSymbolTableRecord
100
AcDbBlockTableRecord
  2
SW_DOWELSYMBOL_0
340
0
102
{BLKREFS
331
112
102
}
  0
BLOCK_RECORD
  5
14B
330
1
100
AcDbSymbolTableRecord
100
AcDbBlockTableRecord
  2
*D8
340
0
  0
ENDTAB
  0
ENDSEC
  0
SECTION
  2
BLOCKS
  0
BLOCK
  5
20
330
1F
100
AcDbEntity
  8
0
100
AcDbBlockBegin
  2
*Model_Space
 70
     0
 10
0.0
 20
0.0
 30
0.0
  3
*Model_Space
  1
*Model_Space
  0
ENDBLK
  5
21
330
1F
100
AcDbEntity
  8
0
100
AcDbBlockEnd
  0
BLOCK
  5
1C
330
1B
100
AcDbEntity
 67
     1
  8
0
100
AcDbBlockBegin
  2
*Paper_Space
 70
     0
 10
0.0
 20
0.0
 30
0.0
  3
*Paper_Space
  1
*Paper_Space
  0
ENDBLK
  5
1D
330
1B
100
AcDbEntity
 67
     1
  8
0
100
AcDbBlockEnd
  0
BLOCK
  5
24
330
23
100
AcDbEntity
  8
0
100
AcDbBlockBegin
  2
*Paper_Space0
 70
     0
 10
0.0
 20
0.0
 30
0.0
  3
*Paper_Space0
  1
*Paper_Space0
  0
ENDBLK
  5
25
330
23
100
AcDbEntity
  8
0
100
AcDbBlockEnd
  0
BLOCK
  5
83
330
82
100
AcDbEntity
  8
0
100
AcDbBlockBegin
  2
블럭10
 70
     2
 10
0.0
 20
0.0
 30
0.0
  3
블럭10
  1
블럭10
  0
ELLIPSE
  5
85
330
82
100
AcDbEntity
  8
중심선
100
AcDbEllipse
 10
20.54032771741204
 20
12.0471743016438
 30
0.0
 11
6.600054785286829
 21
-1.261213355974178E-13
 31
0.0
210
0.0
220
0.0
230
1.0
 40
0.636358354079598
 41
0.9219305317359503
 42
6.513795318482858
  0
ELLIPSE
  5
86
330
82
100
AcDbEntity
  8
중심선
100
AcDbEllipse
 10
20.54032771746488
 20
12.04717430159265
 30
0.0
 11
3.960054785062283
 21
1.540847449632565E-10
 31
0.0
210
0.0
220
0.0
230
1.0
 40
0.3939339440162632
 41
1.131841032648279
 42
5.62031148352944
  0
LINE
  5
87
330
82
100
AcDbEntity
  8
중심선
100
AcDbLine
 10
2.268634060543552
 20
16.24717430164393
 30
0.0
 11
5.714909304380834
 21
16.24717430164393
 31
0.0
  0
LINE
  5
88
330
82
100
AcDbEntity
  8
중심선
100
AcDbLine
 10
5.245725140726316
 20
7.84717430164391
 30
0.0
 11
8.692000384563599
 21
7.84717430164391
 31
0.0
  0
LINE
  5
89
330
82
100
AcDbEntity
  8
중심선
100
AcDbLine
 10
15.74043728645272
 20
16.24717430164393
 30
0.0
 11
8.692000384563599
 21
7.84717430164391
 31
0.0
  0
LINE
  5
8A
330
82
100
AcDbEntity
  8
중심선
100
AcDbLine
 10
0.1404042013395286
 20
13.71084872107135
 30
0.0
 11
3.58671253028996
 21
13.71088815037384
 31
0.0
  0
LINE
  5
8B
330
82
100
AcDbEntity
  8
중심선
100
AcDbLine
 10
2.750260043222114
 20
10.84717430164391
 30
0.0
 11
6.196535287059397
 21
10.84717430164391
 31
0.0
  0
LINE
  5
8C
330
82
100
AcDbEntity
  8
중심선
100
AcDbLine
 10
12.29416204261559
 20
16.24717430164393
 30
0.0
 11
5.245725140726316
 21
7.84717430164391
 31
0.0
  0
LINE
  5
8D
330
82
100
AcDbEntity
  8
중심선
100
AcDbLine
 10
10.72767329541681
 20
16.24717430164393
 30
0.0
 11
6.196535287059397
 21
10.84717430164391
 31
0.0
  0
LINE
  5
8E
330
82
100
AcDbEntity
  8
중심선
100
AcDbLine
 10
7.28139805157953
 20
16.24717430164393
 30
0.0
 11
2.750260043222114
 21
10.84717430164391
 31
0.0
  0
LINE
  5
8F
330
82
100
AcDbEntity
  8
중심선
100
AcDbLine
 10
5.714909304380834
 20
16.24717430164393
 30
0.0
 11
3.58671253028996
 21
13.71088815037384
 31
0.0
  0
LINE
  5
90
330
82
100
AcDbEntity
  8
중심선
100
AcDbLine
 10
2.268634060543552
 20
16.24717430164393
 30
0.0
 11
0.1404042013395286
 21
13.71084872107135
 31
0.0
  0
LINE
  5
91
330
82
100
AcDbEntity
  8
중심선
100
AcDbLine
 10
7.28139805157953
 20
16.24717430164393
 30
0.0
 11
10.72767329541681
 21
16.24717430164393
 31
0.0
  0
LINE
  5
92
330
82
100
AcDbEntity
  8
중심선
100
AcDbLine
 10
12.29416204261559
 20
16.24717430164393
 30
0.0
 11
15.74043728645272
 21
16.24717430164393
 31
0.0
  0
LINE
  5
93
330
82
100
AcDbEntity
  8
중심선
100
AcDbLine
 10
19.22036997980202
 20
11.08717430171403
 30
0.0
 11
23.66174974927406
 21
11.08717430171406
 31
0.0
  0
LINE
  5
94
330
82
100
AcDbEntity
  8
중심선
100
AcDbLine
 10
19.22039502424796
 20
13.00717430171391
 30
0.0
 11
19.22036997980202
 21
11.08717430171403
 31
0.0
  0
LINE
  5
95
330
82
100
AcDbEntity
  8
중심선
100
AcDbLine
 10
19.22039502424796
 20
13.00717430171391
 30
0.0
 11
26.96566020931264
 21
13.00717430171391
 31
0.0
  0
LINE
  5
96
330
82
100
AcDbEntity
  8
중심선
100
AcDbLine
 10
22.22332737316547
 20
13.45928029700563
 30
0.0
 11
24.52862924686651
 21
15.39360700705356
 31
0.0
  0
ATTDEF
  5
98
330
82
100
AcDbEntity
  8
FORMAT
 62
     2
100
AcDbText
 10
-16.11926103943555
 20
2.075366912832191
 30
0.0
 40
4.233333333333333
  1
SEME6116005E [ 2 FLUTE ]
 41
0.75
  7
SLDTEXTSTYLE0
 11
-16.11926103943555
 21
-0.0412997538344756
 31
0.0
100
AcDbAttributeDefinition
  3

  2
AUTOATTR0
 70
     0
 74
     1
  0
ENDBLK
  5
84
330
82
100
AcDbEntity
  8
0
100
AcDbBlockEnd
  0
BLOCK
  5
D3
330
D2
100
AcDbEntity
  8
0
100
AcDbBlockBegin
  2
_D
 70
     0
 10
0.0
 20
0.0
 30
0.0
  3
_D
  1
_D
  0
LINE
  5
D5
330
D2
100
AcDbEntity
  8
치수문자_일반주서
 62
     0
370
    -2
100
AcDbLine
 10
-63.91250000000001
 20
7.999999999999995
 30
0.0
 11
-76.34645802161211
 21
7.999999999999948
 31
0.0
  0
LINE
  5
D6
330
D2
100
AcDbEntity
  8
치수문자_일반주서
 62
     0
370
    -2
100
AcDbLine
 10
-63.91250000000001
 20
-7.999999999999998
 30
0.0
 11
-76.34645802161205
 21
-8.000000000000044
 31
0.0
  0
LINE
  5
D7
330
D2
100
AcDbEntity
  8
치수문자_일반주서
 62
     0
370
    -2
100
AcDbLine
 10
-76.3464580216121
 20
4.697999999999949
 30
0.0
 11
-76.34645802161207
 21
-4.698000000000045
 31
0.0
  0
SOLID
  5
D8
330
D2
100
AcDbEntity
  8
치수문자_일반주서
 62
     0
100
AcDbTrace
 10
-75.79612468827877
 20
4.697999999999951
 30
0.0
 11
-76.89679135494542
 21
4.697999999999947
 31
0.0
 12
-76.34645802161211
 22
7.999999999999948
 32
0.0
 13
-76.34645802161211
 23
7.999999999999948
 33
0.0
  0
SOLID
  5
D9
330
D2
100
AcDbEntity
  8
치수문자_일반주서
 62
     0
100
AcDbTrace
 10
-76.89679135494539
 20
-4.698000000000047
 30
0.0
 11
-75.79612468827874
 21
-4.698000000000043
 31
0.0
 12
-76.34645802161205
 22
-8.000000000000044
 32
0.0
 13
-76.34645802161205
 23
-8.000000000000044
 33
0.0
  0
MTEXT
  5
DA
330
D2
100
AcDbEntity
  8
치수문자_일반주서
 62
     0
100
AcDbMText
 10
-80.72145802161208
 20
-0.000000000000017
 30
0.0
 40
3.5
 41
0.0
 71
     2
 72
     1
  1
\A1;%%c16
  7
SLDTEXTSTYLE0
 11
-3.552713678800503E-15
 21
1.0
 31
0.0
 73
     1
 44
1.0
  0
POINT
  5
DB
330
D2
100
AcDbEntity
  8
Defpoints
 62
     0
100
AcDbPoint
 10
-63.85000000000001
 20
7.999999999999995
 30
0.0
  0
POINT
  5
DC
330
D2
100
AcDbEntity
  8
Defpoints
 62
     0
100
AcDbPoint
 10
-63.85000000000001
 20
-7.999999999999998
 30
0.0
  0
POINT
  5
DD
330
D2
100
AcDbEntity
  8
Defpoints
 62
     0
100
AcDbPoint
 10
-76.34645802161205
 20
-8.000000000000044
 30
0.0
  0
ENDBLK
  5
D4
330
D2
100
AcDbEntity
  8
0
100
AcDbBlockEnd
  0
BLOCK
  5
E1
330
E0
100
AcDbEntity
  8
0
100
AcDbBlockBegin
  2
_D_1
 70
     0
 10
0.0
 20
0.0
 30
0.0
  3
_D_1
  1
_D_1
  0
LINE
  5
E3
330
E0
100
AcDbEntity
  8
치수문자_일반주서
 62
     0
370
    -2
100
AcDbLine
 10
35.14999999999999
 20
7.562499999999997
 30
0.0
 11
35.14999999999999
 21
25.99999999999964
 31
0.0
  0
LINE
  5
E4
330
E0
100
AcDbEntity
  8
치수문자_일반주서
 62
     0
370
    -2
100
AcDbLine
 10
15.15
 20
6.410649792250941
 30
0.0
 11
15.15
 21
25.99999999999964
 31
0.0
  0
LINE
  5
E5
330
E0
100
AcDbEntity
  8
치수문자_일반주서
 62
     0
370
    -2
100
AcDbLine
 10
31.84799999999999
 20
25.99999999999964
 30
0.0
 11
18.452
 21
25.99999999999964
 31
0.0
  0
SOLID
  5
E6
330
E0
100
AcDbEntity
  8
치수문자_일반주서
 62
     0
100
AcDbTrace
 10
31.84799999999999
 20
25.44966666666631
 30
0.0
 11
31.84799999999999
 21
26.55033333333298
 31
0.0
 12
35.14999999999999
 22
25.99999999999964
 32
0.0
 13
35.14999999999999
 23
25.99999999999964
 33
0.0
  0
SOLID
  5
E7
330
E0
100
AcDbEntity
  8
치수문자_일반주서
 62
     0
100
AcDbTrace
 10
18.452
 20
26.55033333333298
 30
0.0
 11
18.452
 21
25.44966666666631
 31
0.0
 12
15.15
 22
25.99999999999964
 32
0.0
 13
15.15
 23
25.99999999999964
 33
0.0
  0
MTEXT
  5
E8
330
E0
100
AcDbEntity
  8
치수문자_일반주서
 62
     0
100
AcDbMText
 10
25.15
 20
30.37499999999964
 30
0.0
 40
3.5
 41
0.0
 71
     2
 72
     1
  1
\A1;20
  7
SLDTEXTSTYLE0
 73
     1
 44
1.0
  0
POINT
  5
E9
330
E0
100
AcDbEntity
  8
Defpoints
 62
     0
100
AcDbPoint
 10
35.14999999999999
 20
7.499999999999997
 30
0.0
  0
POINT
  5
13E
330
E0
100
AcDbEntity
  8
Defpoints
 62
     0
100
AcDbPoint
 10
15.15
 20
6.348149792250941
 30
0.0
  0
POINT
  5
13F
330
E0
100
AcDbEntity
  8
Defpoints
 62
     0
100
AcDbPoint
 10
15.15
 20
25.99999999999964
 30
0.0
  0
ENDBLK
  5
E2
330
E0
100
AcDbEntity
  8
0
100
AcDbBlockEnd
  0
BLOCK
  5
EC
330
EB
100
AcDbEntity
  8
0
100
AcDbBlockBegin
  2
_D_2
 70
     0
 10
0.0
 20
0.0
 30
0.0
  3
_D_2
  1
_D_2
  0
LINE
  5
EE
330
EB
100
AcDbEntity
  8
치수문자_일반주서
 62
     0
370
    -2
100
AcDbLine
 10
35.14999999999999
 20
7.562499999999997
 30
0.0
 11
35.14999999999999
 21
48.05832450504428
 31
0.0
  0
LINE
  5
EF
330
EB
100
AcDbEntity
  8
치수문자_일반주서
 62
     0
370
    -2
100
AcDbLine
 10
-64.85000000000001
 20
7.062499999999988
 30
0.0
 11
-64.85000000000001
 21
48.05832450504428
 31
0.0
  0
LINE
  5
F0
330
EB
100
AcDbEntity
  8
치수문자_일반주서
 62
     0
370
    -2
100
AcDbLine
 10
31.84799999999999
 20
48.05832450504428
 30
0.0
 11
-61.54800000000001
 21
48.05832450504428
 31
0.0
  0
SOLID
  5
F1
330
EB
100
AcDbEntity
  8
치수문자_일반주서
 62
     0
100
AcDbTrace
 10
31.84799999999999
 20
47.50799117171095
 30
0.0
 11
31.84799999999999
 21
48.60865783837762
 31
0.0
 12
35.14999999999999
 22
48.05832450504428
 32
0.0
 13
35.14999999999999
 23
48.05832450504428
 33
0.0
  0
SOLID
  5
F2
330
EB
100
AcDbEntity
  8
치수문자_일반주서
 62
     0
100
AcDbTrace
 10
-61.54800000000001
 20
48.60865783837762
 30
0.0
 11
-61.54800000000001
 21
47.50799117171095
 31
0.0
 12
-64.85000000000001
 22
48.05832450504428
 32
0.0
 13
-64.85000000000001
 23
48.05832450504428
 33
0.0
  0
MTEXT
  5
F3
330
EB
100
AcDbEntity
  8
치수문자_일반주서
 62
     0
100
AcDbMText
 10
-14.85
 20
52.43332450504428
 30
0.0
 40
3.5
 41
0.0
 71
     2
 72
     1
  1
\A1;100
  7
SLDTEXTSTYLE0
 73
     1
 44
1.0
  0
POINT
  5
141
330
EB
100
AcDbEntity
  8
Defpoints
 62
     0
100
AcDbPoint
 10
35.14999999999999
 20
7.499999999999997
 30
0.0
  0
POINT
  5
142
330
EB
100
AcDbEntity
  8
Defpoints
 62
     0
100
AcDbPoint
 10
-64.85000000000001
 20
6.999999999999988
 30
0.0
  0
POINT
  5
143
330
EB
100
AcDbEntity
  8
Defpoints
 62
     0
100
AcDbPoint
 10
-64.85000000000001
 20
48.05832450504428
 30
0.0
  0
ENDBLK
  5
ED
330
EB
100
AcDbEntity
  8
0
100
AcDbBlockEnd
  0
BLOCK
  5
F6
330
F5
100
AcDbEntity
  8
0
100
AcDbBlockBegin
  2
_D_3
 70
     0
 10
0.0
 20
0.0
 30
0.0
  3
_D_3
  1
_D_3
  0
LINE
  5
F8
330
F5
100
AcDbEntity
  8
치수문자_일반주서
 62
     0
370
    -2
100
AcDbLine
 10
35.14999999999999
 20
7.550971275549359
 30
0.0
 11
35.14999999999999
 21
35.69345207538682
 31
0.0
  0
LINE
  5
F9
330
F5
100
AcDbEntity
  8
치수문자_일반주서
 62
     0
370
    -2
100
AcDbLine
 10
0.1499999999999964
 20
7.912500000000001
 30
0.0
 11
0.149999999999995
 21
35.69345207538682
 31
0.0
  0
LINE
  5
FA
330
F5
100
AcDbEntity
  8
치수문자_일반주서
 62
     0
370
    -2
100
AcDbLine
 10
31.84799999999999
 20
35.69345207538682
 30
0.0
 11
3.451999999999995
 21
35.69345207538682
 31
0.0
  0
SOLID
  5
FB
330
F5
100
AcDbEntity
  8
치수문자_일반주서
 62
     0
100
AcDbTrace
 10
31.84799999999999
 20
35.14311874205349
 30
0.0
 11
31.84799999999999
 21
36.24378540872016
 31
0.0
 12
35.14999999999999
 22
35.69345207538682
 32
0.0
 13
35.14999999999999
 23
35.69345207538682
 33
0.0
  0
SOLID
  5
FC
330
F5
100
AcDbEntity
  8
치수문자_일반주서
 62
     0
100
AcDbTrace
 10
3.451999999999995
 20
36.24378540872016
 30
0.0
 11
3.451999999999995
 21
35.14311874205349
 31
0.0
 12
0.149999999999995
 22
35.69345207538682
 32
0.0
 13
0.149999999999995
 23
35.69345207538682
 33
0.0
  0
MTEXT
  5
FD
330
F5
100
AcDbEntity
  8
치수문자_일반주서
 62
     0
100
AcDbMText
 10
17.65
 20
40.06845207538682
 30
0.0
 40
3.5
 41
0.0
 71
     2
 72
     1
  1
\A1;35
  7
SLDTEXTSTYLE0
 73
     1
 44
1.0
  0
POINT
  5
FE
330
F5
100
AcDbEntity
  8
Defpoints
 62
     0
100
AcDbPoint
 10
35.14999999999999
 20
7.488471275549359
 30
0.0
  0
POINT
  5
FF
330
F5
100
AcDbEntity
  8
Defpoints
 62
     0
100
AcDbPoint
 10
0.1499999999999964
 20
7.850000000000001
 30
0.0
  0
POINT
  5
138
330
F5
100
AcDbEntity
  8
Defpoints
 62
     0
100
AcDbPoint
 10
0.1499999999999964
 20
35.69345207538682
 30
0.0
  0
ENDBLK
  5
F7
330
F5
100
AcDbEntity
  8
0
100
AcDbBlockEnd
  0
BLOCK
  5
102
330
101
100
AcDbEntity
  8
0
100
AcDbBlockBegin
  2
_D_4
 70
     0
 10
0.0
 20
0.0
 30
0.0
  3
_D_4
  1
_D_4
  0
LINE
  5
104
330
101
100
AcDbEntity
  8
치수문자_일반주서
 62
     0
370
    -2
100
AcDbLine
 10
35.21249999999999
 20
8.022827009027658
 30
0.0
 11
54.33500853481635
 21
8.02282700902773
 31
0.0
  0
LINE
  5
105
330
101
100
AcDbEntity
  8
치수문자_일반주서
 62
     0
370
    -2
100
AcDbLine
 10
34.71249999999999
 20
-7.976134633533742
 30
0.0
 11
54.3350085348164
 21
-7.976134633533669
 31
0.0
  0
LINE
  5
106
330
101
100
AcDbEntity
  8
치수문자_일반주서
 62
     0
370
    -2
100
AcDbLine
 10
54.33500853481636
 20
4.72082700902773
 30
0.0
 11
54.33500853481639
 21
-4.674134633533669
 31
0.0
  0
SOLID
  5
107
330
101
100
AcDbEntity
  8
치수문자_일반주서
 62
     0
100
AcDbTrace
 10
54.88534186814969
 20
4.720827009027731
 30
0.0
 11
53.78467520148303
 21
4.720827009027728
 31
0.0
 12
54.33500853481635
 22
8.02282700902773
 32
0.0
 13
54.33500853481635
 23
8.02282700902773
 33
0.0
  0
SOLID
  5
108
330
101
100
AcDbEntity
  8
치수문자_일반주서
 62
     0
100
AcDbTrace
 10
53.78467520148305
 20
-4.67413463353367
 30
0.0
 11
54.88534186814972
 21
-4.674134633533667
 31
0.0
 12
54.3350085348164
 22
-7.976134633533669
 32
0.0
 13
54.3350085348164
 23
-7.976134633533669
 33
0.0
  0
MTEXT
  5
109
330
101
100
AcDbEntity
  8
치수문자_일반주서
 62
     0
100
AcDbMText
 10
49.96000853481637
 20
0.0000000000000307
 30
0.0
 40
3.5
 41
0.0
 71
     2
 72
     1
  1
\A1;%%c16
  7
SLDTEXTSTYLE0
 11
-3.552944255431537E-15
 21
1.0
 31
0.0
 73
     1
 44
1.0
  0
POINT
  5
10A
330
101
100
AcDbEntity
  8
Defpoints
 62
     0
100
AcDbPoint
 10
35.14999999999999
 20
8.022827009027658
 30
0.0
  0
POINT
  5
10B
330
101
100
AcDbEntity
  8
Defpoints
 62
     0
100
AcDbPoint
 10
34.64999999999999
 20
-7.976134633533742
 30
0.0
  0
POINT
  5
13C
330
101
100
AcDbEntity
  8
Defpoints
 62
     0
100
AcDbPoint
 10
54.3350085348164
 20
-7.976134633533668
 30
0.0
  0
ENDBLK
  5
103
330
101
100
AcDbEntity
  8
0
100
AcDbBlockEnd
  0
BLOCK
  5
10D
330
10C
100
AcDbEntity
  8
0
100
AcDbBlockBegin
  2
SW_DOWELSYMBOL_0
 70
     0
 10
0.0
 20
0.0
 30
0.0
  3
SW_DOWELSYMBOL_0
  1
SW_DOWELSYMBOL_0
  0
CIRCLE
  5
10F
330
10C
100
AcDbEntity
  8
외형선
 62
     0
100
AcDbCircle
 10
0.0
 20
0.0
 30
0.0
 40
3.000000000000004
  0
HATCH
  5
110
330
10C
100
AcDbEntity
  8
0
  6
Continuous
 62
     0
370
    35
100
AcDbHatch
 10
0.0
 20
0.0
 30
0.0
210
0.0
220
0.0
230
1.0
  2
SOLID
 70
     1
 71
     0
 91
        1
 92
        0
 93
        3
 72
     2
 10
0.0000000000000104
 20
0.0
 40
3.000000000000004
 50
0.0
 51
90.0
 73
     1
 72
     1
 10
0.0000000000000104
 20
3.000000000000004
 11
0.0000000000000104
 21
0.0
 72
     1
 10
0.0000000000000104
 20
0.0
 11
3.000000000000015
 21
0.0
 97
        0
 75
     0
 76
     1
 98
        1
 10
0.0
 20
0.0
  0
HATCH
  5
111
330
10C
100
AcDbEntity
  8
0
  6
Continuous
 62
     0
370
    35
100
AcDbHatch
 10
0.0
 20
0.0
 30
0.0
210
0.0
220
0.0
230
1.0
  2
SOLID
 70
     1
 71
     0
 91
        1
 92
        0
 93
        3
 72
     2
 10
0.0000000000000104
 20
0.0
 40
3.000000000000004
 50
180.0
 51
270.0000000000007
 73
     1
 72
     1
 10
0.0000000000000104
 20
-3.000000000000004
 11
0.0000000000000104
 21
0.0
 72
     1
 10
0.0000000000000104
 20
0.0
 11
-2.999999999999994
 21
0.0
 97
        0
 75
     0
 76
     1
 98
        1
 10
0.0
 20
0.0
  0
ENDBLK
  5
10E
330
10C
100
AcDbEntity
  8
0
100
AcDbBlockEnd
  0
BLOCK
  5
14C
330
14B
100
AcDbEntity
  8
0
100
AcDbBlockBegin
  2
*D8
 70
     1
 10
0.0
 20
0.0
 30
0.0
  3
*D8
  1
*D8
  0
LINE
  5
14E
330
14B
100
AcDbEntity
  8
치수문자_일반주서
 62
     0
370
    -2
100
AcDbLine
 10
36.72947664703229
 20
-10.65905481387872
 30
0.0
 11
45.89405436971371
 21
-24.68668018754789
 31
0.0
  0
MTEXT
  5
14F
330
14B
100
AcDbEntity
  8
치수문자_일반주서
 62
     0
100
AcDbMText
 10
45.57910687526368
 20
-19.40520575911035
 30
0.0
 40
3.5
 41
0.0
 71
     5
 72
     1
  1
\A1;R0.5
  7
SLDTEXTSTYLE0
 11
0.546942831939057
 21
-0.8371699580076226
 31
0.0
 73
     1
 44
1.0
  0
SOLID
  5
150
330
14B
100
AcDbEntity
  8
치수문자_일반주서
 62
     0
100
AcDbTrace
 10
37.19019918058915
 20
-10.35805394203492
 30
0.0
 11
36.26875411347543
 21
-10.96005568572251
 31
0.0
 12
34.92347141596952
 22
-7.894719612537546
 32
0.0
 13
34.92347141596952
 23
-7.894719612537546
 33
0.0
  0
LINE
  5
151
330
14B
100
AcDbEntity
  8
치수문자_일반주서
 62
     0
100
AcDbLine
 10
34.55999999999999
 20
-7.47613463353373
 30
0.0
 11
34.73999999999999
 21
-7.47613463353373
 31
0.0
  0
LINE
  5
152
330
14B
100
AcDbEntity
  8
치수문자_일반주서
 62
     0
100
AcDbLine
 10
34.64999999999999
 20
-7.56613463353373
 30
0.0
 11
34.64999999999999
 21
-7.386134633533731
 31
0.0
  0
POINT
  5
153
330
14B
100
AcDbEntity
  8
Defpoints
 62
     0
100
AcDbPoint
 10
34.92347141596952
 20
-7.894719612537546
 30
0.0
  0
POINT
  5
154
330
14B
100
AcDbEntity
  8
Defpoints
 62
     0
100
AcDbPoint
 10
34.64999999999999
 20
-7.47613463353373
 30
0.0
  0
ENDBLK
  5
14D
330
14B
100
AcDbEntity
  8
0
100
AcDbBlockEnd
  0
ENDSEC
  0
SECTION
  2
ENTITIES
  0
LINE
  5
99
330
1F
100
AcDbEntity
  8
0
  6
Continuous
 62
     4
370
    25
100
AcDbLine
 10
-0.0000000000000004
 20
7.999999999999997
 30
0.0
 11
-63.85000000000001
 21
7.999999999999995
 31
0.0
  0
LINE
  5
9A
330
1F
100
AcDbEntity
  8
0
  6
Continuous
 62
     4
370
    25
100
AcDbLine
 10
-63.85000000000001
 20
-7.999999999999998
 30
0.0
 11
-0.000000000000004
 21
-7.999999999999996
 31
0.0
1001
PE_URL
1000

  0
LINE
  5
9D
330
1F
100
AcDbEntity
  8
0
  6
Continuous
 62
     4
370
    25
100
AcDbLine
 10
-63.85000000000001
 20
7.999999999999995
 30
0.0
 11
-64.85000000000001
 21
6.999999999999988
 31
0.0
  0
LINE
  5
9E
330
1F
100
AcDbEntity
  8
0
  6
Continuous
 62
     4
370
    25
100
AcDbLine
 10
-64.85000000000001
 20
-6.999999999999994
 30
0.0
 11
-63.85000000000001
 21
-7.999999999999998
 31
0.0
  0
LINE
  5
9F
330
1F
100
AcDbEntity
  8
0
  6
Continuous
 62
     4
370
    25
100
AcDbLine
 10
12.10001704676078
 20
7.850000000000001
 30
0.0
 11
0.1499999999999964
 21
7.850000000000001
 31
0.0
  0
LINE
  5
A0
330
1F
100
AcDbEntity
  8
0
  6
Continuous
 62
     4
370
    25
100
AcDbLine
 10
0.1499999999999964
 20
-7.849999999999998
 30
0.0
 11
12.10001704676078
 21
-7.849999999999998
 31
0.0
  0
LINE
  5
A1
330
1F
100
AcDbEntity
  8
0
  6
Continuous
 62
     4
370
    25
100
AcDbLine
 10
14.41034574018425
 20
2.056040499786341
 30
0.0
 11
12.65199959892672
 21
2.925201726889586
 31
0.0
  0
SPLINE
  5
A2
330
1F
100
AcDbEntity
  8
0
  6
Continuous
 62
     1
370
    25
100
AcDbSpline
210
0.0
220
0.0
230
1.0
 70
     8
 71
     3
 72
    32
 73
    28
 74
     0
 42
0.000000001
 43
0.00000001
 40
0.0
 40
0.0
 40
0.0
 40
0.0
 40
0.040229807119205
 40
0.0774663420770689
 40
0.1125837557618004
 40
0.162366004674189
 40
0.2110978486523501
 40
0.2578919349316874
 40
0.3030727891287545
 40
0.343503573554828
 40
0.3769690627689297
 40
0.4056602994985094
 40
0.4403650451074092
 40
0.4834961479725378
 40
0.529196494346218
 40
0.5711942521873088
 40
0.6087159342150182
 40
0.6427624697265673
 40
0.674893244002138
 40
0.7149430621014143
 40
0.7621663044157477
 40
0.8110407534087228
 40
0.8615940600222458
 40
0.8972432685349865
 40
0.9309638702855305
 40
0.9646219416478714
 40
1.0
 40
1.0
 40
1.0
 40
1.0
 10
32.19011829900909
 20
5.472672340184595
 30
0.0
 10
32.03814401134198
 20
5.45889631267239
 30
0.0
 10
31.74550298225493
 20
5.4323692538535
 30
0.0
 10
31.26048938660538
 20
5.38965475090789
 30
0.0
 10
30.69128386969298
 20
5.349381782076623
 30
0.0
 10
30.02960896063929
 20
5.321070254489144
 30
0.0
 10
29.31996035661029
 20
5.296248946885527
 30
0.0
 10
28.63125670875495
 20
5.276872544044553
 30
0.0
 10
27.99859266904418
 20
5.266583729108388
 30
0.0
 10
27.43397370706655
 20
5.263690780790128
 30
0.0
 10
26.94695365453612
 20
5.265918124028386
 30
0.0
 10
26.48683893513176
 20
5.271794913458874
 30
0.0
 10
25.98251364575669
 20
5.282401552152327
 30
0.0
 10
25.39876009665279
 20
5.300548232164283
 30
0.0
 10
24.78147598632669
 20
5.326745518957967
 30
0.0
 10
24.18762714265827
 20
5.358782296290364
 30
0.0
 10
23.64464540183037
 20
5.393644180387005
 30
0.0
 10
23.14918519733264
 20
5.42985520604081
 30
0.0
 10
22.64551460219015
 20
5.470791071703099
 30
0.0
 10
22.07212713450678
 20
5.522511677680908
 30
0.0
 10
21.41407992732598
 20
5.588843002602474
 30
0.0
 10
20.69795179616375
 20
5.668014916462762
 30
0.0
 10
20.04321590536036
 20
5.740639007542072
 30
0.0
 10
19.45671448194992
 20
5.814047493181406
 30
0.0
 10
18.97733914249907
 20
5.885696916338955
 30
0.0
 10
18.5480233926535
 20
5.959542142407499
 30
0.0
 10
18.31983606140539
 20
5.997565695744108
 30
0.0
 10
18.20289983173113
 20
6.01705113755931
 30
0.0
  0
SPLINE
  5
A3
330
1F
100
AcDbEntity
  8
0
  6
Continuous
 62
     1
370
    25
100
AcDbSpline
210
0.0
220
0.0
230
1.0
 70
     8
 71
     3
 72
    22
 73
    18
 74
     0
 42
0.000000001
 43
0.00000001
 40
0.0
 40
0.0
 40
0.0
 40
0.0
 40
0.0661342559517817
 40
0.0936610733900995
 40
0.1186661972633898
 40
0.1424884061124849
 40
0.1666776151283518
 40
0.2216472143918372
 40
0.3479078625941571
 40
0.482083781422619
 40
0.5861916521095709
 40
0.6681632972479163
 40
0.7146335079199887
 40
0.7755118600487949
 40
0.8591674375543772
 40
0.9470268408353784
 40
1.0
 40
1.0
 40
1.0
 40
1.0
 10
18.20289983173114
 20
-6.017051137559303
 30
0.0
 10
18.21265067712806
 20
-6.013371695155915
 30
0.0
 10
18.22646008094146
 20
-6.008160772011493
 30
0.0
 10
18.32377229316285
 20
-5.979042101125671
 30
0.0
 10
18.41841321682886
 20
-5.955211056053743
 30
0.0
 10
18.5410080534272
 20
-5.929173727074527
 30
0.0
 10
18.74844102592927
 20
-5.892167436126488
 30
0.0
 10
19.21519036797516
 20
-5.830782117141525
 30
0.0
 10
19.90471703665582
 20
-5.756238900445672
 30
0.0
 10
20.71695826609729
 20
-5.663924106103372
 30
0.0
 10
21.42842739802884
 20
-5.588018681765365
 30
0.0
 10
21.94858704449579
 20
-5.535111337347099
 30
0.0
 10
22.36031644469808
 20
-5.49642224250276
 30
0.0
 10
22.76495570377013
 20
-5.460805569378604
 30
0.0
 10
23.25260370964406
 20
-5.42157959830023
 30
0.0
 10
23.72748985793903
 20
-5.3867928470574
 30
0.0
 10
24.03421897698943
 20
-5.368564638201798
 30
0.0
 10
24.14959293711428
 20
-5.361708228063224
 30
0.0
  0
LINE
  5
A5
330
1F
100
AcDbEntity
  8
0
  6
Continuous
 62
     4
370
    25
100
AcDbLine
 10
-63.85000000000001
 20
7.999999999999995
 30
0.0
 11
-63.85000000000001
 21
-7.999999999999998
 31
0.0
  0
LINE
  5
A6
330
1F
100
AcDbEntity
  8
0
  6
Continuous
 62
     4
370
    25
100
AcDbLine
 10
0.1499999999999964
 20
7.850000000000001
 30
0.0
 11
0.1499999999999964
 21
-7.849999999999998
 31
0.0
1001
PE_URL
1000

  0
LINE
  5
A7
330
1F
100
AcDbEntity
  8
0
  6
Continuous
 62
     4
370
    25
100
AcDbLine
 10
-64.85000000000001
 20
6.999999999999988
 30
0.0
 11
-64.85000000000001
 21
-7.000000000000001
 31
0.0
  0
SPLINE
  5
A8
330
1F
100
AcDbEntity
  8
0
  6
Continuous
 62
     4
370
    25
100
AcDbSpline
210
0.0
220
0.0
230
1.0
 70
     8
 71
     3
 72
    10
 73
     6
 74
     0
 42
0.000000001
 43
0.00000001
 40
0.0
 40
0.0
 40
0.0
 40
0.0
 40
0.5
 40
0.5
 40
1.0
 40
1.0
 40
1.0
 40
1.0
 10
15.15
 20
-0.7113885689058755
 30
0.0
 10
14.64088731546435
 20
-0.5075408437404046
 30
0.0
 10
14.13054986090805
 20
-0.3020900244200026
 30
0.0
 10
13.11666237457162
 20
0.1082897774400132
 30
0.0
 10
12.60944836364214
 20
0.3137120707036218
 30
0.0
 10
12.10002135048433
 20
0.5183844689954844
 30
0.0
  0
SPLINE
  5
A9
330
1F
100
AcDbEntity
  8
0
  6
Continuous
 62
     4
370
    25
100
AcDbSpline
210
0.0
220
0.0
230
1.0
 70
     8
 71
     3
 72
    10
 73
     6
 74
     0
 42
0.000000001
 43
0.00000001
 40
0.0
 40
0.0
 40
0.0
 40
0.0
 40
0.5
 40
0.5
 40
1.0
 40
1.0
 40
1.0
 40
1.0
 10
15.15
 20
-0.6353450142505874
 30
0.0
 10
14.64088659861968
 20
-0.3482049466451429
 30
0.0
 10
14.13054842379164
 20
-0.0595498325492361
 30
0.0
 10
13.11665952894358
 20
0.5155589175334163
 30
0.0
 10
12.60944477850279
 20
0.8027059951069171
 30
0.0
 10
12.10001704676076
 20
1.088069101984967
 30
0.0
  0
SPLINE
  5
AA
330
1F
100
AcDbEntity
  8
0
  6
Continuous
 62
     4
370
    25
100
AcDbSpline
210
0.0
220
0.0
230
1.0
 70
     8
 71
     3
 72
    10
 73
     6
 74
     0
 42
0.000000001
 43
0.00000001
 40
0.0
 40
0.0
 40
0.0
 40
0.0
 40
0.5
 40
0.5
 40
1.0
 40
1.0
 40
1.0
 40
1.0
 10
15.15
 20
1.571531857625454
 30
0.0
 10
14.64088957439604
 20
1.853783404906551
 30
0.0
 10
14.13055438957079
 20
2.133074366900916
 30
0.0
 10
13.11667134175787
 20
2.680710901955093
 30
0.0
 10
12.60945966118644
 20
2.949729423293774
 30
0.0
 10
12.10003491244243
 20
3.212636905757087
 30
0.0
  0
LINE
  5
AB
330
1F
100
AcDbEntity
  8
0
  6
Continuous
 62
     4
370
    25
100
AcDbLine
 10
12.1000170467608
 20
-7.849999999999998
 30
0.0
 11
12.10001704676076
 21
1.088124574524401
 31
0.0
  0
LINE
  5
AC
330
1F
100
AcDbEntity
  8
0
  6
Continuous
 62
     4
370
    25
100
AcDbLine
 10
12.10001704676078
 20
3.212969529926084
 30
0.0
 11
12.1000170467608
 21
7.850000000000001
 31
0.0
  0
LINE
  5
AD
330
1F
100
AcDbEntity
  8
0
  6
Continuous
 62
     4
370
    25
100
AcDbLine
 10
15.15
 20
1.707803797815736
 30
0.0
 11
14.36382587311245
 21
2.074887958967852
 31
0.0
  0
SPLINE
  5
AE
330
1F
100
AcDbEntity
  8
0
  6
Continuous
 62
     4
370
    25
100
AcDbSpline
210
0.0
220
0.0
230
1.0
 70
    24
 71
     3
 72
     8
 73
     4
 74
     0
 42
0.000000001
 43
0.00000001
 40
0.0
 40
0.0
 40
0.0
 40
0.0
 40
1.0
 40
1.0
 40
1.0
 40
1.0
 10
15.15000000000002
 20
1.707803797815727
 30
0.0
 10
15.15000000000001
 20
1.688352047000357
 30
0.0
 10
15.15000000000002
 20
1.642824649808294
 30
0.0
 10
15.15000000000002
 20
1.57153185762652
 30
0.0
  0
SPLINE
  5
AF
330
1F
100
AcDbEntity
  8
0
  6
Continuous
 62
     4
370
    25
100
AcDbSpline
210
0.0
220
0.0
230
1.0
 70
     8
 71
     3
 72
    10
 73
     6
 74
     0
 42
0.000000001
 43
0.00000001
 40
0.0
 40
0.0
 40
0.0
 40
0.0
 40
0.5
 40
0.5
 40
1.0
 40
1.0
 40
1.0
 40
1.0
 10
15.15
 20
6.348149792250941
 30
0.0
 10
14.64088768502474
 20
6.377986380739586
 30
0.0
 10
14.1305506017956
 20
6.394983429979312
 30
0.0
 10
13.11666384159992
 20
6.403100157062413
 30
0.0
 10
12.60945021191627
 20
6.394266615236226
 30
0.0
 10
12.10002356921567
 20
6.37252044112615
 30
0.0
  0
SPLINE
  5
B0
330
1F
100
AcDbEntity
  8
0
  6
Continuous
 62
     4
370
    25
100
AcDbSpline
210
0.0
220
0.0
230
1.0
 70
    24
 71
     3
 72
    14
 73
    10
 74
     0
 42
0.000000001
 43
0.00000001
 40
0.0
 40
0.0
 40
0.0
 40
0.0
 40
0.25
 40
0.25
 40
0.5
 40
0.5
 40
0.75
 40
0.75
 40
1.0
 40
1.0
 40
1.0
 40
1.0
 10
15.14999999999999
 20
6.348149792250942
 30
0.0
 10
15.14999999999999
 20
6.199568788304285
 30
0.0
 10
15.14999999999999
 20
5.983782738973027
 30
0.0
 10
15.14999999999998
 20
5.41884737506028
 30
0.0
 10
15.14999999999999
 20
5.069706548254829
 30
0.0
 10
15.14999999999999
 20
4.258691115265942
 30
0.0
 10
15.14999999999998
 20
3.797050705720287
 30
0.0
 10
15.14999999999999
 20
2.797957893632178
 30
0.0
 10
15.14999999999998
 20
2.260855852580681
 30
0.0
 10
15.14999999999999
 20
1.707803797815739
 30
0.0
  0
SPLINE
  5
B1
330
1F
100
AcDbEntity
  8
0
  6
Continuous
 62
     4
370
    25
100
AcDbSpline
210
0.0
220
0.0
230
1.0
 70
     8
 71
     3
 72
    10
 73
     6
 74
     0
 42
0.000000001
 43
0.00000001
 40
0.0
 40
0.0
 40
0.0
 40
0.0
 40
0.5
 40
0.5
 40
1.0
 40
1.0
 40
1.0
 40
1.0
 10
15.15
 20
-6.348149792250936
 30
0.0
 10
14.64088768502474
 20
-6.377986380739581
 30
0.0
 10
14.1305506017956
 20
-6.394983429979307
 30
0.0
 10
13.11666384159992
 20
-6.403100157062409
 30
0.0
 10
12.60945021191627
 20
-6.394266615236219
 30
0.0
 10
12.10002356921567
 20
-6.372520441126146
 30
0.0
  0
SPLINE
  5
B2
330
1F
100
AcDbEntity
  8
0
  6
Continuous
 62
     4
370
    25
100
AcDbSpline
210
0.0
220
0.0
230
1.0
 70
    24
 71
     3
 72
    14
 73
    10
 74
     0
 42
0.000000001
 43
0.00000001
 40
0.0
 40
0.0
 40
0.0
 40
0.0
 40
0.25
 40
0.25
 40
0.5
 40
0.5
 40
0.75
 40
0.75
 40
1.0
 40
1.0
 40
1.0
 40
1.0
 10
15.15
 20
-0.7113885689058767
 30
0.0
 10
15.15
 20
-1.379042736864747
 30
0.0
 10
15.15
 20
-2.039010960476938
 30
0.0
 10
15.15
 20
-3.274426391457395
 30
0.0
 10
15.15
 20
-3.849108659805576
 30
0.0
 10
15.15
 20
-4.85092364327735
 30
0.0
 10
15.15
 20
-5.277522549493646
 30
0.0
 10
15.15
 20
-5.948692524060415
 30
0.0
 10
15.15
 20
-6.193291166579613
 30
0.0
 10
15.15
 20
-6.348149792250931
 30
0.0
  0
SPLINE
  5
B3
330
1F
100
AcDbEntity
  8
0
  6
Continuous
 62
     1
370
    25
100
AcDbSpline
210
0.0
220
0.0
230
1.0
 70
     8
 71
     3
 72
    34
 73
    30
 74
     0
 42
0.000000001
 43
0.00000001
 40
0.0
 40
0.0
 40
0.0
 40
0.0
 40
0.1249999999999993
 40
0.1249999999999993
 40
0.187499999999999
 40
0.187499999999999
 40
0.2499999999999987
 40
0.2499999999999987
 40
0.3124999999999987
 40
0.3124999999999987
 40
0.3749999999999988
 40
0.3749999999999988
 40
0.4374999999999988
 40
0.4374999999999988
 40
0.4999999999999989
 40
0.4999999999999989
 40
0.562499999999999
 40
0.562499999999999
 40
0.6249999999999991
 40
0.6249999999999991
 40
0.6874999999999992
 40
0.6874999999999992
 40
0.7499999999999993
 40
0.7499999999999993
 40
0.8749999999999994
 40
0.8749999999999994
 40
0.9374999999999997
 40
0.9374999999999997
 40
1.0
 40
1.0
 40
1.0
 40
1.0
 10
35.14999999999999
 20
-6.311778114945723
 30
0.0
 10
34.32064251150329
 20
-6.159853199108513
 30
0.0
 10
33.48021817054678
 20
-5.972844998747208
 30
0.0
 10
32.23349656384035
 20
-5.646393274581785
 30
0.0
 10
31.81809640506804
 20
-5.529802182592341
 30
0.0
 10
30.98307246951121
 20
-5.281523727362614
 30
0.0
 10
30.56488604338401
 20
-5.149960989159284
 30
0.0
 10
29.73226074664083
 20
-4.873633185859871
 30
0.0
 10
29.3180279885666
 20
-4.728918259837005
 30
0.0
 10
28.48363964126079
 20
-4.426368159765772
 30
0.0
 10
28.06532001413473
 20
-4.268730493870764
 30
0.0
 10
27.23153171413734
 20
-3.942661013552673
 30
0.0
 10
26.81759099461018
 20
-3.774453308150875
 30
0.0
 10
25.98415502227174
 20
-3.427521394879548
 30
0.0
 10
25.56586201403598
 20
-3.248942574086185
 30
0.0
 10
24.73122673753026
 20
-2.883724096254738
 30
0.0
 10
24.31670232550618
 20
-2.697366054038009
 30
0.0
 10
23.48453430896325
 20
-2.317392210622116
 30
0.0
 10
23.06642770554478
 20
-2.123693112601609
 30
0.0
 10
22.23126255218133
 20
-1.731210205537759
 30
0.0
 10
21.81527945385979
 20
-1.532601588800527
 30
0.0
 10
20.98469337107938
 20
-1.132000067304785
 30
0.0
 10
20.56693272065197
 20
-0.9294962662734676
 30
0.0
 10
19.31386683264132
 20
-0.319051517899642
 30
0.0
 10
18.48492842984865
 20
0.0908061743090213
 30
0.0
 10
17.2320214448448
 20
0.7030791359383173
 30
0.0
 10
16.81401261625326
 20
0.9065506854601176
 30
0.0
 10
15.98233791548785
 20
1.30978450838951
 30
0.0
 10
15.56742374088091
 20
1.509753647718745
 30
0.0
 10
15.15
 20
1.707803797815736
 30
0.0
  0
SPLINE
  5
B4
330
1F
100
AcDbEntity
  8
0
  6
Continuous
 62
     1
370
    25
100
AcDbSpline
210
0.0
220
0.0
230
1.0
 70
    24
 71
     3
 72
     8
 73
     4
 74
     0
 42
0.000000001
 43
0.00000001
 40
0.0
 40
0.0
 40
0.0
 40
0.0
 40
1.0
 40
1.0
 40
1.0
 40
1.0
 10
35.14999999999999
 20
-7.052700766019719
 30
0.0
 10
35.14999999999999
 20
-6.805153355823831
 30
0.0
 10
35.14999999999999
 20
-6.557651211643244
 30
0.0
 10
35.14999999999999
 20
-6.311778114945723
 30
0.0
  0
SPLINE
  5
B5
330
1F
100
AcDbEntity
  8
0
  6
Continuous
 62
     1
370
    25
100
AcDbSpline
210
0.0
220
0.0
230
1.0
 70
     8
 71
     3
 72
    14
 73
    10
 74
     0
 42
0.000000001
 43
0.00000001
 40
0.0
 40
0.0
 40
0.0
 40
0.0
 40
0.25
 40
0.25
 40
0.5
 40
0.5
 40
0.75
 40
0.75
 40
1.0
 40
1.0
 40
1.0
 40
1.0
 10
35.14999999999999
 20
-7.052700766019715
 30
0.0
 10
35.15000000000001
 20
-7.121634948419775
 30
0.0
 10
35.13735481629549
 20
-7.190170240048137
 30
0.0
 10
35.08554813348418
 20
-7.314194761580963
 30
0.0
 10
35.04582949766442
 20
-7.369712050156185
 30
0.0
 10
34.94839563971468
 20
-7.452911251733099
 30
0.0
 10
34.89052665122159
 20
-7.481033250873415
 30
0.0
 10
34.77088053180093
 20
-7.508024597747938
 30
0.0
 10
34.70968739867875
 20
-7.507422727070931
 30
0.0
 10
34.64999999999996
 20
-7.49537358129511
 30
0.0
  0
SPLINE
  5
B6
330
1F
100
AcDbEntity
  8
0
  6
Continuous
 62
     1
370
    25
100
AcDbSpline
210
0.0
220
0.0
230
1.0
 70
     8
 71
     3
 72
    32
 73
    28
 74
     0
 42
0.000000001
 43
0.00000001
 40
0.0
 40
0.0
 40
0.0
 40
0.0
 40
0.0625
 40
0.0625
 40
0.1250000000000001
 40
0.1250000000000001
 40
0.2500000000000001
 40
0.2500000000000001
 40
0.3750000000000001
 40
0.3750000000000001
 40
0.4375000000000002
 40
0.4375000000000002
 40
0.5000000000000002
 40
0.5000000000000002
 40
0.5625000000000002
 40
0.5625000000000002
 40
0.6250000000000003
 40
0.6250000000000003
 40
0.6875000000000003
 40
0.6875000000000003
 40
0.7500000000000003
 40
0.7500000000000003
 40
0.8750000000000004
 40
0.8750000000000004
 40
0.9375000000000003
 40
0.9375000000000003
 40
1.0
 40
1.0
 40
1.0
 40
1.0
 10
34.65000000000004
 20
-7.495373581294724
 30
0.0
 10
34.24395101504995
 20
-7.413404128443948
 30
0.0
 10
33.83623686829606
 20
-7.321643222090477
 30
0.0
 10
33.02220280005287
 20
-7.119557021833506
 30
0.0
 10
32.61726042650327
 20
-7.009370185475713
 30
0.0
 10
31.40181114573443
 20
-6.652162361223943
 30
0.0
 10
30.58267238346894
 20
-6.377423310596769
 30
0.0
 10
28.96443101689157
 20
-5.767490685203951
 30
0.0
 10
28.146489386578
 20
-5.429982515594419
 30
0.0
 10
26.92970332884755
 20
-4.885781808290633
 30
0.0
 10
26.52552990440423
 20
-4.698076907375142
 30
0.0
 10
25.71184886372485
 20
-4.310211033057424
 30
0.0
 10
25.30405764619953
 20
-4.110303415238222
 30
0.0
 10
24.49130133058182
 20
-3.700868834927734
 30
0.0
 10
24.08773849738163
 20
-3.491599364406238
 30
0.0
 10
23.27519573899473
 20
-3.063678040074856
 30
0.0
 10
22.8674248030664
 20
-2.845220344342958
 30
0.0
 10
22.05361055124033
 20
-2.401831634912675
 30
0.0
 10
21.64920815727109
 20
-2.177211038664045
 30
0.0
 10
20.83831090990934
 20
-1.72256565457724
 30
0.0
 10
20.43081700192695
 20
-1.492345618231212
 30
0.0
 10
19.20927354502351
 20
-0.796967835827911
 30
0.0
 10
18.40125535083297
 20
-0.3280835059771753
 30
0.0
 10
17.17965635864586
 20
0.375991673425594
 30
0.0
 10
16.77222383252369
 20
0.6105442633078388
 30
0.0
 10
15.96160677677636
 20
1.076660085320797
 30
0.0
 10
15.55696262247694
 20
1.308506636050984
 30
0.0
 10
15.15
 20
1.538807010298557
 30
0.0
  0
SPLINE
  5
B7
330
1F
100
AcDbEntity
  8
0
  6
Continuous
 62
     4
370
    25
100
AcDbSpline
210
0.0
220
0.0
230
1.0
 70
    24
 71
     3
 72
     8
 73
     4
 74
     0
 42
0.000000001
 43
0.00000001
 40
0.0
 40
0.0
 40
0.0
 40
0.0
 40
1.0
 40
1.0
 40
1.0
 40
1.0
 10
15.15000000000003
 20
1.707803797815725
 30
0.0
 10
15.15000000000002
 20
1.685523405654845
 30
0.0
 10
15.15000000000002
 20
1.628980193025066
 30
0.0
 10
15.15000000000003
 20
1.538807010301033
 30
0.0
  0
SPLINE
  5
B8
330
1F
100
AcDbEntity
  8
0
  6
Continuous
 62
     1
370
    25
100
AcDbSpline
210
0.0
220
0.0
230
1.0
 70
     8
 71
     3
 72
    32
 73
    28
 74
     0
 42
0.000000001
 43
0.00000001
 40
0.0
 40
0.0
 40
0.0
 40
0.0
 40
0.0624999999999996
 40
0.0624999999999996
 40
0.1249999999999991
 40
0.1249999999999991
 40
0.249999999999999
 40
0.249999999999999
 40
0.3749999999999989
 40
0.3749999999999989
 40
0.4374999999999991
 40
0.4374999999999991
 40
0.4999999999999992
 40
0.4999999999999992
 40
0.5624999999999993
 40
0.5624999999999993
 40
0.6249999999999994
 40
0.6249999999999994
 40
0.6874999999999996
 40
0.6874999999999996
 40
0.7499999999999997
 40
0.7499999999999997
 40
0.875
 40
0.875
 40
0.9375
 40
0.9375
 40
1.0
 40
1.0
 40
1.0
 40
1.0
 10
34.64999999999998
 20
-7.976134633533745
 30
0.0
 10
34.24395101504989
 20
-7.958034327053868
 30
0.0
 10
33.83623686829601
 20
-7.929608864069969
 30
0.0
 10
33.02220280005282
 20
-7.85238845064074
 30
0.0
 10
32.6172604265032
 20
-7.803663227731083
 30
0.0
 10
31.40181114573437
 20
-7.627572609323766
 30
0.0
 10
30.5826723834689
 20
-7.469577948511006
 30
0.0
 10
28.96443101689154
 20
-7.079773318286591
 30
0.0
 10
28.14648938657797
 20
-6.846499777231495
 30
0.0
 10
26.92970332884752
 20
-6.446488149658133
 30
0.0
 10
26.5255299044042
 20
-6.304845194878085
 30
0.0
 10
25.71184886372481
 20
-6.005041672975624
 30
0.0
 10
25.30405764619951
 20
-5.847064769033117
 30
0.0
 10
24.49130133058181
 20
-5.51680957515399
 30
0.0
 10
24.08773849738162
 20
-5.344753062087298
 30
0.0
 10
23.27519573899472
 20
-4.986555293944845
 30
0.0
 10
22.86742480306639
 20
-4.800563092036104
 30
0.0
 10
22.05361055124031
 20
-4.416928618152294
 30
0.0
 10
21.64920815727109
 20
-4.219564688708544
 30
0.0
 10
20.83831090990933
 20
-3.814158650090942
 30
0.0
 10
20.43081700192693
 20
-3.605932948118136
 30
0.0
 10
19.20927354502351
 20
-2.968245345706301
 30
0.0
 10
18.40125535083295
 20
-2.526714499047646
 30
0.0
 10
17.17965635864585
 20
-1.846588782650932
 30
0.0
 10
16.77222383252368
 20
-1.617155507817906
 30
0.0
 10
15.96160677677636
 20
-1.155517972892968
 30
0.0
 10
15.55696262247694
 20
-0.9230414801625159
 30
0.0
 10
15.15
 20
-0.6892312782322829
 30
0.0
  0
LINE
  5
B9
330
1F
100
AcDbEntity
  8
0
  6
Continuous
 62
     4
370
    25
100
AcDbLine
 10
15.15
 20
-0.6892312782322829
 30
0.0
 11
15.15
 21
1.538807010298557
 31
0.0
  0
LINE
  5
BB
330
1F
100
AcDbEntity
  8
0
  6
Continuous
 62
     1
370
    25
100
AcDbLine
 10
15.27540787278651
 20
-0.7606039554247027
 30
0.0
 11
15.15
 21
-0.7113885689058775
 31
0.0
  0
SPLINE
  5
BC
330
1F
100
AcDbEntity
  8
0
  6
Continuous
 62
     1
370
    25
100
AcDbSpline
210
0.0
220
0.0
230
1.0
 70
     8
 71
     3
 72
    34
 73
    30
 74
     0
 42
0.000000001
 43
0.00000001
 40
0.0
 40
0.0
 40
0.0
 40
0.0
 40
0.1249999999999999
 40
0.1249999999999999
 40
0.1874999999999998
 40
0.1874999999999998
 40
0.2499999999999998
 40
0.2499999999999998
 40
0.3124999999999997
 40
0.3124999999999997
 40
0.3749999999999997
 40
0.3749999999999997
 40
0.4374999999999996
 40
0.4374999999999996
 40
0.4999999999999996
 40
0.4999999999999996
 40
0.5624999999999996
 40
0.5624999999999996
 40
0.6249999999999994
 40
0.6249999999999994
 40
0.6874999999999993
 40
0.6874999999999993
 40
0.7499999999999993
 40
0.7499999999999993
 40
0.8749999999999997
 40
0.8749999999999997
 40
0.9374999999999998
 40
0.9374999999999998
 40
1.0
 40
1.0
 40
1.0
 40
1.0
 10
35.14999999999999
 20
0.0000000000000102
 30
0.0
 10
34.3206425115033
 20
0.3842992714925297
 30
0.0
 10
33.48021817054678
 20
0.7702896562201765
 30
0.0
 10
32.23349656384033
 20
1.337786000828648
 30
0.0
 10
31.81809640506806
 20
1.525371321630078
 30
0.0
 10
30.98307246951122
 20
1.896524174341857
 30
0.0
 10
30.56488604338401
 20
2.07987114379287
 30
0.0
 10
29.73226074664083
 20
2.439886176177529
 30
0.0
 10
29.31802798856661
 20
2.616537151892821
 30
0.0
 10
28.48363964126081
 20
2.963100182322105
 30
0.0
 10
28.06532001413474
 20
3.132741875453249
 30
0.0
 10
27.23153171413735
 20
3.462682530833415
 30
0.0
 10
26.81759099461018
 20
3.62279935840051
 30
0.0
 10
25.98415502227176
 20
3.933496641537843
 30
0.0
 10
25.56586201403598
 20
4.083904955888994
 30
0.0
 10
24.73122673753026
 20
4.372990998179038
 30
0.0
 10
24.31670232550618
 20
4.511479057760949
 30
0.0
 10
23.48453430896323
 20
4.776219246898245
 30
0.0
 10
23.06642770554478
 20
4.902497529159551
 30
0.0
 10
22.23126255218133
 20
5.141284026101972
 30
0.0
 10
21.81527945385978
 20
5.253701155069571
 30
0.0
 10
20.98469337107939
 20
5.463910049111059
 30
0.0
 10
20.56693272065197
 20
5.561954789584229
 30
0.0
 10
19.31386683264133
 20
5.832989966623193
 30
0.0
 10
18.48492842984865
 20
5.982518216164636
 30
0.0
 10
17.23202144484482
 20
6.15757285207774
 30
0.0
 10
16.81401261625326
 20
6.207638768892059
 30
0.0
 10
15.98233791548784
 20
6.290661346961042
 30
0.0
 10
15.56742374088091
 20
6.323686623681428
 30
0.0
 10
15.15
 20
6.348149792250941
 30
0.0
  0
SPLINE
  5
BD
330
1F
100
AcDbEntity
  8
0
  6
Continuous
 62
     1
370
    25
100
AcDbSpline
210
0.0
220
0.0
230
1.0
 70
    24
 71
     3
 72
    14
 73
    10
 74
     0
 42
0.000000001
 43
0.00000001
 40
0.0
 40
0.0
 40
0.0
 40
0.0
 40
0.25
 40
0.25
 40
0.5
 40
0.5
 40
0.75
 40
0.75
 40
1.0
 40
1.0
 40
1.0
 40
1.0
 10
35.14999999999999
 20
-6.31177811494572
 30
0.0
 10
35.15000000000001
 20
-5.970259326148799
 30
0.0
 10
35.14999999999999
 20
-5.565991750024295
 30
0.0
 10
35.14999999999999
 20
-4.647916817566211
 30
0.0
 10
35.14999999999999
 20
-4.134238848779016
 30
0.0
 10
35.15000000000001
 20
-3.03109924087882
 30
0.0
 10
35.14999999999999
 20
-2.441956154997568
 30
0.0
 10
35.15000000000001
 20
-1.23264687423552
 30
0.0
 10
35.14999999999999
 20
-0.6128393969954906
 30
0.0
 10
35.14999999999999
 20
0.0000000000000102
 30
0.0
  0
SPLINE
  5
BE
330
1F
100
AcDbEntity
  8
0
  6
Continuous
 62
     4
370
    25
100
AcDbSpline
210
0.0
220
0.0
230
1.0
 70
    24
 71
     3
 72
    14
 73
    10
 74
     0
 42
0.000000001
 43
0.00000001
 40
0.0
 40
0.0
 40
0.0
 40
0.0
 40
0.25
 40
0.25
 40
0.5
 40
0.5
 40
0.75
 40
0.75
 40
1.0
 40
1.0
 40
1.0
 40
1.0
 10
15.15
 20
6.348149792250942
 30
0.0
 10
15.15
 20
6.199568788304285
 30
0.0
 10
15.14999999999999
 20
5.983782738973027
 30
0.0
 10
15.14999999999999
 20
5.418847375060278
 30
0.0
 10
15.15
 20
5.069706548254829
 30
0.0
 10
15.15
 20
4.258691115265941
 30
0.0
 10
15.14999999999999
 20
3.797050705720286
 30
0.0
 10
15.14999999999999
 20
2.797957893632176
 30
0.0
 10
15.15
 20
2.26085585258068
 30
0.0
 10
15.15
 20
1.707803797815737
 30
0.0
  0
SPLINE
  5
BF
330
1F
100
AcDbEntity
  8
0
  6
Continuous
 62
     1
370
    25
100
AcDbSpline
210
0.0
220
0.0
230
1.0
 70
     8
 71
     3
 72
     9
 73
     5
 74
     0
 42
0.000000001
 43
0.00000001
 40
0.0
 40
0.0
 40
0.0
 40
0.0
 40
0.9455927841178657
 40
1.0
 40
1.0
 40
1.0
 40
1.0
 10
35.14999999999999
 20
5.600000000000008
 30
0.0
 10
34.21674265388526
 20
5.597202174439944
 30
0.0
 10
33.22978784438409
 20
5.594243368485567
 30
0.0
 10
32.24282992539744
 20
5.473236713378668
 30
0.0
 10
32.18913229283255
 20
5.466653078171091
 30
0.0
  0
LINE
  5
C0
330
1F
100
AcDbEntity
  8
0
  6
Continuous
 62
     1
370
    25
100
AcDbLine
 10
35.14999999999999
 20
0.0000000000000102
 30
0.0
 11
35.14999999999999
 21
5.600000000000008
 31
0.0
  0
SPLINE
  5
C1
330
1F
100
AcDbEntity
  8
0
  6
Continuous
 62
     1
370
    25
100
AcDbSpline
210
0.0
220
0.0
230
1.0
 70
     8
 71
     3
 72
     9
 73
     5
 74
     0
 42
0.000000001
 43
0.00000001
 40
0.0
 40
0.0
 40
0.0
 40
0.0
 40
0.276757298782348
 40
1.0
 40
1.0
 40
1.0
 40
1.0
 10
18.20087961112723
 20
-5.999229671965462
 30
0.0
 10
17.9194256540792
 20
-6.048500536229056
 30
0.0
 10
16.90245534006639
 20
-6.226529677575551
 30
0.0
 10
15.88550320742246
 20
-6.297105989658259
 30
0.0
 10
15.15
 20
-6.348149792250936
 30
0.0
  0
SPLINE
  5
C2
330
1F
100
AcDbEntity
  8
0
  6
Continuous
 62
     4
370
    25
100
AcDbSpline
210
0.0
220
0.0
230
1.0
 70
    24
 71
     3
 72
    14
 73
    10
 74
     0
 42
0.000000001
 43
0.00000001
 40
0.0
 40
0.0
 40
0.0
 40
0.0
 40
0.2499999999999999
 40
0.2499999999999999
 40
0.4999999999999998
 40
0.4999999999999998
 40
0.7499999999999999
 40
0.7499999999999999
 40
1.0
 40
1.0
 40
1.0
 40
1.0
 10
15.15
 20
-0.7113885689058768
 30
0.0
 10
15.15
 20
-1.379042736864748
 30
0.0
 10
15.15
 20
-2.03901096047694
 30
0.0
 10
15.15
 20
-3.274426391457395
 30
0.0
 10
15.15
 20
-3.849108659805578
 30
0.0
 10
15.15
 20
-4.850923643277352
 30
0.0
 10
15.15
 20
-5.277522549493648
 30
0.0
 10
15.15
 20
-5.948692524060416
 30
0.0
 10
15.15
 20
-6.193291166579613
 30
0.0
 10
15.15
 20
-6.348149792250931
 30
0.0
  0
LINE
  5
C3
330
1F
100
AcDbEntity
  8
0
  6
Continuous
 62
     1
370
    25
100
AcDbLine
 10
35.14999999999999
 20
-7.052700766019718
 30
0.0
 11
35.14999999999999
 21
-7.488471275552387
 31
0.0
  0
SPLINE
  5
C4
330
1F
100
AcDbEntity
  8
0
  6
Continuous
 62
     1
370
    25
100
AcDbSpline
210
0.0
220
0.0
230
1.0
 70
     8
 71
     3
 72
    12
 73
     8
 74
     0
 42
0.000000001
 43
0.00000001
 40
0.0
 40
0.0
 40
0.0
 40
0.0
 40
0.1828148545923846
 40
0.387004220159445
 40
0.5912212925343973
 40
0.7955844895990085
 40
1.0
 40
1.0
 40
1.0
 40
1.0
 10
24.15039758611714
 20
5.362033062723064
 30
0.0
 10
24.79023471789377
 20
5.628909967339956
 30
0.0
 10
26.14471803252584
 20
6.193866729634305
 30
0.0
 10
28.21363730310873
 20
6.880676138156139
 30
0.0
 10
30.3580267737606
 20
7.436679379545321
 30
0.0
 10
32.50363763223034
 20
7.825090247365936
 30
0.0
 10
33.93448483999148
 20
7.92578220946961
 30
0.0
 10
34.64999999999999
 20
7.976134633533751
 30
0.0
  0
SPLINE
  5
C6
330
1F
100
AcDbEntity
  8
0
  6
Continuous
 62
     1
370
    25
100
AcDbSpline
210
0.0
220
0.0
230
1.0
 70
    24
 71
     3
 72
    10
 73
     6
 74
     0
 42
0.000000001
 43
0.00000001
 40
0.0
 40
0.0
 40
0.0
 40
0.0
 40
0.5
 40
0.5
 40
1.0
 40
1.0
 40
1.0
 40
1.0
 10
35.14999999999999
 20
5.600000000000006
 30
0.0
 10
35.14999999999999
 20
5.869867430825617
 30
0.0
 10
35.15000000000003
 20
6.174020627729481
 30
0.0
 10
35.14999999999999
 20
6.817639151720428
 30
0.0
 10
35.15000000000001
 20
7.156519194545621
 30
0.0
 10
35.14999999999999
 20
7.488471275549359
 30
0.0
  0
LINE
  5
C7
330
1F
100
AcDbEntity
  8
중심선
100
AcDbLine
 10
-67.85
 20
-0.0000000000000028
 30
0.0
 11
42.15000000000001
 21
0.0000000000000111
 31
0.0
  0
CIRCLE
  5
C8
330
1F
100
AcDbEntity
  8
외형선
100
AcDbCircle
 10
0.0
 20
0.0
 30
0.0
 40
3.000000000000005
  0
INSERT
  5
C9
330
1F
100
AcDbEntity
  8
0
  6
Continuous
 62
     7
100
AcDbBlockReference
 66
     1
  2
블럭10
 10
-30.87358523345418
 20
-52.04717430164393
 30
0.0
  0
ATTRIB
  5
CA
330
C9
100
AcDbEntity
  8
FORMAT
 62
     2
100
AcDbText
 10
-46.99284627288974
 20
-49.97180738881174
 30
0.0
 40
4.233333333333333
  1
SEME6116005E [ 2 FLUTE ]
 41
0.75
  7
SLDTEXTSTYLE0
 11
-46.99284627288974
 21
-52.08847405547841
 31
0.0
100
AcDbAttribute
  2
AUTOATTR0
 70
     0
 74
     1
  0
SEQEND
  5
CB
330
C9
100
AcDbEntity
  8
0
  6
Continuous
 62
     7
  0
HATCH
  5
CC
330
1F
100
AcDbEntity
  8
중심선
100
AcDbHatch
 10
0.0
 20
0.0
 30
0.0
210
0.0
220
0.0
230
1.0
  2
SOLID
 70
     1
 71
     0
 91
        1
 92
        0
 93
        4
 72
     1
 10
-25.15867592907333
 20
-35.8
 11
-28.60495117291061
 21
-35.8
 72
     1
 10
-28.60495117291061
 20
-35.8
 11
-30.73318103211463
 21
-38.3363255805726
 72
     1
 10
-30.73318103211464
 20
-38.3363255805726
 11
-27.2868727031642
 21
-38.33628615127011
 72
     1
 10
-27.2868727031642
 20
-38.33628615127011
 11
-25.15867592907333
 21
-35.8
 97
        0
 75
     0
 76
     1
 98
        1
 10
-7.934141545388288
 20
-0.0010749287238934
  0
HATCH
  5
CD
330
1F
100
AcDbEntity
  8
중심선
100
AcDbHatch
 10
0.0
 20
0.0
 30
0.0
210
0.0
220
0.0
230
1.0
  2
SOLID
 70
     1
 71
     0
 91
        1
 92
        0
 93
        4
 72
     1
 10
-20.14591193803738
 20
-35.8
 11
-23.59218718187466
 21
-35.8
 72
     1
 10
-23.59218718187466
 20
-35.8
 11
-28.12332519023205
 21
-41.20000000000002
 72
     1
 10
-28.12332519023205
 20
-41.20000000000002
 11
-24.67704994639477
 21
-41.20000000000002
 72
     1
 10
-24.67704994639477
 20
-41.20000000000002
 11
-20.14591193803738
 21
-35.8
 97
        0
 75
     0
 76
     1
 98
        1
 10
-7.934141545388288
 20
-0.0010749287238934
  0
HATCH
  5
CE
330
1F
100
AcDbEntity
  8
중심선
100
AcDbHatch
 10
0.0
 20
0.0
 30
0.0
210
0.0
220
0.0
230
1.0
  2
SOLID
 70
     1
 71
     0
 91
        1
 92
        0
 93
        4
 72
     1
 10
-15.13314794700148
 20
-35.80000000000003
 11
-18.5794231908386
 21
-35.8
 72
     1
 10
-18.5794231908386
 20
-35.8
 11
-25.62786009272785
 21
-44.20000000000002
 72
     1
 10
-25.62786009272785
 20
-44.20000000000002
 11
-22.18158484889057
 21
-44.20000000000002
 72
     1
 10
-22.18158484889057
 20
-44.20000000000002
 11
-15.13314794700148
 21
-35.80000000000003
 97
        0
 75
     0
 76
     1
 98
        1
 10
-7.934141545388288
 20
-0.0010749287238934
  0
HATCH
  5
CF
330
1F
100
AcDbEntity
  8
중심선
100
AcDbHatch
 10
0.0
 20
0.0
 30
0.0
210
0.0
220
0.0
230
1.0
  2
SOLID
 70
     1
 71
     0
 91
        1
 92
        0
 93
        6
 72
     3
 10
-10.33325751598928
 20
-40.00000000005127
 11
3.960054785062283
 21
1.540882976769353E-10
 40
0.3939339440162628
 50
17.09539180608436
 51
320.0019657685078
 73
     0
 72
     1
 10
-8.650257860288688
 20
-38.5878940046383
 11
-6.34495598658765
 21
-36.65356729459038
 72
     3
 10
-10.33325751604213
 20
-40.00000000000015
 11
6.600054785286829
 21
-1.278976924368180E-13
 40
0.636358354079598
 50
39.99873849337411
 51
368.4976242363724
 73
     1
 72
     1
 10
-3.90792502414152
 20
-39.03999999993002
 11
-11.65319020920621
 21
-39.03999999993
 72
     1
 10
-11.65319020920621
 20
-39.03999999993
 11
-11.65321525365214
 21
-40.95999999992991
 72
     1
 10
-11.65321525365214
 20
-40.95999999992991
 11
-7.211835484180106
 21
-40.95999999992988
 97
        0
 75
     0
 76
     1
 98
        1
 10
-7.934141545388288
 20
-0.0010749287238934
  0
DIMENSION
  5
D0
330
1F
100
AcDbEntity
  8
치수문자_일반주서
100
AcDbDimension
  2
_D
 10
-76.34645802161205
 20
-8.000000000000044
 30
0.0
 11
-76.34645802161208
 21
-0.0000000000000015
 31
0.0
 70
   160
  1
%%c<>
 71
     2
 42
15.99999999999999
 52
-270.0
  3
SLDDIMSTYLE0
100
AcDbAlignedDimension
 13
-63.85000000000001
 23
7.999999999999995
 33
0.0
 14
-63.85000000000001
 24
-7.999999999999998
 34
0.0
 50
90.0000000000002
100
AcDbRotatedDimension
  0
DIMENSION
  5
DE
330
1F
100
AcDbEntity
  8
치수문자_일반주서
100
AcDbDimension
  2
_D_1
 10
15.15
 20
25.99999999999964
 30
0.0
 11
25.15
 21
25.99999999999964
 31
0.0
 70
   160
  1
<>
 71
     2
 42
19.99999999999999
  3
SLDDIMSTYLE1
100
AcDbAlignedDimension
 13
35.14999999999999
 23
7.499999999999997
 33
0.0
 14
15.15
 24
6.348149792250941
 34
0.0
 50
0.0000000000000102
100
AcDbRotatedDimension
  0
DIMENSION
  5
EA
330
1F
100
AcDbEntity
  8
치수문자_일반주서
100
AcDbDimension
  2
_D_2
 10
-64.85000000000001
 20
48.05832450504428
 30
0.0
 11
-14.85
 21
48.05832450504428
 31
0.0
 70
   160
  1
<>
 71
     2
 42
100.0
  3
SLDDIMSTYLE1
100
AcDbAlignedDimension
 13
35.14999999999999
 23
7.499999999999997
 33
0.0
 14
-64.85000000000001
 24
6.999999999999988
 34
0.0
100
AcDbRotatedDimension
  0
DIMENSION
  5
F4
330
1F
100
AcDbEntity
  8
치수문자_일반주서
100
AcDbDimension
  2
_D_3
 10
0.149999999999995
 20
35.69345207538682
 30
0.0
 11
17.65
 21
35.69345207538682
 31
0.0
 70
   160
  1
<>
 71
     2
 42
35.00000000000001
  3
SLDDIMSTYLE0
100
AcDbAlignedDimension
 13
35.14999999999999
 23
7.488471275549359
 33
0.0
 14
0.1499999999999964
 24
7.850000000000001
 34
0.0
 50
-0.0000000000022354
100
AcDbRotatedDimension
  0
DIMENSION
  5
100
330
1F
100
AcDbEntity
  8
치수문자_일반주서
100
AcDbDimension
  2
_D_4
 10
54.3350085348164
 20
-7.976134633533669
 30
0.0
 11
54.33500853481637
 21
0.0000000000000462
 31
0.0
 70
   160
  1
%%c<>
 71
     2
 42
15.9989616425614
 52
-270.0
  3
SLDDIMSTYLE1
100
AcDbAlignedDimension
 13
35.14999999999999
 23
8.022827009027658
 33
0.0
 14
34.64999999999999
 24
-7.976134633533742
 34
0.0
 50
90.0000000000002
100
AcDbRotatedDimension
  0
INSERT
  5
112
330
1F
100
AcDbEntity
  8
외형선
100
AcDbBlockReference
  2
SW_DOWELSYMBOL_0
 10
0.0
 20
0.0
 30
0.0
  0
ARC
  5
145
330
1F
100
AcDbEntity
  8
0
  6
Continuous
 62
     1
370
    25
100
AcDbCircle
 10
34.64999999999999
 20
7.476134633533751
 30
0.0
 40
0.4999999999999998
100
AcDbArc
 50
0.0
 51
90.0
  0
ARC
  5
146
330
1F
100
AcDbEntity
  8
0
  6
Continuous
 62
     1
370
    25
100
AcDbCircle
 10
34.64999999999999
 20
-7.47613463353373
 30
0.0
 40
0.4999999999999998
100
AcDbArc
 50
270.0
 51
0.0
  0
DIMENSION
  5
148
330
1F
100
AcDbEntity
  8
치수문자_일반주서
100
AcDbDimension
  2
*D8
 10
34.64999999999999
 20
-7.47613463353373
 30
0.0
 11
43.38153573549366
 21
-20.84093069295038
 31
0.0
 70
   164
  1
<>
 71
     5
 42
0.5000000000000054
  3
SLDDIMSTYLE1
100
AcDbRadialDimension
 15
34.92347141596952
 25
-7.894719612537546
 35
0.0
 40
0.0
1001
ACAD_DSTYLE_DIMRADIAL_EXTENSION
1070
   387
1070
     1
1070
   388
1040
4.71238898038469
1070
   390
1040
0.0
1001
ACAD
1000
DSTYLE
1002
{
1070
    78
1070
     8
1002
}
  0
LINE
  5
177
330
1F
100
AcDbEntity
  8
0
  6
Continuous
 62
     4
370
    25
100
AcDbLine
 10
0.1499999999999964
 20
7.850000000000001
 30
0.0
 11
-0.0000000000000004
 21
7.999999999999997
 31
0.0
1001
PE_URL
1000

  0
LINE
  5
179
330
1F
100
AcDbEntity
  8
0
  6
Continuous
 62
     4
370
    25
100
AcDbLine
 10
-0.0000000000000004
 20
7.999999999999997
 30
0.0
 11
0.0000000000000004
 21
-7.999999999999997
 31
0.0
1001
PE_URL
1000

  0
LINE
  5
17A
330
1F
100
AcDbEntity
  8
0
  6
Continuous
 62
     4
370
    25
100
AcDbLine
 10
-0.000000000000004
 20
-7.999999999999996
 30
0.0
 11
0.1499999999999964
 21
-7.849999999999998
 31
0.0
1001
PE_URL
1000

  0
ENDSEC
  0
SECTION
  2
OBJECTS
  0
DICTIONARY
  5
C
330
0
100
AcDbDictionary
281
     1
  3
ACAD_GROUP
350
D
  3
ACAD_IMAGE_VARS
350
136
  3
ACAD_LAYOUT
350
1A
  3
ACAD_MLINESTYLE
350
17
  3
ACAD_PLOTSETTINGS
350
19
  3
ACAD_PLOTSTYLENAME
350
E
  3
ACAD_SCALELIST
350
47
  3
APPDATA
350
134
  3
DWGPROPS
350
17B
  0
DICTIONARY
  5
D
102
{ACAD_REACTORS
330
C
102
}
330
C
100
AcDbDictionary
281
     1
  0
RASTERVARIABLES
  5
136
102
{ACAD_REACTORS
330
C
102
}
330
C
100
AcDbRasterVariables
 90
        0
 70
     1
 71
     1
 72
     1
  0
DICTIONARY
  5
1A
102
{ACAD_REACTORS
330
C
102
}
330
C
100
AcDbDictionary
281
     1
  3
Layout1
350
1E
  3
Layout2
350
26
  3
Model
350
22
  0
DICTIONARY
  5
17
102
{ACAD_REACTORS
330
C
102
}
330
C
100
AcDbDictionary
281
     1
  3
Standard
350
18
  0
DICTIONARY
  5
19
102
{ACAD_REACTORS
330
C
102
}
330
C
100
AcDbDictionary
281
     1
  0
ACDBDICTIONARYWDFLT
  5
E
102
{ACAD_REACTORS
330
C
102
}
330
C
100
AcDbDictionary
281
     1
  3
Normal
350
F
100
AcDbDictionaryWithDefault
340
F
  0
DICTIONARY
  5
47
102
{ACAD_REACTORS
330
C
102
}
330
C
100
AcDbDictionary
281
     1
  3
A0
350
48
  3
A1
350
49
  3
A2
350
4A
  3
A3
350
4B
  3
A4
350
4C
  3
A5
350
4D
  3
A6
350
4E
  3
A7
350
4F
  3
A8
350
50
  3
A9
350
51
  3
B0
350
52
  3
B1
350
53
  3
B2
350
54
  3
B3
350
55
  3
B4
350
56
  3
B5
350
57
  3
B6
350
58
  3
B7
350
59
  3
B8
350
5A
  3
B9
350
5B
  3
C0
350
5C
  3
C1
350
5D
  3
C2
350
5E
  3
C3
350
5F
  3
C4
350
60
  3
C5
350
61
  3
C6
350
62
  3
C7
350
63
  3
C8
350
64
  3
C9
350
65
  3
D0
350
66
  3
D1
350
67
  3
D2
350
68
  0
DICTIONARY
  5
134
102
{ACAD_REACTORS
330
C
102
}
330
C
100
AcDbDictionary
281
     1
  0
XRECORD
  5
17B
102
{ACAD_REACTORS
330
C
102
}
330
C
100
AcDbXrecord
280
     1
  1
DWGPROPS COOKIE
  2

  3

  4

  6

  7

  8
12014102
  9

300
=
301
=
302
=
303
=
304
=
305
=
306
=
307
=
308
=
309
=
 40
0.0
 41
2458263.436164873
 42
2459576.973569375
  1

 90
        0
  0
LAYOUT
  5
1E
102
{ACAD_REACTORS
330
1A
102
}
330
1A
100
AcDbPlotSettings
  1

  2
none_device
  4

  6

 40
0.0
 41
0.0
 42
0.0
 43
0.0
 44
0.0
 45
0.0
 46
0.0
 47
0.0
 48
0.0
 49
0.0
140
0.0
141
0.0
142
1.0
143
1.0
 70
   688
 72
     1
 73
     0
 74
     5
  7

 75
    16
147
1.0
148
0.0
149
0.0
100
AcDbLayout
  1
Layout1
 70
     1
 71
     1
 10
0.0
 20
0.0
 11
420.0
 21
297.0
 12
0.0
 22
0.0
 32
0.0
 14
1.000000000000000E+20
 24
1.000000000000000E+20
 34
1.000000000000000E+20
 15
-1.000000000000000E+20
 25
-1.000000000000000E+20
 35
-1.000000000000000E+20
146
0.0
 13
0.0
 23
0.0
 33
0.0
 16
1.0
 26
0.0
 36
0.0
 17
0.0
 27
1.0
 37
0.0
 76
     0
330
1B
  0
LAYOUT
  5
26
102
{ACAD_REACTORS
330
1A
102
}
330
1A
100
AcDbPlotSettings
  1

  2
none_device
  4

  6

 40
0.0
 41
0.0
 42
0.0
 43
0.0
 44
0.0
 45
0.0
 46
0.0
 47
0.0
 48
0.0
 49
0.0
140
0.0
141
0.0
142
1.0
143
1.0
 70
   688
 72
     1
 73
     0
 74
     5
  7

 75
    16
147
1.0
148
0.0
149
0.0
100
AcDbLayout
  1
Layout2
 70
     1
 71
     2
 10
0.0
 20
0.0
 11
0.0
 21
0.0
 12
0.0
 22
0.0
 32
0.0
 14
0.0
 24
0.0
 34
0.0
 15
0.0
 25
0.0
 35
0.0
146
0.0
 13
0.0
 23
0.0
 33
0.0
 16
1.0
 26
0.0
 36
0.0
 17
0.0
 27
1.0
 37
0.0
 76
     0
330
23
  0
LAYOUT
  5
22
102
{ACAD_REACTORS
330
1A
102
}
330
1A
100
AcDbPlotSettings
  1

  2
none_device
  4
ANSI_A_(11.00_x_8.50_Inches)
  6

 40
6.35
 41
19.05
 42
6.35000508
 43
19.05000254
 44
279.4
 45
215.9
 46
133.9521504727476
 47
87.07289681850008
 48
0.0
 49
0.0
140
0.0
141
0.0
142
0.0774958714429784
143
1.0
 70
  1696
 72
     0
 73
     0
 74
     0
  7

 75
     0
147
0.0235690232323232
148
0.0
149
0.0
100
AcDbLayout
  1
Model
 70
     1
 71
     0
 10
0.0
 20
0.0
 11
420.0
 21
297.0
 12
0.0
 22
0.0
 32
0.0
 14
-80.7214580216121
 24
-49.97180738881174
 34
0.0
 15
54.88534186814972
 25
52.43332450504428
 35
0.0
146
0.0
 13
0.0
 23
0.0
 33
0.0
 16
1.0
 26
0.0
 36
0.0
 17
0.0
 27
1.0
 37
0.0
 76
     0
330
1F
331
29
  0
MLINESTYLE
  5
18
102
{ACAD_REACTORS
330
17
102
}
330
17
100
AcDbMlineStyle
  2
Standard
 70
     0
  3

 62
   256
 51
90.0
 52
90.0
 71
     2
 49
0.5
 62
   256
  6
BYLAYER
 49
-0.5
 62
   256
  6
BYLAYER
  0
ACDBPLACEHOLDER
  5
F
102
{ACAD_REACTORS
330
E
102
}
330
E
  0
SCALE
  5
48
102
{ACAD_REACTORS
330
47
102
}
330
47
100
AcDbScale
 70
     0
300
1:1
140
1.0
141
1.0
290
     1
  0
SCALE
  5
49
102
{ACAD_REACTORS
330
47
102
}
330
47
100
AcDbScale
 70
     0
300
1:2
140
1.0
141
2.0
290
     0
  0
SCALE
  5
4A
102
{ACAD_REACTORS
330
47
102
}
330
47
100
AcDbScale
 70
     0
300
1:4
140
1.0
141
4.0
290
     0
  0
SCALE
  5
4B
102
{ACAD_REACTORS
330
47
102
}
330
47
100
AcDbScale
 70
     0
300
1:5
140
1.0
141
5.0
290
     0
  0
SCALE
  5
4C
102
{ACAD_REACTORS
330
47
102
}
330
47
100
AcDbScale
 70
     0
300
1:8
140
1.0
141
8.0
290
     0
  0
SCALE
  5
4D
102
{ACAD_REACTORS
330
47
102
}
330
47
100
AcDbScale
 70
     0
300
1:10
140
1.0
141
10.0
290
     0
  0
SCALE
  5
4E
102
{ACAD_REACTORS
330
47
102
}
330
47
100
AcDbScale
 70
     0
300
1:16
140
1.0
141
16.0
290
     0
  0
SCALE
  5
4F
102
{ACAD_REACTORS
330
47
102
}
330
47
100
AcDbScale
 70
     0
300
1:20
140
1.0
141
20.0
290
     0
  0
SCALE
  5
50
102
{ACAD_REACTORS
330
47
102
}
330
47
100
AcDbScale
 70
     0
300
1:30
140
1.0
141
30.0
290
     0
  0
SCALE
  5
51
102
{ACAD_REACTORS
330
47
102
}
330
47
100
AcDbScale
 70
     0
300
1:40
140
1.0
141
40.0
290
     0
  0
SCALE
  5
52
102
{ACAD_REACTORS
330
47
102
}
330
47
100
AcDbScale
 70
     0
300
1:50
140
1.0
141
50.0
290
     0
  0
SCALE
  5
53
102
{ACAD_REACTORS
330
47
102
}
330
47
100
AcDbScale
 70
     0
300
1:100
140
1.0
141
100.0
290
     0
  0
SCALE
  5
54
102
{ACAD_REACTORS
330
47
102
}
330
47
100
AcDbScale
 70
     0
300
2:1
140
2.0
141
1.0
290
     0
  0
SCALE
  5
55
102
{ACAD_REACTORS
330
47
102
}
330
47
100
AcDbScale
 70
     0
300
4:1
140
4.0
141
1.0
290
     0
  0
SCALE
  5
56
102
{ACAD_REACTORS
330
47
102
}
330
47
100
AcDbScale
 70
     0
300
8:1
140
8.0
141
1.0
290
     0
  0
SCALE
  5
57
102
{ACAD_REACTORS
330
47
102
}
330
47
100
AcDbScale
 70
     0
300
10:1
140
10.0
141
1.0
290
     0
  0
SCALE
  5
58
102
{ACAD_REACTORS
330
47
102
}
330
47
100
AcDbScale
 70
     0
300
100:1
140
100.0
141
1.0
290
     0
  0
SCALE
  5
59
102
{ACAD_REACTORS
330
47
102
}
330
47
100
AcDbScale
 70
     0
300
1/128" = 1'-0"
140
0.0078125
141
12.0
290
     0
  0
SCALE
  5
5A
102
{ACAD_REACTORS
330
47
102
}
330
47
100
AcDbScale
 70
     0
300
1/64" = 1'-0"
140
0.015625
141
12.0
290
     0
  0
SCALE
  5
5B
102
{ACAD_REACTORS
330
47
102
}
330
47
100
AcDbScale
 70
     0
300
1/32" = 1'-0"
140
0.03125
141
12.0
290
     0
  0
SCALE
  5
5C
102
{ACAD_REACTORS
330
47
102
}
330
47
100
AcDbScale
 70
     0
300
1/16" = 1'-0"
140
0.0625
141
12.0
290
     0
  0
SCALE
  5
5D
102
{ACAD_REACTORS
330
47
102
}
330
47
100
AcDbScale
 70
     0
300
3/32" = 1'-0"
140
0.09375
141
12.0
290
     0
  0
SCALE
  5
5E
102
{ACAD_REACTORS
330
47
102
}
330
47
100
AcDbScale
 70
     0
300
1/8" = 1'-0"
140
0.125
141
12.0
290
     0
  0
SCALE
  5
5F
102
{ACAD_REACTORS
330
47
102
}
330
47
100
AcDbScale
 70
     0
300
3/16" = 1'-0"
140
0.1875
141
12.0
290
     0
  0
SCALE
  5
60
102
{ACAD_REACTORS
330
47
102
}
330
47
100
AcDbScale
 70
     0
300
1/4" = 1'-0"
140
0.25
141
12.0
290
     0
  0
SCALE
  5
61
102
{ACAD_REACTORS
330
47
102
}
330
47
100
AcDbScale
 70
     0
300
3/8" = 1'-0"
140
0.375
141
12.0
290
     0
  0
SCALE
  5
62
102
{ACAD_REACTORS
330
47
102
}
330
47
100
AcDbScale
 70
     0
300
1/2" = 1'-0"
140
0.5
141
12.0
290
     0
  0
SCALE
  5
63
102
{ACAD_REACTORS
330
47
102
}
330
47
100
AcDbScale
 70
     0
300
3/4" = 1'-0"
140
0.75
141
12.0
290
     0
  0
SCALE
  5
64
102
{ACAD_REACTORS
330
47
102
}
330
47
100
AcDbScale
 70
     0
300
1" = 1'-0"
140
1.0
141
12.0
290
     0
  0
SCALE
  5
65
102
{ACAD_REACTORS
330
47
102
}
330
47
100
AcDbScale
 70
     0
300
1-1/2" = 1'-0"
140
1.5
141
12.0
290
     0
  0
SCALE
  5
66
102
{ACAD_REACTORS
330
47
102
}
330
47
100
AcDbScale
 70
     0
300
3" = 1'-0"
140
3.0
141
12.0
290
     0
  0
SCALE
  5
67
102
{ACAD_REACTORS
330
47
102
}
330
47
100
AcDbScale
 70
     0
300
6" = 1'-0"
140
6.0
141
12.0
290
     0
  0
SCALE
  5
68
102
{ACAD_REACTORS
330
47
102
}
330
47
100
AcDbScale
 70
     0
300
1'-0" = 1'-0"
140
12.0
141
12.0
290
     0
  0
ENDSEC
  0
EOF
