  0
SECTION
  2
HEADER
  9
$ACADVER
  1
AC1015
  9
$ACADMAINTVER
 70
     6
  9
$DWGCODEPAGE
  3
ANSI_949
  9
$INSBASE
 10
0.0
 20
0.0
 30
0.0
  9
$EXTMIN
 10
-115.721458021612
 20
-49.97073246008786
 30
0.0
  9
$EXTMAX
 10
67.2887602251059
 20
52.43332450504428
 30
0.0
  9
$LIMMIN
 10
0.0
 20
0.0
  9
$LIMMAX
 10
420.0
 20
297.0
  9
$ORTHOMODE
 70
     0
  9
$REGENMODE
 70
     1
  9
$FILLMODE
 70
     1
  9
$QTEXTMODE
 70
     0
  9
$MIRRTEXT
 70
     1
  9
$LTSCALE
 40
1.0
  9
$ATTMODE
 70
     1
  9
$TEXTSIZE
 40
3.5
  9
$TRACEWID
 40
1.0
  9
$TEXTSTYLE
  7
Standard
  9
$CLAYER
  8
0
  9
$CELTYPE
  6
ByLayer
  9
$CECOLOR
 62
   256
  9
$CELTSCALE
 40
1.0
  9
$DISPSILH
 70
     0
  9
$DIMSCALE
 40
1.0
  9
$DIMASZ
 40
3.302
  9
$DIMEXO
 40
1.0
  9
$DIMDLI
 40
3.75
  9
$DIMRND
 40
0.0
  9
$DIMDLE
 40
0.0
  9
$DIMEXE
 40
1.0
  9
$DIMTP
 40
0.0
  9
$DIMTM
 40
0.0
  9
$DIMTXT
 40
3.5
  9
$DIMCEN
 40
2.5
  9
$DIMTSZ
 40
0.0
  9
$DIMTOL
 70
     0
  9
$DIMLIM
 70
     0
  9
$DIMTIH
 70
     1
  9
$DIMTOH
 70
     1
  9
$DIMSE1
 70
     0
  9
$DIMSE2
 70
     0
  9
$DIMTAD
 70
     1
  9
$DIMZIN
 70
     0
  9
$DIMBLK
  1

  9
$DIMASO
 70
     1
  9
$DIMSHO
 70
     1
  9
$DIMPOST
  1

  9
$DIMAPOST
  1

  9
$DIMALT
 70
     0
  9
$DIMALTD
 70
     3
  9
$DIMALTF
 40
0.0393700787401575
  9
$DIMLFAC
 40
1.0
  9
$DIMTOFL
 70
     1
  9
$DIMTVP
 40
0.0
  9
$DIMTIX
 70
     0
  9
$DIMSOXD
 70
     0
  9
$DIMSAH
 70
     0
  9
$DIMBLK1
  1

  9
$DIMBLK2
  1

  9
$DIMSTYLE
  2
ISO-25
  9
$DIMCLRD
 70
     0
  9
$DIMCLRE
 70
     0
  9
$DIMCLRT
 70
     0
  9
$DIMTFAC
 40
1.0
  9
$DIMGAP
 40
1.524
  9
$DIMJUST
 70
     0
  9
$DIMSD1
 70
     0
  9
$DIMSD2
 70
     0
  9
$DIMTOLJ
 70
     0
  9
$DIMTZIN
 70
     0
  9
$DIMALTZ
 70
     0
  9
$DIMALTTZ
 70
     0
  9
$DIMUPT
 70
     0
  9
$DIMDEC
 70
     2
  9
$DIMTDEC
 70
     2
  9
$DIMALTU
 70
     2
  9
$DIMALTTD
 70
     3
  9
$DIMTXSTY
  7
Standard
  9
$DIMAUNIT
 70
     0
  9
$DIMADEC
 70
     2
  9
$DIMALTRND
 40
0.0
  9
$DIMAZIN
 70
     0
  9
$DIMDSEP
 70
    44
  9
$DIMATFIT
 70
     3
  9
$DIMFRAC
 70
     0
  9
$DIMLDRBLK
  1

  9
$DIMLUNIT
 70
     2
  9
$DIMLWD
 70
    -2
  9
$DIMLWE
 70
    -2
  9
$DIMTMOVE
 70
     0
  9
$LUNITS
 70
     2
  9
$LUPREC
 70
     2
  9
$SKETCHINC
 40
1.0
  9
$FILLETRAD
 40
10.0
  9
$AUNITS
 70
     0
  9
$AUPREC
 70
     2
  9
$MENU
  1
.
  9
$ELEVATION
 40
0.0
  9
$PELEVATION
 40
0.0
  9
$THICKNESS
 40
0.0
  9
$LIMCHECK
 70
     0
  9
$CHAMFERA
 40
0.0
  9
$CHAMFERB
 40
0.0
  9
$CHAMFERC
 40
0.0
  9
$CHAMFERD
 40
0.0
  9
$SKPOLY
 70
     0
  9
$TDCREATE
 40
2458263.811353715
  9
$TDUCREATE
 40
2458263.436353715
  9
$TDUPDATE
 40
2459577.330129629
  9
$TDUUPDATE
 40
2459576.955129629
  9
$TDINDWG
 40
0.0014533796
  9
$TDUSRTIMER
 40
0.0006300579
  9
$USRTIMER
 70
     1
  9
$ANGBASE
 50
0.0
  9
$ANGDIR
 70
     0
  9
$PDMODE
 70
     0
  9
$PDSIZE
 40
-1.0
  9
$PLINEWID
 40
0.0
  9
$SPLFRAME
 70
     0
  9
$SPLINETYPE
 70
     6
  9
$SPLINESEGS
 70
     8
  9
$HANDSEED
  5
2F4
  9
$SURFTAB1
 70
     6
  9
$SURFTAB2
 70
     6
  9
$SURFTYPE
 70
     6
  9
$SURFU
 70
     6
  9
$SURFV
 70
     6
  9
$UCSBASE
  2

  9
$UCSNAME
  2

  9
$UCSORG
 10
0.0
 20
0.0
 30
0.0
  9
$UCSXDIR
 10
1.0
 20
0.0
 30
0.0
  9
$UCSYDIR
 10
0.0
 20
1.0
 30
0.0
  9
$UCSORTHOREF
  2

  9
$UCSORTHOVIEW
 70
     0
  9
$UCSORGTOP
 10
0.0
 20
0.0
 30
0.0
  9
$UCSORGBOTTOM
 10
0.0
 20
0.0
 30
0.0
  9
$UCSORGLEFT
 10
0.0
 20
0.0
 30
0.0
  9
$UCSORGRIGHT
 10
0.0
 20
0.0
 30
0.0
  9
$UCSORGFRONT
 10
0.0
 20
0.0
 30
0.0
  9
$UCSORGBACK
 10
0.0
 20
0.0
 30
0.0
  9
$PUCSBASE
  2

  9
$PUCSNAME
  2

  9
$PUCSORG
 10
0.0
 20
0.0
 30
0.0
  9
$PUCSXDIR
 10
1.0
 20
0.0
 30
0.0
  9
$PUCSYDIR
 10
0.0
 20
1.0
 30
0.0
  9
$PUCSORTHOREF
  2

  9
$PUCSORTHOVIEW
 70
     0
  9
$PUCSORGTOP
 10
0.0
 20
0.0
 30
0.0
  9
$PUCSORGBOTTOM
 10
0.0
 20
0.0
 30
0.0
  9
$PUCSORGLEFT
 10
0.0
 20
0.0
 30
0.0
  9
$PUCSORGRIGHT
 10
0.0
 20
0.0
 30
0.0
  9
$PUCSORGFRONT
 10
0.0
 20
0.0
 30
0.0
  9
$PUCSORGBACK
 10
0.0
 20
0.0
 30
0.0
  9
$USERI1
 70
     0
  9
$USERI2
 70
     0
  9
$USERI3
 70
     0
  9
$USERI4
 70
     0
  9
$USERI5
 70
     0
  9
$USERR1
 40
0.0
  9
$USERR2
 40
0.0
  9
$USERR3
 40
0.0
  9
$USERR4
 40
0.0
  9
$USERR5
 40
0.0
  9
$WORLDVIEW
 70
     1
  9
$SHADEDGE
 70
     3
  9
$SHADEDIF
 70
    70
  9
$TILEMODE
 70
     1
  9
$MAXACTVP
 70
    64
  9
$PINSBASE
 10
0.0
 20
0.0
 30
0.0
  9
$PLIMCHECK
 70
     0
  9
$PEXTMIN
 10
1.000000000000000E+20
 20
1.000000000000000E+20
 30
1.000000000000000E+20
  9
$PEXTMAX
 10
-1.000000000000000E+20
 20
-1.000000000000000E+20
 30
-1.000000000000000E+20
  9
$PLIMMIN
 10
0.0
 20
0.0
  9
$PLIMMAX
 10
0.0
 20
0.0
  9
$UNITMODE
 70
     0
  9
$VISRETAIN
 70
     1
  9
$PLINEGEN
 70
     0
  9
$PSLTSCALE
 70
     1
  9
$TREEDEPTH
 70
  3020
  9
$CMLSTYLE
  2
Standard
  9
$CMLJUST
 70
     0
  9
$CMLSCALE
 40
20.0
  9
$PROXYGRAPHICS
 70
     1
  9
$MEASUREMENT
 70
     1
  9
$CELWEIGHT
370
    -1
  9
$ENDCAPS
280
     0
  9
$JOINSTYLE
280
     0
  9
$LWDISPLAY
290
     1
  9
$INSUNITS
 70
     4
  9
$HYPERLINKBASE
  1

  9
$STYLESHEET
  1

  9
$XEDIT
290
     1
  9
$CEPSNTYPE
380
     0
  9
$PSTYLEMODE
290
     1
  9
$FINGERPRINTGUID
  2
{4648FEED-6A79-4BDA-9A68-ACB96B7BD219}
  9
$VERSIONGUID
  2
{FAEB1C32-E019-11D5-929B-00C0DF256EC4}
  9
$EXTNAMES
290
     1
  9
$PSVPSCALE
 40
0.0
  9
$OLESTARTUP
290
     0
  0
ENDSEC
  0
SECTION
  2
CLASSES
  0
CLASS
  1
ACDBDICTIONARYWDFLT
  2
AcDbDictionaryWithDefault
  3
ObjectDBX Classes
 90
        0
280
     0
281
     0
  0
CLASS
  1
VISUALSTYLE
  2
AcDbVisualStyle
  3
ObjectDBX Classes
 90
     4095
280
     0
281
     0
  0
CLASS
  1
MATERIAL
  2
AcDbMaterial
  3
ObjectDBX Classes
 90
     1153
280
     0
281
     0
  0
CLASS
  1
SCALE
  2
AcDbScale
  3
ObjectDBX Classes
 90
     1153
280
     0
281
     0
  0
CLASS
  1
TABLESTYLE
  2
AcDbTableStyle
  3
ObjectDBX Classes
 90
     4095
280
     0
281
     0
  0
CLASS
  1
MLEADERSTYLE
  2
AcDbMLeaderStyle
  3
ACDB_MLEADERSTYLE_CLASS
 90
     4095
280
     0
281
     0
  0
CLASS
  1
SUN
  2
AcDbSun
  3
SCENEOE
 90
     1153
280
     0
281
     0
  0
CLASS
  1
ACDBPLACEHOLDER
  2
AcDbPlaceHolder
  3
ObjectDBX Classes
 90
        0
280
     0
281
     0
  0
CLASS
  1
LAYOUT
  2
AcDbLayout
  3
ObjectDBX Classes
 90
        0
280
     0
281
     0
  0
CLASS
  1
RASTERVARIABLES
  2
AcDbRasterVariables
  3
ISM
 90
        0
280
     0
281
     0
  0
CLASS
  1
DIMASSOC
  2
AcDbDimAssoc
  3
"AcDbDimAssoc|Product Desc:     AcDim ARX App For Dimension|Company:          Autodesk, Inc.|WEB Address:      www.autodesk.com"
 90
        0
280
     0
281
     0
  0
ENDSEC
  0
SECTION
  2
TABLES
  0
TABLE
  2
VPORT
  5
8
330
0
100
AcDbSymbolTable
 70
     1
  0
VPORT
  5
29
330
8
100
AcDbSymbolTableRecord
100
AcDbViewportTableRecord
  2
*Active
 70
     0
 10
0.0
 20
0.0
 11
1.0
 21
1.0
 12
-24.21634889825306
 22
1.231296022478212
 13
0.0
 23
0.0
 14
10.0
 24
10.0
 15
10.0
 25
10.0
 16
0.0
 26
0.0
 36
1.0
 17
0.0
 27
0.0
 37
0.0
 40
104.4521381044348
 41
2.070175438596491
 42
50.0
 43
0.0
 44
0.0
 50
0.0
 51
0.0
 71
    16
 72
  2000
 73
     1
 74
     3
 75
     0
 76
     0
 77
     0
 78
     0
281
     0
 65
     1
110
0.0
120
0.0
130
0.0
111
1.0
121
0.0
131
0.0
112
0.0
122
1.0
132
0.0
 79
     0
146
0.0
  0
ENDTAB
  0
TABLE
  2
LTYPE
  5
5
330
0
100
AcDbSymbolTable
 70
     6
  0
LTYPE
  5
14
330
5
100
AcDbSymbolTableRecord
100
AcDbLinetypeTableRecord
  2
ByBlock
 70
     0
  3

 72
    65
 73
     0
 40
0.0
  0
LTYPE
  5
15
330
5
100
AcDbSymbolTableRecord
100
AcDbLinetypeTableRecord
  2
ByLayer
 70
     0
  3

 72
    65
 73
     0
 40
0.0
  0
LTYPE
  5
16
330
5
100
AcDbSymbolTableRecord
100
AcDbLinetypeTableRecord
  2
Continuous
 70
     0
  3
Solid line
 72
    65
 73
     0
 40
0.0
  0
LTYPE
  5
6E
330
5
100
AcDbSymbolTableRecord
100
AcDbLinetypeTableRecord
  2
HIDDEN
 70
     0
  3
Hidden __ __ __ __ __ __ __ __ __ __ __ __ __ __
 72
    65
 73
     2
 40
1.905
 49
1.27
 74
     0
 49
-0.635
 74
     0
  0
LTYPE
  5
6F
330
5
100
AcDbSymbolTableRecord
100
AcDbLinetypeTableRecord
  2
PHANTOM
 70
     0
  3
Phantom ______  __  __  ______  __  __  ______
 72
    65
 73
     6
 40
12.7
 49
6.35
 74
     0
 49
-1.27
 74
     0
 49
1.27
 74
     0
 49
-1.27
 74
     0
 49
1.27
 74
     0
 49
-1.27
 74
     0
  0
LTYPE
  5
70
330
5
100
AcDbSymbolTableRecord
100
AcDbLinetypeTableRecord
  2
CENTER
 70
     0
  3
Center ____ _ ____ _ ____ _ ____ _ ____ _ ____
 72
    65
 73
     4
 40
10.16
 49
6.35
 74
     0
 49
-1.27
 74
     0
 49
1.27
 74
     0
 49
-1.27
 74
     0
  0
LTYPE
  5
71
330
5
100
AcDbSymbolTableRecord
100
AcDbLinetypeTableRecord
  2
CENTERX2
 70
     0
  3
Center (2x) ________  __  ________  __  _____
 72
    65
 73
     4
 40
20.32
 49
12.7
 74
     0
 49
-2.54
 74
     0
 49
2.54
 74
     0
 49
-2.54
 74
     0
  0
LTYPE
  5
72
330
5
100
AcDbSymbolTableRecord
100
AcDbLinetypeTableRecord
  2
DOT2
 70
     0
  3
Dot (.5x) ........................................
 72
    65
 73
     2
 40
0.635
 49
0.0
 74
     0
 49
-0.635
 74
     0
  0
ENDTAB
  0
TABLE
  2
LAYER
  5
2
330
0
100
AcDbSymbolTable
 70
    17
  0
LAYER
  5
10
330
2
100
AcDbSymbolTableRecord
100
AcDbLayerTableRecord
  2
0
 70
     0
 62
     7
  6
Continuous
370
    -3
390
F
  0
LAYER
  5
73
330
2
100
AcDbSymbolTableRecord
100
AcDbLayerTableRecord
  2
FORMAT
 70
     0
 62
     2
  6
Continuous
370
    -3
390
F
  0
LAYER
  5
74
330
2
100
AcDbSymbolTableRecord
100
AcDbLayerTableRecord
  2
외형선
 70
     0
 62
   100
  6
Continuous
370
    35
390
F
  0
LAYER
  5
75
330
2
100
AcDbSymbolTableRecord
100
AcDbLayerTableRecord
  2
숨은선
 70
     0
 62
     2
  6
HIDDEN
370
    25
390
F
  0
LAYER
  5
76
330
2
100
AcDbSymbolTableRecord
100
AcDbLayerTableRecord
  2
중심선
 70
     0
 62
     1
  6
CENTERX2
370
    -3
390
F
  0
LAYER
  5
77
330
2
100
AcDbSymbolTableRecord
100
AcDbLayerTableRecord
  2
파단선
 70
     0
 62
     4
  6
Continuous
370
    -3
390
F
  0
LAYER
  5
78
330
2
100
AcDbSymbolTableRecord
100
AcDbLayerTableRecord
  2
해칭선
 70
     0
 62
     4
  6
Continuous
370
    -3
390
F
  0
LAYER
  5
79
330
2
100
AcDbSymbolTableRecord
100
AcDbLayerTableRecord
  2
가는실선
 70
     0
 62
     4
  6
Continuous
370
    -3
390
F
  0
LAYER
  5
7A
330
2
100
AcDbSymbolTableRecord
100
AcDbLayerTableRecord
  2
치수_보조선
 70
     0
 62
     4
  6
Continuous
370
    -3
390
F
  0
LAYER
  5
7B
330
2
100
AcDbSymbolTableRecord
100
AcDbLayerTableRecord
  2
치수문자_일반주서
 70
     0
 62
     7
  6
Continuous
370
    25
390
F
  0
LAYER
  5
7C
330
2
100
AcDbSymbolTableRecord
100
AcDbLayerTableRecord
  2
개별주서
 70
     0
 62
   100
  6
Continuous
370
    35
390
F
  0
LAYER
  5
7D
330
2
100
AcDbSymbolTableRecord
100
AcDbLayerTableRecord
  2
중간선
 70
     0
 62
     2
  6
Continuous
370
    25
390
F
  0
LAYER
  5
7E
330
2
100
AcDbSymbolTableRecord
100
AcDbLayerTableRecord
  2
윤곽선
 70
     0
 62
     3
  6
Continuous
370
    50
390
F
  0
LAYER
  5
7F
330
2
100
AcDbSymbolTableRecord
100
AcDbLayerTableRecord
  2
중심마크
 70
     0
 62
   100
  6
Continuous
370
    35
390
F
  0
LAYER
  5
80
330
2
100
AcDbSymbolTableRecord
100
AcDbLayerTableRecord
  2
가상선
 70
     0
 62
     4
  6
PHANTOM
370
    -3
390
F
  0
LAYER
  5
81
330
2
100
AcDbSymbolTableRecord
100
AcDbLayerTableRecord
  2
특수지정선
 70
     0
 62
     5
  6
CENTERX2
370
    70
390
F
  0
LAYER
  5
13F
330
2
100
AcDbSymbolTableRecord
100
AcDbLayerTableRecord
  2
Defpoints
 70
     0
 62
     7
  6
Continuous
290
     0
370
    -3
390
F
  0
ENDTAB
  0
TABLE
  2
STYLE
  5
3
330
0
100
AcDbSymbolTable
 70
     2
  0
STYLE
  5
11
330
3
100
AcDbSymbolTableRecord
100
AcDbTextStyleTableRecord
  2
Standard
 70
     0
 40
0.0
 41
1.0
 50
0.0
 71
     0
 42
3.5
  3
txt
  4

  0
STYLE
  5
97
330
3
100
AcDbSymbolTableRecord
100
AcDbTextStyleTableRecord
  2
SLDTEXTSTYLE0
 70
     0
 40
0.0
 41
0.75
 50
0.0
 71
     0
 42
3.5
  3
TXT
  4

  0
ENDTAB
  0
TABLE
  2
VIEW
  5
6
330
0
100
AcDbSymbolTable
 70
     0
  0
ENDTAB
  0
TABLE
  2
UCS
  5
7
330
0
100
AcDbSymbolTable
 70
     0
  0
ENDTAB
  0
TABLE
  2
APPID
  5
9
330
0
100
AcDbSymbolTable
 70
     3
  0
APPID
  5
12
330
9
100
AcDbSymbolTableRecord
100
AcDbRegAppTableRecord
  2
ACAD
 70
     0
  0
APPID
  5
14A
330
9
100
AcDbSymbolTableRecord
100
AcDbRegAppTableRecord
  2
ACAD_DSTYLE_DIMRADIAL_EXTENSION
 70
     0
  0
APPID
  5
2F0
330
9
100
AcDbSymbolTableRecord
100
AcDbRegAppTableRecord
  2
PE_URL
 70
     0
  0
ENDTAB
  0
TABLE
  2
DIMSTYLE
  5
A
330
0
100
AcDbSymbolTable
 70
     3
100
AcDbDimStyleTable
  0
DIMSTYLE
105
27
330
A
100
AcDbSymbolTableRecord
100
AcDbDimStyleTableRecord
  2
ISO-25
 70
     0
 41
2.5
 42
0.625
 43
3.75
 44
1.25
 73
     0
 74
     0
 77
     1
 78
     8
140
2.5
141
2.5
143
0.03937007874016
147
0.625
171
     3
172
     1
178
     0
271
     2
272
     2
274
     3
278
    44
283
     0
284
     8
340
11
  0
DIMSTYLE
105
D8
102
{ACAD_REACTORS
330
269
330
26C
102
}
330
A
100
AcDbSymbolTableRecord
100
AcDbDimStyleTableRecord
  2
SLDDIMSTYLE0
 70
     0
 41
3.302
 44
0.0
 45
0.000000001
 73
     0
 74
     0
 77
     1
 78
    12
 79
     3
140
3.5
147
0.875
172
     1
173
     1
178
     0
271
     2
272
     2
276
     2
284
    12
289
     0
340
97
  0
DIMSTYLE
105
E6
102
{ACAD_REACTORS
330
26A
330
26B
330
26D
330
2C0
102
}
330
A
100
AcDbSymbolTableRecord
100
AcDbDimStyleTableRecord
  2
SLDDIMSTYLE1
 70
     0
 41
3.302
 44
0.0
 45
0.000000001
 73
     0
 74
     0
 77
     1
 78
    12
 79
     3
140
3.5
147
0.875
173
     1
178
     0
271
     2
272
     2
276
     2
284
    12
340
97
  0
ENDTAB
  0
TABLE
  2
BLOCK_RECORD
  5
1
330
0
100
AcDbSymbolTable
 70
    21
  0
BLOCK_RECORD
  5
1F
330
1
100
AcDbSymbolTableRecord
100
AcDbBlockTableRecord
  2
*Model_Space
340
22
  0
BLOCK_RECORD
  5
1B
330
1
100
AcDbSymbolTableRecord
100
AcDbBlockTableRecord
  2
*Paper_Space
340
1E
  0
BLOCK_RECORD
  5
23
330
1
100
AcDbSymbolTableRecord
100
AcDbBlockTableRecord
  2
*Paper_Space0
340
26
  0
BLOCK_RECORD
  5
82
330
1
100
AcDbSymbolTableRecord
100
AcDbBlockTableRecord
  2
블럭10
340
0
102
{BLKREFS
331
D0
102
}
  0
BLOCK_RECORD
  5
D9
330
1
100
AcDbSymbolTableRecord
100
AcDbBlockTableRecord
  2
_D
340
0
  0
BLOCK_RECORD
  5
E7
330
1
100
AcDbSymbolTableRecord
100
AcDbBlockTableRecord
  2
_D_1
340
0
  0
BLOCK_RECORD
  5
F2
330
1
100
AcDbSymbolTableRecord
100
AcDbBlockTableRecord
  2
_D_2
340
0
  0
BLOCK_RECORD
  5
FC
330
1
100
AcDbSymbolTableRecord
100
AcDbBlockTableRecord
  2
_D_3
340
0
  0
BLOCK_RECORD
  5
108
330
1
100
AcDbSymbolTableRecord
100
AcDbBlockTableRecord
  2
_D_4
340
0
  0
BLOCK_RECORD
  5
113
330
1
100
AcDbSymbolTableRecord
100
AcDbBlockTableRecord
  2
SW_DOWELSYMBOL_0
340
0
102
{BLKREFS
331
26E
102
}
  0
BLOCK_RECORD
  5
1EB
330
1
100
AcDbSymbolTableRecord
100
AcDbBlockTableRecord
  2
*D8
340
0
  0
BLOCK_RECORD
  5
1F7
330
1
100
AcDbSymbolTableRecord
100
AcDbBlockTableRecord
  2
*D9
340
0
  0
BLOCK_RECORD
  5
203
330
1
100
AcDbSymbolTableRecord
100
AcDbBlockTableRecord
  2
*D10
340
0
  0
BLOCK_RECORD
  5
20F
330
1
100
AcDbSymbolTableRecord
100
AcDbBlockTableRecord
  2
*D11
340
0
  0
BLOCK_RECORD
  5
21B
330
1
100
AcDbSymbolTableRecord
100
AcDbBlockTableRecord
  2
*D12
340
0
  0
BLOCK_RECORD
  5
227
330
1
100
AcDbSymbolTableRecord
100
AcDbBlockTableRecord
  2
*D13
340
0
  0
BLOCK_RECORD
  5
274
330
1
100
AcDbSymbolTableRecord
100
AcDbBlockTableRecord
  2
*D14
340
0
  0
BLOCK_RECORD
  5
280
330
1
100
AcDbSymbolTableRecord
100
AcDbBlockTableRecord
  2
*D15
340
0
  0
BLOCK_RECORD
  5
28C
330
1
100
AcDbSymbolTableRecord
100
AcDbBlockTableRecord
  2
*D16
340
0
  0
BLOCK_RECORD
  5
298
330
1
100
AcDbSymbolTableRecord
100
AcDbBlockTableRecord
  2
*D17
340
0
  0
BLOCK_RECORD
  5
2A4
330
1
100
AcDbSymbolTableRecord
100
AcDbBlockTableRecord
  2
*D18
340
0
  0
BLOCK_RECORD
  5
2B0
330
1
100
AcDbSymbolTableRecord
100
AcDbBlockTableRecord
  2
*D19
340
0
  0
BLOCK_RECORD
  5
2C3
330
1
100
AcDbSymbolTableRecord
100
AcDbBlockTableRecord
  2
*D20
340
0
  0
ENDTAB
  0
ENDSEC
  0
SECTION
  2
BLOCKS
  0
BLOCK
  5
20
330
1F
100
AcDbEntity
  8
0
100
AcDbBlockBegin
  2
*Model_Space
 70
     0
 10
0.0
 20
0.0
 30
0.0
  3
*Model_Space
  1
*Model_Space
  0
ENDBLK
  5
21
330
1F
100
AcDbEntity
  8
0
100
AcDbBlockEnd
  0
BLOCK
  5
1C
330
1B
100
AcDbEntity
 67
     1
  8
0
100
AcDbBlockBegin
  2
*Paper_Space
 70
     0
 10
0.0
 20
0.0
 30
0.0
  3
*Paper_Space
  1
*Paper_Space
  0
ENDBLK
  5
1D
330
1B
100
AcDbEntity
 67
     1
  8
0
100
AcDbBlockEnd
  0
BLOCK
  5
24
330
23
100
AcDbEntity
  8
0
100
AcDbBlockBegin
  2
*Paper_Space0
 70
     0
 10
0.0
 20
0.0
 30
0.0
  3
*Paper_Space0
  1
*Paper_Space0
  0
ENDBLK
  5
25
330
23
100
AcDbEntity
  8
0
100
AcDbBlockEnd
  0
BLOCK
  5
83
330
82
100
AcDbEntity
  8
0
100
AcDbBlockBegin
  2
블럭10
 70
     2
 10
0.0
 20
0.0
 30
0.0
  3
블럭10
  1
블럭10
  0
ELLIPSE
  5
85
330
82
100
AcDbEntity
  8
중심선
100
AcDbEllipse
 10
20.54032771741204
 20
12.0471743016438
 30
0.0
 11
6.600054785286829
 21
-1.261213355974178E-13
 31
0.0
210
0.0
220
0.0
230
1.0
 40
0.636358354079598
 41
0.9219305317359503
 42
6.513795318482858
  0
ELLIPSE
  5
86
330
82
100
AcDbEntity
  8
중심선
100
AcDbEllipse
 10
20.54032771746488
 20
12.04717430159265
 30
0.0
 11
3.960054785062283
 21
1.540847449632565E-10
 31
0.0
210
0.0
220
0.0
230
1.0
 40
0.3939339440162632
 41
1.131841032648279
 42
5.62031148352944
  0
LINE
  5
87
330
82
100
AcDbEntity
  8
중심선
100
AcDbLine
 10
2.268634060543552
 20
16.24717430164393
 30
0.0
 11
5.714909304380834
 21
16.24717430164393
 31
0.0
  0
LINE
  5
88
330
82
100
AcDbEntity
  8
중심선
100
AcDbLine
 10
5.245725140726316
 20
7.84717430164391
 30
0.0
 11
8.692000384563599
 21
7.84717430164391
 31
0.0
  0
LINE
  5
89
330
82
100
AcDbEntity
  8
중심선
100
AcDbLine
 10
15.74043728645272
 20
16.24717430164393
 30
0.0
 11
8.692000384563599
 21
7.84717430164391
 31
0.0
  0
LINE
  5
8A
330
82
100
AcDbEntity
  8
중심선
100
AcDbLine
 10
0.1404042013395286
 20
13.71084872107135
 30
0.0
 11
3.58671253028996
 21
13.71088815037384
 31
0.0
  0
LINE
  5
8B
330
82
100
AcDbEntity
  8
중심선
100
AcDbLine
 10
2.750260043222114
 20
10.84717430164391
 30
0.0
 11
6.196535287059397
 21
10.84717430164391
 31
0.0
  0
LINE
  5
8C
330
82
100
AcDbEntity
  8
중심선
100
AcDbLine
 10
12.29416204261559
 20
16.24717430164393
 30
0.0
 11
5.245725140726316
 21
7.84717430164391
 31
0.0
  0
LINE
  5
8D
330
82
100
AcDbEntity
  8
중심선
100
AcDbLine
 10
10.72767329541681
 20
16.24717430164393
 30
0.0
 11
6.196535287059397
 21
10.84717430164391
 31
0.0
  0
LINE
  5
8E
330
82
100
AcDbEntity
  8
중심선
100
AcDbLine
 10
7.28139805157953
 20
16.24717430164393
 30
0.0
 11
2.750260043222114
 21
10.84717430164391
 31
0.0
  0
LINE
  5
8F
330
82
100
AcDbEntity
  8
중심선
100
AcDbLine
 10
5.714909304380834
 20
16.24717430164393
 30
0.0
 11
3.58671253028996
 21
13.71088815037384
 31
0.0
  0
LINE
  5
90
330
82
100
AcDbEntity
  8
중심선
100
AcDbLine
 10
2.268634060543552
 20
16.24717430164393
 30
0.0
 11
0.1404042013395286
 21
13.71084872107135
 31
0.0
  0
LINE
  5
91
330
82
100
AcDbEntity
  8
중심선
100
AcDbLine
 10
7.28139805157953
 20
16.24717430164393
 30
0.0
 11
10.72767329541681
 21
16.24717430164393
 31
0.0
  0
LINE
  5
92
330
82
100
AcDbEntity
  8
중심선
100
AcDbLine
 10
12.29416204261559
 20
16.24717430164393
 30
0.0
 11
15.74043728645272
 21
16.24717430164393
 31
0.0
  0
LINE
  5
93
330
82
100
AcDbEntity
  8
중심선
100
AcDbLine
 10
19.22036997980202
 20
11.08717430171403
 30
0.0
 11
23.66174974927406
 21
11.08717430171406
 31
0.0
  0
LINE
  5
94
330
82
100
AcDbEntity
  8
중심선
100
AcDbLine
 10
19.22039502424796
 20
13.00717430171391
 30
0.0
 11
19.22036997980202
 21
11.08717430171403
 31
0.0
  0
LINE
  5
95
330
82
100
AcDbEntity
  8
중심선
100
AcDbLine
 10
19.22039502424796
 20
13.00717430171391
 30
0.0
 11
26.96566020931264
 21
13.00717430171391
 31
0.0
  0
LINE
  5
96
330
82
100
AcDbEntity
  8
중심선
100
AcDbLine
 10
22.22332737316547
 20
13.45928029700563
 30
0.0
 11
24.52862924686651
 21
15.39360700705356
 31
0.0
  0
ATTDEF
  5
98
330
82
100
AcDbEntity
  8
FORMAT
 62
     2
100
AcDbText
 10
-20.85824753159254
 20
2.075366912832191
 30
0.0
 40
4.233333333333333
  1
SEME6116010150E [ 2 FLUTE ]
 41
0.75
  7
SLDTEXTSTYLE0
 11
-20.85824753159254
 21
-0.0412997538344756
 31
0.0
100
AcDbAttributeDefinition
  3

  2
AUTOATTR0
 70
     0
 74
     1
  0
ENDBLK
  5
84
330
82
100
AcDbEntity
  8
0
100
AcDbBlockEnd
  0
BLOCK
  5
DA
330
D9
100
AcDbEntity
  8
0
100
AcDbBlockBegin
  2
_D
 70
     0
 10
0.0
 20
0.0
 30
0.0
  3
_D
  1
_D
  0
SOLID
  5
DC
330
D9
100
AcDbEntity
  8
치수문자_일반주서
100
AcDbTrace
 10
-101.0025088550884
 20
8.001074928723883
 30
0.0
 11
-100.4945088550884
 21
11.30307492872388
 31
0.0
 12
-101.5105088550884
 22
11.30307492872388
 32
0.0
 13
-101.5105088550884
 23
11.30307492872388
 33
0.0
  0
SOLID
  5
DD
330
D9
100
AcDbEntity
  8
치수문자_일반주서
100
AcDbTrace
 10
-101.0025088550884
 20
-7.998925071276107
 30
0.0
 11
-101.5105088550884
 21
-11.30092507127611
 31
0.0
 12
-100.4945088550884
 22
-11.30092507127611
 32
0.0
 13
-100.4945088550884
 23
-11.30092507127611
 33
0.0
  0
LINE
  5
DE
330
D9
100
AcDbEntity
  8
치수문자_일반주서
100
AcDbLine
 10
-89.50605083347637
 20
8.001074928723883
 30
0.0
 11
-102.0025088550884
 21
8.001074928723883
 31
0.0
  0
LINE
  5
DF
330
D9
100
AcDbEntity
  8
치수문자_일반주서
100
AcDbLine
 10
-89.50605083347637
 20
-7.998925071276107
 30
0.0
 11
-102.0025088550884
 21
-7.998925071276107
 31
0.0
  0
LINE
  5
E0
330
D9
100
AcDbEntity
  8
치수문자_일반주서
100
AcDbLine
 10
-101.0025088550884
 20
8.001074928723883
 30
0.0
 11
-101.0025088550884
 21
14.35107492872388
 31
0.0
  0
LINE
  5
E1
330
D9
100
AcDbEntity
  8
치수문자_일반주서
100
AcDbLine
 10
-101.0025088550884
 20
8.001074928723883
 30
0.0
 11
-101.0025088550884
 21
-7.998925071276107
 31
0.0
  0
LINE
  5
E2
330
D9
100
AcDbEntity
  8
치수문자_일반주서
100
AcDbLine
 10
-101.0025088550884
 20
-7.998925071276107
 30
0.0
 11
-101.0025088550884
 21
-14.34892507127611
 31
0.0
  0
MTEXT
  5
E3
330
D9
100
AcDbEntity
  8
치수문자_일반주서
100
AcDbMText
 10
-105.5142459442903
 20
-5.224255196816678
 30
0.0
 40
3.5
 41
0.0
 71
     1
 72
     1
  1
%%c
  7
SLDTEXTSTYLE0
 11
-7.044195017643634E-15
 21
1.0
 31
0.0
 73
     1
 44
1.0
  0
MTEXT
  5
E4
330
D9
100
AcDbEntity
  8
치수문자_일반주서
100
AcDbMText
 10
-105.5677181209502
 20
0.0541822015574028
 30
0.0
 40
3.5
 41
0.0
 71
     1
 72
     1
  1
16
  7
SLDTEXTSTYLE0
 11
-7.044195017643634E-15
 21
1.0
 31
0.0
 73
     1
 44
1.0
  0
ENDBLK
  5
DB
330
D9
100
AcDbEntity
  8
0
100
AcDbBlockEnd
  0
BLOCK
  5
E8
330
E7
100
AcDbEntity
  8
0
100
AcDbBlockBegin
  2
_D_1
 70
     0
 10
0.0
 20
0.0
 30
0.0
  3
_D_1
  1
_D_1
  0
SOLID
  5
EA
330
E7
100
AcDbEntity
  8
치수문자_일반주서
100
AcDbTrace
 10
60.49394916652362
 20
25.50107492872353
 30
0.0
 11
57.19194916652362
 21
26.00907492872353
 31
0.0
 12
57.19194916652362
 22
24.99307492872353
 32
0.0
 13
57.19194916652362
 23
24.99307492872353
 33
0.0
  0
SOLID
  5
EB
330
E7
100
AcDbEntity
  8
치수문자_일반주서
100
AcDbTrace
 10
25.49394916652362
 20
25.50107492872354
 30
0.0
 11
28.79594916652362
 21
24.99307492872354
 31
0.0
 12
28.79594916652362
 22
26.00907492872354
 32
0.0
 13
28.79594916652362
 23
26.00907492872354
 33
0.0
  0
LINE
  5
EC
330
E7
100
AcDbEntity
  8
치수문자_일반주서
100
AcDbLine
 10
60.49394916652362
 20
8.00107492872389
 30
0.0
 11
60.49394916652362
 21
26.50107492872354
 31
0.0
  0
LINE
  5
ED
330
E7
100
AcDbEntity
  8
치수문자_일반주서
100
AcDbLine
 10
25.49394916652362
 20
8.65594738668813
 30
0.0
 11
25.49394916652362
 21
26.50107492872354
 31
0.0
  0
LINE
  5
EE
330
E7
100
AcDbEntity
  8
치수문자_일반주서
100
AcDbLine
 10
60.49394916652362
 20
25.50107492872353
 30
0.0
 11
101.3627742063695
 21
25.50107492872353
 31
0.0
  0
LINE
  5
EF
330
E7
100
AcDbEntity
  8
치수문자_일반주서
100
AcDbLine
 10
60.49394916652362
 20
25.50107492872353
 30
0.0
 11
25.49394916652362
 21
25.50107492872354
 31
0.0
  0
MTEXT
  5
F0
330
E7
100
AcDbEntity
  8
치수문자_일반주서
100
AcDbMText
 10
96.19055181932384
 20
30.01281184330244
 30
0.0
 40
3.5
 41
0.0
 71
     1
 72
     1
  1
35
  7
SLDTEXTSTYLE0
 73
     1
 44
1.0
  0
ENDBLK
  5
E9
330
E7
100
AcDbEntity
  8
0
100
AcDbBlockEnd
  0
BLOCK
  5
F3
330
F2
100
AcDbEntity
  8
0
100
AcDbBlockBegin
  2
_D_2
 70
     0
 10
0.0
 20
0.0
 30
0.0
  3
_D_2
  1
_D_2
  0
SOLID
  5
F5
330
F2
100
AcDbEntity
  8
치수문자_일반주서
100
AcDbTrace
 10
60.49394916652362
 20
47.55939943376818
 30
0.0
 11
57.19194916652362
 21
48.06739943376819
 31
0.0
 12
57.19194916652362
 22
47.05139943376818
 32
0.0
 13
57.19194916652362
 23
47.05139943376818
 33
0.0
  0
SOLID
  5
F6
330
F2
100
AcDbEntity
  8
치수문자_일반주서
100
AcDbTrace
 10
-89.50605083347637
 20
47.55939943376816
 30
0.0
 11
-86.20405083347637
 21
47.05139943376816
 31
0.0
 12
-86.20405083347637
 22
48.06739943376817
 32
0.0
 13
-86.20405083347637
 23
48.06739943376817
 33
0.0
  0
LINE
  5
F7
330
F2
100
AcDbEntity
  8
치수문자_일반주서
100
AcDbLine
 10
60.49394916652362
 20
8.00107492872389
 30
0.0
 11
60.49394916652362
 21
48.55939943376818
 31
0.0
  0
LINE
  5
F8
330
F2
100
AcDbEntity
  8
치수문자_일반주서
100
AcDbLine
 10
-89.50605083347637
 20
8.001074928723883
 30
0.0
 11
-89.50605083347637
 21
48.55939943376816
 31
0.0
  0
LINE
  5
F9
330
F2
100
AcDbEntity
  8
치수문자_일반주서
100
AcDbLine
 10
60.49394916652362
 20
47.55939943376818
 30
0.0
 11
-89.50605083347637
 21
47.55939943376816
 31
0.0
  0
MTEXT
  5
FA
330
F2
100
AcDbEntity
  8
치수문자_일반주서
100
AcDbMText
 10
-18.38521750734527
 20
52.07113634834707
 30
0.0
 40
3.5
 41
0.0
 71
     1
 72
     1
  1
150
  7
SLDTEXTSTYLE0
 73
     1
 44
1.0
  0
ENDBLK
  5
F4
330
F2
100
AcDbEntity
  8
0
100
AcDbBlockEnd
  0
BLOCK
  5
FD
330
FC
100
AcDbEntity
  8
0
100
AcDbBlockBegin
  2
_D_3
 70
     0
 10
0.0
 20
0.0
 30
0.0
  3
_D_3
  1
_D_3
  0
SOLID
  5
FF
330
FC
100
AcDbEntity
  8
치수문자_일반주서
100
AcDbTrace
 10
14.49394916652476
 20
30.32107492872395
 30
0.0
 11
17.79594916652475
 21
29.81307492872382
 31
0.0
 12
17.79594916652478
 22
30.82907492872382
 32
0.0
 13
17.79594916652478
 23
30.82907492872382
 33
0.0
  0
SOLID
  5
100
330
FC
100
AcDbEntity
  8
치수문자_일반주서
100
AcDbTrace
 10
10.2140453559571
 20
30.32107492872411
 30
0.0
 11
6.912045355957115
 21
30.82907492872424
 31
0.0
 12
6.912045355957076
 22
29.81307492872424
 32
0.0
 13
6.912045355957076
 23
29.81307492872424
 33
0.0
  0
LINE
  5
101
330
FC
100
AcDbEntity
  8
치수문자_일반주서
100
AcDbLine
 10
14.49394916652365
 20
1.401074928723893
 30
0.0
 11
14.4939491665248
 21
31.32107492872394
 31
0.0
  0
LINE
  5
102
330
FC
100
AcDbEntity
  8
치수문자_일반주서
100
AcDbLine
 10
10.21404535595599
 20
1.551074928723894
 30
0.0
 11
10.21404535595713
 21
31.32107492872411
 31
0.0
  0
LINE
  5
103
330
FC
100
AcDbEntity
  8
치수문자_일반주서
100
AcDbLine
 10
14.49394916652476
 20
30.32107492872395
 30
0.0
 11
55.42440269528608
 21
30.32107492872239
 31
0.0
  0
LINE
  5
104
330
FC
100
AcDbEntity
  8
치수문자_일반주서
100
AcDbLine
 10
14.49394916652476
 20
30.32107492872395
 30
0.0
 11
10.2140453559571
 21
30.32107492872411
 31
0.0
  0
LINE
  5
105
330
FC
100
AcDbEntity
  8
치수문자_일반주서
100
AcDbLine
 10
10.2140453559571
 20
30.32107492872411
 30
0.0
 11
3.864045355957095
 21
30.32107492872435
 31
0.0
  0
MTEXT
  5
106
330
FC
100
AcDbEntity
  8
치수문자_일반주서
100
AcDbMText
 10
46.3730136343715
 20
34.83281184330144
 30
0.0
 40
3.5
 41
0.0
 71
     1
 72
     1
  1
4.28
  7
SLDTEXTSTYLE0
 73
     1
 44
1.0
  0
ENDBLK
  5
FE
330
FC
100
AcDbEntity
  8
0
100
AcDbBlockEnd
  0
BLOCK
  5
109
330
108
100
AcDbEntity
  8
0
100
AcDbBlockBegin
  2
_D_4
 70
     0
 10
0.0
 20
0.0
 30
0.0
  3
_D_4
  1
_D_4
  0
SOLID
  5
10B
330
108
100
AcDbEntity
  8
치수문자_일반주서
100
AcDbTrace
 10
57.35059833193548
 20
5.001074928723893
 30
0.0
 11
56.84259833193548
 21
1.699074928723894
 31
0.0
 12
57.85859833193548
 22
1.699074928723894
 32
0.0
 13
57.85859833193548
 23
1.699074928723894
 33
0.0
  0
SOLID
  5
10C
330
108
100
AcDbEntity
  8
치수문자_일반주서
100
AcDbTrace
 10
57.35059833193547
 20
-4.937756798710939
 30
0.0
 11
57.85859833193548
 21
-1.635756798710939
 31
0.0
 12
56.84259833193547
 22
-1.635756798710939
 32
0.0
 13
56.84259833193547
 23
-1.635756798710939
 33
0.0
  0
LINE
  5
10D
330
108
100
AcDbEntity
  8
치수문자_일반주서
100
AcDbLine
 10
40.49394916652361
 20
5.001074928723894
 30
0.0
 11
58.35059833193548
 21
5.001074928723893
 31
0.0
  0
LINE
  5
10E
330
108
100
AcDbEntity
  8
치수문자_일반주서
100
AcDbLine
 10
40.49394916652361
 20
-4.937756798710938
 30
0.0
 11
58.35059833193547
 21
-4.937756798710939
 31
0.0
  0
LINE
  5
10F
330
108
100
AcDbEntity
  8
치수문자_일반주서
100
AcDbLine
 10
57.35059833193548
 20
5.001074928723893
 30
0.0
 11
57.35059833193547
 21
-4.937756798710939
 31
0.0
  0
LINE
  5
110
330
108
100
AcDbEntity
  8
치수문자_일반주서
100
AcDbLine
 10
57.35059833193547
 20
-4.937756798710939
 30
0.0
 11
57.35059833193545
 21
-31.02355930264757
 31
0.0
  0
MTEXT
  5
111
330
108
100
AcDbEntity
  8
치수문자_일반주서
100
AcDbMText
 10
52.83886124273366
 20
-31.02355930264756
 30
0.0
 40
3.5
 41
0.0
 71
     1
 72
     1
  1
%%c
  7
SLDTEXTSTYLE0
 11
-7.044195017643634E-15
 21
1.0
 31
0.0
 73
     1
 44
1.0
  0
MTEXT
  5
112
330
108
100
AcDbEntity
  8
치수문자_일반주서
100
AcDbMText
 10
52.78538906607378
 20
-25.74512190427348
 30
0.0
 40
3.5
 41
0.0
 71
     1
 72
     1
  1
9.94
  7
SLDTEXTSTYLE0
 11
-7.044195017643634E-15
 21
1.0
 31
0.0
 73
     1
 44
1.0
  0
ENDBLK
  5
10A
330
108
100
AcDbEntity
  8
0
100
AcDbBlockEnd
  0
BLOCK
  5
114
330
113
100
AcDbEntity
  8
0
100
AcDbBlockBegin
  2
SW_DOWELSYMBOL_0
 70
     0
 10
0.0
 20
0.0
 30
0.0
  3
SW_DOWELSYMBOL_0
  1
SW_DOWELSYMBOL_0
  0
CIRCLE
  5
116
330
113
100
AcDbEntity
  8
외형선
 62
     0
100
AcDbCircle
 10
0.0
 20
0.0
 30
0.0
 40
3.000000000000004
  0
HATCH
  5
117
330
113
100
AcDbEntity
  8
0
  6
Continuous
 62
     0
370
    35
100
AcDbHatch
 10
0.0
 20
0.0
 30
0.0
210
0.0
220
0.0
230
1.0
  2
SOLID
 70
     1
 71
     0
 91
        1
 92
        0
 93
        3
 72
     2
 10
0.0000000000000104
 20
0.0
 40
3.000000000000004
 50
0.0
 51
90.0
 73
     1
 72
     1
 10
0.0000000000000104
 20
3.000000000000004
 11
0.0000000000000104
 21
0.0
 72
     1
 10
0.0000000000000104
 20
0.0
 11
3.000000000000015
 21
0.0
 97
        0
 75
     0
 76
     1
 98
        1
 10
0.0
 20
0.0
  0
HATCH
  5
118
330
113
100
AcDbEntity
  8
0
  6
Continuous
 62
     0
370
    35
100
AcDbHatch
 10
0.0
 20
0.0
 30
0.0
210
0.0
220
0.0
230
1.0
  2
SOLID
 70
     1
 71
     0
 91
        1
 92
        0
 93
        3
 72
     2
 10
0.0000000000000104
 20
0.0
 40
3.000000000000004
 50
180.0
 51
270.0000000000007
 73
     1
 72
     1
 10
0.0000000000000104
 20
-3.000000000000004
 11
0.0000000000000104
 21
0.0
 72
     1
 10
0.0000000000000104
 20
0.0
 11
-2.999999999999994
 21
0.0
 97
        0
 75
     0
 76
     1
 98
        1
 10
0.0
 20
0.0
  0
ENDBLK
  5
115
330
113
100
AcDbEntity
  8
0
100
AcDbBlockEnd
  0
BLOCK
  5
1EC
330
1EB
100
AcDbEntity
  8
0
100
AcDbBlockBegin
  2
*D8
 70
     1
 10
0.0
 20
0.0
 30
0.0
  3
*D8
  1
*D9
  0
LINE
  5
1ED
330
1EB
100
AcDbEntity
  8
치수문자_일반주서
 62
     0
370
    -2
100
AcDbLine
 10
167.692194548813
 20
16.56106698324611
 30
0.0
 11
180.454384643042
 21
0.0000000000002345
 31
0.0
  0
MTEXT
  5
1EE
330
1EB
100
AcDbEntity
  8
치수문자_일반주서
 62
     0
100
AcDbMText
 10
179.7296120645533
 20
5.240979753058904
 30
0.0
 40
3.5
 41
0.0
 71
     5
 72
     1
  1
\A1;R0.5
  7
SLDTEXTSTYLE0
 11
0.610398876170673
 21
-0.7920941938744278
 31
0.0
 73
     1
 44
1.0
  0
SOLID
  5
1EF
330
1EB
100
AcDbEntity
  8
치수문자_일반주서
 62
     0
100
AcDbTrace
 10
168.1281103868419
 20
16.89698983143204
 30
0.0
 11
167.2562787107841
 21
16.22514413506018
 31
0.0
 12
165.6766574596974
 22
19.17656201141947
 32
0.0
 13
165.6766574596974
 23
19.17656201141947
 33
0.0
  0
LINE
  5
1F0
330
1EB
100
AcDbEntity
  8
치수문자_일반주서
 62
     0
100
AcDbLine
 10
165.2814580216121
 20
19.57260910835669
 30
0.0
 11
165.4614580216121
 21
19.57260910835669
 31
0.0
  0
LINE
  5
1F1
330
1EB
100
AcDbEntity
  8
치수문자_일반주서
 62
     0
100
AcDbLine
 10
165.3714580216121
 20
19.48260910835669
 30
0.0
 11
165.3714580216121
 21
19.66260910835669
 31
0.0
  0
POINT
  5
1F2
330
1EB
100
AcDbEntity
  8
Defpoints
 62
     0
100
AcDbPoint
 10
165.6766574596974
 20
19.17656201141947
 30
0.0
  0
POINT
  5
1F3
330
1EB
100
AcDbEntity
  8
Defpoints
 62
     0
100
AcDbPoint
 10
165.3714580216121
 20
19.57260910835669
 30
0.0
  0
ENDBLK
  5
1F4
330
1EB
100
AcDbEntity
  8
0
100
AcDbBlockEnd
  0
BLOCK
  5
1F8
330
1F7
100
AcDbEntity
  8
0
100
AcDbBlockBegin
  2
*D9
 70
     1
 10
0.0
 20
0.0
 30
0.0
  3
*D9
  1
*D10
  0
LINE
  5
1FA
330
1F7
100
AcDbEntity
  8
치수문자_일반주서
 62
     0
370
    -2
100
AcDbLine
 10
16.80895802161209
 20
35.04874374189041
 30
0.0
 11
4.374999999999987
 21
35.04874374189036
 31
0.0
  0
LINE
  5
1FB
330
1F7
100
AcDbEntity
  8
치수문자_일반주서
 62
     0
370
    -2
100
AcDbLine
 10
16.80895802161209
 20
19.04874374189042
 30
0.0
 11
4.375000000000043
 21
19.04874374189038
 31
0.0
  0
LINE
  5
1FC
330
1F7
100
AcDbEntity
  8
치수문자_일반주서
 62
     0
370
    -2
100
AcDbLine
 10
4.374999999999998
 20
31.74674374189036
 30
0.0
 11
4.375000000000031
 21
22.35074374189038
 31
0.0
  0
SOLID
  5
1FD
330
1F7
100
AcDbEntity
  8
치수문자_일반주서
 62
     0
100
AcDbTrace
 10
4.925333333333332
 20
31.74674374189037
 30
0.0
 11
3.824666666666665
 21
31.74674374189036
 31
0.0
 12
4.374999999999987
 22
35.04874374189036
 32
0.0
 13
4.374999999999987
 23
35.04874374189036
 33
0.0
  0
SOLID
  5
1FE
330
1F7
100
AcDbEntity
  8
치수문자_일반주서
 62
     0
100
AcDbTrace
 10
3.824666666666698
 20
22.35074374189037
 30
0.0
 11
4.925333333333365
 21
22.35074374189038
 31
0.0
 12
4.375000000000043
 22
19.04874374189038
 32
0.0
 13
4.375000000000043
 23
19.04874374189038
 33
0.0
  0
MTEXT
  5
1FF
330
1F7
100
AcDbEntity
  8
치수문자_일반주서
 62
     0
100
AcDbMText
 10
0.0000000000000142
 20
27.0487437418904
 30
0.0
 40
3.5
 41
0.0
 71
     2
 72
     1
  1
\A1;%%c16
  7
SLDTEXTSTYLE0
 11
-3.497202527569245E-15
 21
1.0
 31
0.0
 73
     1
 44
1.0
  0
POINT
  5
200
330
1F7
100
AcDbEntity
  8
Defpoints
 62
     0
100
AcDbPoint
 10
16.87145802161209
 20
35.04874374189041
 30
0.0
  0
POINT
  5
201
330
1F7
100
AcDbEntity
  8
Defpoints
 62
     0
100
AcDbPoint
 10
16.87145802161209
 20
19.04874374189042
 30
0.0
  0
POINT
  5
202
330
1F7
100
AcDbEntity
  8
Defpoints
 62
     0
100
AcDbPoint
 10
4.375000000000043
 20
19.04874374189037
 30
0.0
  0
ENDBLK
  5
1F9
330
1F7
100
AcDbEntity
  8
0
100
AcDbBlockEnd
  0
BLOCK
  5
204
330
203
100
AcDbEntity
  8
0
100
AcDbBlockBegin
  2
*D10
 70
     1
 10
0.0
 20
0.0
 30
0.0
  3
*D10
  1
*D11
  0
LINE
  5
206
330
203
100
AcDbEntity
  8
치수문자_일반주서
 62
     0
370
    -2
100
AcDbLine
 10
165.8714580216121
 20
34.61124374189042
 30
0.0
 11
165.8714580216121
 21
53.04874374189006
 31
0.0
  0
LINE
  5
207
330
203
100
AcDbEntity
  8
치수문자_일반주서
 62
     0
370
    -2
100
AcDbLine
 10
130.8714580216121
 20
34.76611619985466
 30
0.0
 11
130.8714580216121
 21
53.04874374189006
 31
0.0
  0
LINE
  5
208
330
203
100
AcDbEntity
  8
치수문자_일반주서
 62
     0
370
    -2
100
AcDbLine
 10
162.5694580216121
 20
53.04874374189006
 30
0.0
 11
134.173458021612
 21
53.04874374189006
 31
0.0
  0
SOLID
  5
209
330
203
100
AcDbEntity
  8
치수문자_일반주서
 62
     0
100
AcDbTrace
 10
162.5694580216121
 20
52.49841040855673
 30
0.0
 11
162.5694580216121
 21
53.5990770752234
 31
0.0
 12
165.8714580216121
 22
53.04874374189006
 32
0.0
 13
165.8714580216121
 23
53.04874374189006
 33
0.0
  0
SOLID
  5
20A
330
203
100
AcDbEntity
  8
치수문자_일반주서
 62
     0
100
AcDbTrace
 10
134.173458021612
 20
53.5990770752234
 30
0.0
 11
134.173458021612
 21
52.49841040855673
 31
0.0
 12
130.8714580216121
 22
53.04874374189006
 32
0.0
 13
130.8714580216121
 23
53.04874374189006
 33
0.0
  0
MTEXT
  5
20B
330
203
100
AcDbEntity
  8
치수문자_일반주서
 62
     0
100
AcDbMText
 10
148.3714580216121
 20
57.42374374189006
 30
0.0
 40
3.5
 41
0.0
 71
     2
 72
     1
  1
\A1;35
  7
SLDTEXTSTYLE0
 73
     1
 44
1.0
  0
POINT
  5
20C
330
203
100
AcDbEntity
  8
Defpoints
 62
     0
100
AcDbPoint
 10
165.8714580216121
 20
34.54874374189042
 30
0.0
  0
POINT
  5
20D
330
203
100
AcDbEntity
  8
Defpoints
 62
     0
100
AcDbPoint
 10
130.8714580216121
 20
34.70361619985466
 30
0.0
  0
POINT
  5
20E
330
203
100
AcDbEntity
  8
Defpoints
 62
     0
100
AcDbPoint
 10
130.8714580216121
 20
53.04874374189006
 30
0.0
  0
ENDBLK
  5
205
330
203
100
AcDbEntity
  8
0
100
AcDbBlockEnd
  0
BLOCK
  5
210
330
20F
100
AcDbEntity
  8
0
100
AcDbBlockBegin
  2
*D11
 70
     1
 10
0.0
 20
0.0
 30
0.0
  3
*D11
  1
*D12
  0
LINE
  5
212
330
20F
100
AcDbEntity
  8
치수문자_일반주서
 62
     0
370
    -2
100
AcDbLine
 10
165.8714580216121
 20
34.61124374189042
 30
0.0
 11
165.8714580216121
 21
75.1070682469347
 31
0.0
  0
LINE
  5
213
330
20F
100
AcDbEntity
  8
치수문자_일반주서
 62
     0
370
    -2
100
AcDbLine
 10
15.87145802161209
 20
34.11124374189041
 30
0.0
 11
15.87145802161209
 21
75.1070682469347
 31
0.0
  0
LINE
  5
214
330
20F
100
AcDbEntity
  8
치수문자_일반주서
 62
     0
370
    -2
100
AcDbLine
 10
162.5694580216121
 20
75.1070682469347
 30
0.0
 11
19.17345802161208
 21
75.1070682469347
 31
0.0
  0
SOLID
  5
215
330
20F
100
AcDbEntity
  8
치수문자_일반주서
 62
     0
100
AcDbTrace
 10
162.5694580216121
 20
74.55673491360137
 30
0.0
 11
162.5694580216121
 21
75.65740158026803
 31
0.0
 12
165.8714580216121
 22
75.1070682469347
 32
0.0
 13
165.8714580216121
 23
75.1070682469347
 33
0.0
  0
SOLID
  5
216
330
20F
100
AcDbEntity
  8
치수문자_일반주서
 62
     0
100
AcDbTrace
 10
19.17345802161208
 20
75.65740158026803
 30
0.0
 11
19.17345802161208
 21
74.55673491360137
 31
0.0
 12
15.87145802161209
 22
75.1070682469347
 32
0.0
 13
15.87145802161209
 23
75.1070682469347
 33
0.0
  0
MTEXT
  5
217
330
20F
100
AcDbEntity
  8
치수문자_일반주서
 62
     0
100
AcDbMText
 10
90.87145802161209
 20
79.4820682469347
 30
0.0
 40
3.5
 41
0.0
 71
     2
 72
     1
  1
\A1;150
  7
SLDTEXTSTYLE0
 73
     1
 44
1.0
  0
POINT
  5
218
330
20F
100
AcDbEntity
  8
Defpoints
 62
     0
100
AcDbPoint
 10
165.8714580216121
 20
34.54874374189042
 30
0.0
  0
POINT
  5
219
330
20F
100
AcDbEntity
  8
Defpoints
 62
     0
100
AcDbPoint
 10
15.87145802161209
 20
34.04874374189041
 30
0.0
  0
POINT
  5
21A
330
20F
100
AcDbEntity
  8
Defpoints
 62
     0
100
AcDbPoint
 10
15.87145802161209
 20
75.1070682469347
 30
0.0
  0
ENDBLK
  5
211
330
20F
100
AcDbEntity
  8
0
100
AcDbBlockEnd
  0
BLOCK
  5
21C
330
21B
100
AcDbEntity
  8
0
100
AcDbBlockBegin
  2
*D12
 70
     1
 10
0.0
 20
0.0
 30
0.0
  3
*D12
  1
*D13
  0
LINE
  5
21E
330
21B
100
AcDbEntity
  8
치수문자_일반주서
 62
     0
370
    -2
100
AcDbLine
 10
165.8714580216121
 20
34.59971501743837
 30
0.0
 11
165.8714580216121
 21
61.74374374188908
 31
0.0
  0
LINE
  5
21F
330
21B
100
AcDbEntity
  8
치수문자_일반주서
 62
     0
370
    -2
100
AcDbLine
 10
115.8714580216121
 20
34.96124374189042
 30
0.0
 11
115.8714580216121
 21
61.74374374188908
 31
0.0
  0
LINE
  5
220
330
21B
100
AcDbEntity
  8
치수문자_일반주서
 62
     0
370
    -2
100
AcDbLine
 10
162.5694580216121
 20
61.74374374188908
 30
0.0
 11
119.1734580216121
 21
61.74374374188908
 31
0.0
  0
SOLID
  5
221
330
21B
100
AcDbEntity
  8
치수문자_일반주서
 62
     0
100
AcDbTrace
 10
162.5694580216121
 20
61.19341040855574
 30
0.0
 11
162.5694580216121
 21
62.29407707522241
 31
0.0
 12
165.8714580216121
 22
61.74374374188908
 32
0.0
 13
165.8714580216121
 23
61.74374374188908
 33
0.0
  0
SOLID
  5
222
330
21B
100
AcDbEntity
  8
치수문자_일반주서
 62
     0
100
AcDbTrace
 10
119.1734580216121
 20
62.29407707522241
 30
0.0
 11
119.1734580216121
 21
61.19341040855574
 31
0.0
 12
115.8714580216121
 22
61.74374374188908
 32
0.0
 13
115.8714580216121
 23
61.74374374188908
 33
0.0
  0
MTEXT
  5
223
330
21B
100
AcDbEntity
  8
치수문자_일반주서
 62
     0
100
AcDbMText
 10
140.8714580216121
 20
66.11874374188908
 30
0.0
 40
3.5
 41
0.0
 71
     2
 72
     1
  1
\A1;50
  7
SLDTEXTSTYLE0
 73
     1
 44
1.0
  0
POINT
  5
224
330
21B
100
AcDbEntity
  8
Defpoints
 62
     0
100
AcDbPoint
 10
165.8714580216121
 20
34.53721501743837
 30
0.0
  0
POINT
  5
225
330
21B
100
AcDbEntity
  8
Defpoints
 62
     0
100
AcDbPoint
 10
115.8714580216121
 20
34.89874374189042
 30
0.0
  0
POINT
  5
226
330
21B
100
AcDbEntity
  8
Defpoints
 62
     0
100
AcDbPoint
 10
115.8714580216121
 20
61.74374374188908
 30
0.0
  0
ENDBLK
  5
21D
330
21B
100
AcDbEntity
  8
0
100
AcDbBlockEnd
  0
BLOCK
  5
228
330
227
100
AcDbEntity
  8
0
100
AcDbBlockBegin
  2
*D13
 70
     1
 10
0.0
 20
0.0
 30
0.0
  3
*D13
  1
*D14
  0
LINE
  5
22A
330
227
100
AcDbEntity
  8
치수문자_일반주서
 62
     0
370
    -2
100
AcDbLine
 10
165.9339580216121
 20
35.07179623437297
 30
0.0
 11
182.4598849133846
 21
35.07179623437303
 31
0.0
  0
LINE
  5
22B
330
227
100
AcDbEntity
  8
치수문자_일반주서
 62
     0
370
    -2
100
AcDbLine
 10
165.4339580216121
 20
19.07260910835668
 30
0.0
 11
182.4598849133847
 21
19.07260910835674
 31
0.0
  0
LINE
  5
22C
330
227
100
AcDbEntity
  8
치수문자_일반주서
 62
     0
370
    -2
100
AcDbLine
 10
182.4598849133846
 20
31.76979623437303
 30
0.0
 11
182.4598849133847
 21
22.37460910835674
 31
0.0
  0
SOLID
  5
22D
330
227
100
AcDbEntity
  8
치수문자_일반주서
 62
     0
100
AcDbTrace
 10
183.0102182467179
 20
31.76979623437304
 30
0.0
 11
181.9095515800513
 21
31.76979623437303
 31
0.0
 12
182.4598849133846
 22
35.07179623437303
 32
0.0
 13
182.4598849133846
 23
35.07179623437303
 33
0.0
  0
SOLID
  5
22E
330
227
100
AcDbEntity
  8
치수문자_일반주서
 62
     0
100
AcDbTrace
 10
181.9095515800513
 20
22.37460910835674
 30
0.0
 11
183.010218246718
 21
22.37460910835675
 31
0.0
 12
182.4598849133847
 22
19.07260910835674
 32
0.0
 13
182.4598849133847
 23
19.07260910835674
 33
0.0
  0
MTEXT
  5
22F
330
227
100
AcDbEntity
  8
치수문자_일반주서
 62
     0
100
AcDbMText
 10
178.0848849133846
 20
27.04874374189047
 30
0.0
 40
3.5
 41
0.0
 71
     2
 72
     1
  1
\A1;%%c16
  7
SLDTEXTSTYLE0
 11
-3.552894182253477E-15
 21
1.0
 31
0.0
 73
     1
 44
1.0
  0
POINT
  5
230
330
227
100
AcDbEntity
  8
Defpoints
 62
     0
100
AcDbPoint
 10
165.8714580216121
 20
35.07179623437297
 30
0.0
  0
POINT
  5
231
330
227
100
AcDbEntity
  8
Defpoints
 62
     0
100
AcDbPoint
 10
165.3714580216121
 20
19.07260910835668
 30
0.0
  0
POINT
  5
232
330
227
100
AcDbEntity
  8
Defpoints
 62
     0
100
AcDbPoint
 10
182.4598849133847
 20
19.07260910835674
 30
0.0
  0
ENDBLK
  5
229
330
227
100
AcDbEntity
  8
0
100
AcDbBlockEnd
  0
BLOCK
  5
275
330
274
100
AcDbEntity
  8
0
100
AcDbBlockBegin
  2
*D14
 70
     1
 10
0.0
 20
0.0
 30
0.0
  3
*D14
  1
*D15
  0
LINE
  5
277
330
274
100
AcDbEntity
  8
치수문자_일반주서
 62
     0
370
    -2
100
AcDbLine
 10
-98.9125
 20
7.999999999999986
 30
0.0
 11
-111.3464580216121
 21
7.99999999999994
 31
0.0
  0
LINE
  5
278
330
274
100
AcDbEntity
  8
치수문자_일반주서
 62
     0
370
    -2
100
AcDbLine
 10
-98.9125
 20
-8.0
 30
0.0
 11
-111.346458021612
 21
-8.000000000000046
 31
0.0
  0
LINE
  5
279
330
274
100
AcDbEntity
  8
치수문자_일반주서
 62
     0
370
    -2
100
AcDbLine
 10
-111.346458021612
 20
4.69799999999994
 30
0.0
 11
-111.346458021612
 21
-4.698000000000047
 31
0.0
  0
SOLID
  5
27A
330
274
100
AcDbEntity
  8
치수문자_일반주서
 62
     0
100
AcDbTrace
 10
-110.7961246882787
 20
4.697999999999942
 30
0.0
 11
-111.8967913549454
 21
4.697999999999938
 31
0.0
 12
-111.3464580216121
 22
7.99999999999994
 32
0.0
 13
-111.3464580216121
 23
7.99999999999994
 33
0.0
  0
SOLID
  5
27B
330
274
100
AcDbEntity
  8
치수문자_일반주서
 62
     0
100
AcDbTrace
 10
-111.8967913549453
 20
-4.698000000000048
 30
0.0
 11
-110.7961246882787
 21
-4.698000000000045
 31
0.0
 12
-111.346458021612
 22
-8.000000000000046
 32
0.0
 13
-111.346458021612
 23
-8.000000000000046
 33
0.0
  0
MTEXT
  5
27C
330
274
100
AcDbEntity
  8
치수문자_일반주서
 62
     0
100
AcDbMText
 10
-115.721458021612
 20
-0.0000000000000154
 30
0.0
 40
3.5
 41
0.0
 71
     2
 72
     1
  1
\A1;%%c16
  7
SLDTEXTSTYLE0
 11
-3.552713678800504E-15
 21
1.0
 31
0.0
 73
     1
 44
1.0
  0
POINT
  5
27D
330
274
100
AcDbEntity
  8
Defpoints
 62
     0
100
AcDbPoint
 10
-98.85
 20
7.999999999999986
 30
0.0
  0
POINT
  5
27E
330
274
100
AcDbEntity
  8
Defpoints
 62
     0
100
AcDbPoint
 10
-98.85
 20
-8.0
 30
0.0
  0
POINT
  5
27F
330
274
100
AcDbEntity
  8
Defpoints
 62
     0
100
AcDbPoint
 10
-111.346458021612
 20
-8.000000000000046
 30
0.0
  0
ENDBLK
  5
276
330
274
100
AcDbEntity
  8
0
100
AcDbBlockEnd
  0
BLOCK
  5
281
330
280
100
AcDbEntity
  8
0
100
AcDbBlockBegin
  2
*D15
 70
     1
 10
0.0
 20
0.0
 30
0.0
  3
*D15
  1
*D16
  0
LINE
  5
283
330
280
100
AcDbEntity
  8
치수문자_일반주서
 62
     0
370
    -2
100
AcDbLine
 10
50.15000000000003
 20
7.5625
 30
0.0
 11
50.15000000000002
 21
25.99999999999964
 31
0.0
  0
LINE
  5
284
330
280
100
AcDbEntity
  8
치수문자_일반주서
 62
     0
370
    -2
100
AcDbLine
 10
15.14999999999997
 20
7.717372457964238
 30
0.0
 11
15.14999999999996
 21
25.99999999999964
 31
0.0
  0
LINE
  5
285
330
280
100
AcDbEntity
  8
치수문자_일반주서
 62
     0
370
    -2
100
AcDbLine
 10
46.84800000000002
 20
25.99999999999964
 30
0.0
 11
18.45199999999996
 21
25.99999999999964
 31
0.0
  0
SOLID
  5
286
330
280
100
AcDbEntity
  8
치수문자_일반주서
 62
     0
100
AcDbTrace
 10
46.84800000000002
 20
25.44966666666631
 30
0.0
 11
46.84800000000002
 21
26.55033333333298
 31
0.0
 12
50.15000000000002
 22
25.99999999999964
 32
0.0
 13
50.15000000000002
 23
25.99999999999964
 33
0.0
  0
SOLID
  5
287
330
280
100
AcDbEntity
  8
치수문자_일반주서
 62
     0
100
AcDbTrace
 10
18.45199999999996
 20
26.55033333333298
 30
0.0
 11
18.45199999999996
 21
25.44966666666631
 31
0.0
 12
15.14999999999996
 22
25.99999999999964
 32
0.0
 13
15.14999999999996
 23
25.99999999999964
 33
0.0
  0
MTEXT
  5
288
330
280
100
AcDbEntity
  8
치수문자_일반주서
 62
     0
100
AcDbMText
 10
32.65000000000003
 20
30.37499999999964
 30
0.0
 40
3.5
 41
0.0
 71
     2
 72
     1
  1
\A1;35
  7
SLDTEXTSTYLE0
 73
     1
 44
1.0
  0
POINT
  5
289
330
280
100
AcDbEntity
  8
Defpoints
 62
     0
100
AcDbPoint
 10
50.15000000000003
 20
7.5
 30
0.0
  0
POINT
  5
28A
330
280
100
AcDbEntity
  8
Defpoints
 62
     0
100
AcDbPoint
 10
15.14999999999997
 20
7.654872457964238
 30
0.0
  0
POINT
  5
28B
330
280
100
AcDbEntity
  8
Defpoints
 62
     0
100
AcDbPoint
 10
15.14999999999997
 20
25.99999999999964
 30
0.0
  0
ENDBLK
  5
282
330
280
100
AcDbEntity
  8
0
100
AcDbBlockEnd
  0
BLOCK
  5
28D
330
28C
100
AcDbEntity
  8
0
100
AcDbBlockBegin
  2
*D16
 70
     1
 10
0.0
 20
0.0
 30
0.0
  3
*D16
  1
*D17
  0
LINE
  5
28F
330
28C
100
AcDbEntity
  8
치수문자_일반주서
 62
     0
370
    -2
100
AcDbLine
 10
50.15000000000003
 20
7.5625
 30
0.0
 11
50.15000000000003
 21
48.05832450504428
 31
0.0
  0
LINE
  5
290
330
28C
100
AcDbEntity
  8
치수문자_일반주서
 62
     0
370
    -2
100
AcDbLine
 10
-99.85
 20
7.062499999999986
 30
0.0
 11
-99.85
 21
48.05832450504428
 31
0.0
  0
LINE
  5
291
330
28C
100
AcDbEntity
  8
치수문자_일반주서
 62
     0
370
    -2
100
AcDbLine
 10
46.84800000000003
 20
48.05832450504428
 30
0.0
 11
-96.54799999999999
 21
48.05832450504428
 31
0.0
  0
SOLID
  5
292
330
28C
100
AcDbEntity
  8
치수문자_일반주서
 62
     0
100
AcDbTrace
 10
46.84800000000003
 20
47.50799117171095
 30
0.0
 11
46.84800000000003
 21
48.60865783837762
 31
0.0
 12
50.15000000000003
 22
48.05832450504428
 32
0.0
 13
50.15000000000003
 23
48.05832450504428
 33
0.0
  0
SOLID
  5
293
330
28C
100
AcDbEntity
  8
치수문자_일반주서
 62
     0
100
AcDbTrace
 10
-96.54799999999999
 20
48.60865783837762
 30
0.0
 11
-96.54799999999999
 21
47.50799117171095
 31
0.0
 12
-99.85
 22
48.05832450504428
 32
0.0
 13
-99.85
 23
48.05832450504428
 33
0.0
  0
MTEXT
  5
294
330
28C
100
AcDbEntity
  8
치수문자_일반주서
 62
     0
100
AcDbMText
 10
-24.84999999999997
 20
52.43332450504428
 30
0.0
 40
3.5
 41
0.0
 71
     2
 72
     1
  1
\A1;150
  7
SLDTEXTSTYLE0
 73
     1
 44
1.0
  0
POINT
  5
295
330
28C
100
AcDbEntity
  8
Defpoints
 62
     0
100
AcDbPoint
 10
50.15000000000003
 20
7.5
 30
0.0
  0
POINT
  5
296
330
28C
100
AcDbEntity
  8
Defpoints
 62
     0
100
AcDbPoint
 10
-99.85
 20
6.999999999999986
 30
0.0
  0
POINT
  5
297
330
28C
100
AcDbEntity
  8
Defpoints
 62
     0
100
AcDbPoint
 10
-99.85
 20
48.05832450504428
 30
0.0
  0
ENDBLK
  5
28E
330
28C
100
AcDbEntity
  8
0
100
AcDbBlockEnd
  0
BLOCK
  5
299
330
298
100
AcDbEntity
  8
0
100
AcDbBlockBegin
  2
*D17
 70
     1
 10
0.0
 20
0.0
 30
0.0
  3
*D17
  1
*D18
  0
LINE
  5
29B
330
298
100
AcDbEntity
  8
치수문자_일반주서
 62
     0
370
    -2
100
AcDbLine
 10
50.15000000000003
 20
7.550971275547951
 30
0.0
 11
50.15000000000003
 21
34.69499999999866
 31
0.0
  0
LINE
  5
29C
330
298
100
AcDbEntity
  8
치수문자_일반주서
 62
     0
370
    -2
100
AcDbLine
 10
0.1499999999999977
 20
7.912500000000001
 30
0.0
 11
0.1499999999999986
 21
34.69499999999866
 31
0.0
  0
LINE
  5
29D
330
298
100
AcDbEntity
  8
치수문자_일반주서
 62
     0
370
    -2
100
AcDbLine
 10
46.84800000000003
 20
34.69499999999866
 30
0.0
 11
3.451999999999999
 21
34.69499999999866
 31
0.0
  0
SOLID
  5
29E
330
298
100
AcDbEntity
  8
치수문자_일반주서
 62
     0
100
AcDbTrace
 10
46.84800000000003
 20
34.14466666666532
 30
0.0
 11
46.84800000000003
 21
35.24533333333199
 31
0.0
 12
50.15000000000003
 22
34.69499999999866
 32
0.0
 13
50.15000000000003
 23
34.69499999999866
 33
0.0
  0
SOLID
  5
29F
330
298
100
AcDbEntity
  8
치수문자_일반주서
 62
     0
100
AcDbTrace
 10
3.451999999999999
 20
35.24533333333199
 30
0.0
 11
3.451999999999999
 21
34.14466666666532
 31
0.0
 12
0.1499999999999986
 22
34.69499999999866
 32
0.0
 13
0.1499999999999986
 23
34.69499999999866
 33
0.0
  0
MTEXT
  5
2A0
330
298
100
AcDbEntity
  8
치수문자_일반주서
 62
     0
100
AcDbMText
 10
25.15000000000003
 20
39.06999999999866
 30
0.0
 40
3.5
 41
0.0
 71
     2
 72
     1
  1
\A1;50
  7
SLDTEXTSTYLE0
 73
     1
 44
1.0
  0
POINT
  5
2A1
330
298
100
AcDbEntity
  8
Defpoints
 62
     0
100
AcDbPoint
 10
50.15000000000003
 20
7.488471275547951
 30
0.0
  0
POINT
  5
2A2
330
298
100
AcDbEntity
  8
Defpoints
 62
     0
100
AcDbPoint
 10
0.1499999999999977
 20
7.850000000000001
 30
0.0
  0
POINT
  5
2A3
330
298
100
AcDbEntity
  8
Defpoints
 62
     0
100
AcDbPoint
 10
0.1499999999999977
 20
34.69499999999866
 30
0.0
  0
ENDBLK
  5
29A
330
298
100
AcDbEntity
  8
0
100
AcDbBlockEnd
  0
BLOCK
  5
2A5
330
2A4
100
AcDbEntity
  8
0
100
AcDbBlockBegin
  2
*D18
 70
     1
 10
0.0
 20
0.0
 30
0.0
  3
*D18
  1
*D19
  0
LINE
  5
2A7
330
2A4
100
AcDbEntity
  8
치수문자_일반주서
 62
     0
370
    -2
100
AcDbLine
 10
50.21250000000003
 20
8.023052492482549
 30
0.0
 11
66.73842689177253
 21
8.023052492482611
 31
0.0
  0
LINE
  5
2A8
330
2A4
100
AcDbEntity
  8
치수문자_일반주서
 62
     0
370
    -2
100
AcDbLine
 10
49.71250000000003
 20
-7.976134633533746
 30
0.0
 11
66.73842689177259
 21
-7.976134633533682
 31
0.0
  0
LINE
  5
2A9
330
2A4
100
AcDbEntity
  8
치수문자_일반주서
 62
     0
370
    -2
100
AcDbLine
 10
66.73842689177255
 20
4.721052492482611
 30
0.0
 11
66.73842689177258
 21
-4.674134633533683
 31
0.0
  0
SOLID
  5
2AA
330
2A4
100
AcDbEntity
  8
치수문자_일반주서
 62
     0
100
AcDbTrace
 10
67.28876022510588
 20
4.721052492482613
 30
0.0
 11
66.18809355843922
 21
4.72105249248261
 31
0.0
 12
66.73842689177253
 22
8.023052492482611
 32
0.0
 13
66.73842689177253
 23
8.023052492482611
 33
0.0
  0
SOLID
  5
2AB
330
2A4
100
AcDbEntity
  8
치수문자_일반주서
 62
     0
100
AcDbTrace
 10
66.18809355843925
 20
-4.674134633533685
 30
0.0
 11
67.2887602251059
 21
-4.674134633533681
 31
0.0
 12
66.73842689177259
 22
-7.976134633533682
 32
0.0
 13
66.73842689177259
 23
-7.976134633533682
 33
0.0
  0
MTEXT
  5
2AC
330
2A4
100
AcDbEntity
  8
치수문자_일반주서
 62
     0
100
AcDbMText
 10
62.36342689177256
 20
0.0000000000000485
 30
0.0
 40
3.5
 41
0.0
 71
     2
 72
     1
  1
\A1;%%c16
  7
SLDTEXTSTYLE0
 11
-3.552894182253477E-15
 21
1.0
 31
0.0
 73
     1
 44
1.0
  0
POINT
  5
2AD
330
2A4
100
AcDbEntity
  8
Defpoints
 62
     0
100
AcDbPoint
 10
50.15000000000003
 20
8.023052492482549
 30
0.0
  0
POINT
  5
2AE
330
2A4
100
AcDbEntity
  8
Defpoints
 62
     0
100
AcDbPoint
 10
49.65000000000003
 20
-7.976134633533746
 30
0.0
  0
POINT
  5
2AF
330
2A4
100
AcDbEntity
  8
Defpoints
 62
     0
100
AcDbPoint
 10
66.73842689177259
 20
-7.976134633533682
 30
0.0
  0
ENDBLK
  5
2A6
330
2A4
100
AcDbEntity
  8
0
100
AcDbBlockEnd
  0
BLOCK
  5
2B1
330
2B0
100
AcDbEntity
  8
0
100
AcDbBlockBegin
  2
*D19
 70
     1
 10
0.0
 20
0.0
 30
0.0
  3
*D19
  1
*D20
  0
LINE
  5
2B3
330
2B0
100
AcDbEntity
  8
치수문자_일반주서
 62
     0
370
    -2
100
AcDbLine
 10
54.38054414833608
 20
-10.48767675864442
 30
0.0
 11
67.1427342425642
 21
-27.04874374189101
 31
0.0
  0
MTEXT
  5
2B4
330
2B0
100
AcDbEntity
  8
치수문자_일반주서
 62
     0
100
AcDbMText
 10
66.41796166407583
 20
-21.8077639888323
 30
0.0
 40
3.5
 41
0.0
 71
     5
 72
     1
  1
\A1;R0.5
  7
SLDTEXTSTYLE0
 11
0.6103988761706304
 21
-0.7920941938744606
 31
0.0
 73
     1
 44
1.0
  0
SOLID
  5
2B5
330
2B0
100
AcDbEntity
  8
치수문자_일반주서
 62
     0
100
AcDbTrace
 10
54.81645998636499
 20
-10.15175391045852
 30
0.0
 11
53.94462831030717
 21
-10.82359960683033
 31
0.0
 12
52.36500705922066
 22
-7.872181730470956
 32
0.0
 13
52.36500705922066
 23
-7.872181730470956
 33
0.0
  0
LINE
  5
2B6
330
2B0
100
AcDbEntity
  8
치수문자_일반주서
 62
     0
100
AcDbLine
 10
51.96980762113535
 20
-7.476134633533732
 30
0.0
 11
52.14980762113535
 21
-7.476134633533732
 31
0.0
  0
LINE
  5
2B7
330
2B0
100
AcDbEntity
  8
치수문자_일반주서
 62
     0
100
AcDbLine
 10
52.05980762113535
 20
-7.566134633533732
 30
0.0
 11
52.05980762113535
 21
-7.386134633533732
 31
0.0
  0
POINT
  5
2B8
330
2B0
100
AcDbEntity
  8
Defpoints
 62
     0
100
AcDbPoint
 10
52.36500705922066
 20
-7.872181730470956
 30
0.0
  0
POINT
  5
2B9
330
2B0
100
AcDbEntity
  8
Defpoints
 62
     0
100
AcDbPoint
 10
52.05980762113535
 20
-7.476134633533732
 30
0.0
  0
ENDBLK
  5
2B2
330
2B0
100
AcDbEntity
  8
0
100
AcDbBlockEnd
  0
BLOCK
  5
2C4
330
2C3
100
AcDbEntity
  8
0
100
AcDbBlockBegin
  2
*D20
 70
     1
 10
0.0
 20
0.0
 30
0.0
  3
*D20
  1
*D21
  0
LINE
  5
2C6
330
2C3
100
AcDbEntity
  8
치수문자_일반주서
 62
     0
370
    -2
100
AcDbLine
 10
51.64323310260658
 20
-10.48159414857592
 30
0.0
 11
62.59245191637799
 21
-25.88718499355123
 31
0.0
  0
MTEXT
  5
2C7
330
2C3
100
AcDbEntity
  8
치수문자_일반주서
 62
     0
100
AcDbMText
 10
63.21138587309755
 20
-22.22683381405773
 30
0.0
 40
3.5
 41
0.0
 71
     5
 72
     1
  1
\A1;R1
  7
SLDTEXTSTYLE0
 11
0.5793175662426551
 21
-0.8151019307072502
 31
0.0
 73
     1
 44
1.0
  0
SOLID
  5
2C8
330
2C3
100
AcDbEntity
  8
치수문자_일반주서
 62
     0
100
AcDbTrace
 10
52.09181086513914
 20
-10.16277638128704
 30
0.0
 11
51.19465534007402
 21
-10.80041191586479
 31
0.0
 12
49.73032649887333
 22
-7.790127573380578
 32
0.0
 13
49.73032649887333
 23
-7.790127573380578
 33
0.0
  0
LINE
  5
2C9
330
2C3
100
AcDbEntity
  8
치수문자_일반주서
 62
     0
100
AcDbLine
 10
49.06239783030728
 20
-6.97697982677498
 30
0.0
 11
49.24239783030729
 21
-6.97697982677498
 31
0.0
  0
LINE
  5
2CA
330
2C3
100
AcDbEntity
  8
치수문자_일반주서
 62
     0
100
AcDbLine
 10
49.15239783030729
 20
-7.06697982677498
 30
0.0
 11
49.15239783030729
 21
-6.88697982677498
 31
0.0
  0
POINT
  5
2CB
330
2C3
100
AcDbEntity
  8
Defpoints
 62
     0
100
AcDbPoint
 10
49.73032649887333
 20
-7.790127573380578
 30
0.0
  0
POINT
  5
2CC
330
2C3
100
AcDbEntity
  8
Defpoints
 62
     0
100
AcDbPoint
 10
49.15239783030729
 20
-6.97697982677498
 30
0.0
  0
ENDBLK
  5
2C5
330
2C3
100
AcDbEntity
  8
0
100
AcDbBlockEnd
  0
ENDSEC
  0
SECTION
  2
ENTITIES
  0
INSERT
  5
D0
330
1F
100
AcDbEntity
  8
0
  6
Continuous
 62
     7
100
AcDbBlockReference
 66
     1
  2
블럭10
 10
-22.93944368806589
 20
-52.04609937292004
 30
0.0
  0
ATTRIB
  5
D1
330
D0
100
AcDbEntity
  8
FORMAT
 62
     2
100
AcDbText
 10
-43.79769121965843
 20
-49.97073246008785
 30
0.0
 40
4.233333333333333
  1
SEME6116010150E [ 2 FLUTE ]
 41
0.75
  7
SLDTEXTSTYLE0
 11
-43.79769121965843
 21
-52.08739912675452
 31
0.0
100
AcDbAttribute
  2
AUTOATTR0
 70
     0
 74
     1
  0
SEQEND
  5
D2
330
D0
100
AcDbEntity
  8
0
  6
Continuous
 62
     7
  0
HATCH
  5
D3
330
1F
100
AcDbEntity
  8
중심선
100
AcDbHatch
 10
0.0
 20
0.0
 30
0.0
210
0.0
220
0.0
230
1.0
  2
SOLID
 70
     1
 71
     0
 91
        1
 92
        0
 93
        4
 72
     1
 10
-17.22453438368504
 20
-35.7989250712761
 11
-20.67080962752232
 21
-35.7989250712761
 72
     1
 10
-20.67080962752232
 20
-35.7989250712761
 11
-22.79903948672635
 21
-38.3352506518487
 72
     1
 10
-22.79903948672635
 20
-38.3352506518487
 11
-19.35273115777591
 21
-38.33521122254621
 72
     1
 10
-19.35273115777591
 20
-38.33521122254621
 11
-17.22453438368504
 21
-35.7989250712761
 97
        0
 75
     0
 76
     1
 98
        1
 10
0.0
 20
0.0
  0
HATCH
  5
D4
330
1F
100
AcDbEntity
  8
중심선
100
AcDbHatch
 10
0.0
 20
0.0
 30
0.0
210
0.0
220
0.0
230
1.0
  2
SOLID
 70
     1
 71
     0
 91
        1
 92
        0
 93
        4
 72
     1
 10
-12.21177039264909
 20
-35.7989250712761
 11
-15.65804563648637
 21
-35.7989250712761
 72
     1
 10
-15.65804563648637
 20
-35.7989250712761
 11
-20.18918364484376
 21
-41.19892507127612
 72
     1
 10
-20.18918364484376
 20
-41.19892507127612
 11
-16.74290840100648
 21
-41.19892507127612
 72
     1
 10
-16.74290840100648
 20
-41.19892507127612
 11
-12.21177039264909
 21
-35.7989250712761
 97
        0
 75
     0
 76
     1
 98
        1
 10
0.0
 20
0.0
  0
HATCH
  5
D5
330
1F
100
AcDbEntity
  8
중심선
100
AcDbHatch
 10
0.0
 20
0.0
 30
0.0
210
0.0
220
0.0
230
1.0
  2
SOLID
 70
     1
 71
     0
 91
        1
 92
        0
 93
        4
 72
     1
 10
-7.199006401613195
 20
-35.79892507127613
 11
-10.64528164545031
 21
-35.7989250712761
 72
     1
 10
-10.64528164545031
 20
-35.7989250712761
 11
-17.69371854733956
 21
-44.19892507127612
 72
     1
 10
-17.69371854733956
 20
-44.19892507127612
 11
-14.24744330350228
 21
-44.19892507127612
 72
     1
 10
-14.24744330350228
 20
-44.19892507127612
 11
-7.199006401613195
 21
-35.79892507127613
 97
        0
 75
     0
 76
     1
 98
        1
 10
0.0
 20
0.0
  0
HATCH
  5
D6
330
1F
100
AcDbEntity
  8
중심선
100
AcDbHatch
 10
0.0
 20
0.0
 30
0.0
210
0.0
220
0.0
230
1.0
  2
SOLID
 70
     1
 71
     0
 91
        1
 92
        0
 93
        6
 72
     3
 10
-2.399115970600996
 20
-39.99892507132738
 11
3.960054785062284
 21
1.540850780301639E-10
 40
0.3939339440162633
 50
17.09539180608433
 51
320.0019657685079
 73
     0
 72
     1
 10
-0.7161163149004002
 20
-38.58681907591441
 11
1.589185558800638
 21
-36.65249236586649
 72
     3
 10
-2.399115970653842
 20
-39.99892507127625
 11
6.600054785286829
 21
-1.249000902703301E-13
 40
0.6363583540795982
 50
39.99873849337408
 51
368.4976242363724
 73
     1
 72
     1
 10
4.026216521246767
 20
-39.03892507120613
 11
-3.71904866381792
 21
-39.0389250712061
 72
     1
 10
-3.71904866381792
 20
-39.0389250712061
 11
-3.719073708263854
 21
-40.95892507120602
 72
     1
 10
-3.719073708263854
 20
-40.95892507120602
 11
0.7223060612081835
 21
-40.95892507120599
 97
        0
 75
     0
 76
     1
 98
        1
 10
0.0
 20
0.0
  0
LINE
  5
234
330
1F
100
AcDbEntity
  8
0
  6
Continuous
 62
     4
370
    25
100
AcDbLine
 10
-0.0000000000000004
 20
8.0
 30
0.0
 11
-98.85
 21
7.999999999999993
 31
0.0
  0
LINE
  5
235
330
1F
100
AcDbEntity
  8
0
  6
Continuous
 62
     4
370
    25
100
AcDbLine
 10
-98.85
 20
-8.0
 30
0.0
 11
0.0000000000000067
 21
-8.0
 31
0.0
1001
PE_URL
1000

  0
LINE
  5
238
330
1F
100
AcDbEntity
  8
0
  6
Continuous
 62
     4
370
    25
100
AcDbLine
 10
-98.85
 20
7.999999999999986
 30
0.0
 11
-99.85
 21
6.999999999999993
 31
0.0
  0
LINE
  5
239
330
1F
100
AcDbEntity
  8
0
  6
Continuous
 62
     4
370
    25
100
AcDbLine
 10
-99.85
 20
-7.0
 30
0.0
 11
-98.85
 21
-8.0
 31
0.0
  0
LINE
  5
23A
330
1F
100
AcDbEntity
  8
0
  6
Continuous
 62
     4
370
    25
100
AcDbLine
 10
12.09998273416022
 20
7.850000000000001
 30
0.0
 11
0.1499999999999977
 21
7.850000000000001
 31
0.0
  0
LINE
  5
23B
330
1F
100
AcDbEntity
  8
0
  6
Continuous
 62
     4
370
    25
100
AcDbLine
 10
0.1499999999999977
 20
-7.850000000000009
 30
0.0
 11
12.09998273416022
 21
-7.850000000000009
 31
0.0
  0
SPLINE
  5
23C
330
1F
100
AcDbEntity
  8
0
  6
Continuous
 62
     4
370
    25
100
AcDbSpline
210
0.0
220
0.0
230
1.0
 70
     8
 71
     3
 72
     9
 73
     5
 74
     0
 42
0.000000001
 43
0.00000001
 40
0.0
 40
0.0
 40
0.0
 40
0.0
 40
0.4988080734081353
 40
1.0
 40
1.0
 40
1.0
 40
1.0
 10
14.5921713827476
 20
-6.672243414265765
 30
0.0
 10
14.68515462368037
 20
-6.662310980124047
 30
0.0
 10
14.87156548166319
 20
-6.642398643754134
 30
0.0
 10
15.05704111166403
 20
-6.62210000418122
 30
0.0
 10
15.14999999999997
 20
-6.61192648990648
 30
0.0
  0
SPLINE
  5
23D
330
1F
100
AcDbEntity
  8
0
  6
Continuous
 62
     1
370
    25
100
AcDbSpline
210
0.0
220
0.0
230
1.0
 70
     8
 71
     3
 72
     9
 73
     5
 74
     0
 42
0.000000001
 43
0.00000001
 40
0.0
 40
0.0
 40
0.0
 40
0.0
 40
0.5251651274780796
 40
1.0
 40
1.0
 40
1.0
 40
1.0
 10
29.42330261539376
 20
2.049986706068182
 30
0.0
 10
29.03512169080511
 20
2.235406595266568
 30
0.0
 10
28.29596194032285
 20
2.588476286106101
 30
0.0
 10
27.55632798205647
 20
2.975969807692707
 30
0.0
 10
27.20512398577022
 20
3.159965244618348
 30
0.0
  0
SPLINE
  5
23E
330
1F
100
AcDbEntity
  8
0
  6
Continuous
 62
     1
370
    25
100
AcDbSpline
210
0.0
220
0.0
230
1.0
 70
     8
 71
     3
 72
    15
 73
    11
 74
     0
 42
0.000000001
 43
0.00000001
 40
0.0
 40
0.0
 40
0.0
 40
0.0
 40
0.1363779886903609
 40
0.2375206850696127
 40
0.3099685382253313
 40
0.3850644529259089
 40
0.4672847013603399
 40
0.6410215595410617
 40
0.8223769348137668
 40
1.0
 40
1.0
 40
1.0
 40
1.0
 10
26.77877154707266
 20
6.357100618279539
 30
0.0
 10
26.48165803431339
 20
6.342192911125956
 30
0.0
 10
25.96419472684192
 20
6.316229125841105
 30
0.0
 10
25.28958407514471
 20
6.290946667112451
 30
0.0
 10
24.74620959750194
 20
6.274360417474512
 30
0.0
 10
24.24031649430486
 20
6.262409741476297
 30
0.0
 10
23.50749590397322
 20
6.250182913786475
 30
0.0
 10
22.54233901258356
 20
6.244994183641374
 30
0.0
 10
21.37471959460708
 20
6.255201765732444
 30
0.0
 10
20.58686970899117
 20
6.278579162890964
 30
0.0
 10
20.19704041614892
 20
6.290146333705081
 30
0.0
  0
SPLINE
  5
23F
330
1F
100
AcDbEntity
  8
0
  6
Continuous
 62
     1
370
    25
100
AcDbSpline
210
0.0
220
0.0
230
1.0
 70
     8
 71
     3
 72
    25
 73
    21
 74
     0
 42
0.000000001
 43
0.00000001
 40
0.0
 40
0.0
 40
0.0
 40
0.0
 40
0.0732154655526986
 40
0.1327433365919865
 40
0.1829388849223777
 40
0.2161937002903647
 40
0.2418533252143877
 40
0.2671519001226464
 40
0.292118735912871
 40
0.3170167352659894
 40
0.3422051682607003
 40
0.4138788894273148
 40
0.5000329856969098
 40
0.6179712088204133
 40
0.7201414408740381
 40
0.7645729379204734
 40
0.8092343571912357
 40
0.8520549344011872
 40
0.9157580493278578
 40
1.0
 40
1.0
 40
1.0
 40
1.0
 10
47.178191262185
 20
5.471646593124326
 30
0.0
 10
46.83106172420235
 20
5.443465177974126
 30
0.0
 10
46.20169834102091
 20
5.392370849082248
 30
0.0
 10
45.33948343629492
 20
5.340653900626322
 30
0.0
 10
44.66891519221155
 20
5.309130036503326
 30
0.0
 10
44.1716452975441
 20
5.29203491790539
 30
0.0
 10
43.79774388300165
 20
5.281806996053078
 30
0.0
 10
43.45107891511497
 20
5.274113267338016
 30
0.0
 10
43.10321367063295
 20
5.2685816852456
 30
0.0
 10
42.75247618036439
 20
5.265239017682305
 30
0.0
 10
42.18499816845546
 20
5.263487639955756
 30
0.0
 10
41.33192074950841
 20
5.271565719538188
 30
0.0
 10
40.0464557520388
 20
5.309582382827507
 30
0.0
 10
38.61708092799904
 20
5.389392104629778
 30
0.0
 10
37.38075620414531
 20
5.491653191774979
 30
0.0
 10
36.49335060169875
 20
5.581089134949778
 30
0.0
 10
35.88630683689711
 20
5.648379272335632
 30
0.0
 10
35.1835114069288
 20
5.733184700801189
 30
0.0
 10
34.29171293024234
 20
5.850614255779156
 30
0.0
 10
33.5978840429729
 20
5.956673781477157
 30
0.0
 10
33.20280835281937
 20
6.017065530914678
 30
0.0
  0
SPLINE
  5
240
330
1F
100
AcDbEntity
  8
0
  6
Continuous
 62
     1
370
    25
100
AcDbSpline
210
0.0
220
0.0
230
1.0
 70
     8
 71
     3
 72
    14
 73
    10
 74
     0
 42
0.000000001
 43
0.00000001
 40
0.0
 40
0.0
 40
0.0
 40
0.0
 40
0.1962774807402986
 40
0.3447010014844732
 40
0.4444697621975866
 40
0.6001865828422054
 40
0.764339054108462
 40
0.9566546364201856
 40
1.0
 40
1.0
 40
1.0
 40
1.0
 10
33.20280835281937
 20
-6.017065530914678
 30
0.0
 10
33.59786836832836
 20
-5.956678851913878
 30
0.0
 10
34.29166972790773
 20
-5.850628230877859
 30
0.0
 10
35.18361971852219
 20
-5.733149664148115
 30
0.0
 10
35.98905254790673
 20
-5.636046455903923
 30
0.0
 10
36.81812732779712
 20
-5.545721646931455
 30
0.0
 10
37.8423746093108
 20
-5.452786711637856
 30
0.0
 10
38.64533693230669
 20
-5.389237016815215
 30
0.0
 10
39.11711557305272
 20
-5.365539038080428
 30
0.0
 10
39.20389031052547
 20
-5.36118024413399
 30
0.0
  0
SPLINE
  5
241
330
1F
100
AcDbEntity
  8
0
  6
Continuous
 62
     1
370
    25
100
AcDbSpline
210
0.0
220
0.0
230
1.0
 70
     8
 71
     3
 72
    19
 73
    15
 74
     0
 42
0.000000001
 43
0.00000001
 40
0.0
 40
0.0
 40
0.0
 40
0.0
 40
0.1161084368084952
 40
0.2044327287780091
 40
0.2718451657998116
 40
0.3420006354121133
 40
0.4429279235265687
 40
0.5243962304190701
 40
0.62852436561695
 40
0.7280193950585951
 40
0.765439994668619
 40
0.8213201812556769
 40
0.8994862522114929
 40
1.0
 40
1.0
 40
1.0
 40
1.0
 10
15.14999999999997
 20
-6.61192648990648
 30
0.0
 10
15.60471792601867
 20
-6.572643058563415
 30
0.0
 10
16.40534214416743
 20
-6.503476516613759
 30
0.0
 10
17.47157665160625
 20
-6.425880331524581
 30
0.0
 10
18.34409508160933
 20
-6.371539043007132
 30
0.0
 10
19.26641612563389
 20
-6.323723844192372
 30
0.0
 10
20.24238931378579
 20
-6.285318584594663
 30
0.0
 10
21.34995025212884
 20
-6.257209211872706
 30
0.0
 10
22.45246421598972
 20
-6.244913075084085
 30
0.0
 10
23.38401323593046
 20
-6.249172739017482
 30
0.0
 10
24.12918135324815
 20
-6.26038704982362
 30
0.0
 10
24.7916001311355
 20
-6.275190528434933
 30
0.0
 10
25.69798765655599
 20
-6.303937929466443
 30
0.0
 10
26.38967361500232
 20
-6.337961276490702
 30
0.0
 10
26.77877154707266
 20
-6.357100618279532
 30
0.0
  0
LINE
  5
243
330
1F
100
AcDbEntity
  8
0
  6
Continuous
 62
     4
370
    25
100
AcDbLine
 10
-98.85
 20
7.999999999999986
 30
0.0
 11
-98.85
 21
-8.0
 31
0.0
  0
LINE
  5
244
330
1F
100
AcDbEntity
  8
0
  6
Continuous
 62
     4
370
    25
100
AcDbLine
 10
0.1499999999999977
 20
7.850000000000001
 30
0.0
 11
0.1499999999999977
 21
-7.850000000000009
 31
0.0
1001
PE_URL
1000

  0
LINE
  5
245
330
1F
100
AcDbEntity
  8
0
  6
Continuous
 62
     4
370
    25
100
AcDbLine
 10
-99.85
 20
6.999999999999986
 30
0.0
 11
-99.85
 21
-7.0
 31
0.0
  0
SPLINE
  5
246
330
1F
100
AcDbEntity
  8
0
  6
Continuous
 62
     4
370
    25
100
AcDbSpline
210
0.0
220
0.0
230
1.0
 70
     8
 71
     3
 72
    10
 73
     6
 74
     0
 42
0.000000001
 43
0.00000001
 40
0.0
 40
0.0
 40
0.0
 40
0.0
 40
0.5
 40
0.5
 40
1.0
 40
1.0
 40
1.0
 40
1.0
 10
15.14999999999997
 20
7.529349498681157
 30
0.0
 10
14.64222818442692
 20
7.610804099722053
 30
0.0
 10
14.135758056084
 20
7.677008474782845
 30
0.0
 10
13.11648012272593
 20
7.778389845051642
 30
0.0
 10
12.60622358793659
 20
7.813419491837344
 30
0.0
 10
12.09996468656078
 20
7.832575017576573
 30
0.0
  0
LINE
  5
247
330
1F
100
AcDbEntity
  8
0
  6
Continuous
 62
     4
370
    25
100
AcDbLine
 10
15.14999999999997
 20
6.715181527006585
 30
0.0
 11
15.14999999999997
 21
6.611523775009474
 31
0.0
  0
SPLINE
  5
248
330
1F
100
AcDbEntity
  8
0
  6
Continuous
 62
     4
370
    25
100
AcDbSpline
210
0.0
220
0.0
230
1.0
 70
     8
 71
     3
 72
    10
 73
     6
 74
     0
 42
0.000000001
 43
0.00000001
 40
0.0
 40
0.0
 40
0.0
 40
0.0
 40
0.5
 40
0.5
 40
1.0
 40
1.0
 40
1.0
 40
1.0
 10
15.14999999999997
 20
6.611523775009474
 30
0.0
 10
14.6422312013488
 20
6.766754955622851
 30
0.0
 10
14.13576410470267
 20
6.908523944033121
 30
0.0
 10
13.11649224220064
 20
7.164150160410031
 30
0.0
 10
12.60623872235157
 20
7.277735642694921
 30
0.0
 10
12.09998273416022
 20
7.376161055986501
 30
0.0
  0
SPLINE
  5
249
330
1F
100
AcDbEntity
  8
0
  6
Continuous
 62
     4
370
    25
100
AcDbSpline
210
0.0
220
0.0
230
1.0
 70
     8
 71
     3
 72
    10
 73
     6
 74
     0
 42
0.000000001
 43
0.00000001
 40
0.0
 40
0.0
 40
0.0
 40
0.0
 40
0.5
 40
0.5
 40
1.0
 40
1.0
 40
1.0
 40
1.0
 10
15.14999999999997
 20
-7.529349498681157
 30
0.0
 10
14.64222818442692
 20
-7.610804099722046
 30
0.0
 10
14.135758056084
 20
-7.677008474782838
 30
0.0
 10
13.11648012272593
 20
-7.778389845051635
 30
0.0
 10
12.60622358793659
 20
-7.813419491837337
 30
0.0
 10
12.09996468656078
 20
-7.832575017576573
 30
0.0
  0
LINE
  5
24A
330
1F
100
AcDbEntity
  8
0
  6
Continuous
 62
     4
370
    25
100
AcDbLine
 10
12.09998273416022
 20
7.832599285755208
 30
0.0
 11
12.09998273416022
 21
7.850000000000001
 31
0.0
  0
LINE
  5
24B
330
1F
100
AcDbEntity
  8
0
  6
Continuous
 62
     4
370
    25
100
AcDbLine
 10
12.09998273416022
 20
-7.850000000000009
 30
0.0
 11
12.09998273416022
 21
7.376180221805249
 31
0.0
  0
SPLINE
  5
24C
330
1F
100
AcDbEntity
  8
0
  6
Continuous
 62
     4
370
    25
100
AcDbSpline
210
0.0
220
0.0
230
1.0
 70
    24
 71
     3
 72
    14
 73
    10
 74
     0
 42
0.000000001
 43
0.00000001
 40
0.0
 40
0.0
 40
0.0
 40
0.0
 40
0.25
 40
0.25
 40
0.5
 40
0.5
 40
0.75
 40
0.75
 40
1.0
 40
1.0
 40
1.0
 40
1.0
 10
15.14999999999997
 20
4.571541647192603
 30
0.0
 10
15.14999999999997
 20
4.048454951901057
 30
0.0
 10
15.15000000000003
 20
3.449964526396158
 30
0.0
 10
15.14999999999997
 20
2.13986553009687
 30
0.0
 10
15.15000000000003
 20
1.428673884704295
 30
0.0
 10
15.14999999999997
 20
-0.0407773131627209
 30
0.0
 10
15.14999999999997
 20
-0.7982538806038093
 30
0.0
 10
15.14999999999997
 20
-2.284713384865313
 30
0.0
 10
15.15000000000003
 20
-3.013031688434523
 30
0.0
 10
15.14999999999997
 20
-3.696397711260957
 30
0.0
  0
SPLINE
  5
24D
330
1F
100
AcDbEntity
  8
0
  6
Continuous
 62
     4
370
    25
100
AcDbSpline
210
0.0
220
0.0
230
1.0
 70
     8
 71
     3
 72
    10
 73
     6
 74
     0
 42
0.000000001
 43
0.00000001
 40
0.0
 40
0.0
 40
0.0
 40
0.0
 40
0.5
 40
0.5
 40
1.0
 40
1.0
 40
1.0
 40
1.0
 10
15.14999999999997
 20
-3.696397711260957
 30
0.0
 10
14.64223009893174
 20
-3.504758812694192
 30
0.0
 10
14.13576189446962
 20
-3.305829954026947
 30
0.0
 10
13.11648781360867
 20
-2.894585559045424
 30
0.0
 10
12.60623319206649
 20
-2.682591616871449
 30
0.0
 10
12.09997613936462
 20
-2.466183775697814
 30
0.0
  0
SPLINE
  5
24E
330
1F
100
AcDbEntity
  8
0
  6
Continuous
 62
     4
370
    25
100
AcDbSpline
210
0.0
220
0.0
230
1.0
 70
     8
 71
     3
 72
    10
 73
     6
 74
     0
 42
0.000000001
 43
0.00000001
 40
0.0
 40
0.0
 40
0.0
 40
0.0
 40
0.5
 40
0.5
 40
1.0
 40
1.0
 40
1.0
 40
1.0
 10
15.14999999999997
 20
4.571541647192603
 30
0.0
 10
14.64223047394494
 20
4.690177365321063
 30
0.0
 10
14.13576264633263
 20
4.799495015241213
 30
0.0
 10
13.11648932009887
 20
4.998740613664303
 30
0.0
 10
12.60623507332365
 20
5.088461443490701
 30
0.0
 10
12.09997838274014
 20
5.167534938607545
 30
0.0
  0
LINE
  5
24F
330
1F
100
AcDbEntity
  8
0
  6
Continuous
 62
     4
370
    25
100
AcDbLine
 10
14.59517028647508
 20
-6.647622310334825
 30
0.0
 11
12.09996468656078
 21
-6.799301514049986
 31
0.0
  0
SPLINE
  5
250
330
1F
100
AcDbEntity
  8
0
  6
Continuous
 62
     4
370
    25
100
AcDbSpline
210
0.0
220
0.0
230
1.0
 70
    24
 71
     3
 72
    13
 73
     9
 74
     0
 42
0.000000001
 43
0.00000001
 40
0.0
 40
0.0
 40
0.0
 40
0.0
 40
0.1403504369649545
 40
0.2825283242696593
 40
0.4891269409367215
 40
0.701716931483113
 40
0.8882823822176241
 40
1.0
 40
1.0
 40
1.0
 40
1.0
 10
15.14999999999997
 20
-3.696397711260957
 30
0.0
 10
15.14999999999997
 20
-3.935581406068692
 30
0.0
 10
15.15000000000003
 20
-4.417063116763558
 30
0.0
 10
15.14999999999997
 20
-5.128904293915724
 30
0.0
 10
15.14999999999997
 20
-5.803996188777646
 30
0.0
 10
15.15000000000003
 20
-6.300970172832407
 30
0.0
 10
15.14999999999997
 20
-6.564720567268452
 30
0.0
 10
15.14999999999997
 20
-6.581062259325023
 30
0.0
 10
15.14999999999997
 20
-6.587182804202641
 30
0.0
  0
SPLINE
  5
251
330
1F
100
AcDbEntity
  8
0
  6
Continuous
 62
     4
370
    25
100
AcDbSpline
210
0.0
220
0.0
230
1.0
 70
    24
 71
     3
 72
    10
 73
     6
 74
     0
 42
0.000000001
 43
0.00000001
 40
0.0
 40
0.0
 40
0.0
 40
0.0
 40
0.5
 40
0.5
 40
1.0
 40
1.0
 40
1.0
 40
1.0
 10
15.14999999999997
 20
6.611523775009459
 30
0.0
 10
15.15000000000003
 20
6.344883352597442
 30
0.0
 10
15.15000000000003
 20
6.019684074043269
 30
0.0
 10
15.15000000000003
 20
5.31512910341219
 30
0.0
 10
15.15000000000003
 20
4.937438002604971
 30
0.0
 10
15.14999999999997
 20
4.571541647192603
 30
0.0
  0
SPLINE
  5
252
330
1F
100
AcDbEntity
  8
0
  6
Continuous
 62
     4
370
    25
100
AcDbSpline
210
0.0
220
0.0
230
1.0
 70
    24
 71
     3
 72
    11
 73
     7
 74
     0
 42
0.000000001
 43
0.00000001
 40
0.0
 40
0.0
 40
0.0
 40
0.0
 40
0.4459871014986248
 40
0.7166309667810672
 40
0.9876060303860645
 40
1.0
 40
1.0
 40
1.0
 40
1.0
 10
15.14999999999997
 20
-6.685415457747411
 30
0.0
 10
15.14999999999997
 20
-6.815541712501954
 30
0.0
 10
15.14999999999997
 20
-7.024634090812896
 30
0.0
 10
15.15000000000003
 20
-7.299453310094478
 30
0.0
 10
15.14999999999991
 20
-7.450166234733388
 30
0.0
 10
15.14999999999997
 20
-7.52603131838849
 30
0.0
 10
15.14999999999997
 20
-7.529349498681171
 30
0.0
  0
SPLINE
  5
253
330
1F
100
AcDbEntity
  8
0
  6
Continuous
 62
     1
370
    25
100
AcDbSpline
210
0.0
220
0.0
230
1.0
 70
     8
 71
     3
 72
    14
 73
    10
 74
     0
 42
0.000000001
 43
0.00000001
 40
0.0
 40
0.0
 40
0.0
 40
0.0
 40
0.1525534796531132
 40
0.3051673387993267
 40
0.4578117991096184
 40
0.6104569240325189
 40
0.7630727735766418
 40
0.9156295591314179
 40
0.9999999999999999
 40
0.9999999999999999
 40
0.9999999999999999
 40
0.9999999999999999
 10
50.15000000000003
 20
-6.311778114945724
 30
0.0
 10
49.09347812163537
 20
-6.086863458378787
 30
0.0
 10
46.98001620167821
 20
-5.636945125754934
 30
0.0
 10
43.80914198729374
 20
-4.580072614935787
 30
0.0
 10
40.63755684965951
 20
-3.308314449328506
 30
0.0
 10
37.4659567124537
 20
-1.856358487031173
 30
0.0
 10
34.29503255571097
 20
-0.3145321260651457
 30
0.0
 10
31.59721856833129
 20
1.028221472811452
 30
0.0
 10
29.95633962210166
 20
1.790037392152293
 30
0.0
 10
29.37201808930325
 20
2.061322148850707
 30
0.0
  0
SPLINE
  5
254
330
1F
100
AcDbEntity
  8
0
  6
Continuous
 62
     1
370
    25
100
AcDbSpline
210
0.0
220
0.0
230
1.0
 70
    24
 71
     3
 72
     8
 73
     4
 74
     0
 42
0.000000001
 43
0.00000001
 40
0.1031042472244673
 40
0.1031042472244673
 40
0.1031042472244673
 40
0.1031042472244673
 40
1.0
 40
1.0
 40
1.0
 40
1.0
 10
50.15000000000004
 20
-6.976134377377956
 30
0.0
 10
50.15000000000004
 20
-6.754133628865601
 30
0.0
 10
50.15000000000004
 20
-6.5323006510955
 30
0.0
 10
50.15000000000003
 20
-6.311778114945724
 30
0.0
  0
SPLINE
  5
255
330
1F
100
AcDbEntity
  8
0
  6
Continuous
 62
     1
370
    25
100
AcDbSpline
210
0.0
220
0.0
230
1.0
 70
     8
 71
     3
 72
    12
 73
     8
 74
     0
 42
0.000000001
 43
0.00000001
 40
0.2531229460840866
 40
0.2531229460840866
 40
0.2531229460840866
 40
0.2531229460840866
 40
0.5
 40
0.5
 40
0.75
 40
0.75
 40
1.0
 40
1.0
 40
1.0
 40
1.0
 10
50.11047428000682
 20
-7.254503377191242
 30
0.0
 10
50.08455441608289
 20
-7.315579609791525
 30
0.0
 10
50.04522093629415
 20
-7.370231703397723
 30
0.0
 10
49.94839563971464
 20
-7.452911251733099
 30
0.0
 10
49.89052665122159
 20
-7.481033250873409
 30
0.0
 10
49.77088053180091
 20
-7.508024597747934
 30
0.0
 10
49.70968739867885
 20
-7.507422727070932
 30
0.0
 10
49.65000000000009
 20
-7.495373581295127
 30
0.0
  0
SPLINE
  5
256
330
1F
100
AcDbEntity
  8
0
  6
Continuous
 62
     1
370
    25
100
AcDbSpline
210
0.0
220
0.0
230
1.0
 70
     8
 71
     3
 72
    56
 73
    52
 74
     0
 42
0.000000001
 43
0.00000001
 40
0.0
 40
0.0
 40
0.0
 40
0.0
 40
0.0625000000000005
 40
0.0625000000000005
 40
0.1250000000000009
 40
0.1250000000000009
 40
0.1562500000000012
 40
0.1562500000000012
 40
0.1875000000000014
 40
0.1875000000000014
 40
0.2500000000000019
 40
0.2500000000000019
 40
0.2812500000000023
 40
0.2812500000000023
 40
0.3125000000000028
 40
0.3125000000000028
 40
0.3750000000000037
 40
0.3750000000000037
 40
0.4375000000000046
 40
0.4375000000000046
 40
0.468750000000005
 40
0.468750000000005
 40
0.5000000000000054
 40
0.5000000000000054
 40
0.5312500000000054
 40
0.5312500000000054
 40
0.5625000000000052
 40
0.5625000000000052
 40
0.593750000000005
 40
0.593750000000005
 40
0.6250000000000049
 40
0.6250000000000049
 40
0.6875000000000043
 40
0.6875000000000043
 40
0.7187500000000039
 40
0.7187500000000039
 40
0.7500000000000034
 40
0.7500000000000034
 40
0.781250000000003
 40
0.781250000000003
 40
0.8125000000000026
 40
0.8125000000000026
 40
0.8437500000000021
 40
0.8437500000000021
 40
0.8750000000000017
 40
0.8750000000000017
 40
0.9062500000000013
 40
0.9062500000000013
 40
0.937500000000001
 40
0.937500000000001
 40
1.0
 40
1.0
 40
1.0
 40
1.0
 10
49.65000000000003
 20
-7.495373581294729
 30
0.0
 10
48.93164183362955
 20
-7.350358009206744
 30
0.0
 10
48.20807940261454
 20
-7.17457685706411
 30
0.0
 10
46.77665772953048
 20
-6.768042839930516
 30
0.0
 10
46.05422129908976
 20
-6.535943376634506
 30
0.0
 10
44.97583381594597
 20
-6.150200816536866
 30
0.0
 10
44.61876357409494
 20
-6.015583470192936
 30
0.0
 10
43.90065960754725
 20
-5.734010506517805
 30
0.0
 10
43.54022776341599
 20
-5.587111382325261
 30
0.0
 10
42.45969397610548
 20
-5.130021572051547
 30
0.0
 10
41.74521417644234
 20
-4.804192379233413
 30
0.0
 10
40.66522680497519
 20
-4.287143677369258
 30
0.0
 10
40.30462868471568
 20
-4.110187172113484
 30
0.0
 10
39.58550034808672
 20
-3.748676552349721
 30
0.0
 10
39.22832216367368
 20
-3.56436352557067
 30
0.0
 10
38.15156939341642
 20
-3.000325411189394
 30
0.0
 10
37.42790875884713
 20
-2.609597495761804
 30
0.0
 10
35.99505995441427
 20
-1.812886620184145
 30
0.0
 10
35.27416369966647
 20
-1.404768245315594
 30
0.0
 10
34.19518815725905
 20
-0.7869911335023971
 30
0.0
 10
33.83785382371121
 20
-0.5805088549673059
 30
0.0
 10
33.12030199820827
 20
-0.1662396698768589
 30
0.0
 10
32.75999229281205
 20
0.0415666402581323
 30
0.0
 10
32.03956916895128
 20
0.4566385779471887
 30
0.0
 10
31.67945905029983
 20
0.6639023047879604
 30
0.0
 10
30.96269956228275
 20
1.076012360894865
 30
0.0
 10
30.60474525251652
 20
1.281111269031527
 30
0.0
 10
29.88501173817417
 20
1.689036444002838
 30
0.0
 10
29.52438725732468
 20
1.891639895026955
 30
0.0
 10
28.80489620648091
 20
2.292290710019401
 30
0.0
 10
28.44735752782185
 20
2.490097279517585
 30
0.0
 10
27.37147664514674
 20
3.076003434022141
 30
0.0
 10
26.64777766369405
 20
3.456879042228174
 30
0.0
 10
25.57215754591078
 20
4.003291297681997
 30
0.0
 10
25.21448284101324
 20
4.181438807361197
 30
0.0
 10
24.49490041079735
 20
4.529633887298843
 30
0.0
 10
24.13427384988756
 20
4.699461531437677
 30
0.0
 10
23.41462345739387
 20
5.029034616798853
 30
0.0
 10
23.05683225151295
 20
5.188604371230127
 30
0.0
 10
22.33989076228044
 20
5.497187672982619
 30
0.0
 10
21.97973271039864
 20
5.646331617616042
 30
0.0
 10
21.25930129771802
 20
5.932917591912187
 30
0.0
 10
20.89903123699741
 20
6.070358301491822
 30
0.0
 10
20.18164508500717
 20
6.332340026964829
 30
0.0
 10
19.82420181209687
 20
6.456941039343889
 30
0.0
 10
19.10478515315435
 20
6.693386441798303
 30
0.0
 10
18.74416391269977
 20
6.805061150782088
 30
0.0
 10
18.0243688703332
 20
7.014293770811747
 30
0.0
 10
17.66627697225294
 20
7.111762107331813
 30
0.0
 10
16.59135514868586
 20
7.382481707360846
 30
0.0
 10
15.86767768765338
 20
7.534367169889222
 30
0.0
 10
15.14999999999997
 20
7.654872457964238
 30
0.0
  0
SPLINE
  5
257
330
1F
100
AcDbEntity
  8
0
  6
Continuous
 62
     1
370
    25
100
AcDbSpline
210
0.0
220
0.0
230
1.0
 70
     8
 71
     3
 72
    56
 73
    52
 74
     0
 42
0.000000001
 43
0.00000001
 40
0.0094063505210983
 40
0.0094063505210983
 40
0.0094063505210983
 40
0.0094063505210983
 40
0.0625000000000009
 40
0.0625000000000009
 40
0.1250000000000017
 40
0.1250000000000017
 40
0.156250000000002
 40
0.156250000000002
 40
0.1875000000000022
 40
0.1875000000000022
 40
0.2500000000000022
 40
0.2500000000000022
 40
0.2812500000000019
 40
0.2812500000000019
 40
0.3125000000000017
 40
0.3125000000000017
 40
0.3750000000000012
 40
0.3750000000000012
 40
0.4375000000000008
 40
0.4375000000000008
 40
0.4687500000000006
 40
0.4687500000000006
 40
0.5000000000000003
 40
0.5000000000000003
 40
0.5312500000000001
 40
0.5312500000000001
 40
0.5625000000000001
 40
0.5625000000000001
 40
0.5937500000000001
 40
0.5937500000000001
 40
0.6250000000000001
 40
0.6250000000000001
 40
0.6875000000000003
 40
0.6875000000000003
 40
0.7187500000000003
 40
0.7187500000000003
 40
0.7500000000000002
 40
0.7500000000000002
 40
0.7812500000000002
 40
0.7812500000000002
 40
0.8125000000000002
 40
0.8125000000000002
 40
0.8437500000000002
 40
0.8437500000000002
 40
0.8750000000000002
 40
0.8750000000000002
 40
0.9062500000000002
 40
0.9062500000000002
 40
0.9375000000000002
 40
0.9375000000000002
 40
1.0
 40
1.0
 40
1.0
 40
1.0
 10
49.32534868760934
 20
-7.959476037820478
 30
0.0
 10
48.71402505880741
 20
-7.924001182104425
 30
0.0
 10
48.10036377061027
 20
-7.865249817519826
 30
0.0
 10
46.77665772953042
 20
-7.688370396741249
 30
0.0
 10
46.05422129908976
 20
-7.560949148492071
 30
0.0
 10
44.97583381594597
 20
-7.325138003667703
 30
0.0
 10
44.61876357409488
 20
-7.239254277018219
 30
0.0
 10
43.90065960754719
 20
-7.052765382261299
 30
0.0
 10
43.54022776341594
 20
-6.952185431931738
 30
0.0
 10
42.45969397610542
 20
-6.629741543164201
 30
0.0
 10
41.74521417644227
 20
-6.387742051107111
 30
0.0
 10
40.66522680497519
 20
-5.986683477857625
 30
0.0
 10
40.30462868471568
 20
-5.846731714788135
 30
0.0
 10
39.58550034808666
 20
-5.555581597576776
 30
0.0
 10
39.22832216367368
 20
-5.404586527940879
 30
0.0
 10
38.15156939341636
 20
-4.935005900213227
 30
0.0
 10
37.42790875884708
 20
-4.599825477636116
 30
0.0
 10
35.99505995441427
 20
-3.897386774926005
 30
0.0
 10
35.27416369966641
 20
-3.528265817072153
 30
0.0
 10
34.19518815725899
 20
-2.955857927756526
 30
0.0
 10
33.83785382371121
 20
-2.762296046710773
 30
0.0
 10
33.12030199820827
 20
-2.369485261421431
 30
0.0
 10
32.75999229281205
 20
-2.170210512090009
 30
0.0
 10
32.03956916895128
 20
-1.767711291141595
 30
0.0
 10
31.67945905029983
 20
-1.564488667631508
 30
0.0
 10
30.96269956228275
 20
-1.155956525931174
 30
0.0
 10
30.60474525251652
 20
-0.9504021207995521
 30
0.0
 10
29.88501173817417
 20
-0.5370592185059451
 30
0.0
 10
29.52438725732463
 20
-0.3294909164236657
 30
0.0
 10
28.80489620648091
 20
0.0855549996505545
 30
0.0
 10
28.44735752782185
 20
0.2927761210033566
 30
0.0
 10
27.37147664514668
 20
0.9135571949313857
 30
0.0
 10
26.647777663694
 20
1.326613383999756
 30
0.0
 10
25.57215754591078
 20
1.933817973054602
 30
0.0
 10
25.21448284101324
 20
2.134315604884542
 30
0.0
 10
24.49490041079735
 20
2.53138591987485
 30
0.0
 10
24.13427384988756
 20
2.72771540070768
 30
0.0
 10
23.41462345739387
 20
3.114180417272649
 30
0.0
 10
23.05683225151295
 20
3.304102380483798
 30
0.0
 10
22.33989076228044
 20
3.677157456961922
 30
0.0
 10
21.97973271039864
 20
3.860456252623464
 30
0.0
 10
21.25930129771802
 20
4.218897855959511
 30
0.0
 10
20.89903123699741
 20
4.394039016604161
 30
0.0
 10
20.18164508500717
 20
4.734610586201455
 30
0.0
 10
19.82420181209687
 20
4.900107763963085
 30
0.0
 10
19.10478515315435
 20
5.221576483685809
 30
0.0
 10
18.74416391269977
 20
5.377329799817055
 30
0.0
 10
18.0243688703332
 20
5.677454969903863
 30
0.0
 10
17.66627697225288
 20
5.821688324524466
 30
0.0
 10
16.59135514868586
 20
6.236480466780222
 30
0.0
 10
15.86767768765338
 20
6.489760083106717
 30
0.0
 10
15.14999999999997
 20
6.715181527006585
 30
0.0
  0
SPLINE
  5
258
330
1F
100
AcDbEntity
  8
0
  6
Continuous
 62
     1
370
    25
100
AcDbSpline
210
0.0
220
0.0
230
1.0
 70
     8
 71
     3
 72
    12
 73
     8
 74
     0
 42
0.000000001
 43
0.00000001
 40
0.0
 40
0.0
 40
0.0
 40
0.0
 40
0.1861213826918638
 40
0.3896048311786269
 40
0.5930935784518784
 40
0.7965658685400103
 40
1.0
 40
1.0
 40
1.0
 40
1.0
 10
30.2894484258627
 20
-0.7663426684530208
 30
0.0
 10
29.35019827184589
 20
-0.3876593557587711
 30
0.0
 10
27.38408136255952
 20
0.4050321984226173
 30
0.0
 10
24.3910094849092
 20
1.606109998026298
 30
0.0
 10
21.31037529533295
 20
2.755975517050238
 30
0.0
 10
18.23000732289347
 20
3.787137157997968
 30
0.0
 10
16.17660492004847
 20
4.310089831175873
 30
0.0
 10
15.14999999999997
 20
4.571541647192603
 30
0.0
  0
SPLINE
  5
259
330
1F
100
AcDbEntity
  8
0
  6
Continuous
 62
     4
370
    25
100
AcDbSpline
210
0.0
220
0.0
230
1.0
 70
    24
 71
     3
 72
    10
 73
     6
 74
     0
 42
0.000000001
 43
0.00000001
 40
0.0
 40
0.0
 40
0.0
 40
0.0
 40
0.5
 40
0.5
 40
1.0
 40
1.0
 40
1.0
 40
1.0
 10
15.14999999999997
 20
6.715181527006578
 30
0.0
 10
15.14999999999997
 20
6.447320627227583
 30
0.0
 10
15.15000000000003
 20
6.109498152533611
 30
0.0
 10
15.15000000000003
 20
5.365631914376337
 30
0.0
 10
15.15000000000003
 20
4.961851326489992
 30
0.0
 10
15.14999999999997
 20
4.571541647192603
 30
0.0
  0
LINE
  5
25A
330
1F
100
AcDbEntity
  8
0
  6
Continuous
 62
     4
370
    25
100
AcDbLine
 10
15.14999999999997
 20
6.715181527006585
 30
0.0
 11
15.14999999999997
 21
7.654872457964238
 31
0.0
  0
SPLINE
  5
25B
330
1F
100
AcDbEntity
  8
0
  6
Continuous
 62
     1
370
    25
100
AcDbSpline
210
0.0
220
0.0
230
1.0
 70
     8
 71
     3
 72
    15
 73
    11
 74
     0
 42
0.000000001
 43
0.00000001
 40
0.0
 40
0.0
 40
0.0
 40
0.0
 40
0.1396999953102857
 40
0.2794716444893969
 40
0.4192669854639401
 40
0.5590378752878186
 40
0.6987363873608877
 40
0.8384378837697067
 40
0.9702171587562823
 40
1.0
 40
1.0
 40
1.0
 40
1.0
 10
50.15000000000003
 20
0.0000000000000142
 30
0.0
 10
49.06158398221259
 20
0.5028913334572565
 30
0.0
 10
46.88419368449621
 20
1.50893193960475
 30
0.0
 10
43.61732081760686
 20
2.933921630174034
 30
0.0
 10
40.34985775114529
 20
4.197314642960308
 30
0.0
 10
37.08299905634941
 20
5.226392040990042
 30
0.0
 10
33.81722582941358
 20
5.97414699140613
 30
0.0
 10
30.61361185166356
 20
6.35565805816195
 30
0.0
 10
28.26639104633977
 20
6.462996827313944
 30
0.0
 10
27.00758624397161
 20
6.350356174386775
 30
0.0
 10
26.7755344210534
 20
6.329591661257119
 30
0.0
  0
SPLINE
  5
25C
330
1F
100
AcDbEntity
  8
0
  6
Continuous
 62
     1
370
    25
100
AcDbSpline
210
0.0
220
0.0
230
1.0
 70
    24
 71
     3
 72
    14
 73
    10
 74
     0
 42
0.000000001
 43
0.00000001
 40
0.0
 40
0.0
 40
0.0
 40
0.0
 40
0.25
 40
0.25
 40
0.5
 40
0.5
 40
0.75
 40
0.75
 40
1.0
 40
1.0
 40
1.0
 40
1.0
 10
50.15000000000003
 20
-6.311778114945724
 30
0.0
 10
50.15000000000003
 20
-5.970259326148792
 30
0.0
 10
50.15000000000003
 20
-5.565991750024295
 30
0.0
 10
50.15000000000003
 20
-4.647916817566212
 30
0.0
 10
50.15000000000003
 20
-4.13423884877902
 30
0.0
 10
50.15000000000003
 20
-3.031099240878817
 30
0.0
 10
50.15000000000003
 20
-2.44195615499757
 30
0.0
 10
50.15000000000003
 20
-1.232646874235527
 30
0.0
 10
50.15000000000003
 20
-0.6128393969954828
 30
0.0
 10
50.15000000000003
 20
0.0000000000000142
 30
0.0
  0
LINE
  5
25D
330
1F
100
AcDbEntity
  8
0
  6
Continuous
 62
     1
370
    25
100
AcDbLine
 10
50.15000000000003
 20
5.600000000000009
 30
0.0
 11
47.17400828385723
 21
5.458868627199841
 31
0.0
  0
LINE
  5
25E
330
1F
100
AcDbEntity
  8
0
  6
Continuous
 62
     1
370
    25
100
AcDbLine
 10
50.15000000000003
 20
0.0000000000000142
 30
0.0
 11
50.15000000000003
 21
5.600000000000009
 31
0.0
  0
SPLINE
  5
25F
330
1F
100
AcDbEntity
  8
0
  6
Continuous
 62
     1
370
    25
100
AcDbSpline
210
0.0
220
0.0
230
1.0
 70
     8
 71
     3
 72
    13
 73
     9
 74
     0
 42
0.000000001
 43
0.00000001
 40
0.0
 40
0.0
 40
0.0
 40
0.0
 40
0.0822781559276854
 40
0.2684178399637219
 40
0.4512400027528204
 40
0.6341620109235959
 40
0.8171075251493995
 40
1.0
 40
1.0
 40
1.0
 40
1.0
 10
33.22485734561837
 20
-5.969825158258843
 30
0.0
 10
32.72910651054229
 20
-6.058121181199041
 30
0.0
 10
31.11180764414234
 20
-6.346171241239531
 30
0.0
 10
28.39328280237054
 20
-6.449433751563859
 30
0.0
 10
25.06843213825527
 20
-6.280734748308859
 30
0.0
 10
21.76247551806062
 20
-5.733635366643384
 30
0.0
 10
18.45604749637027
 20
-4.882129909218904
 30
0.0
 10
16.25190931310351
 20
-4.091603573612019
 30
0.0
 10
15.14999999999997
 20
-3.696397711260957
 30
0.0
  0
SPLINE
  5
260
330
1F
100
AcDbEntity
  8
0
  6
Continuous
 62
     4
370
    25
100
AcDbSpline
210
0.0
220
0.0
230
1.0
 70
    24
 71
     3
 72
    14
 73
    10
 74
     0
 42
0.000000001
 43
0.00000001
 40
0.0
 40
0.0
 40
0.0
 40
0.0
 40
0.25
 40
0.25
 40
0.5
 40
0.5
 40
0.75
 40
0.75
 40
1.0
 40
1.0
 40
1.0
 40
1.0
 10
15.14999999999997
 20
4.571541647192603
 30
0.0
 10
15.14999999999997
 20
4.048454951901057
 30
0.0
 10
15.15000000000003
 20
3.449964526396158
 30
0.0
 10
15.14999999999997
 20
2.13986553009687
 30
0.0
 10
15.15000000000003
 20
1.428673884704295
 30
0.0
 10
15.14999999999997
 20
-0.0407773131627209
 30
0.0
 10
15.14999999999997
 20
-0.7982538806038093
 30
0.0
 10
15.14999999999997
 20
-2.284713384865313
 30
0.0
 10
15.15000000000003
 20
-3.013031688434523
 30
0.0
 10
15.14999999999997
 20
-3.696397711260957
 30
0.0
  0
SPLINE
  5
261
330
1F
100
AcDbEntity
  8
0
  6
Continuous
 62
     4
370
    25
100
AcDbSpline
210
0.0
220
0.0
230
1.0
 70
    24
 71
     3
 72
    13
 73
     9
 74
     0
 42
0.000000001
 43
0.00000001
 40
0.0
 40
0.0
 40
0.0
 40
0.0
 40
0.140592110822111
 40
0.2830148187285203
 40
0.4899691840890161
 40
0.7029252400650506
 40
0.8898119437508611
 40
0.9999999999999999
 40
0.9999999999999999
 40
0.9999999999999999
 40
0.9999999999999999
 10
15.14999999999997
 20
-3.696397711260943
 30
0.0
 10
15.14999999999997
 20
-3.935581754046169
 30
0.0
 10
15.15000000000003
 20
-4.417064165226861
 30
0.0
 10
15.14999999999997
 20
-5.128899231430367
 30
0.0
 10
15.14999999999997
 20
-5.804025350897376
 30
0.0
 10
15.14999999999997
 20
-6.300864950511382
 30
0.0
 10
15.14999999999997
 20
-6.564114058974468
 30
0.0
 10
15.14999999999997
 20
-6.580518566003278
 30
0.0
 10
15.14999999999997
 20
-6.586603164855163
 30
0.0
  0
LINE
  5
262
330
1F
100
AcDbEntity
  8
0
  6
Continuous
 62
     1
370
    25
100
AcDbLine
 10
50.15000000000003
 20
-7.476134633533732
 30
0.0
 11
50.15000000000003
 21
-7.488471275550992
 31
0.0
  0
SPLINE
  5
263
330
1F
100
AcDbEntity
  8
0
  6
Continuous
 62
     1
370
    25
100
AcDbSpline
210
0.0
220
0.0
230
1.0
 70
     8
 71
     3
 72
    11
 73
     7
 74
     0
 42
0.000000001
 43
0.00000001
 40
0.0
 40
0.0
 40
0.0
 40
0.0
 40
0.127406604594893
 40
0.4182918127845525
 40
0.709162793911743
 40
0.9725630697705787
 40
0.9725630697705787
 40
0.9725630697705787
 40
0.9725630697705787
 10
39.21118657570934
 20
5.364321842623745
 30
0.0
 10
39.65451490367195
 20
5.56058889641703
 30
0.0
 10
41.11001723458997
 20
6.204958173677923
 30
0.0
 10
43.5776634019769
 20
7.002446192039649
 30
0.0
 10
46.51849420874584
 20
7.70926365554251
 30
0.0
 10
48.44709274512577
 20
7.87876863102763
 30
0.0
 10
49.36359829180243
 20
7.953056211624517
 30
0.0
  0
SPLINE
  5
264
330
1F
100
AcDbEntity
  8
0
  6
Continuous
 62
     1
370
    25
100
AcDbSpline
210
0.0
220
0.0
230
1.0
 70
    24
 71
     3
 72
    10
 73
     6
 74
     0
 42
0.000000001
 43
0.00000001
 40
0.0
 40
0.0
 40
0.0
 40
0.0
 40
0.5
 40
0.5
 40
0.7438842049339561
 40
0.7438842049339561
 40
0.7438842049339561
 40
0.7438842049339561
 10
50.15000000000003
 20
5.600000000000009
 30
0.0
 10
50.15000000000003
 20
5.869867430825423
 30
0.0
 10
50.15000000000003
 20
6.17402062772905
 30
0.0
 10
50.14999999999999
 20
6.65279828172845
 30
0.0
 10
50.15
 20
6.813828120135909
 30
0.0
 10
50.15
 20
6.976134377378043
 30
0.0
  0
SPLINE
  5
265
330
1F
100
AcDbEntity
  8
0
  6
Continuous
 62
     1
370
    25
100
AcDbSpline
210
0.0
220
0.0
230
1.0
 70
     8
 71
     3
 72
     9
 73
     5
 74
     0
 42
0.000000001
 43
0.00000001
 40
0.0
 40
0.0
 40
0.0
 40
0.0
 40
0.3985312074642322
 40
1.0
 40
1.0
 40
1.0
 40
1.0
 10
20.19718028247393
 20
-6.290099286754355
 30
0.0
 10
19.52667854878217
 20
-6.53028998208508
 30
0.0
 10
17.84424635493212
 20
-7.132979786125802
 30
0.0
 10
16.16188678133966
 20
-7.458863546253312
 30
0.0
 10
15.14999999999997
 20
-7.654872457964231
 30
0.0
  0
SPLINE
  5
266
330
1F
100
AcDbEntity
  8
0
  6
Continuous
 62
     4
370
    25
100
AcDbSpline
210
0.0
220
0.0
230
1.0
 70
    24
 71
     3
 72
    12
 73
     8
 74
     0
 42
0.000000001
 43
0.00000001
 40
0.0
 40
0.0
 40
0.0
 40
0.0
 40
0.1416421225651836
 40
0.3741795552496359
 40
0.6064463018766085
 40
0.8389837345610615
 40
1.0
 40
1.0
 40
1.0
 40
1.0
 10
15.14999999999997
 20
-6.704210691033197
 30
0.0
 10
15.15000000000003
 20
-6.751428727394384
 30
0.0
 10
15.15000000000003
 20
-6.876165800839871
 30
0.0
 10
15.14999999999997
 20
-7.072731624703351
 30
0.0
 10
15.15000000000003
 20
-7.294125355786591
 30
0.0
 10
15.14999999999997
 20
-7.48792888221287
 30
0.0
 10
15.15000000000003
 20
-7.606401331001379
 30
0.0
 10
15.15000000000003
 20
-7.654872457946183
 30
0.0
  0
LINE
  5
267
330
1F
100
AcDbEntity
  8
중심선
100
AcDbLine
 10
-102.85
 20
0.0
 30
0.0
 11
57.15000000000003
 21
0.0000000000000142
 31
0.0
  0
CIRCLE
  5
268
330
1F
100
AcDbEntity
  8
외형선
100
AcDbCircle
 10
0.0
 20
0.0
 30
0.0
 40
3.000000000000005
  0
DIMENSION
  5
269
330
1F
100
AcDbEntity
  8
치수문자_일반주서
100
AcDbDimension
  2
*D14
 10
-111.346458021612
 20
-8.000000000000046
 30
0.0
 11
-111.346458021612
 21
0.0
 31
0.0
 70
   160
  1
%%c<>
 71
     2
 42
15.99999999999999
 52
-270.0
  3
SLDDIMSTYLE0
100
AcDbAlignedDimension
 13
-98.85
 23
7.999999999999986
 33
0.0
 14
-98.85
 24
-8.0
 34
0.0
 50
90.0000000000002
100
AcDbRotatedDimension
  0
DIMENSION
  5
26A
330
1F
100
AcDbEntity
  8
치수문자_일반주서
100
AcDbDimension
  2
*D15
 10
15.14999999999996
 20
25.99999999999964
 30
0.0
 11
32.65000000000003
 21
25.99999999999964
 31
0.0
 70
   160
  1
<>
 71
     2
 42
35.00000000000006
  3
SLDDIMSTYLE1
100
AcDbAlignedDimension
 13
50.15000000000003
 23
7.5
 33
0.0
 14
15.14999999999997
 24
7.654872457964238
 34
0.0
 50
0.0000000000000058
100
AcDbRotatedDimension
  0
DIMENSION
  5
26B
330
1F
100
AcDbEntity
  8
치수문자_일반주서
100
AcDbDimension
  2
*D16
 10
-99.85
 20
48.05832450504428
 30
0.0
 11
-24.84999999999997
 21
48.05832450504428
 31
0.0
 70
   160
  1
<>
 71
     2
 42
150.0
  3
SLDDIMSTYLE1
100
AcDbAlignedDimension
 13
50.15000000000003
 23
7.5
 33
0.0
 14
-99.85
 24
6.999999999999986
 34
0.0
 50
0.0000000000000054
100
AcDbRotatedDimension
  0
DIMENSION
  5
26C
330
1F
100
AcDbEntity
  8
치수문자_일반주서
100
AcDbDimension
  2
*D17
 10
0.1499999999999986
 20
34.69499999999866
 30
0.0
 11
25.15000000000003
 21
34.69499999999866
 31
0.0
 70
   160
  1
<>
 71
     2
 42
50.00000000000004
  3
SLDDIMSTYLE0
100
AcDbAlignedDimension
 13
50.15000000000003
 23
7.488471275547951
 33
0.0
 14
0.1499999999999977
 24
7.850000000000001
 34
0.0
 50
-0.0000000000022354
100
AcDbRotatedDimension
  0
DIMENSION
  5
26D
330
1F
100
AcDbEntity
  8
치수문자_일반주서
100
AcDbDimension
  2
*D18
 10
66.73842689177259
 20
-7.976134633533682
 30
0.0
 11
66.73842689177256
 21
0.0000000000000639
 31
0.0
 70
   160
  1
%%c<>
 71
     2
 42
15.99918712601629
 52
-270.0
  3
SLDDIMSTYLE1
100
AcDbAlignedDimension
 13
50.15000000000003
 23
8.023052492482549
 33
0.0
 14
49.65000000000003
 24
-7.976134633533746
 34
0.0
 50
90.0000000000002
100
AcDbRotatedDimension
  0
INSERT
  5
26E
330
1F
100
AcDbEntity
  8
외형선
100
AcDbBlockReference
  2
SW_DOWELSYMBOL_0
 10
0.0
 20
0.0
 30
0.0
  0
ARC
  5
2BB
330
1F
100
AcDbEntity
  8
0
  6
Continuous
 62
     1
370
    25
100
AcDbCircle
 10
49.15000000000003
 20
6.976134633533754
 30
0.0
 40
0.9999999999999997
100
AcDbArc
 50
359.9999853233589
 51
77.66669484550967
  0
SPLINE
  5
2BD
330
1F
100
AcDbEntity
  8
0
  6
Continuous
 62
     1
370
    25
100
AcDbSpline
210
0.0
220
0.0
230
1.0
 70
    24
 71
     3
 72
     8
 73
     4
 74
     0
 42
0.000000001
 43
0.00000001
 40
0.9938075903127624
 40
0.9938075903127624
 40
0.9938075903127624
 40
0.9938075903127624
 40
1.0
 40
1.0
 40
1.0
 40
1.0
 10
50.15000000000003
 20
7.476134633533744
 30
0.0
 10
50.15000000000003
 20
7.480247879782763
 30
0.0
 10
50.15000000000003
 20
7.484360108983742
 30
0.0
 10
50.15000000000003
 20
7.488471275547951
 30
0.0
  0
ARC
  5
2BE
330
1F
100
AcDbEntity
  8
0
  6
Continuous
 62
     1
370
    25
100
AcDbCircle
 10
49.15239783030729
 20
-6.97697982677498
 30
0.0
 40
0.9976025279440065
100
AcDbArc
 50
279.9836124230833
 51
0.0485571023324833
  0
DIMENSION
  5
2C0
330
1F
100
AcDbEntity
  8
치수문자_일반주서
100
AcDbDimension
  2
*D20
 10
49.15239783030729
 20
-6.97697982677498
 30
0.0
 11
61.07174330499102
 21
-23.7475424254447
 31
0.0
 70
   164
  1
<>
 71
     5
 42
0.9976025279440118
  3
SLDDIMSTYLE1
100
AcDbRadialDimension
 15
49.73032649887333
 25
-7.790127573380578
 35
0.0
 40
0.0
1001
ACAD_DSTYLE_DIMRADIAL_EXTENSION
1070
   387
1070
     1
1070
   388
1040
4.886635888410502
1070
   390
1040
0.0008474813109297
  0
LINE
  5
2EF
330
1F
100
AcDbEntity
  8
0
  6
Continuous
 62
     4
370
    25
100
AcDbLine
 10
0.1499999999999977
 20
7.850000000000001
 30
0.0
 11
-0.0000000000000009
 21
8.0
 31
0.0
1001
PE_URL
1000

  0
LINE
  5
2F1
330
1F
100
AcDbEntity
  8
0
  6
Continuous
 62
     4
370
    25
100
AcDbLine
 10
-0.0000000000000009
 20
8.0
 30
0.0
 11
0.0000000000000009
 21
-8.0
 31
0.0
1001
PE_URL
1000

  0
LINE
  5
2F2
330
1F
100
AcDbEntity
  8
0
  6
Continuous
 62
     4
370
    25
100
AcDbLine
 10
0.0000000000000067
 20
-8.0
 30
0.0
 11
0.1499999999999977
 21
-7.850000000000009
 31
0.0
1001
PE_URL
1000

  0
ENDSEC
  0
SECTION
  2
OBJECTS
  0
DICTIONARY
  5
C
330
0
100
AcDbDictionary
281
     1
  3
ACAD_GROUP
350
D
  3
ACAD_IMAGE_VARS
350
13D
  3
ACAD_LAYOUT
350
1A
  3
ACAD_MLINESTYLE
350
17
  3
ACAD_PLOTSETTINGS
350
19
  3
ACAD_PLOTSTYLENAME
350
E
  3
ACAD_SCALELIST
350
47
  3
APPDATA
350
13B
  3
DWGPROPS
350
2F3
  0
DICTIONARY
  5
D
102
{ACAD_REACTORS
330
C
102
}
330
C
100
AcDbDictionary
281
     1
  0
RASTERVARIABLES
  5
13D
102
{ACAD_REACTORS
330
C
102
}
330
C
100
AcDbRasterVariables
 90
        0
 70
     1
 71
     1
 72
     1
  0
DICTIONARY
  5
1A
102
{ACAD_REACTORS
330
C
102
}
330
C
100
AcDbDictionary
281
     1
  3
Layout1
350
1E
  3
Layout2
350
26
  3
Model
350
22
  0
DICTIONARY
  5
17
102
{ACAD_REACTORS
330
C
102
}
330
C
100
AcDbDictionary
281
     1
  3
Standard
350
18
  0
DICTIONARY
  5
19
102
{ACAD_REACTORS
330
C
102
}
330
C
100
AcDbDictionary
281
     1
  0
ACDBDICTIONARYWDFLT
  5
E
102
{ACAD_REACTORS
330
C
102
}
330
C
100
AcDbDictionary
281
     1
  3
Normal
350
F
100
AcDbDictionaryWithDefault
340
F
  0
DICTIONARY
  5
47
102
{ACAD_REACTORS
330
C
102
}
330
C
100
AcDbDictionary
281
     1
  3
A0
350
48
  3
A1
350
49
  3
A2
350
4A
  3
A3
350
4B
  3
A4
350
4C
  3
A5
350
4D
  3
A6
350
4E
  3
A7
350
4F
  3
A8
350
50
  3
A9
350
51
  3
B0
350
52
  3
B1
350
53
  3
B2
350
54
  3
B3
350
55
  3
B4
350
56
  3
B5
350
57
  3
B6
350
58
  3
B7
350
59
  3
B8
350
5A
  3
B9
350
5B
  3
C0
350
5C
  3
C1
350
5D
  3
C2
350
5E
  3
C3
350
5F
  3
C4
350
60
  3
C5
350
61
  3
C6
350
62
  3
C7
350
63
  3
C8
350
64
  3
C9
350
65
  3
D0
350
66
  3
D1
350
67
  3
D2
350
68
  0
DICTIONARY
  5
13B
102
{ACAD_REACTORS
330
C
102
}
330
C
100
AcDbDictionary
281
     1
  0
XRECORD
  5
2F3
102
{ACAD_REACTORS
330
C
102
}
330
C
100
AcDbXrecord
280
     1
  1
DWGPROPS COOKIE
  2

  3

  4

  6

  7

  8
12014102
  9

300
=
301
=
302
=
303
=
304
=
305
=
306
=
307
=
308
=
309
=
 40
0.0
 41
2458263.436353715
 42
2459576.955129629
  1

 90
        0
  0
LAYOUT
  5
1E
102
{ACAD_REACTORS
330
1A
102
}
330
1A
100
AcDbPlotSettings
  1

  2
none_device
  4

  6

 40
0.0
 41
0.0
 42
0.0
 43
0.0
 44
0.0
 45
0.0
 46
0.0
 47
0.0
 48
0.0
 49
0.0
140
0.0
141
0.0
142
1.0
143
1.0
 70
   688
 72
     1
 73
     0
 74
     5
  7

 75
    16
147
1.0
148
0.0
149
0.0
100
AcDbLayout
  1
Layout1
 70
     1
 71
     1
 10
0.0
 20
0.0
 11
420.0
 21
297.0
 12
0.0
 22
0.0
 32
0.0
 14
1.000000000000000E+20
 24
1.000000000000000E+20
 34
1.000000000000000E+20
 15
-1.000000000000000E+20
 25
-1.000000000000000E+20
 35
-1.000000000000000E+20
146
0.0
 13
0.0
 23
0.0
 33
0.0
 16
1.0
 26
0.0
 36
0.0
 17
0.0
 27
1.0
 37
0.0
 76
     0
330
1B
  0
LAYOUT
  5
26
102
{ACAD_REACTORS
330
1A
102
}
330
1A
100
AcDbPlotSettings
  1

  2
none_device
  4

  6

 40
0.0
 41
0.0
 42
0.0
 43
0.0
 44
0.0
 45
0.0
 46
0.0
 47
0.0
 48
0.0
 49
0.0
140
0.0
141
0.0
142
1.0
143
1.0
 70
   688
 72
     1
 73
     0
 74
     5
  7

 75
    16
147
1.0
148
0.0
149
0.0
100
AcDbLayout
  1
Layout2
 70
     1
 71
     2
 10
0.0
 20
0.0
 11
0.0
 21
0.0
 12
0.0
 22
0.0
 32
0.0
 14
0.0
 24
0.0
 34
0.0
 15
0.0
 25
0.0
 35
0.0
146
0.0
 13
0.0
 23
0.0
 33
0.0
 16
1.0
 26
0.0
 36
0.0
 17
0.0
 27
1.0
 37
0.0
 76
     0
330
23
  0
LAYOUT
  5
22
102
{ACAD_REACTORS
330
1A
102
}
330
1A
100
AcDbPlotSettings
  1

  2
none_device
  4
ANSI_A_(11.00_x_8.50_Inches)
  6

 40
6.35
 41
19.05
 42
6.35000508
 43
19.05000254
 44
279.4
 45
215.9
 46
136.1603921566808
 47
87.99341670140282
 48
0.0
 49
0.0
140
0.0
141
0.0
142
0.0526263668419363
143
1.0
 70
  1696
 72
     0
 73
     0
 74
     0
  7

 75
     0
147
0.0235690232323232
148
0.0
149
0.0
100
AcDbLayout
  1
Model
 70
     1
 71
     0
 10
0.0
 20
0.0
 11
420.0
 21
297.0
 12
0.0
 22
0.0
 32
0.0
 14
-115.721458021612
 24
-49.97073246008786
 34
0.0
 15
67.2887602251059
 25
52.43332450504428
 35
0.0
146
0.0
 13
0.0
 23
0.0
 33
0.0
 16
1.0
 26
0.0
 36
0.0
 17
0.0
 27
1.0
 37
0.0
 76
     0
330
1F
331
29
  0
MLINESTYLE
  5
18
102
{ACAD_REACTORS
330
17
102
}
330
17
100
AcDbMlineStyle
  2
Standard
 70
     0
  3

 62
   256
 51
90.0
 52
90.0
 71
     2
 49
0.5
 62
   256
  6
BYLAYER
 49
-0.5
 62
   256
  6
BYLAYER
  0
ACDBPLACEHOLDER
  5
F
102
{ACAD_REACTORS
330
E
102
}
330
E
  0
SCALE
  5
48
102
{ACAD_REACTORS
330
47
102
}
330
47
100
AcDbScale
 70
     0
300
1:1
140
1.0
141
1.0
290
     1
  0
SCALE
  5
49
102
{ACAD_REACTORS
330
47
102
}
330
47
100
AcDbScale
 70
     0
300
1:2
140
1.0
141
2.0
290
     0
  0
SCALE
  5
4A
102
{ACAD_REACTORS
330
47
102
}
330
47
100
AcDbScale
 70
     0
300
1:4
140
1.0
141
4.0
290
     0
  0
SCALE
  5
4B
102
{ACAD_REACTORS
330
47
102
}
330
47
100
AcDbScale
 70
     0
300
1:5
140
1.0
141
5.0
290
     0
  0
SCALE
  5
4C
102
{ACAD_REACTORS
330
47
102
}
330
47
100
AcDbScale
 70
     0
300
1:8
140
1.0
141
8.0
290
     0
  0
SCALE
  5
4D
102
{ACAD_REACTORS
330
47
102
}
330
47
100
AcDbScale
 70
     0
300
1:10
140
1.0
141
10.0
290
     0
  0
SCALE
  5
4E
102
{ACAD_REACTORS
330
47
102
}
330
47
100
AcDbScale
 70
     0
300
1:16
140
1.0
141
16.0
290
     0
  0
SCALE
  5
4F
102
{ACAD_REACTORS
330
47
102
}
330
47
100
AcDbScale
 70
     0
300
1:20
140
1.0
141
20.0
290
     0
  0
SCALE
  5
50
102
{ACAD_REACTORS
330
47
102
}
330
47
100
AcDbScale
 70
     0
300
1:30
140
1.0
141
30.0
290
     0
  0
SCALE
  5
51
102
{ACAD_REACTORS
330
47
102
}
330
47
100
AcDbScale
 70
     0
300
1:40
140
1.0
141
40.0
290
     0
  0
SCALE
  5
52
102
{ACAD_REACTORS
330
47
102
}
330
47
100
AcDbScale
 70
     0
300
1:50
140
1.0
141
50.0
290
     0
  0
SCALE
  5
53
102
{ACAD_REACTORS
330
47
102
}
330
47
100
AcDbScale
 70
     0
300
1:100
140
1.0
141
100.0
290
     0
  0
SCALE
  5
54
102
{ACAD_REACTORS
330
47
102
}
330
47
100
AcDbScale
 70
     0
300
2:1
140
2.0
141
1.0
290
     0
  0
SCALE
  5
55
102
{ACAD_REACTORS
330
47
102
}
330
47
100
AcDbScale
 70
     0
300
4:1
140
4.0
141
1.0
290
     0
  0
SCALE
  5
56
102
{ACAD_REACTORS
330
47
102
}
330
47
100
AcDbScale
 70
     0
300
8:1
140
8.0
141
1.0
290
     0
  0
SCALE
  5
57
102
{ACAD_REACTORS
330
47
102
}
330
47
100
AcDbScale
 70
     0
300
10:1
140
10.0
141
1.0
290
     0
  0
SCALE
  5
58
102
{ACAD_REACTORS
330
47
102
}
330
47
100
AcDbScale
 70
     0
300
100:1
140
100.0
141
1.0
290
     0
  0
SCALE
  5
59
102
{ACAD_REACTORS
330
47
102
}
330
47
100
AcDbScale
 70
     0
300
1/128" = 1'-0"
140
0.0078125
141
12.0
290
     0
  0
SCALE
  5
5A
102
{ACAD_REACTORS
330
47
102
}
330
47
100
AcDbScale
 70
     0
300
1/64" = 1'-0"
140
0.015625
141
12.0
290
     0
  0
SCALE
  5
5B
102
{ACAD_REACTORS
330
47
102
}
330
47
100
AcDbScale
 70
     0
300
1/32" = 1'-0"
140
0.03125
141
12.0
290
     0
  0
SCALE
  5
5C
102
{ACAD_REACTORS
330
47
102
}
330
47
100
AcDbScale
 70
     0
300
1/16" = 1'-0"
140
0.0625
141
12.0
290
     0
  0
SCALE
  5
5D
102
{ACAD_REACTORS
330
47
102
}
330
47
100
AcDbScale
 70
     0
300
3/32" = 1'-0"
140
0.09375
141
12.0
290
     0
  0
SCALE
  5
5E
102
{ACAD_REACTORS
330
47
102
}
330
47
100
AcDbScale
 70
     0
300
1/8" = 1'-0"
140
0.125
141
12.0
290
     0
  0
SCALE
  5
5F
102
{ACAD_REACTORS
330
47
102
}
330
47
100
AcDbScale
 70
     0
300
3/16" = 1'-0"
140
0.1875
141
12.0
290
     0
  0
SCALE
  5
60
102
{ACAD_REACTORS
330
47
102
}
330
47
100
AcDbScale
 70
     0
300
1/4" = 1'-0"
140
0.25
141
12.0
290
     0
  0
SCALE
  5
61
102
{ACAD_REACTORS
330
47
102
}
330
47
100
AcDbScale
 70
     0
300
3/8" = 1'-0"
140
0.375
141
12.0
290
     0
  0
SCALE
  5
62
102
{ACAD_REACTORS
330
47
102
}
330
47
100
AcDbScale
 70
     0
300
1/2" = 1'-0"
140
0.5
141
12.0
290
     0
  0
SCALE
  5
63
102
{ACAD_REACTORS
330
47
102
}
330
47
100
AcDbScale
 70
     0
300
3/4" = 1'-0"
140
0.75
141
12.0
290
     0
  0
SCALE
  5
64
102
{ACAD_REACTORS
330
47
102
}
330
47
100
AcDbScale
 70
     0
300
1" = 1'-0"
140
1.0
141
12.0
290
     0
  0
SCALE
  5
65
102
{ACAD_REACTORS
330
47
102
}
330
47
100
AcDbScale
 70
     0
300
1-1/2" = 1'-0"
140
1.5
141
12.0
290
     0
  0
SCALE
  5
66
102
{ACAD_REACTORS
330
47
102
}
330
47
100
AcDbScale
 70
     0
300
3" = 1'-0"
140
3.0
141
12.0
290
     0
  0
SCALE
  5
67
102
{ACAD_REACTORS
330
47
102
}
330
47
100
AcDbScale
 70
     0
300
6" = 1'-0"
140
6.0
141
12.0
290
     0
  0
SCALE
  5
68
102
{ACAD_REACTORS
330
47
102
}
330
47
100
AcDbScale
 70
     0
300
1'-0" = 1'-0"
140
12.0
141
12.0
290
     0
  0
ENDSEC
  0
EOF
