  0
SECTION
  2
HEADER
  9
$ACADVER
  1
AC1015
  9
$ACADMAINTVER
 70
     6
  9
$DWGCODEPAGE
  3
ANSI_949
  9
$INSBASE
 10
0.0
 20
0.0
 30
0.0
  9
$EXTMIN
 10
-75.7214580216121
 20
-49.97180738881174
 30
0.0
  9
$EXTMAX
 10
59.27329533818495
 20
54.43332450504428
 30
0.0
  9
$LIMMIN
 10
0.0
 20
0.0
  9
$LIMMAX
 10
420.0
 20
297.0
  9
$ORTHOMODE
 70
     1
  9
$REGENMODE
 70
     1
  9
$FILLMODE
 70
     1
  9
$QTEXTMODE
 70
     0
  9
$MIRRTEXT
 70
     1
  9
$LTSCALE
 40
1.0
  9
$ATTMODE
 70
     1
  9
$TEXTSIZE
 40
3.5
  9
$TRACEWID
 40
1.0
  9
$TEXTSTYLE
  7
Standard
  9
$CLAYER
  8
0
  9
$CELTYPE
  6
ByLayer
  9
$CECOLOR
 62
   256
  9
$CELTSCALE
 40
1.0
  9
$DISPSILH
 70
     0
  9
$DIMSCALE
 40
1.0
  9
$DIMASZ
 40
3.302
  9
$DIMEXO
 40
1.0
  9
$DIMDLI
 40
3.75
  9
$DIMRND
 40
0.0
  9
$DIMDLE
 40
0.0
  9
$DIMEXE
 40
1.0
  9
$DIMTP
 40
0.0
  9
$DIMTM
 40
0.0
  9
$DIMTXT
 40
3.5
  9
$DIMCEN
 40
2.5
  9
$DIMTSZ
 40
0.0
  9
$DIMTOL
 70
     0
  9
$DIMLIM
 70
     0
  9
$DIMTIH
 70
     1
  9
$DIMTOH
 70
     1
  9
$DIMSE1
 70
     0
  9
$DIMSE2
 70
     0
  9
$DIMTAD
 70
     1
  9
$DIMZIN
 70
     0
  9
$DIMBLK
  1

  9
$DIMASO
 70
     1
  9
$DIMSHO
 70
     1
  9
$DIMPOST
  1

  9
$DIMAPOST
  1

  9
$DIMALT
 70
     0
  9
$DIMALTD
 70
     3
  9
$DIMALTF
 40
0.0393700787401575
  9
$DIMLFAC
 40
1.0
  9
$DIMTOFL
 70
     1
  9
$DIMTVP
 40
0.0
  9
$DIMTIX
 70
     0
  9
$DIMSOXD
 70
     0
  9
$DIMSAH
 70
     0
  9
$DIMBLK1
  1

  9
$DIMBLK2
  1

  9
$DIMSTYLE
  2
ISO-25
  9
$DIMCLRD
 70
     0
  9
$DIMCLRE
 70
     0
  9
$DIMCLRT
 70
     0
  9
$DIMTFAC
 40
1.0
  9
$DIMGAP
 40
1.524
  9
$DIMJUST
 70
     0
  9
$DIMSD1
 70
     0
  9
$DIMSD2
 70
     0
  9
$DIMTOLJ
 70
     0
  9
$DIMTZIN
 70
     0
  9
$DIMALTZ
 70
     0
  9
$DIMALTTZ
 70
     0
  9
$DIMUPT
 70
     0
  9
$DIMDEC
 70
     2
  9
$DIMTDEC
 70
     2
  9
$DIMALTU
 70
     2
  9
$DIMALTTD
 70
     3
  9
$DIMTXSTY
  7
Standard
  9
$DIMAUNIT
 70
     0
  9
$DIMADEC
 70
     2
  9
$DIMALTRND
 40
0.0
  9
$DIMAZIN
 70
     0
  9
$DIMDSEP
 70
    44
  9
$DIMATFIT
 70
     3
  9
$DIMFRAC
 70
     0
  9
$DIMLDRBLK
  1

  9
$DIMLUNIT
 70
     2
  9
$DIMLWD
 70
    -2
  9
$DIMLWE
 70
    -2
  9
$DIMTMOVE
 70
     0
  9
$LUNITS
 70
     2
  9
$LUPREC
 70
     2
  9
$SKETCHINC
 40
1.0
  9
$FILLETRAD
 40
10.0
  9
$AUNITS
 70
     0
  9
$AUPREC
 70
     2
  9
$MENU
  1
.
  9
$ELEVATION
 40
0.0
  9
$PELEVATION
 40
0.0
  9
$THICKNESS
 40
0.0
  9
$LIMCHECK
 70
     0
  9
$CHAMFERA
 40
0.0
  9
$CHAMFERB
 40
0.0
  9
$CHAMFERC
 40
0.0
  9
$CHAMFERD
 40
0.0
  9
$SKPOLY
 70
     0
  9
$TDCREATE
 40
2458263.811920857
  9
$TDUCREATE
 40
2458263.436920857
  9
$TDUPDATE
 40
2459577.349788773
  9
$TDUUPDATE
 40
2459576.974788773
  9
$TDINDWG
 40
0.0026718171
  9
$TDUSRTIMER
 40
0.0006481481
  9
$USRTIMER
 70
     1
  9
$ANGBASE
 50
0.0
  9
$ANGDIR
 70
     0
  9
$PDMODE
 70
     0
  9
$PDSIZE
 40
-1.0
  9
$PLINEWID
 40
0.0
  9
$SPLFRAME
 70
     0
  9
$SPLINETYPE
 70
     6
  9
$SPLINESEGS
 70
     8
  9
$HANDSEED
  5
180
  9
$SURFTAB1
 70
     6
  9
$SURFTAB2
 70
     6
  9
$SURFTYPE
 70
     6
  9
$SURFU
 70
     6
  9
$SURFV
 70
     6
  9
$UCSBASE
  2

  9
$UCSNAME
  2

  9
$UCSORG
 10
0.0
 20
0.0
 30
0.0
  9
$UCSXDIR
 10
1.0
 20
0.0
 30
0.0
  9
$UCSYDIR
 10
0.0
 20
1.0
 30
0.0
  9
$UCSORTHOREF
  2

  9
$UCSORTHOVIEW
 70
     0
  9
$UCSORGTOP
 10
0.0
 20
0.0
 30
0.0
  9
$UCSORGBOTTOM
 10
0.0
 20
0.0
 30
0.0
  9
$UCSORGLEFT
 10
0.0
 20
0.0
 30
0.0
  9
$UCSORGRIGHT
 10
0.0
 20
0.0
 30
0.0
  9
$UCSORGFRONT
 10
0.0
 20
0.0
 30
0.0
  9
$UCSORGBACK
 10
0.0
 20
0.0
 30
0.0
  9
$PUCSBASE
  2

  9
$PUCSNAME
  2

  9
$PUCSORG
 10
0.0
 20
0.0
 30
0.0
  9
$PUCSXDIR
 10
1.0
 20
0.0
 30
0.0
  9
$PUCSYDIR
 10
0.0
 20
1.0
 30
0.0
  9
$PUCSORTHOREF
  2

  9
$PUCSORTHOVIEW
 70
     0
  9
$PUCSORGTOP
 10
0.0
 20
0.0
 30
0.0
  9
$PUCSORGBOTTOM
 10
0.0
 20
0.0
 30
0.0
  9
$PUCSORGLEFT
 10
0.0
 20
0.0
 30
0.0
  9
$PUCSORGRIGHT
 10
0.0
 20
0.0
 30
0.0
  9
$PUCSORGFRONT
 10
0.0
 20
0.0
 30
0.0
  9
$PUCSORGBACK
 10
0.0
 20
0.0
 30
0.0
  9
$USERI1
 70
     0
  9
$USERI2
 70
     0
  9
$USERI3
 70
     0
  9
$USERI4
 70
     0
  9
$USERI5
 70
     0
  9
$USERR1
 40
0.0
  9
$USERR2
 40
0.0
  9
$USERR3
 40
0.0
  9
$USERR4
 40
0.0
  9
$USERR5
 40
0.0
  9
$WORLDVIEW
 70
     1
  9
$SHADEDGE
 70
     3
  9
$SHADEDIF
 70
    70
  9
$TILEMODE
 70
     1
  9
$MAXACTVP
 70
    64
  9
$PINSBASE
 10
0.0
 20
0.0
 30
0.0
  9
$PLIMCHECK
 70
     0
  9
$PEXTMIN
 10
1.000000000000000E+20
 20
1.000000000000000E+20
 30
1.000000000000000E+20
  9
$PEXTMAX
 10
-1.000000000000000E+20
 20
-1.000000000000000E+20
 30
-1.000000000000000E+20
  9
$PLIMMIN
 10
0.0
 20
0.0
  9
$PLIMMAX
 10
0.0
 20
0.0
  9
$UNITMODE
 70
     0
  9
$VISRETAIN
 70
     1
  9
$PLINEGEN
 70
     0
  9
$PSLTSCALE
 70
     1
  9
$TREEDEPTH
 70
  3020
  9
$CMLSTYLE
  2
Standard
  9
$CMLJUST
 70
     0
  9
$CMLSCALE
 40
20.0
  9
$PROXYGRAPHICS
 70
     1
  9
$MEASUREMENT
 70
     1
  9
$CELWEIGHT
370
    -1
  9
$ENDCAPS
280
     0
  9
$JOINSTYLE
280
     0
  9
$LWDISPLAY
290
     1
  9
$INSUNITS
 70
     4
  9
$HYPERLINKBASE
  1

  9
$STYLESHEET
  1

  9
$XEDIT
290
     1
  9
$CEPSNTYPE
380
     0
  9
$PSTYLEMODE
290
     1
  9
$FINGERPRINTGUID
  2
{612EBFE1-4441-4A92-9988-1A5F157FC27B}
  9
$VERSIONGUID
  2
{FAEB1C32-E019-11D5-929B-00C0DF256EC4}
  9
$EXTNAMES
290
     1
  9
$PSVPSCALE
 40
0.0
  9
$OLESTARTUP
290
     0
  0
ENDSEC
  0
SECTION
  2
CLASSES
  0
CLASS
  1
ACDBDICTIONARYWDFLT
  2
AcDbDictionaryWithDefault
  3
ObjectDBX Classes
 90
        0
280
     0
281
     0
  0
CLASS
  1
VISUALSTYLE
  2
AcDbVisualStyle
  3
ObjectDBX Classes
 90
     4095
280
     0
281
     0
  0
CLASS
  1
MATERIAL
  2
AcDbMaterial
  3
ObjectDBX Classes
 90
     1153
280
     0
281
     0
  0
CLASS
  1
SCALE
  2
AcDbScale
  3
ObjectDBX Classes
 90
     1153
280
     0
281
     0
  0
CLASS
  1
TABLESTYLE
  2
AcDbTableStyle
  3
ObjectDBX Classes
 90
     4095
280
     0
281
     0
  0
CLASS
  1
MLEADERSTYLE
  2
AcDbMLeaderStyle
  3
ACDB_MLEADERSTYLE_CLASS
 90
     4095
280
     0
281
     0
  0
CLASS
  1
SUN
  2
AcDbSun
  3
SCENEOE
 90
     1153
280
     0
281
     0
  0
CLASS
  1
ACDBPLACEHOLDER
  2
AcDbPlaceHolder
  3
ObjectDBX Classes
 90
        0
280
     0
281
     0
  0
CLASS
  1
LAYOUT
  2
AcDbLayout
  3
ObjectDBX Classes
 90
        0
280
     0
281
     0
  0
CLASS
  1
RASTERVARIABLES
  2
AcDbRasterVariables
  3
ISM
 90
        0
280
     0
281
     0
  0
CLASS
  1
DIMASSOC
  2
AcDbDimAssoc
  3
"AcDbDimAssoc|Product Desc:     AcDim ARX App For Dimension|Company:          Autodesk, Inc.|WEB Address:      www.autodesk.com"
 90
        0
280
     0
281
     0
  0
ENDSEC
  0
SECTION
  2
TABLES
  0
TABLE
  2
VPORT
  5
8
330
0
100
AcDbSymbolTable
 70
     1
  0
VPORT
  5
29
330
8
100
AcDbSymbolTableRecord
100
AcDbViewportTableRecord
  2
*Active
 70
     0
 10
0.0
 20
0.0
 11
1.0
 21
1.0
 12
-8.224081341713571
 22
2.230758558116271
 13
0.0
 23
0.0
 14
10.0
 24
10.0
 15
10.0
 25
10.0
 16
0.0
 26
0.0
 36
1.0
 17
0.0
 27
0.0
 37
0.0
 40
106.4932345317332
 41
2.070175438596491
 42
50.0
 43
0.0
 44
0.0
 50
0.0
 51
0.0
 71
    16
 72
  2000
 73
     1
 74
     3
 75
     0
 76
     0
 77
     0
 78
     0
281
     0
 65
     1
110
0.0
120
0.0
130
0.0
111
1.0
121
0.0
131
0.0
112
0.0
122
1.0
132
0.0
 79
     0
146
0.0
  0
ENDTAB
  0
TABLE
  2
LTYPE
  5
5
330
0
100
AcDbSymbolTable
 70
     6
  0
LTYPE
  5
14
330
5
100
AcDbSymbolTableRecord
100
AcDbLinetypeTableRecord
  2
ByBlock
 70
     0
  3

 72
    65
 73
     0
 40
0.0
  0
LTYPE
  5
15
330
5
100
AcDbSymbolTableRecord
100
AcDbLinetypeTableRecord
  2
ByLayer
 70
     0
  3

 72
    65
 73
     0
 40
0.0
  0
LTYPE
  5
16
330
5
100
AcDbSymbolTableRecord
100
AcDbLinetypeTableRecord
  2
Continuous
 70
     0
  3
Solid line
 72
    65
 73
     0
 40
0.0
  0
LTYPE
  5
6E
330
5
100
AcDbSymbolTableRecord
100
AcDbLinetypeTableRecord
  2
HIDDEN
 70
     0
  3
Hidden __ __ __ __ __ __ __ __ __ __ __ __ __ __
 72
    65
 73
     2
 40
1.905
 49
1.27
 74
     0
 49
-0.635
 74
     0
  0
LTYPE
  5
6F
330
5
100
AcDbSymbolTableRecord
100
AcDbLinetypeTableRecord
  2
PHANTOM
 70
     0
  3
Phantom ______  __  __  ______  __  __  ______
 72
    65
 73
     6
 40
12.7
 49
6.35
 74
     0
 49
-1.27
 74
     0
 49
1.27
 74
     0
 49
-1.27
 74
     0
 49
1.27
 74
     0
 49
-1.27
 74
     0
  0
LTYPE
  5
70
330
5
100
AcDbSymbolTableRecord
100
AcDbLinetypeTableRecord
  2
CENTER
 70
     0
  3
Center ____ _ ____ _ ____ _ ____ _ ____ _ ____
 72
    65
 73
     4
 40
10.16
 49
6.35
 74
     0
 49
-1.27
 74
     0
 49
1.27
 74
     0
 49
-1.27
 74
     0
  0
LTYPE
  5
71
330
5
100
AcDbSymbolTableRecord
100
AcDbLinetypeTableRecord
  2
CENTERX2
 70
     0
  3
Center (2x) ________  __  ________  __  _____
 72
    65
 73
     4
 40
20.32
 49
12.7
 74
     0
 49
-2.54
 74
     0
 49
2.54
 74
     0
 49
-2.54
 74
     0
  0
LTYPE
  5
72
330
5
100
AcDbSymbolTableRecord
100
AcDbLinetypeTableRecord
  2
DOT2
 70
     0
  3
Dot (.5x) ........................................
 72
    65
 73
     2
 40
0.635
 49
0.0
 74
     0
 49
-0.635
 74
     0
  0
ENDTAB
  0
TABLE
  2
LAYER
  5
2
330
0
100
AcDbSymbolTable
 70
    17
  0
LAYER
  5
10
330
2
100
AcDbSymbolTableRecord
100
AcDbLayerTableRecord
  2
0
 70
     0
 62
     7
  6
Continuous
370
    -3
390
F
  0
LAYER
  5
73
330
2
100
AcDbSymbolTableRecord
100
AcDbLayerTableRecord
  2
FORMAT
 70
     0
 62
     2
  6
Continuous
370
    -3
390
F
  0
LAYER
  5
74
330
2
100
AcDbSymbolTableRecord
100
AcDbLayerTableRecord
  2
외형선
 70
     0
 62
   100
  6
Continuous
370
    35
390
F
  0
LAYER
  5
75
330
2
100
AcDbSymbolTableRecord
100
AcDbLayerTableRecord
  2
숨은선
 70
     0
 62
     2
  6
HIDDEN
370
    25
390
F
  0
LAYER
  5
76
330
2
100
AcDbSymbolTableRecord
100
AcDbLayerTableRecord
  2
중심선
 70
     0
 62
     1
  6
CENTERX2
370
    -3
390
F
  0
LAYER
  5
77
330
2
100
AcDbSymbolTableRecord
100
AcDbLayerTableRecord
  2
파단선
 70
     0
 62
     4
  6
Continuous
370
    -3
390
F
  0
LAYER
  5
78
330
2
100
AcDbSymbolTableRecord
100
AcDbLayerTableRecord
  2
해칭선
 70
     0
 62
     4
  6
Continuous
370
    -3
390
F
  0
LAYER
  5
79
330
2
100
AcDbSymbolTableRecord
100
AcDbLayerTableRecord
  2
가는실선
 70
     0
 62
     4
  6
Continuous
370
    -3
390
F
  0
LAYER
  5
7A
330
2
100
AcDbSymbolTableRecord
100
AcDbLayerTableRecord
  2
치수_보조선
 70
     0
 62
     4
  6
Continuous
370
    -3
390
F
  0
LAYER
  5
7B
330
2
100
AcDbSymbolTableRecord
100
AcDbLayerTableRecord
  2
치수문자_일반주서
 70
     0
 62
     7
  6
Continuous
370
    25
390
F
  0
LAYER
  5
7C
330
2
100
AcDbSymbolTableRecord
100
AcDbLayerTableRecord
  2
개별주서
 70
     0
 62
   100
  6
Continuous
370
    35
390
F
  0
LAYER
  5
7D
330
2
100
AcDbSymbolTableRecord
100
AcDbLayerTableRecord
  2
중간선
 70
     0
 62
     2
  6
Continuous
370
    25
390
F
  0
LAYER
  5
7E
330
2
100
AcDbSymbolTableRecord
100
AcDbLayerTableRecord
  2
윤곽선
 70
     0
 62
     3
  6
Continuous
370
    50
390
F
  0
LAYER
  5
7F
330
2
100
AcDbSymbolTableRecord
100
AcDbLayerTableRecord
  2
중심마크
 70
     0
 62
   100
  6
Continuous
370
    35
390
F
  0
LAYER
  5
80
330
2
100
AcDbSymbolTableRecord
100
AcDbLayerTableRecord
  2
가상선
 70
     0
 62
     4
  6
PHANTOM
370
    -3
390
F
  0
LAYER
  5
81
330
2
100
AcDbSymbolTableRecord
100
AcDbLayerTableRecord
  2
특수지정선
 70
     0
 62
     5
  6
CENTERX2
370
    70
390
F
  0
LAYER
  5
137
330
2
100
AcDbSymbolTableRecord
100
AcDbLayerTableRecord
  2
Defpoints
 70
     0
 62
     7
  6
Continuous
290
     0
370
    -3
390
F
  0
ENDTAB
  0
TABLE
  2
STYLE
  5
3
330
0
100
AcDbSymbolTable
 70
     2
  0
STYLE
  5
11
330
3
100
AcDbSymbolTableRecord
100
AcDbTextStyleTableRecord
  2
Standard
 70
     0
 40
0.0
 41
1.0
 50
0.0
 71
     0
 42
3.5
  3
txt
  4

  0
STYLE
  5
97
330
3
100
AcDbSymbolTableRecord
100
AcDbTextStyleTableRecord
  2
SLDTEXTSTYLE0
 70
     0
 40
0.0
 41
0.75
 50
0.0
 71
     0
 42
3.5
  3
TXT
  4

  0
ENDTAB
  0
TABLE
  2
VIEW
  5
6
330
0
100
AcDbSymbolTable
 70
     0
  0
ENDTAB
  0
TABLE
  2
UCS
  5
7
330
0
100
AcDbSymbolTable
 70
     0
  0
ENDTAB
  0
TABLE
  2
APPID
  5
9
330
0
100
AcDbSymbolTable
 70
     3
  0
APPID
  5
12
330
9
100
AcDbSymbolTableRecord
100
AcDbRegAppTableRecord
  2
ACAD
 70
     0
  0
APPID
  5
144
330
9
100
AcDbSymbolTableRecord
100
AcDbRegAppTableRecord
  2
ACAD_DSTYLE_DIMRADIAL_EXTENSION
 70
     0
  0
APPID
  5
17A
330
9
100
AcDbSymbolTableRecord
100
AcDbRegAppTableRecord
  2
PE_URL
 70
     0
  0
ENDTAB
  0
TABLE
  2
DIMSTYLE
  5
A
330
0
100
AcDbSymbolTable
 70
     3
100
AcDbDimStyleTable
  0
DIMSTYLE
105
27
330
A
100
AcDbSymbolTableRecord
100
AcDbDimStyleTableRecord
  2
ISO-25
 70
     0
 41
2.5
 42
0.625
 43
3.75
 44
1.25
 73
     0
 74
     0
 77
     1
 78
     8
140
2.5
141
2.5
143
0.03937007874016
147
0.625
171
     3
172
     1
178
     0
271
     2
272
     2
274
     3
278
    44
283
     0
284
     8
340
11
  0
DIMSTYLE
105
D1
102
{ACAD_REACTORS
330
D0
330
F4
102
}
330
A
100
AcDbSymbolTableRecord
100
AcDbDimStyleTableRecord
  2
SLDDIMSTYLE0
 70
     0
 41
3.302
 44
0.0
 45
0.000000001
 73
     0
 74
     0
 77
     1
 78
    12
 79
     3
140
3.5
147
0.875
172
     1
173
     1
178
     0
271
     2
272
     2
276
     2
284
    12
289
     0
340
97
  0
DIMSTYLE
105
DF
102
{ACAD_REACTORS
330
DE
330
EA
330
100
330
145
102
}
330
A
100
AcDbSymbolTableRecord
100
AcDbDimStyleTableRecord
  2
SLDDIMSTYLE1
 70
     0
 41
3.302
 44
0.0
 45
0.000000001
 73
     0
 74
     0
 77
     1
 78
    12
 79
     3
140
3.5
147
0.875
173
     1
178
     0
271
     2
272
     2
276
     2
284
    12
340
97
  0
ENDTAB
  0
TABLE
  2
BLOCK_RECORD
  5
1
330
0
100
AcDbSymbolTable
 70
     9
  0
BLOCK_RECORD
  5
1F
330
1
100
AcDbSymbolTableRecord
100
AcDbBlockTableRecord
  2
*Model_Space
340
22
  0
BLOCK_RECORD
  5
1B
330
1
100
AcDbSymbolTableRecord
100
AcDbBlockTableRecord
  2
*Paper_Space
340
1E
  0
BLOCK_RECORD
  5
23
330
1
100
AcDbSymbolTableRecord
100
AcDbBlockTableRecord
  2
*Paper_Space0
340
26
  0
BLOCK_RECORD
  5
82
330
1
100
AcDbSymbolTableRecord
100
AcDbBlockTableRecord
  2
블럭10
340
0
102
{BLKREFS
331
C9
102
}
  0
BLOCK_RECORD
  5
D2
330
1
100
AcDbSymbolTableRecord
100
AcDbBlockTableRecord
  2
_D
340
0
  0
BLOCK_RECORD
  5
E0
330
1
100
AcDbSymbolTableRecord
100
AcDbBlockTableRecord
  2
_D_1
340
0
  0
BLOCK_RECORD
  5
EB
330
1
100
AcDbSymbolTableRecord
100
AcDbBlockTableRecord
  2
_D_2
340
0
  0
BLOCK_RECORD
  5
F5
330
1
100
AcDbSymbolTableRecord
100
AcDbBlockTableRecord
  2
_D_3
340
0
  0
BLOCK_RECORD
  5
101
330
1
100
AcDbSymbolTableRecord
100
AcDbBlockTableRecord
  2
_D_4
340
0
  0
BLOCK_RECORD
  5
10C
330
1
100
AcDbSymbolTableRecord
100
AcDbBlockTableRecord
  2
SW_DOWELSYMBOL_0
340
0
102
{BLKREFS
331
112
102
}
  0
BLOCK_RECORD
  5
148
330
1
100
AcDbSymbolTableRecord
100
AcDbBlockTableRecord
  2
*D8
340
0
  0
ENDTAB
  0
ENDSEC
  0
SECTION
  2
BLOCKS
  0
BLOCK
  5
20
330
1F
100
AcDbEntity
  8
0
100
AcDbBlockBegin
  2
*Model_Space
 70
     0
 10
0.0
 20
0.0
 30
0.0
  3
*Model_Space
  1
*Model_Space
  0
ENDBLK
  5
21
330
1F
100
AcDbEntity
  8
0
100
AcDbBlockEnd
  0
BLOCK
  5
1C
330
1B
100
AcDbEntity
 67
     1
  8
0
100
AcDbBlockBegin
  2
*Paper_Space
 70
     0
 10
0.0
 20
0.0
 30
0.0
  3
*Paper_Space
  1
*Paper_Space
  0
ENDBLK
  5
1D
330
1B
100
AcDbEntity
 67
     1
  8
0
100
AcDbBlockEnd
  0
BLOCK
  5
24
330
23
100
AcDbEntity
  8
0
100
AcDbBlockBegin
  2
*Paper_Space0
 70
     0
 10
0.0
 20
0.0
 30
0.0
  3
*Paper_Space0
  1
*Paper_Space0
  0
ENDBLK
  5
25
330
23
100
AcDbEntity
  8
0
100
AcDbBlockEnd
  0
BLOCK
  5
83
330
82
100
AcDbEntity
  8
0
100
AcDbBlockBegin
  2
블럭10
 70
     2
 10
0.0
 20
0.0
 30
0.0
  3
블럭10
  1
블럭10
  0
ELLIPSE
  5
85
330
82
100
AcDbEntity
  8
중심선
100
AcDbEllipse
 10
20.54032771741204
 20
12.0471743016438
 30
0.0
 11
6.600054785286829
 21
-1.261213355974178E-13
 31
0.0
210
0.0
220
0.0
230
1.0
 40
0.636358354079598
 41
0.9219305317359503
 42
6.513795318482858
  0
ELLIPSE
  5
86
330
82
100
AcDbEntity
  8
중심선
100
AcDbEllipse
 10
20.54032771746488
 20
12.04717430159265
 30
0.0
 11
3.960054785062283
 21
1.540847449632565E-10
 31
0.0
210
0.0
220
0.0
230
1.0
 40
0.3939339440162632
 41
1.131841032648279
 42
5.62031148352944
  0
LINE
  5
87
330
82
100
AcDbEntity
  8
중심선
100
AcDbLine
 10
2.268634060543552
 20
16.24717430164393
 30
0.0
 11
5.714909304380834
 21
16.24717430164393
 31
0.0
  0
LINE
  5
88
330
82
100
AcDbEntity
  8
중심선
100
AcDbLine
 10
5.245725140726316
 20
7.84717430164391
 30
0.0
 11
8.692000384563599
 21
7.84717430164391
 31
0.0
  0
LINE
  5
89
330
82
100
AcDbEntity
  8
중심선
100
AcDbLine
 10
15.74043728645272
 20
16.24717430164393
 30
0.0
 11
8.692000384563599
 21
7.84717430164391
 31
0.0
  0
LINE
  5
8A
330
82
100
AcDbEntity
  8
중심선
100
AcDbLine
 10
0.1404042013395286
 20
13.71084872107135
 30
0.0
 11
3.58671253028996
 21
13.71088815037384
 31
0.0
  0
LINE
  5
8B
330
82
100
AcDbEntity
  8
중심선
100
AcDbLine
 10
2.750260043222114
 20
10.84717430164391
 30
0.0
 11
6.196535287059397
 21
10.84717430164391
 31
0.0
  0
LINE
  5
8C
330
82
100
AcDbEntity
  8
중심선
100
AcDbLine
 10
12.29416204261559
 20
16.24717430164393
 30
0.0
 11
5.245725140726316
 21
7.84717430164391
 31
0.0
  0
LINE
  5
8D
330
82
100
AcDbEntity
  8
중심선
100
AcDbLine
 10
10.72767329541681
 20
16.24717430164393
 30
0.0
 11
6.196535287059397
 21
10.84717430164391
 31
0.0
  0
LINE
  5
8E
330
82
100
AcDbEntity
  8
중심선
100
AcDbLine
 10
7.28139805157953
 20
16.24717430164393
 30
0.0
 11
2.750260043222114
 21
10.84717430164391
 31
0.0
  0
LINE
  5
8F
330
82
100
AcDbEntity
  8
중심선
100
AcDbLine
 10
5.714909304380834
 20
16.24717430164393
 30
0.0
 11
3.58671253028996
 21
13.71088815037384
 31
0.0
  0
LINE
  5
90
330
82
100
AcDbEntity
  8
중심선
100
AcDbLine
 10
2.268634060543552
 20
16.24717430164393
 30
0.0
 11
0.1404042013395286
 21
13.71084872107135
 31
0.0
  0
LINE
  5
91
330
82
100
AcDbEntity
  8
중심선
100
AcDbLine
 10
7.28139805157953
 20
16.24717430164393
 30
0.0
 11
10.72767329541681
 21
16.24717430164393
 31
0.0
  0
LINE
  5
92
330
82
100
AcDbEntity
  8
중심선
100
AcDbLine
 10
12.29416204261559
 20
16.24717430164393
 30
0.0
 11
15.74043728645272
 21
16.24717430164393
 31
0.0
  0
LINE
  5
93
330
82
100
AcDbEntity
  8
중심선
100
AcDbLine
 10
19.22036997980202
 20
11.08717430171403
 30
0.0
 11
23.66174974927406
 21
11.08717430171406
 31
0.0
  0
LINE
  5
94
330
82
100
AcDbEntity
  8
중심선
100
AcDbLine
 10
19.22039502424796
 20
13.00717430171391
 30
0.0
 11
19.22036997980202
 21
11.08717430171403
 31
0.0
  0
LINE
  5
95
330
82
100
AcDbEntity
  8
중심선
100
AcDbLine
 10
19.22039502424796
 20
13.00717430171391
 30
0.0
 11
26.96566020931264
 21
13.00717430171391
 31
0.0
  0
LINE
  5
96
330
82
100
AcDbEntity
  8
중심선
100
AcDbLine
 10
22.22332737316547
 20
13.45928029700563
 30
0.0
 11
24.52862924686651
 21
15.39360700705356
 31
0.0
  0
ATTDEF
  5
98
330
82
100
AcDbEntity
  8
FORMAT
 62
     2
100
AcDbText
 10
-16.11926103943555
 20
2.075366912832191
 30
0.0
 40
4.233333333333333
  1
SEME6120005E [ 2 FLUTE ]
 41
0.75
  7
SLDTEXTSTYLE0
 11
-16.11926103943555
 21
-0.0412997538344756
 31
0.0
100
AcDbAttributeDefinition
  3

  2
AUTOATTR0
 70
     0
 74
     1
  0
ENDBLK
  5
84
330
82
100
AcDbEntity
  8
0
100
AcDbBlockEnd
  0
BLOCK
  5
D3
330
D2
100
AcDbEntity
  8
0
100
AcDbBlockBegin
  2
_D
 70
     0
 10
0.0
 20
0.0
 30
0.0
  3
_D
  1
_D
  0
LINE
  5
D5
330
D2
100
AcDbEntity
  8
치수문자_일반주서
 62
     0
370
    -2
100
AcDbLine
 10
-58.91250000000001
 20
9.999999999999991
 30
0.0
 11
-71.34645802161211
 21
9.999999999999945
 31
0.0
  0
LINE
  5
D6
330
D2
100
AcDbEntity
  8
치수문자_일반주서
 62
     0
370
    -2
100
AcDbLine
 10
-58.91250000000001
 20
-9.999999999999998
 30
0.0
 11
-71.34645802161204
 21
-10.00000000000004
 31
0.0
  0
LINE
  5
D7
330
D2
100
AcDbEntity
  8
치수문자_일반주서
 62
     0
370
    -2
100
AcDbLine
 10
-71.3464580216121
 20
6.697999999999945
 30
0.0
 11
-71.34645802161205
 21
-6.698000000000045
 31
0.0
  0
SOLID
  5
D8
330
D2
100
AcDbEntity
  8
치수문자_일반주서
 62
     0
100
AcDbTrace
 10
-70.79612468827877
 20
6.697999999999947
 30
0.0
 11
-71.89679135494542
 21
6.697999999999944
 31
0.0
 12
-71.34645802161211
 22
9.999999999999945
 32
0.0
 13
-71.34645802161211
 23
9.999999999999945
 33
0.0
  0
SOLID
  5
D9
330
D2
100
AcDbEntity
  8
치수문자_일반주서
 62
     0
100
AcDbTrace
 10
-71.89679135494538
 20
-6.698000000000047
 30
0.0
 11
-70.79612468827872
 21
-6.698000000000043
 31
0.0
 12
-71.34645802161204
 22
-10.00000000000004
 32
0.0
 13
-71.34645802161204
 23
-10.00000000000004
 33
0.0
  0
MTEXT
  5
DA
330
D2
100
AcDbEntity
  8
치수문자_일반주서
 62
     0
100
AcDbMText
 10
-75.72145802161208
 20
-0.0000000000000187
 30
0.0
 40
3.5
 41
0.0
 71
     2
 72
     1
  1
\A1;%%c20
  7
SLDTEXTSTYLE0
 11
-3.552713678800503E-15
 21
1.0
 31
0.0
 73
     1
 44
1.0
  0
POINT
  5
DB
330
D2
100
AcDbEntity
  8
Defpoints
 62
     0
100
AcDbPoint
 10
-58.85000000000001
 20
9.999999999999991
 30
0.0
  0
POINT
  5
DC
330
D2
100
AcDbEntity
  8
Defpoints
 62
     0
100
AcDbPoint
 10
-58.85000000000001
 20
-9.999999999999998
 30
0.0
  0
POINT
  5
DD
330
D2
100
AcDbEntity
  8
Defpoints
 62
     0
100
AcDbPoint
 10
-71.34645802161204
 20
-10.00000000000004
 30
0.0
  0
ENDBLK
  5
D4
330
D2
100
AcDbEntity
  8
0
100
AcDbBlockEnd
  0
BLOCK
  5
E1
330
E0
100
AcDbEntity
  8
0
100
AcDbBlockBegin
  2
_D_1
 70
     0
 10
0.0
 20
0.0
 30
0.0
  3
_D_1
  1
_D_1
  0
LINE
  5
E3
330
E0
100
AcDbEntity
  8
치수문자_일반주서
 62
     0
370
    -2
100
AcDbLine
 10
40.14999999999999
 20
9.562499999999998
 30
0.0
 11
40.14999999999999
 21
27.99999999999967
 31
0.0
  0
LINE
  5
E4
330
E0
100
AcDbEntity
  8
치수문자_일반주서
 62
     0
370
    -2
100
AcDbLine
 10
15.15
 20
7.997592670552037
 30
0.0
 11
15.15
 21
27.99999999999967
 31
0.0
  0
LINE
  5
E5
330
E0
100
AcDbEntity
  8
치수문자_일반주서
 62
     0
370
    -2
100
AcDbLine
 10
36.84799999999999
 20
27.99999999999967
 30
0.0
 11
18.452
 21
27.99999999999967
 31
0.0
  0
SOLID
  5
E6
330
E0
100
AcDbEntity
  8
치수문자_일반주서
 62
     0
100
AcDbTrace
 10
36.84799999999999
 20
27.44966666666633
 30
0.0
 11
36.84799999999999
 21
28.550333333333
 31
0.0
 12
40.14999999999999
 22
27.99999999999967
 32
0.0
 13
40.14999999999999
 23
27.99999999999967
 33
0.0
  0
SOLID
  5
E7
330
E0
100
AcDbEntity
  8
치수문자_일반주서
 62
     0
100
AcDbTrace
 10
18.452
 20
28.550333333333
 30
0.0
 11
18.452
 21
27.44966666666633
 31
0.0
 12
15.15
 22
27.99999999999967
 32
0.0
 13
15.15
 23
27.99999999999967
 33
0.0
  0
MTEXT
  5
E8
330
E0
100
AcDbEntity
  8
치수문자_일반주서
 62
     0
100
AcDbMText
 10
27.65
 20
32.37499999999967
 30
0.0
 40
3.5
 41
0.0
 71
     2
 72
     1
  1
\A1;25
  7
SLDTEXTSTYLE0
 73
     1
 44
1.0
  0
POINT
  5
E9
330
E0
100
AcDbEntity
  8
Defpoints
 62
     0
100
AcDbPoint
 10
40.14999999999999
 20
9.499999999999998
 30
0.0
  0
POINT
  5
13E
330
E0
100
AcDbEntity
  8
Defpoints
 62
     0
100
AcDbPoint
 10
15.15
 20
7.935092670552037
 30
0.0
  0
POINT
  5
13F
330
E0
100
AcDbEntity
  8
Defpoints
 62
     0
100
AcDbPoint
 10
15.15
 20
27.99999999999967
 30
0.0
  0
ENDBLK
  5
E2
330
E0
100
AcDbEntity
  8
0
100
AcDbBlockEnd
  0
BLOCK
  5
EC
330
EB
100
AcDbEntity
  8
0
100
AcDbBlockBegin
  2
_D_2
 70
     0
 10
0.0
 20
0.0
 30
0.0
  3
_D_2
  1
_D_2
  0
LINE
  5
EE
330
EB
100
AcDbEntity
  8
치수문자_일반주서
 62
     0
370
    -2
100
AcDbLine
 10
40.14999999999999
 20
9.562499999999998
 30
0.0
 11
40.14999999999998
 21
50.05832450504428
 31
0.0
  0
LINE
  5
EF
330
EB
100
AcDbEntity
  8
치수문자_일반주서
 62
     0
370
    -2
100
AcDbLine
 10
-59.85000000000002
 20
9.062499999999991
 30
0.0
 11
-59.85000000000002
 21
50.05832450504428
 31
0.0
  0
LINE
  5
F0
330
EB
100
AcDbEntity
  8
치수문자_일반주서
 62
     0
370
    -2
100
AcDbLine
 10
36.84799999999998
 20
50.05832450504428
 30
0.0
 11
-56.54800000000002
 21
50.05832450504428
 31
0.0
  0
SOLID
  5
F1
330
EB
100
AcDbEntity
  8
치수문자_일반주서
 62
     0
100
AcDbTrace
 10
36.84799999999998
 20
49.50799117171095
 30
0.0
 11
36.84799999999998
 21
50.60865783837762
 31
0.0
 12
40.14999999999998
 22
50.05832450504428
 32
0.0
 13
40.14999999999998
 23
50.05832450504428
 33
0.0
  0
SOLID
  5
F2
330
EB
100
AcDbEntity
  8
치수문자_일반주서
 62
     0
100
AcDbTrace
 10
-56.54800000000002
 20
50.60865783837762
 30
0.0
 11
-56.54800000000002
 21
49.50799117171095
 31
0.0
 12
-59.85000000000002
 22
50.05832450504428
 32
0.0
 13
-59.85000000000002
 23
50.05832450504428
 33
0.0
  0
MTEXT
  5
F3
330
EB
100
AcDbEntity
  8
치수문자_일반주서
 62
     0
100
AcDbMText
 10
-9.85000000000001
 20
54.43332450504428
 30
0.0
 40
3.5
 41
0.0
 71
     2
 72
     1
  1
\A1;100
  7
SLDTEXTSTYLE0
 73
     1
 44
1.0
  0
POINT
  5
154
330
EB
100
AcDbEntity
  8
Defpoints
 62
     0
100
AcDbPoint
 10
40.14999999999999
 20
9.499999999999998
 30
0.0
  0
POINT
  5
155
330
EB
100
AcDbEntity
  8
Defpoints
 62
     0
100
AcDbPoint
 10
-59.85000000000002
 20
8.999999999999991
 30
0.0
  0
POINT
  5
156
330
EB
100
AcDbEntity
  8
Defpoints
 62
     0
100
AcDbPoint
 10
-59.85000000000002
 20
50.05832450504428
 30
0.0
  0
ENDBLK
  5
ED
330
EB
100
AcDbEntity
  8
0
100
AcDbBlockEnd
  0
BLOCK
  5
F6
330
F5
100
AcDbEntity
  8
0
100
AcDbBlockBegin
  2
_D_3
 70
     0
 10
0.0
 20
0.0
 30
0.0
  3
_D_3
  1
_D_3
  0
LINE
  5
F8
330
F5
100
AcDbEntity
  8
치수문자_일반주서
 62
     0
370
    -2
100
AcDbLine
 10
40.14999999999999
 20
8.243625897460507
 30
0.0
 11
40.14999999999999
 21
36.39716623750941
 31
0.0
  0
LINE
  5
F9
330
F5
100
AcDbEntity
  8
치수문자_일반주서
 62
     0
370
    -2
100
AcDbLine
 10
0.1499999999999932
 20
9.912499999999998
 30
0.0
 11
0.1499999999999915
 21
36.39716623750941
 31
0.0
  0
LINE
  5
FA
330
F5
100
AcDbEntity
  8
치수문자_일반주서
 62
     0
370
    -2
100
AcDbLine
 10
36.84799999999999
 20
36.39716623750941
 30
0.0
 11
3.451999999999992
 21
36.39716623750941
 31
0.0
  0
SOLID
  5
FB
330
F5
100
AcDbEntity
  8
치수문자_일반주서
 62
     0
100
AcDbTrace
 10
36.84799999999999
 20
35.84683290417608
 30
0.0
 11
36.84799999999999
 21
36.94749957084274
 31
0.0
 12
40.14999999999999
 22
36.39716623750941
 32
0.0
 13
40.14999999999999
 23
36.39716623750941
 33
0.0
  0
SOLID
  5
FC
330
F5
100
AcDbEntity
  8
치수문자_일반주서
 62
     0
100
AcDbTrace
 10
3.451999999999992
 20
36.94749957084274
 30
0.0
 11
3.451999999999992
 21
35.84683290417608
 31
0.0
 12
0.1499999999999915
 22
36.39716623750941
 32
0.0
 13
0.1499999999999915
 23
36.39716623750941
 33
0.0
  0
MTEXT
  5
FD
330
F5
100
AcDbEntity
  8
치수문자_일반주서
 62
     0
100
AcDbMText
 10
20.15
 20
40.77216623750941
 30
0.0
 40
3.5
 41
0.0
 71
     2
 72
     1
  1
\A1;40
  7
SLDTEXTSTYLE0
 73
     1
 44
1.0
  0
POINT
  5
FE
330
F5
100
AcDbEntity
  8
Defpoints
 62
     0
100
AcDbPoint
 10
40.14999999999999
 20
8.181125897460507
 30
0.0
  0
POINT
  5
FF
330
F5
100
AcDbEntity
  8
Defpoints
 62
     0
100
AcDbPoint
 10
0.1499999999999932
 20
9.849999999999998
 30
0.0
  0
POINT
  5
138
330
F5
100
AcDbEntity
  8
Defpoints
 62
     0
100
AcDbPoint
 10
0.1499999999999932
 20
36.39716623750941
 30
0.0
  0
ENDBLK
  5
F7
330
F5
100
AcDbEntity
  8
0
100
AcDbBlockEnd
  0
BLOCK
  5
102
330
101
100
AcDbEntity
  8
0
100
AcDbBlockBegin
  2
_D_4
 70
     0
 10
0.0
 20
0.0
 30
0.0
  3
_D_4
  1
_D_4
  0
LINE
  5
104
330
101
100
AcDbEntity
  8
치수문자_일반주서
 62
     0
370
    -2
100
AcDbLine
 10
39.71249999999999
 20
9.975487445215995
 30
0.0
 11
56.26707442896662
 21
9.975487445216054
 31
0.0
  0
LINE
  5
105
330
101
100
AcDbEntity
  8
치수문자_일반주서
 62
     0
370
    -2
100
AcDbLine
 10
40.64978116601999
 20
-10.02517442969346
 30
0.0
 11
56.26707442896669
 21
-10.0251744296934
 31
0.0
  0
LINE
  5
106
330
101
100
AcDbEntity
  8
치수문자_일반주서
 62
     0
370
    -2
100
AcDbLine
 10
56.26707442896663
 20
6.673487445216054
 30
0.0
 11
56.26707442896667
 21
-6.723174429693401
 31
0.0
  0
SOLID
  5
107
330
101
100
AcDbEntity
  8
치수문자_일반주서
 62
     0
100
AcDbTrace
 10
56.81740776229996
 20
6.673487445216056
 30
0.0
 11
55.7167410956333
 21
6.673487445216052
 31
0.0
 12
56.26707442896662
 22
9.975487445216054
 32
0.0
 13
56.26707442896662
 23
9.975487445216054
 33
0.0
  0
SOLID
  5
108
330
101
100
AcDbEntity
  8
치수문자_일반주서
 62
     0
100
AcDbTrace
 10
55.71674109563334
 20
-6.723174429693403
 30
0.0
 11
56.81740776230001
 21
-6.723174429693399
 31
0.0
 12
56.26707442896669
 22
-10.0251744296934
 32
0.0
 13
56.26707442896669
 23
-10.0251744296934
 33
0.0
  0
MTEXT
  5
109
330
101
100
AcDbEntity
  8
치수문자_일반주서
 62
     0
100
AcDbMText
 10
51.89207442896665
 20
0.0000000000000431
 30
0.0
 40
3.5
 41
0.0
 71
     2
 72
     1
  1
\A1;%%c20
  7
SLDTEXTSTYLE0
 11
-3.552596110089067E-15
 21
1.0
 31
0.0
 73
     1
 44
1.0
  0
POINT
  5
10A
330
101
100
AcDbEntity
  8
Defpoints
 62
     0
100
AcDbPoint
 10
39.64999999999999
 20
9.975487445215995
 30
0.0
  0
POINT
  5
10B
330
101
100
AcDbEntity
  8
Defpoints
 62
     0
100
AcDbPoint
 10
40.58728116601999
 20
-10.02517442969346
 30
0.0
  0
POINT
  5
13C
330
101
100
AcDbEntity
  8
Defpoints
 62
     0
100
AcDbPoint
 10
56.26707442896669
 20
-10.0251744296934
 30
0.0
  0
ENDBLK
  5
103
330
101
100
AcDbEntity
  8
0
100
AcDbBlockEnd
  0
BLOCK
  5
10D
330
10C
100
AcDbEntity
  8
0
100
AcDbBlockBegin
  2
SW_DOWELSYMBOL_0
 70
     0
 10
0.0
 20
0.0
 30
0.0
  3
SW_DOWELSYMBOL_0
  1
SW_DOWELSYMBOL_0
  0
CIRCLE
  5
10F
330
10C
100
AcDbEntity
  8
외형선
 62
     0
100
AcDbCircle
 10
0.0
 20
0.0
 30
0.0
 40
3.000000000000004
  0
HATCH
  5
110
330
10C
100
AcDbEntity
  8
0
  6
Continuous
 62
     0
370
    35
100
AcDbHatch
 10
0.0
 20
0.0
 30
0.0
210
0.0
220
0.0
230
1.0
  2
SOLID
 70
     1
 71
     0
 91
        1
 92
        0
 93
        3
 72
     2
 10
0.0000000000000104
 20
0.0
 40
3.000000000000004
 50
0.0
 51
90.0
 73
     1
 72
     1
 10
0.0000000000000104
 20
3.000000000000004
 11
0.0000000000000104
 21
0.0
 72
     1
 10
0.0000000000000104
 20
0.0
 11
3.000000000000015
 21
0.0
 97
        0
 75
     0
 76
     1
 98
        1
 10
0.0
 20
0.0
  0
HATCH
  5
111
330
10C
100
AcDbEntity
  8
0
  6
Continuous
 62
     0
370
    35
100
AcDbHatch
 10
0.0
 20
0.0
 30
0.0
210
0.0
220
0.0
230
1.0
  2
SOLID
 70
     1
 71
     0
 91
        1
 92
        0
 93
        3
 72
     2
 10
0.0000000000000104
 20
0.0
 40
3.000000000000004
 50
180.0
 51
270.0000000000007
 73
     1
 72
     1
 10
0.0000000000000104
 20
-3.000000000000004
 11
0.0000000000000104
 21
0.0
 72
     1
 10
0.0000000000000104
 20
0.0
 11
-2.999999999999994
 21
0.0
 97
        0
 75
     0
 76
     1
 98
        1
 10
0.0
 20
0.0
  0
ENDBLK
  5
10E
330
10C
100
AcDbEntity
  8
0
100
AcDbBlockEnd
  0
BLOCK
  5
149
330
148
100
AcDbEntity
  8
0
100
AcDbBlockBegin
  2
*D8
 70
     1
 10
0.0
 20
0.0
 30
0.0
  3
*D8
  1
*D8
  0
LINE
  5
14B
330
148
100
AcDbEntity
  8
치수문자_일반주서
 62
     0
370
    -2
100
AcDbLine
 10
42.19868462810813
 20
-12.29673019734586
 30
0.0
 11
56.61342211594045
 21
-28.25298983531793
 31
0.0
  0
MTEXT
  5
14C
330
148
100
AcDbEntity
  8
치수문자_일반주서
 62
     0
100
AcDbMText
 10
55.48184458147679
 20
-23.08455715741671
 30
0.0
 40
3.5
 41
0.0
 71
     5
 72
     1
  1
\A1;R0.5
  7
SLDTEXTSTYLE0
 11
0.6703536633635275
 21
-0.7420417549000179
 31
0.0
 73
     1
 44
1.0
  0
SOLID
  5
14D
330
148
100
AcDbEntity
  8
치수문자_일반주서
 62
     0
100
AcDbTrace
 10
42.60705494055477
 20
-11.92781223127479
 30
0.0
 11
41.79031431566148
 21
-12.66564816341692
 31
0.0
 12
39.98517683168176
 22
-9.846508322665995
 32
0.0
 13
39.98517683168176
 23
-9.846508322665995
 33
0.0
  0
LINE
  5
14E
330
148
100
AcDbEntity
  8
치수문자_일반주서
 62
     0
100
AcDbLine
 10
39.55999999999999
 20
-9.475487445215986
 30
0.0
 11
39.73999999999999
 21
-9.475487445215986
 31
0.0
  0
LINE
  5
14F
330
148
100
AcDbEntity
  8
치수문자_일반주서
 62
     0
100
AcDbLine
 10
39.64999999999999
 20
-9.565487445215986
 30
0.0
 11
39.64999999999999
 21
-9.385487445215986
 31
0.0
  0
POINT
  5
150
330
148
100
AcDbEntity
  8
Defpoints
 62
     0
100
AcDbPoint
 10
39.98517683168176
 20
-9.846508322665995
 30
0.0
  0
POINT
  5
151
330
148
100
AcDbEntity
  8
Defpoints
 62
     0
100
AcDbPoint
 10
39.64999999999999
 20
-9.475487445215986
 30
0.0
  0
ENDBLK
  5
14A
330
148
100
AcDbEntity
  8
0
100
AcDbBlockEnd
  0
ENDSEC
  0
SECTION
  2
ENTITIES
  0
LINE
  5
99
330
1F
100
AcDbEntity
  8
0
  6
Continuous
 62
     4
370
    25
100
AcDbLine
 10
-0.0000000000000036
 20
9.999999999999995
 30
0.0
 11
-58.85000000000001
 21
9.999999999999993
 31
0.0
  0
LINE
  5
9A
330
1F
100
AcDbEntity
  8
0
  6
Continuous
 62
     4
370
    25
100
AcDbLine
 10
-58.85000000000001
 20
-10.0
 30
0.0
 11
0.0000000000000031
 21
-9.999999999999996
 31
0.0
1001
PE_URL
1000

  0
LINE
  5
9D
330
1F
100
AcDbEntity
  8
0
  6
Continuous
 62
     4
370
    25
100
AcDbLine
 10
-58.85000000000001
 20
9.999999999999991
 30
0.0
 11
-59.85000000000002
 21
8.999999999999991
 31
0.0
  0
LINE
  5
9E
330
1F
100
AcDbEntity
  8
0
  6
Continuous
 62
     4
370
    25
100
AcDbLine
 10
-59.85000000000002
 20
-8.999999999999998
 30
0.0
 11
-58.85000000000001
 21
-9.999999999999998
 31
0.0
  0
LINE
  5
9F
330
1F
100
AcDbEntity
  8
0
  6
Continuous
 62
     4
370
    25
100
AcDbLine
 10
12.09987825354362
 20
9.849999999999998
 30
0.0
 11
0.1499999999999932
 21
9.849999999999998
 31
0.0
  0
LINE
  5
A0
330
1F
100
AcDbEntity
  8
0
  6
Continuous
 62
     4
370
    25
100
AcDbLine
 10
0.1499999999999932
 20
-9.849999999999998
 30
0.0
 11
12.09987825354362
 21
-9.849999999999998
 31
0.0
  0
SPLINE
  5
A1
330
1F
100
AcDbEntity
  8
0
  6
Continuous
 62
     4
370
    25
100
AcDbSpline
210
0.0
220
0.0
230
1.0
 70
     8
 71
     3
 72
     9
 73
     5
 74
     0
 42
0.000000001
 43
0.00000001
 40
0.0
 40
0.0
 40
0.0
 40
0.0
 40
0.468851250540008
 40
1.0
 40
1.0
 40
1.0
 40
1.0
 10
14.28152574540326
 20
2.544361835673127
 30
0.0
 10
13.94227496052435
 20
2.705001384194914
 30
0.0
 10
13.21869624661847
 20
3.047625080594928
 30
0.0
 10
12.48790801412677
 20
3.420518619690299
 30
0.0
 10
12.09975075831873
 20
3.618580556662518
 30
0.0
  0
SPLINE
  5
A2
330
1F
100
AcDbEntity
  8
0
  6
Continuous
 62
     1
370
    25
100
AcDbSpline
210
0.0
220
0.0
230
1.0
 70
     8
 71
     3
 72
    32
 73
    28
 74
     0
 42
0.000000001
 43
0.00000001
 40
0.0
 40
0.0
 40
0.0
 40
0.0
 40
0.0555114986183368
 40
0.1017116039402731
 40
0.1389108795996812
 40
0.1702643459990583
 40
0.1969029699962611
 40
0.218880180211812
 40
0.2524474745911054
 40
0.2890655642393884
 40
0.3274981019967663
 40
0.3628559792533306
 40
0.3910208397389351
 40
0.4148729577201097
 40
0.4450883980750164
 40
0.4825991223640393
 40
0.5528955988153411
 40
0.617618128578757
 40
0.6752113361461075
 40
0.737324232008604
 40
0.7772468068035076
 40
0.8145848110245681
 40
0.8468787120005788
 40
0.8681166571598835
 40
0.9005646126954934
 40
0.9445321190595669
 40
1.0
 40
1.0
 40
1.0
 40
1.0
 10
36.43501071978683
 20
6.839531148131015
 30
0.0
 10
36.12237069349641
 20
6.813647366665625
 30
0.0
 10
35.54953228485319
 20
6.766221500054006
 30
0.0
 10
34.7486554269026
 20
6.712251384989457
 30
0.0
 10
34.06698439134249
 20
6.674136789827776
 30
0.0
 10
33.50213668663855
 20
6.647228029094133
 30
0.0
 10
33.02962111739627
 20
6.628115532231186
 30
0.0
 10
32.54931261875348
 20
6.611679051525551
 30
0.0
 10
32.01274551573039
 20
6.59712998195445
 30
0.0
 10
31.37833505266202
 20
6.585612384191007
 30
0.0
 10
30.73300119562318
 20
6.580116306380249
 30
0.0
 10
30.13828286409103
 20
6.580739461381196
 30
0.0
 10
29.62945718413339
 20
6.585448543333575
 30
0.0
 10
29.1523170338714
 20
6.593041521832909
 30
0.0
 10
28.61984431433785
 20
6.605174770855477
 30
0.0
 10
27.81707398136333
 20
6.630393010940818
 30
0.0
 10
26.81351398741372
 20
6.67588803442194
 30
0.0
 10
25.69159932320758
 20
6.745543372881116
 30
0.0
 10
24.6155592287417
 20
6.828601308783183
 30
0.0
 10
23.68598898578573
 20
6.914294967908619
 30
0.0
 10
22.87430926101579
 20
6.998616059489789
 30
0.0
 10
22.2355967950185
 20
7.070660747507391
 30
0.0
 10
21.70445152982678
 20
7.134848283677154
 30
0.0
 10
21.20243696078236
 20
7.198602358967161
 30
0.0
 10
20.63444730139587
 20
7.274437934887225
 30
0.0
 10
19.86687284476158
 20
7.382403546627303
 30
0.0
 10
19.28752760285133
 20
7.471594555307218
 30
0.0
 10
18.9643523855288
 20
7.521347831123043
 30
0.0
  0
SPLINE
  5
A3
330
1F
100
AcDbEntity
  8
0
  6
Continuous
 62
     1
370
    25
100
AcDbSpline
210
0.0
220
0.0
230
1.0
 70
     8
 71
     3
 72
    17
 73
    13
 74
     0
 42
0.000000001
 43
0.00000001
 40
0.0
 40
0.0
 40
0.0
 40
0.0
 40
0.1329991572397065
 40
0.2457144540170335
 40
0.3398513156306332
 40
0.4190855023020014
 40
0.4836607374182106
 40
0.5543844897538626
 40
0.634215671763646
 40
0.7246725060989794
 40
0.9789557039292964
 40
1.0
 40
1.0
 40
1.0
 40
1.0
 10
18.9643523855288
 20
-7.52134783112304
 30
0.0
 10
19.28310125354309
 20
-7.472018736560362
 30
0.0
 10
19.87198621866745
 20
-7.380883786616447
 30
0.0
 10
20.71345645600888
 20
-7.261951425326853
 30
0.0
 10
21.44046735655389
 20
-7.167280408587628
 30
0.0
 10
22.04212689987794
 20
-7.093655773949182
 30
0.0
 10
22.58251069895056
 20
-7.031210382184779
 30
0.0
 10
23.11682844554626
 20
-6.973082274472815
 30
0.0
 10
23.71747841696415
 20
-6.911959071116773
 30
0.0
 10
24.77519278437037
 20
-6.814780265177679
 30
0.0
 10
25.68662733798781
 20
-6.73780728170071
 30
0.0
 10
26.37127295211262
 20
-6.705533525798472
 30
0.0
 10
26.42360294212927
 20
-6.703066723573613
 30
0.0
  0
LINE
  5
A5
330
1F
100
AcDbEntity
  8
0
  6
Continuous
 62
     4
370
    25
100
AcDbLine
 10
-58.85000000000001
 20
9.999999999999991
 30
0.0
 11
-58.85000000000001
 21
-10.00000000000001
 31
0.0
  0
LINE
  5
A6
330
1F
100
AcDbEntity
  8
0
  6
Continuous
 62
     4
370
    25
100
AcDbLine
 10
0.1499999999999932
 20
9.85
 30
0.0
 11
0.1499999999999932
 21
-9.85000000000001
 31
0.0
1001
PE_URL
1000

  0
LINE
  5
A7
330
1F
100
AcDbEntity
  8
0
  6
Continuous
 62
     4
370
    25
100
AcDbLine
 10
-59.85000000000002
 20
8.999999999999991
 30
0.0
 11
-59.85000000000002
 21
-8.999999999999982
 31
0.0
  0
SPLINE
  5
A8
330
1F
100
AcDbEntity
  8
0
  6
Continuous
 62
     4
370
    25
100
AcDbSpline
210
0.0
220
0.0
230
1.0
 70
     8
 71
     3
 72
    10
 73
     6
 74
     0
 42
0.000000001
 43
0.00000001
 40
0.0
 40
0.0
 40
0.0
 40
0.0
 40
0.5
 40
0.5
 40
1.0
 40
1.0
 40
1.0
 40
1.0
 10
15.15
 20
-0.8898815860289331
 30
0.0
 10
14.641808753992
 20
-0.686119905104475
 30
0.0
 10
14.13627113686325
 20
-0.48156500663198
 30
0.0
 10
13.11856913610309
 20
-0.0708506497878458
 30
0.0
 10
12.60839045465719
 20
0.1350423413521299
 30
0.0
 10
12.09984753413844
 20
0.3402751878754638
 30
0.0
  0
SPLINE
  5
A9
330
1F
100
AcDbEntity
  8
0
  6
Continuous
 62
     4
370
    25
100
AcDbSpline
210
0.0
220
0.0
230
1.0
 70
     8
 71
     3
 72
    10
 73
     6
 74
     0
 42
0.000000001
 43
0.00000001
 40
0.0
 40
0.0
 40
0.0
 40
0.0
 40
0.5
 40
0.5
 40
1.0
 40
1.0
 40
1.0
 40
1.0
 10
12.09987825354362
 20
0.9245106513888609
 30
0.0
 10
12.60841611997528
 20
0.6366561683620062
 30
0.0
 10
13.11858965483593
 20
0.3472966489498815
 30
0.0
 10
14.13628135614288
 20
-0.2310716598498797
 30
0.0
 10
14.64181387035194
 20
-0.5197029608538336
 30
0.0
 10
15.14999999999999
 20
-0.8077934675519876
 30
0.0
  0
SPLINE
  5
AA
330
1F
100
AcDbEntity
  8
0
  6
Continuous
 62
     4
370
    25
100
AcDbSpline
210
0.0
220
0.0
230
1.0
 70
     8
 71
     3
 72
    10
 73
     6
 74
     0
 42
0.000000001
 43
0.00000001
 40
0.0
 40
0.0
 40
0.0
 40
0.0
 40
0.5
 40
0.5
 40
1.0
 40
1.0
 40
1.0
 40
1.0
 10
15.15000000000058
 20
1.95567698076478
 30
0.0
 10
14.64179263583986
 20
2.238998216442475
 30
0.0
 10
14.13623894289377
 20
2.519305385252156
 30
0.0
 10
13.11850449559802
 20
3.073905642941452
 30
0.0
 10
12.60830960078665
 20
3.347822908993042
 30
0.0
 10
12.09975075831873
 20
3.616768602545889
 30
0.0
  0
LINE
  5
AB
330
1F
100
AcDbEntity
  8
0
  6
Continuous
 62
     4
370
    25
100
AcDbLine
 10
12.09987825354362
 20
3.617190445390403
 30
0.0
 11
12.09987825354362
 21
9.849999999999998
 31
0.0
  0
LINE
  5
AC
330
1F
100
AcDbEntity
  8
0
  6
Continuous
 62
     4
370
    25
100
AcDbLine
 10
12.09987825354362
 20
-9.849999999999998
 30
0.0
 11
12.09987825354362
 21
0.9245656617925403
 31
0.0
  0
LINE
  5
AD
330
1F
100
AcDbEntity
  8
0
  6
Continuous
 62
     4
370
    25
100
AcDbLine
 10
15.15000000000003
 20
2.133989393348902
 30
0.0
 11
14.24330919400626
 21
2.552661356363985
 31
0.0
  0
SPLINE
  5
AE
330
1F
100
AcDbEntity
  8
0
  6
Continuous
 62
     4
370
    25
100
AcDbSpline
210
0.0
220
0.0
230
1.0
 70
    24
 71
     3
 72
     8
 73
     4
 74
     0
 42
0.000000001
 43
0.00000001
 40
0.0
 40
0.0
 40
0.0
 40
0.0
 40
1.0
 40
1.0
 40
1.0
 40
1.0
 10
15.15000000000003
 20
2.133989393348905
 30
0.0
 10
15.15000000000003
 20
2.108924649916942
 30
0.0
 10
15.15000000000002
 20
2.049336037254279
 30
0.0
 10
15.15000000000003
 20
1.955676980766218
 30
0.0
  0
SPLINE
  5
AF
330
1F
100
AcDbEntity
  8
0
  6
Continuous
 62
     4
370
    25
100
AcDbSpline
210
0.0
220
0.0
230
1.0
 70
     8
 71
     3
 72
    10
 73
     6
 74
     0
 42
0.000000001
 43
0.00000001
 40
0.0
 40
0.0
 40
0.0
 40
0.0
 40
0.5
 40
0.5
 40
1.0
 40
1.0
 40
1.0
 40
1.0
 10
15.15
 20
7.935092670552039
 30
0.0
 10
14.64180611577588
 20
7.964938859243429
 30
0.0
 10
14.13626586736104
 20
7.984502128435085
 30
0.0
 10
13.11855855575813
 20
8.003037673250482
 30
0.0
 10
12.60837722051101
 20
8.001957544012429
 30
0.0
 10
12.09983169388817
 20
7.990542037424932
 30
0.0
  0
SPLINE
  5
B0
330
1F
100
AcDbEntity
  8
0
  6
Continuous
 62
     4
370
    25
100
AcDbSpline
210
0.0
220
0.0
230
1.0
 70
    24
 71
     3
 72
    14
 73
    10
 74
     0
 42
0.000000001
 43
0.00000001
 40
0.0
 40
0.0
 40
0.0
 40
0.0
 40
0.2500000000000001
 40
0.2500000000000001
 40
0.5000000000000001
 40
0.5000000000000001
 40
0.7500000000000001
 40
0.7500000000000001
 40
1.0
 40
1.0
 40
1.0
 40
1.0
 10
15.15
 20
7.935092670552041
 30
0.0
 10
15.15
 20
7.749296787584233
 30
0.0
 10
15.15
 20
7.479494782204887
 30
0.0
 10
15.15
 20
6.77319222927566
 30
0.0
 10
15.15
 20
6.336702333370864
 30
0.0
 10
15.15
 20
5.322815805983422
 30
0.0
 10
15.15
 20
4.745711954152243
 30
0.0
 10
15.15
 20
3.496753199343375
 30
0.0
 10
15.15
 20
2.825336258177721
 30
0.0
 10
15.15
 20
2.133989393348917
 30
0.0
  0
SPLINE
  5
B1
330
1F
100
AcDbEntity
  8
0
  6
Continuous
 62
     4
370
    25
100
AcDbSpline
210
0.0
220
0.0
230
1.0
 70
     8
 71
     3
 72
    10
 73
     6
 74
     0
 42
0.000000001
 43
0.00000001
 40
0.0
 40
0.0
 40
0.0
 40
0.0
 40
0.5
 40
0.5
 40
1.0
 40
1.0
 40
1.0
 40
1.0
 10
15.15
 20
-7.935092670552037
 30
0.0
 10
14.64180611577588
 20
-7.964938859243425
 30
0.0
 10
14.13626586736103
 20
-7.984502128435083
 30
0.0
 10
13.11855855575813
 20
-8.003037673250478
 30
0.0
 10
12.60837722051101
 20
-8.001957544012425
 30
0.0
 10
12.09983169388817
 20
-7.990542037424929
 30
0.0
  0
SPLINE
  5
B2
330
1F
100
AcDbEntity
  8
0
  6
Continuous
 62
     4
370
    25
100
AcDbSpline
210
0.0
220
0.0
230
1.0
 70
    24
 71
     3
 72
    14
 73
    10
 74
     0
 42
0.000000001
 43
0.00000001
 40
0.0
 40
0.0
 40
0.0
 40
0.0
 40
0.2499999999999998
 40
0.2499999999999998
 40
0.4999999999999998
 40
0.4999999999999998
 40
0.7499999999999999
 40
0.7499999999999999
 40
1.0
 40
1.0
 40
1.0
 40
1.0
 10
15.15
 20
-0.8898815860289332
 30
0.0
 10
15.15
 20
-1.724421663267492
 30
0.0
 10
15.15
 20
-2.549343906947919
 30
0.0
 10
15.15
 20
-4.093517008860849
 30
0.0
 10
15.14999999999999
 20
-4.81181170096338
 30
0.0
 10
15.15
 20
-6.063948831939491
 30
0.0
 10
15.15
 20
-6.597124079800062
 30
0.0
 10
15.15
 20
-7.435932285862441
 30
0.0
 10
15.15
 20
-7.741599800990224
 30
0.0
 10
15.15
 20
-7.935092670552037
 30
0.0
  0
SPLINE
  5
B3
330
1F
100
AcDbEntity
  8
0
  6
Continuous
 62
     1
370
    25
100
AcDbSpline
210
0.0
220
0.0
230
1.0
 70
     8
 71
     3
 72
    34
 73
    30
 74
     0
 42
0.000000001
 43
0.00000001
 40
0.0
 40
0.0
 40
0.0
 40
0.0
 40
0.1250000000000004
 40
0.1250000000000004
 40
0.2500000000000008
 40
0.2500000000000008
 40
0.3125000000000011
 40
0.3125000000000011
 40
0.3750000000000012
 40
0.3750000000000012
 40
0.4375000000000011
 40
0.4375000000000011
 40
0.500000000000001
 40
0.500000000000001
 40
0.5625000000000009
 40
0.5625000000000009
 40
0.6250000000000008
 40
0.6250000000000008
 40
0.6875000000000007
 40
0.6875000000000007
 40
0.7500000000000004
 40
0.7500000000000004
 40
0.8125000000000003
 40
0.8125000000000003
 40
0.8750000000000002
 40
0.8750000000000002
 40
0.9375000000000001
 40
0.9375000000000001
 40
1.0
 40
1.0
 40
1.0
 40
1.0
 10
40.14999999999999
 20
-7.889722643682156
 30
0.0
 10
39.11283102091952
 20
-7.699799998022348
 30
0.0
 10
38.06264687045727
 20
-7.46606671065049
 30
0.0
 10
35.98707628628613
 20
-6.922243187354509
 30
0.0
 10
34.93813904666826
 20
-6.610152252908533
 30
0.0
 10
33.38058103295673
 20
-6.092500794740717
 30
0.0
 10
32.86018017208045
 20
-5.911331642049213
 30
0.0
 10
31.81643574235137
 20
-5.533085163969704
 30
0.0
 10
31.29417875342554
 20
-5.336129578909027
 30
0.0
 10
30.25524967933658
 20
-4.929020881711283
 30
0.0
 10
29.73545039113266
 20
-4.718473778641548
 30
0.0
 10
28.6917964803531
 20
-4.284590349875099
 30
0.0
 10
28.16942916663988
 20
-4.061449409352453
 30
0.0
 10
27.1299727330661
 20
-3.605533315688334
 30
0.0
 10
26.61069782700856
 20
-3.372452023017299
 30
0.0
 10
25.56716459459408
 20
-2.897022621715462
 30
0.0
 10
25.04470208759952
 20
-2.654938084169126
 30
0.0
 10
24.00474805054675
 20
-2.165005233646245
 30
0.0
 10
23.48592028580253
 20
-1.916956869487054
 30
0.0
 10
22.44253787954279
 20
-1.415421116627456
 30
0.0
 10
21.91999531999064
 20
-1.162251022398446
 30
0.0
 10
20.87957348318432
 20
-0.6542019654613358
 30
0.0
 10
20.36111557601393
 20
-0.3992328218054677
 30
0.0
 10
19.31791412917065
 20
0.1121229935575257
 30
0.0
 10
18.79530666553774
 20
0.3681596902956294
 30
0.0
 10
17.75444687759035
 20
0.877831139436471
 30
0.0
 10
17.23628150875724
 20
1.131455018817982
 30
0.0
 10
16.19329113716512
 20
1.63602740598023
 30
0.0
 10
15.67063392421541
 20
1.886617967533066
 30
0.0
 10
15.15000000000003
 20
2.133989393348905
 30
0.0
  0
SPLINE
  5
B4
330
1F
100
AcDbEntity
  8
0
  6
Continuous
 62
     1
370
    25
100
AcDbSpline
210
0.0
220
0.0
230
1.0
 70
    24
 71
     3
 72
     8
 73
     4
 74
     0
 42
0.000000001
 43
0.00000001
 40
0.0
 40
0.0
 40
0.0
 40
0.0
 40
1.0
 40
1.0
 40
1.0
 40
1.0
 10
40.14999999999998
 20
-8.949853084970266
 30
0.0
 10
40.14999999999998
 20
-8.595789301879107
 30
0.0
 10
40.14999999999999
 20
-8.241421910933568
 30
0.0
 10
40.14999999999999
 20
-7.889722643682156
 30
0.0
  0
SPLINE
  5
B5
330
1F
100
AcDbEntity
  8
0
  6
Continuous
 62
     1
370
    25
100
AcDbSpline
210
0.0
220
0.0
230
1.0
 70
     8
 71
     3
 72
    14
 73
    10
 74
     0
 42
0.000000001
 43
0.00000001
 40
0.0
 40
0.0
 40
0.0
 40
0.0
 40
0.25
 40
0.25
 40
0.5
 40
0.5
 40
0.75
 40
0.75
 40
1.0
 40
1.0
 40
1.0
 40
1.0
 10
40.14999999999999
 20
-8.949853084961717
 30
0.0
 10
40.14999999999999
 20
-9.018796414340947
 30
0.0
 10
40.13741529962329
 20
-9.087436646391973
 30
0.0
 10
40.0856885959962
 20
-9.211715137575524
 30
0.0
 10
40.04598662894328
 20
-9.267391220267637
 30
0.0
 10
39.9485071366853
 20
-9.350898708811958
 30
0.0
 10
39.89058614850092
 20
-9.379159385107384
 30
0.0
 10
39.77096086737588
 20
-9.406465098871587
 30
0.0
 10
39.70970973962142
 20
-9.406063407760529
 30
0.0
 10
39.64999999999998
 20
-9.394240380410215
 30
0.0
  0
SPLINE
  5
B6
330
1F
100
AcDbEntity
  8
0
  6
Continuous
 62
     1
370
    25
100
AcDbSpline
210
0.0
220
0.0
230
1.0
 70
     8
 71
     3
 72
    32
 73
    28
 74
     0
 42
0.000000001
 43
0.00000001
 40
0.0
 40
0.0
 40
0.0
 40
0.0
 40
0.0625000000000004
 40
0.0625000000000004
 40
0.1250000000000008
 40
0.1250000000000008
 40
0.1875000000000012
 40
0.1875000000000012
 40
0.2500000000000016
 40
0.2500000000000016
 40
0.3750000000000017
 40
0.3750000000000017
 40
0.5000000000000016
 40
0.5000000000000016
 40
0.6250000000000011
 40
0.6250000000000011
 40
0.6875000000000009
 40
0.6875000000000009
 40
0.7500000000000008
 40
0.7500000000000008
 40
0.8125000000000006
 40
0.8125000000000006
 40
0.8750000000000004
 40
0.8750000000000004
 40
0.9375000000000002
 40
0.9375000000000002
 40
1.0
 40
1.0
 40
1.0
 40
1.0
 10
39.65000000000001
 20
-9.394240380409874
 30
0.0
 10
39.1400898793648
 20
-9.2932739159655
 30
0.0
 10
38.62802896081846
 20
-9.179914404890903
 30
0.0
 10
37.60559749742907
 20
-8.929674902478409
 30
0.0
 10
37.09713664600208
 20
-8.792986428454089
 30
0.0
 10
36.07814298762354
 20
-8.4969401529077
 30
0.0
 10
35.56622576450771
 20
-8.33741487636742
 30
0.0
 10
34.54353691928496
 20
-7.997147780368651
 30
0.0
 10
34.03419570093357
 20
-7.816587766783456
 30
0.0
 10
32.507090875572
 20
-7.2452820639532
 30
0.0
 10
31.47959885721286
 20
-6.823318995637862
 30
0.0
 10
29.44550043391862
 20
-5.915801043978798
 30
0.0
 10
28.41661593111603
 20
-5.426942313513202
 30
0.0
 10
26.38301608380221
 20
-4.401769983338717
 30
0.0
 10
25.35501546235899
 20
-3.861602073649837
 30
0.0
 10
23.82825109245177
 20
-3.028115398850818
 30
0.0
 10
23.31867004465818
 20
-2.745867819490854
 30
0.0
 10
22.29593576792998
 20
-2.174287425331222
 30
0.0
 10
21.78405872200006
 20
-1.885189098263521
 30
0.0
 10
20.7652696438579
 20
-1.303779544787323
 30
0.0
 10
20.25662852767983
 20
-1.011144853529173
 30
0.0
 10
19.23412893524671
 20
-0.4230046760775689
 30
0.0
 10
18.72209679510662
 20
-0.1278489143931711
 30
0.0
 10
17.70245867869347
 20
0.4611770447753968
 30
0.0
 10
17.19449930006091
 20
0.7551163512881964
 30
0.0
 10
16.17233270560258
 20
1.341461968071382
 30
0.0
 10
15.66019487846147
 20
1.63346621484374
 30
0.0
 10
15.14999999999999
 20
1.922595905095705
 30
0.0
  0
SPLINE
  5
B7
330
1F
100
AcDbEntity
  8
0
  6
Continuous
 62
     4
370
    25
100
AcDbSpline
210
0.0
220
0.0
230
1.0
 70
    24
 71
     3
 72
     8
 73
     4
 74
     0
 42
0.000000001
 43
0.00000001
 40
0.0
 40
0.0
 40
0.0
 40
0.0
 40
1.0
 40
1.0
 40
1.0
 40
1.0
 10
15.15000000000003
 20
2.133989393348905
 30
0.0
 10
15.15000000000003
 20
2.106089478162435
 30
0.0
 10
15.15000000000002
 20
2.035360977277632
 30
0.0
 10
15.15000000000002
 20
1.922595905096263
 30
0.0
  0
SPLINE
  5
B8
330
1F
100
AcDbEntity
  8
0
  6
Continuous
 62
     1
370
    25
100
AcDbSpline
210
0.0
220
0.0
230
1.0
 70
     8
 71
     3
 72
    32
 73
    28
 74
     0
 42
0.000000001
 43
0.00000001
 40
0.0
 40
0.0
 40
0.0
 40
0.0
 40
0.0625000000000001
 40
0.0625000000000001
 40
0.1250000000000002
 40
0.1250000000000002
 40
0.1875000000000003
 40
0.1875000000000003
 40
0.2500000000000004
 40
0.2500000000000004
 40
0.3125000000000006
 40
0.3125000000000006
 40
0.3750000000000007
 40
0.3750000000000007
 40
0.500000000000001
 40
0.500000000000001
 40
0.6250000000000013
 40
0.6250000000000013
 40
0.7500000000000013
 40
0.7500000000000013
 40
0.812500000000001
 40
0.812500000000001
 40
0.8750000000000007
 40
0.8750000000000007
 40
0.9375000000000003
 40
0.9375000000000003
 40
1.0
 40
1.0
 40
1.0
 40
1.0
 10
15.15
 20
-0.8624658555420109
 30
0.0
 10
15.66019487846147
 20
-1.155994231773613
 30
0.0
 10
16.17233270560258
 20
-1.448769299244615
 30
0.0
 10
17.19449930006091
 20
-2.029379188182989
 30
0.0
 10
17.70245867869347
 20
-2.316828447831111
 30
0.0
 10
18.72209679510662
 20
-2.885656287000825
 30
0.0
 10
19.23412893524671
 20
-3.167089113625707
 30
0.0
 10
20.25662852767983
 20
-3.720676271376449
 30
0.0
 10
20.76526964385788
 20
-3.992511408952742
 30
0.0
 10
21.78405872200004
 20
-4.525372346712114
 30
0.0
 10
22.29593576793
 20
-4.786684525589334
 30
0.0
 10
23.31867004465818
 20
-5.29596772454707
 30
0.0
 10
23.82825109245176
 20
-5.543736473051828
 30
0.0
 10
25.35501546235898
 20
-6.264170916182263
 30
0.0
 10
26.38301608380221
 20
-6.715745548129122
 30
0.0
 10
28.416615931116
 20
-7.541279496760051
 30
0.0
 10
29.44550043391862
 20
-7.91833337130956
 30
0.0
 10
31.47959885721284
 20
-8.583463652613014
 30
0.0
 10
32.50709087557196
 20
-8.873977899246393
 30
0.0
 10
34.03419570093354
 20
-9.237041920961195
 30
0.0
 10
34.54353691928496
 20
-9.346237145597076
 30
0.0
 10
35.56622576450767
 20
-9.540255582827811
 30
0.0
 10
36.0781429876235
 20
-9.624962394890293
 30
0.0
 10
37.09713664600203
 20
-9.768870012310153
 30
0.0
 10
37.60559749742902
 20
-9.828173355020112
 30
0.0
 10
38.62802896081845
 20
-9.92122388472637
 30
0.0
 10
39.14008987936474
 20
-9.954874806870643
 30
0.0
 10
39.64999999999998
 20
-9.97548744521599
 30
0.0
  0
LINE
  5
B9
330
1F
100
AcDbEntity
  8
0
  6
Continuous
 62
     4
370
    25
100
AcDbLine
 10
15.15
 20
-0.8624658555420098
 30
0.0
 11
15.15
 21
1.922595905095701
 31
0.0
  0
LINE
  5
BB
330
1F
100
AcDbEntity
  8
0
  6
Continuous
 62
     1
370
    25
100
AcDbLine
 10
15.3061063338608
 20
-0.9515527581335169
 30
0.0
 11
15.15
 21
-0.8898815860289345
 31
0.0
  0
SPLINE
  5
BC
330
1F
100
AcDbEntity
  8
0
  6
Continuous
 62
     1
370
    25
100
AcDbSpline
210
0.0
220
0.0
230
1.0
 70
     8
 71
     3
 72
    34
 73
    30
 74
     0
 42
0.000000001
 43
0.00000001
 40
0.0
 40
0.0
 40
0.0
 40
0.0
 40
0.1249999999999995
 40
0.1249999999999995
 40
0.249999999999999
 40
0.249999999999999
 40
0.3124999999999991
 40
0.3124999999999991
 40
0.3749999999999992
 40
0.3749999999999992
 40
0.4374999999999992
 40
0.4374999999999992
 40
0.4999999999999993
 40
0.4999999999999993
 40
0.5624999999999994
 40
0.5624999999999994
 40
0.6249999999999994
 40
0.6249999999999994
 40
0.6874999999999996
 40
0.6874999999999996
 40
0.7499999999999997
 40
0.7499999999999997
 40
0.8124999999999998
 40
0.8124999999999998
 40
0.8749999999999998
 40
0.8749999999999998
 40
0.9374999999999999
 40
0.9374999999999999
 40
1.0
 40
1.0
 40
1.0
 40
1.0
 10
40.14999999999999
 20
0.0000000000000047
 30
0.0
 10
39.11283102091952
 20
0.4804158288637936
 30
0.0
 10
38.06264687045727
 20
0.9628176465627912
 30
0.0
 10
35.98707628628613
 20
1.908240703408367
 30
0.0
 10
34.93813904666826
 20
2.374799514457045
 30
0.0
 10
33.38058103295671
 20
3.049276804499031
 30
0.0
 10
32.86018017208043
 20
3.270453457401814
 30
0.0
 10
31.81643574235136
 20
3.703739503358482
 30
0.0
 10
31.29417875342554
 20
3.915689476559159
 30
0.0
 10
30.25524967933657
 20
4.32766909633542
 30
0.0
 10
29.73545039113264
 20
4.528123689114023
 30
0.0
 10
28.69179648035309
 20
4.916712768063592
 30
0.0
 10
28.16942916663986
 20
5.104647574578292
 30
0.0
 10
27.12997273306609
 20
5.465562531217555
 30
0.0
 10
26.61069782700854
 20
5.638814500677426
 30
0.0
 10
25.56716459459407
 20
5.970092931623502
 30
0.0
 10
25.04470208759952
 20
6.127907409521285
 30
0.0
 10
24.00474805054673
 20
6.426019943472576
 30
0.0
 10
23.48592028580253
 20
6.566471945358441
 30
0.0
 10
22.44253787954278
 20
6.829688815834877
 30
0.0
 10
21.91999531999061
 20
6.952255627109046
 30
0.0
 10
20.87957348318431
 20
7.177865119322285
 30
0.0
 10
20.36111557601391
 20
7.280982743799845
 30
0.0
 10
19.31791412917062
 20
7.467599216236076
 30
0.0
 10
18.79530666553772
 20
7.550935618617029
 30
0.0
 10
17.75444687759032
 20
7.69669457652398
 30
0.0
 10
17.23628150875721
 20
7.759151827270239
 30
0.0
 10
16.1932911371651
 20
7.863118471385879
 30
0.0
 10
15.67063392421539
 20
7.904515879245317
 30
0.0
 10
15.15000000000001
 20
7.935092670552039
 30
0.0
  0
SPLINE
  5
BD
330
1F
100
AcDbEntity
  8
0
  6
Continuous
 62
     1
370
    25
100
AcDbSpline
210
0.0
220
0.0
230
1.0
 70
    24
 71
     3
 72
    14
 73
    10
 74
     0
 42
0.000000001
 43
0.00000001
 40
0.0
 40
0.0
 40
0.0
 40
0.0
 40
0.25
 40
0.25
 40
0.5
 40
0.5
 40
0.75
 40
0.75
 40
1.0
 40
1.0
 40
1.0
 40
1.0
 10
40.14999999999999
 20
-7.889722643682155
 30
0.0
 10
40.14999999999998
 20
-7.462824157686001
 30
0.0
 10
40.14999999999999
 20
-6.957489687530373
 30
0.0
 10
40.14999999999999
 20
-5.809896021957767
 30
0.0
 10
40.14999999999999
 20
-5.167798560973774
 30
0.0
 10
40.14999999999998
 20
-3.78887405109853
 30
0.0
 10
40.14999999999999
 20
-3.052445193746965
 30
0.0
 10
40.14999999999999
 20
-1.540808592794406
 30
0.0
 10
40.14999999999999
 20
-0.7660492462443708
 30
0.0
 10
40.14999999999999
 20
0.0000000000000047
 30
0.0
  0
SPLINE
  5
BE
330
1F
100
AcDbEntity
  8
0
  6
Continuous
 62
     4
370
    25
100
AcDbSpline
210
0.0
220
0.0
230
1.0
 70
    24
 71
     3
 72
    14
 73
    10
 74
     0
 42
0.000000001
 43
0.00000001
 40
0.0
 40
0.0
 40
0.0
 40
0.0
 40
0.25
 40
0.25
 40
0.5
 40
0.5
 40
0.75
 40
0.75
 40
1.0
 40
1.0
 40
1.0
 40
1.0
 10
15.15
 20
7.935092670552039
 30
0.0
 10
15.15
 20
7.749296787584227
 30
0.0
 10
15.15
 20
7.479494782204887
 30
0.0
 10
15.15
 20
6.773192229275655
 30
0.0
 10
15.15
 20
6.336702333370864
 30
0.0
 10
15.15
 20
5.32281580598342
 30
0.0
 10
15.15
 20
4.745711954152239
 30
0.0
 10
15.15000000000001
 20
3.496753199343371
 30
0.0
 10
15.15
 20
2.825336258177719
 30
0.0
 10
15.15
 20
2.133989393348914
 30
0.0
  0
SPLINE
  5
BF
330
1F
100
AcDbEntity
  8
0
  6
Continuous
 62
     1
370
    25
100
AcDbSpline
210
0.0
220
0.0
230
1.0
 70
     8
 71
     3
 72
     9
 73
     5
 74
     0
 42
0.000000001
 43
0.00000001
 40
0.0
 40
0.0
 40
0.0
 40
0.0
 40
0.7541556750283828
 40
1.0
 40
1.0
 40
1.0
 40
1.0
 10
40.14999999999999
 20
7.000000000000004
 30
0.0
 10
39.21465554360866
 20
6.992196705222348
 30
0.0
 10
37.9744017241885
 20
6.981849644216191
 30
0.0
 10
36.73420638719212
 20
6.851590608913287
 30
0.0
 10
36.42931140173528
 20
6.81956716430779
 30
0.0
  0
SPLINE
  5
C0
330
1F
100
AcDbEntity
  8
0
  6
Continuous
 62
     1
370
    25
100
AcDbSpline
210
0.0
220
0.0
230
1.0
 70
    24
 71
     3
 72
    14
 73
    10
 74
     0
 42
0.000000001
 43
0.00000001
 40
0.0
 40
0.0
 40
0.0
 40
0.0
 40
0.25
 40
0.25
 40
0.5
 40
0.5
 40
0.75
 40
0.75
 40
1.0
 40
1.0
 40
1.0
 40
1.0
 10
40.14999999999999
 20
0.0000000000000043
 30
0.0
 10
40.14999999999999
 20
0.8328435170139615
 30
0.0
 10
40.14999999999998
 20
1.655435763754543
 30
0.0
 10
40.14999999999998
 20
3.193725499577555
 30
0.0
 10
40.14999999999999
 20
3.90846730374767
 30
0.0
 10
40.14999999999999
 20
5.152569121518268
 30
0.0
 10
40.14999999999999
 20
5.681266225656565
 30
0.0
 10
40.14999999999998
 20
6.510665542113565
 30
0.0
 10
40.14999999999999
 20
6.811407744363906
 30
0.0
 10
40.14999999999999
 20
7.000000000000004
 30
0.0
  0
SPLINE
  5
C1
330
1F
100
AcDbEntity
  8
0
  6
Continuous
 62
     1
370
    25
100
AcDbSpline
210
0.0
220
0.0
230
1.0
 70
     8
 71
     3
 72
     9
 73
     5
 74
     0
 42
0.000000001
 43
0.00000001
 40
0.0
 40
0.0
 40
0.0
 40
0.0
 40
0.2822693170246065
 40
1.0
 40
1.0
 40
1.0
 40
1.0
 10
18.97363504857706
 20
-7.497559230224632
 30
0.0
 10
18.61386005589878
 20
-7.560361056959493
 30
0.0
 10
17.33927946573522
 20
-7.782850087637193
 30
0.0
 10
16.06476100516781
 20
-7.871480153120529
 30
0.0
 10
15.15
 20
-7.935092670552035
 30
0.0
  0
SPLINE
  5
C2
330
1F
100
AcDbEntity
  8
0
  6
Continuous
 62
     4
370
    25
100
AcDbSpline
210
0.0
220
0.0
230
1.0
 70
    24
 71
     3
 72
    14
 73
    10
 74
     0
 42
0.000000001
 43
0.00000001
 40
0.0
 40
0.0
 40
0.0
 40
0.0
 40
0.25
 40
0.25
 40
0.5
 40
0.5
 40
0.75
 40
0.75
 40
1.0
 40
1.0
 40
1.0
 40
1.0
 10
15.15
 20
-0.8898815860289345
 30
0.0
 10
15.15
 20
-1.724421663267493
 30
0.0
 10
15.15
 20
-2.549343906947919
 30
0.0
 10
15.15
 20
-4.093517008860847
 30
0.0
 10
15.15
 20
-4.811811700963382
 30
0.0
 10
15.15
 20
-6.063948831939493
 30
0.0
 10
15.14999999999999
 20
-6.597124079800058
 30
0.0
 10
15.15
 20
-7.435932285862438
 30
0.0
 10
15.15
 20
-7.741599800990222
 30
0.0
 10
15.15
 20
-7.935092670552037
 30
0.0
  0
LINE
  5
C3
330
1F
100
AcDbEntity
  8
0
  6
Continuous
 62
     1
370
    25
100
AcDbLine
 10
40.14999999999998
 20
-8.949853084970265
 30
0.0
 11
40.14999999999999
 21
-9.486504053201854
 31
0.0
  0
SPLINE
  5
C4
330
1F
100
AcDbEntity
  8
0
  6
Continuous
 62
     1
370
    25
100
AcDbSpline
210
0.0
220
0.0
230
1.0
 70
     8
 71
     3
 72
    16
 73
    12
 74
     0
 42
0.000000001
 43
0.00000001
 40
0.0
 40
0.0
 40
0.0
 40
0.0
 40
0.063407390810363
 40
0.1781925507410478
 40
0.2929777721468956
 40
0.4086529300566155
 40
0.5243281309778993
 40
0.642757540447111
 40
0.7611869687577998
 40
0.880593478884309
 40
1.0
 40
1.0
 40
1.0
 40
1.0
 10
26.42334593116813
 20
6.703133554732809
 30
0.0
 10
26.70298739301272
 20
6.828539951918237
 30
0.0
 10
27.48885832607275
 20
7.180967098156589
 30
0.0
 10
28.78025726080717
 20
7.670441955753098
 30
0.0
 10
30.3026499090944
 20
8.209745920218944
 30
0.0
 10
31.82850404442233
 20
8.681421764161941
 30
0.0
 10
33.37078164035899
 20
9.091018058651347
 30
0.0
 10
34.92492744296604
 20
9.431178284469441
 30
0.0
 10
36.49570406308868
 20
9.696136087210876
 30
0.0
 10
38.0706585213163
 20
9.887698435921125
 30
0.0
 10
39.12355282428882
 20
9.946224441219996
 30
0.0
 10
39.64999999999999
 20
9.975487445215995
 30
0.0
  0
SPLINE
  5
C6
330
1F
100
AcDbEntity
  8
0
  6
Continuous
 62
     1
370
    25
100
AcDbSpline
210
0.0
220
0.0
230
1.0
 70
    24
 71
     3
 72
    10
 73
     6
 74
     0
 42
0.000000001
 43
0.00000001
 40
0.0
 40
0.0
 40
0.0
 40
0.0
 40
0.4999999999999996
 40
0.4999999999999996
 40
1.0
 40
1.0
 40
1.0
 40
1.0
 10
40.14999999999999
 20
7.000000000000007
 30
0.0
 10
40.14999999999999
 20
7.354436148611279
 30
0.0
 10
40.14999999999999
 20
7.756311195895267
 30
0.0
 10
40.14999999999998
 20
8.605940599025747
 30
0.0
 10
40.14999999999999
 20
9.052725087124601
 30
0.0
 10
40.14999999999999
 20
9.486504053200003
 30
0.0
  0
LINE
  5
C7
330
1F
100
AcDbEntity
  8
중심선
100
AcDbLine
 10
-62.85000000000001
 20
-0.0000000000000037
 30
0.0
 11
47.14999999999999
 21
0.0000000000000048
 31
0.0
  0
CIRCLE
  5
C8
330
1F
100
AcDbEntity
  8
외형선
100
AcDbCircle
 10
0.0
 20
0.0
 30
0.0
 40
3.000000000000005
  0
INSERT
  5
C9
330
1F
100
AcDbEntity
  8
0
  6
Continuous
 62
     7
100
AcDbBlockReference
 66
     1
  2
블럭10
 10
-30.87358523345419
 20
-52.04717430164393
 30
0.0
  0
ATTRIB
  5
CA
330
C9
100
AcDbEntity
  8
FORMAT
 62
     2
100
AcDbText
 10
-46.99284627288974
 20
-49.97180738881174
 30
0.0
 40
4.233333333333333
  1
SEME6120005E [ 2 FLUTE ]
 41
0.75
  7
SLDTEXTSTYLE0
 11
-46.99284627288974
 21
-52.08847405547841
 31
0.0
100
AcDbAttribute
  2
AUTOATTR0
 70
     0
 74
     1
  0
SEQEND
  5
CB
330
C9
100
AcDbEntity
  8
0
  6
Continuous
 62
     7
  0
HATCH
  5
CC
330
1F
100
AcDbEntity
  8
중심선
100
AcDbHatch
 10
0.0
 20
0.0
 30
0.0
210
0.0
220
0.0
230
1.0
  2
SOLID
 70
     1
 71
     0
 91
        1
 92
        0
 93
        4
 72
     1
 10
-25.15867592907333
 20
-35.79999999999999
 11
-28.60495117291061
 21
-35.79999999999999
 72
     1
 10
-28.60495117291062
 20
-35.79999999999999
 11
-30.73318103211464
 21
-38.33632558057259
 72
     1
 10
-30.73318103211464
 20
-38.33632558057259
 11
-27.2868727031642
 21
-38.3362861512701
 72
     1
 10
-27.28687270316421
 20
-38.3362861512701
 11
-25.15867592907334
 21
-35.79999999999999
 97
        0
 75
     0
 76
     1
 98
        1
 10
-7.934141545388291
 20
-0.001074928723888
  0
HATCH
  5
CD
330
1F
100
AcDbEntity
  8
중심선
100
AcDbHatch
 10
0.0
 20
0.0
 30
0.0
210
0.0
220
0.0
230
1.0
  2
SOLID
 70
     1
 71
     0
 91
        1
 92
        0
 93
        4
 72
     1
 10
-20.14591193803738
 20
-35.79999999999999
 11
-23.59218718187466
 21
-35.79999999999999
 72
     1
 10
-23.59218718187466
 20
-35.79999999999999
 11
-28.12332519023205
 21
-41.20000000000001
 72
     1
 10
-28.12332519023205
 20
-41.20000000000001
 11
-24.67704994639477
 21
-41.20000000000001
 72
     1
 10
-24.67704994639477
 20
-41.20000000000001
 11
-20.14591193803738
 21
-35.79999999999999
 97
        0
 75
     0
 76
     1
 98
        1
 10
-7.934141545388291
 20
-0.001074928723888
  0
HATCH
  5
CE
330
1F
100
AcDbEntity
  8
중심선
100
AcDbHatch
 10
0.0
 20
0.0
 30
0.0
210
0.0
220
0.0
230
1.0
  2
SOLID
 70
     1
 71
     0
 91
        1
 92
        0
 93
        4
 72
     1
 10
-15.13314794700149
 20
-35.80000000000002
 11
-18.5794231908386
 21
-35.79999999999999
 72
     1
 10
-18.5794231908386
 20
-35.79999999999999
 11
-25.62786009272785
 21
-44.20000000000001
 72
     1
 10
-25.62786009272785
 20
-44.20000000000001
 11
-22.18158484889057
 21
-44.20000000000001
 72
     1
 10
-22.18158484889057
 20
-44.20000000000001
 11
-15.13314794700149
 21
-35.80000000000002
 97
        0
 75
     0
 76
     1
 98
        1
 10
-7.934141545388291
 20
-0.001074928723888
  0
HATCH
  5
CF
330
1F
100
AcDbEntity
  8
중심선
100
AcDbHatch
 10
0.0
 20
0.0
 30
0.0
210
0.0
220
0.0
230
1.0
  2
SOLID
 70
     1
 71
     0
 91
        1
 92
        0
 93
        6
 72
     3
 10
-10.33325751598929
 20
-40.00000000005127
 11
3.960054785062283
 21
1.540882976769353E-10
 40
0.3939339440162628
 50
17.09539180608436
 51
320.0019657685078
 73
     0
 72
     1
 10
-8.650257860288692
 20
-38.58789400463829
 11
-6.344955986587654
 21
-36.65356729459037
 72
     3
 10
-10.33325751604213
 20
-40.00000000000014
 11
6.600054785286829
 21
-1.278976924368180E-13
 40
0.636358354079598
 50
39.99873849337411
 51
368.4976242363724
 73
     1
 72
     1
 10
-3.907925024141524
 20
-39.03999999993002
 11
-11.65319020920621
 21
-39.03999999992999
 72
     1
 10
-11.65319020920621
 20
-39.03999999992999
 11
-11.65321525365215
 21
-40.95999999992991
 72
     1
 10
-11.65321525365215
 20
-40.95999999992991
 11
-7.211835484180109
 21
-40.95999999992988
 97
        0
 75
     0
 76
     1
 98
        1
 10
-7.934141545388291
 20
-0.001074928723888
  0
DIMENSION
  5
D0
330
1F
100
AcDbEntity
  8
치수문자_일반주서
100
AcDbDimension
  2
_D
 10
-71.34645802161204
 20
-10.00000000000004
 30
0.0
 11
-71.34645802161208
 21
-0.0000000000000032
 31
0.0
 70
   160
  1
%%c<>
 71
     2
 42
19.99999999999999
 52
-270.0
  3
SLDDIMSTYLE0
100
AcDbAlignedDimension
 13
-58.85000000000001
 23
9.999999999999991
 33
0.0
 14
-58.85000000000001
 24
-9.999999999999998
 34
0.0
 50
90.0000000000002
100
AcDbRotatedDimension
  0
DIMENSION
  5
DE
330
1F
100
AcDbEntity
  8
치수문자_일반주서
100
AcDbDimension
  2
_D_1
 10
15.15
 20
27.99999999999967
 30
0.0
 11
27.65
 21
27.99999999999967
 31
0.0
 70
   160
  1
<>
 71
     2
 42
24.99999999999999
  3
SLDDIMSTYLE1
100
AcDbAlignedDimension
 13
40.14999999999999
 23
9.499999999999998
 33
0.0
 14
15.15
 24
7.935092670552037
 34
0.0
 50
0.0000000000000081
100
AcDbRotatedDimension
  0
DIMENSION
  5
EA
330
1F
100
AcDbEntity
  8
치수문자_일반주서
100
AcDbDimension
  2
_D_2
 10
-59.85000000000002
 20
50.05832450504428
 30
0.0
 11
-9.85000000000001
 21
50.05832450504428
 31
0.0
 70
   160
  1
<>
 71
     2
 42
100.0
  3
SLDDIMSTYLE1
100
AcDbAlignedDimension
 13
40.14999999999999
 23
9.499999999999998
 33
0.0
 14
-59.85000000000002
 24
8.999999999999991
 34
0.0
100
AcDbRotatedDimension
  0
DIMENSION
  5
F4
330
1F
100
AcDbEntity
  8
치수문자_일반주서
100
AcDbDimension
  2
_D_3
 10
0.1499999999999915
 20
36.39716623750941
 30
0.0
 11
20.15
 21
36.39716623750941
 31
0.0
 70
   160
  1
<>
 71
     2
 42
40.00000000000006
  3
SLDDIMSTYLE0
100
AcDbAlignedDimension
 13
40.14999999999999
 23
8.181125897460507
 33
0.0
 14
0.1499999999999932
 24
9.849999999999998
 34
0.0
 50
-0.0000000000022354
100
AcDbRotatedDimension
  0
DIMENSION
  5
100
330
1F
100
AcDbEntity
  8
치수문자_일반주서
100
AcDbDimension
  2
_D_4
 10
56.26707442896669
 20
-10.0251744296934
 30
0.0
 11
56.26707442896665
 21
0.0000000000000586
 31
0.0
 70
   160
  1
%%c<>
 71
     2
 42
20.00066187490945
 52
-270.0
  3
SLDDIMSTYLE1
100
AcDbAlignedDimension
 13
39.64999999999999
 23
9.975487445215995
 33
0.0
 14
40.58728116601999
 24
-10.02517442969346
 34
0.0
 50
90.0000000000002
100
AcDbRotatedDimension
  0
INSERT
  5
112
330
1F
100
AcDbEntity
  8
외형선
100
AcDbBlockReference
  2
SW_DOWELSYMBOL_0
 10
0.0
 20
0.0
 30
0.0
  0
ARC
  5
142
330
1F
100
AcDbEntity
  8
0
  6
Continuous
 62
     1
370
    25
100
AcDbCircle
 10
39.64999999999999
 20
9.475487445215995
 30
0.0
 40
0.4999999999999998
100
AcDbArc
 50
0.0
 51
90.0
  0
ARC
  5
143
330
1F
100
AcDbEntity
  8
0
  6
Continuous
 62
     1
370
    25
100
AcDbCircle
 10
39.64999999999999
 20
-9.475487445215986
 30
0.0
 40
0.4999999999999998
100
AcDbArc
 50
270.0
 51
0.0
  0
DIMENSION
  5
145
330
1F
100
AcDbEntity
  8
치수문자_일반주서
100
AcDbDimension
  2
*D8
 10
39.64999999999999
 20
-9.475487445215986
 30
0.0
 11
53.53398497486425
 21
-24.84423552374598
 31
0.0
 70
   164
  1
<>
 71
     5
 42
0.5000000000000003
  3
SLDDIMSTYLE1
100
AcDbRadialDimension
 15
39.98517683168176
 25
-9.846508322665995
 35
0.0
 40
0.0
1001
ACAD_DSTYLE_DIMRADIAL_EXTENSION
1070
   387
1070
     1
1070
   388
1040
4.71238898038469
1070
   390
1040
0.0
1001
ACAD
1000
DSTYLE
1002
{
1070
    78
1070
     8
1002
}
  0
LINE
  5
179
330
1F
100
AcDbEntity
  8
0
  6
Continuous
 62
     4
370
    25
100
AcDbLine
 10
0.1499999999999932
 20
9.849999999999998
 30
0.0
 11
-0.0000000000000036
 21
9.999999999999995
 31
0.0
1001
PE_URL
1000

  0
LINE
  5
17B
330
1F
100
AcDbEntity
  8
0
  6
Continuous
 62
     4
370
    25
100
AcDbLine
 10
-0.0000000000000036
 20
9.999999999999995
 30
0.0
 11
0.0000000000000036
 21
-9.999999999999995
 31
0.0
1001
PE_URL
1000

  0
LINE
  5
17E
330
1F
100
AcDbEntity
  8
0
  6
Continuous
 62
     4
370
    25
100
AcDbLine
 10
0.0000000000000036
 20
-9.999999999999995
 30
0.0
 11
0.1499999999999932
 21
-9.849999999999998
 31
0.0
1001
PE_URL
1000

  0
ENDSEC
  0
SECTION
  2
OBJECTS
  0
DICTIONARY
  5
C
330
0
100
AcDbDictionary
281
     1
  3
ACAD_GROUP
350
D
  3
ACAD_IMAGE_VARS
350
136
  3
ACAD_LAYOUT
350
1A
  3
ACAD_MLINESTYLE
350
17
  3
ACAD_PLOTSETTINGS
350
19
  3
ACAD_PLOTSTYLENAME
350
E
  3
ACAD_SCALELIST
350
47
  3
APPDATA
350
134
  3
DWGPROPS
350
17F
  0
DICTIONARY
  5
D
102
{ACAD_REACTORS
330
C
102
}
330
C
100
AcDbDictionary
281
     1
  0
RASTERVARIABLES
  5
136
102
{ACAD_REACTORS
330
C
102
}
330
C
100
AcDbRasterVariables
 90
        0
 70
     1
 71
     1
 72
     1
  0
DICTIONARY
  5
1A
102
{ACAD_REACTORS
330
C
102
}
330
C
100
AcDbDictionary
281
     1
  3
Layout1
350
1E
  3
Layout2
350
26
  3
Model
350
22
  0
DICTIONARY
  5
17
102
{ACAD_REACTORS
330
C
102
}
330
C
100
AcDbDictionary
281
     1
  3
Standard
350
18
  0
DICTIONARY
  5
19
102
{ACAD_REACTORS
330
C
102
}
330
C
100
AcDbDictionary
281
     1
  0
ACDBDICTIONARYWDFLT
  5
E
102
{ACAD_REACTORS
330
C
102
}
330
C
100
AcDbDictionary
281
     1
  3
Normal
350
F
100
AcDbDictionaryWithDefault
340
F
  0
DICTIONARY
  5
47
102
{ACAD_REACTORS
330
C
102
}
330
C
100
AcDbDictionary
281
     1
  3
A0
350
48
  3
A1
350
49
  3
A2
350
4A
  3
A3
350
4B
  3
A4
350
4C
  3
A5
350
4D
  3
A6
350
4E
  3
A7
350
4F
  3
A8
350
50
  3
A9
350
51
  3
B0
350
52
  3
B1
350
53
  3
B2
350
54
  3
B3
350
55
  3
B4
350
56
  3
B5
350
57
  3
B6
350
58
  3
B7
350
59
  3
B8
350
5A
  3
B9
350
5B
  3
C0
350
5C
  3
C1
350
5D
  3
C2
350
5E
  3
C3
350
5F
  3
C4
350
60
  3
C5
350
61
  3
C6
350
62
  3
C7
350
63
  3
C8
350
64
  3
C9
350
65
  3
D0
350
66
  3
D1
350
67
  3
D2
350
68
  0
DICTIONARY
  5
134
102
{ACAD_REACTORS
330
C
102
}
330
C
100
AcDbDictionary
281
     1
  0
XRECORD
  5
17F
102
{ACAD_REACTORS
330
C
102
}
330
C
100
AcDbXrecord
280
     1
  1
DWGPROPS COOKIE
  2

  3

  4

  6

  7

  8
12014102
  9

300
=
301
=
302
=
303
=
304
=
305
=
306
=
307
=
308
=
309
=
 40
0.0
 41
2458263.436920857
 42
2459576.974788773
  1

 90
        0
  0
LAYOUT
  5
1E
102
{ACAD_REACTORS
330
1A
102
}
330
1A
100
AcDbPlotSettings
  1

  2
none_device
  4

  6

 40
0.0
 41
0.0
 42
0.0
 43
0.0
 44
0.0
 45
0.0
 46
0.0
 47
0.0
 48
0.0
 49
0.0
140
0.0
141
0.0
142
1.0
143
1.0
 70
   688
 72
     1
 73
     0
 74
     5
  7

 75
    16
147
1.0
148
0.0
149
0.0
100
AcDbLayout
  1
Layout1
 70
     1
 71
     1
 10
0.0
 20
0.0
 11
420.0
 21
297.0
 12
0.0
 22
0.0
 32
0.0
 14
1.000000000000000E+20
 24
1.000000000000000E+20
 34
1.000000000000000E+20
 15
-1.000000000000000E+20
 25
-1.000000000000000E+20
 35
-1.000000000000000E+20
146
0.0
 13
0.0
 23
0.0
 33
0.0
 16
1.0
 26
0.0
 36
0.0
 17
0.0
 27
1.0
 37
0.0
 76
     0
330
1B
  0
LAYOUT
  5
26
102
{ACAD_REACTORS
330
1A
102
}
330
1A
100
AcDbPlotSettings
  1

  2
none_device
  4

  6

 40
0.0
 41
0.0
 42
0.0
 43
0.0
 44
0.0
 45
0.0
 46
0.0
 47
0.0
 48
0.0
 49
0.0
140
0.0
141
0.0
142
1.0
143
1.0
 70
   688
 72
     1
 73
     0
 74
     5
  7

 75
    16
147
1.0
148
0.0
149
0.0
100
AcDbLayout
  1
Layout2
 70
     1
 71
     2
 10
0.0
 20
0.0
 11
0.0
 21
0.0
 12
0.0
 22
0.0
 32
0.0
 14
0.0
 24
0.0
 34
0.0
 15
0.0
 25
0.0
 35
0.0
146
0.0
 13
0.0
 23
0.0
 33
0.0
 16
1.0
 26
0.0
 36
0.0
 17
0.0
 27
1.0
 37
0.0
 76
     0
330
23
  0
LAYOUT
  5
22
102
{ACAD_REACTORS
330
1A
102
}
330
1A
100
AcDbPlotSettings
  1

  2
none_device
  4
ANSI_A_(11.00_x_8.50_Inches)
  6

 40
6.35
 41
19.05
 42
6.35000508
 43
19.05000254
 44
279.4
 45
215.9
 46
119.2753998439486
 47
85.24668301272037
 48
0.0
 49
0.0
140
0.0
141
0.0
142
0.0745928350685928
143
1.0
 70
  1696
 72
     0
 73
     0
 74
     0
  7

 75
     0
147
0.0235690232323232
148
0.0
149
0.0
100
AcDbLayout
  1
Model
 70
     1
 71
     0
 10
0.0
 20
0.0
 11
420.0
 21
297.0
 12
0.0
 22
0.0
 32
0.0
 14
-75.7214580216121
 24
-49.97180738881174
 34
0.0
 15
59.27329533818495
 25
54.43332450504428
 35
0.0
146
0.0
 13
0.0
 23
0.0
 33
0.0
 16
1.0
 26
0.0
 36
0.0
 17
0.0
 27
1.0
 37
0.0
 76
     0
330
1F
331
29
  0
MLINESTYLE
  5
18
102
{ACAD_REACTORS
330
17
102
}
330
17
100
AcDbMlineStyle
  2
Standard
 70
     0
  3

 62
   256
 51
90.0
 52
90.0
 71
     2
 49
0.5
 62
   256
  6
BYLAYER
 49
-0.5
 62
   256
  6
BYLAYER
  0
ACDBPLACEHOLDER
  5
F
102
{ACAD_REACTORS
330
E
102
}
330
E
  0
SCALE
  5
48
102
{ACAD_REACTORS
330
47
102
}
330
47
100
AcDbScale
 70
     0
300
1:1
140
1.0
141
1.0
290
     1
  0
SCALE
  5
49
102
{ACAD_REACTORS
330
47
102
}
330
47
100
AcDbScale
 70
     0
300
1:2
140
1.0
141
2.0
290
     0
  0
SCALE
  5
4A
102
{ACAD_REACTORS
330
47
102
}
330
47
100
AcDbScale
 70
     0
300
1:4
140
1.0
141
4.0
290
     0
  0
SCALE
  5
4B
102
{ACAD_REACTORS
330
47
102
}
330
47
100
AcDbScale
 70
     0
300
1:5
140
1.0
141
5.0
290
     0
  0
SCALE
  5
4C
102
{ACAD_REACTORS
330
47
102
}
330
47
100
AcDbScale
 70
     0
300
1:8
140
1.0
141
8.0
290
     0
  0
SCALE
  5
4D
102
{ACAD_REACTORS
330
47
102
}
330
47
100
AcDbScale
 70
     0
300
1:10
140
1.0
141
10.0
290
     0
  0
SCALE
  5
4E
102
{ACAD_REACTORS
330
47
102
}
330
47
100
AcDbScale
 70
     0
300
1:16
140
1.0
141
16.0
290
     0
  0
SCALE
  5
4F
102
{ACAD_REACTORS
330
47
102
}
330
47
100
AcDbScale
 70
     0
300
1:20
140
1.0
141
20.0
290
     0
  0
SCALE
  5
50
102
{ACAD_REACTORS
330
47
102
}
330
47
100
AcDbScale
 70
     0
300
1:30
140
1.0
141
30.0
290
     0
  0
SCALE
  5
51
102
{ACAD_REACTORS
330
47
102
}
330
47
100
AcDbScale
 70
     0
300
1:40
140
1.0
141
40.0
290
     0
  0
SCALE
  5
52
102
{ACAD_REACTORS
330
47
102
}
330
47
100
AcDbScale
 70
     0
300
1:50
140
1.0
141
50.0
290
     0
  0
SCALE
  5
53
102
{ACAD_REACTORS
330
47
102
}
330
47
100
AcDbScale
 70
     0
300
1:100
140
1.0
141
100.0
290
     0
  0
SCALE
  5
54
102
{ACAD_REACTORS
330
47
102
}
330
47
100
AcDbScale
 70
     0
300
2:1
140
2.0
141
1.0
290
     0
  0
SCALE
  5
55
102
{ACAD_REACTORS
330
47
102
}
330
47
100
AcDbScale
 70
     0
300
4:1
140
4.0
141
1.0
290
     0
  0
SCALE
  5
56
102
{ACAD_REACTORS
330
47
102
}
330
47
100
AcDbScale
 70
     0
300
8:1
140
8.0
141
1.0
290
     0
  0
SCALE
  5
57
102
{ACAD_REACTORS
330
47
102
}
330
47
100
AcDbScale
 70
     0
300
10:1
140
10.0
141
1.0
290
     0
  0
SCALE
  5
58
102
{ACAD_REACTORS
330
47
102
}
330
47
100
AcDbScale
 70
     0
300
100:1
140
100.0
141
1.0
290
     0
  0
SCALE
  5
59
102
{ACAD_REACTORS
330
47
102
}
330
47
100
AcDbScale
 70
     0
300
1/128" = 1'-0"
140
0.0078125
141
12.0
290
     0
  0
SCALE
  5
5A
102
{ACAD_REACTORS
330
47
102
}
330
47
100
AcDbScale
 70
     0
300
1/64" = 1'-0"
140
0.015625
141
12.0
290
     0
  0
SCALE
  5
5B
102
{ACAD_REACTORS
330
47
102
}
330
47
100
AcDbScale
 70
     0
300
1/32" = 1'-0"
140
0.03125
141
12.0
290
     0
  0
SCALE
  5
5C
102
{ACAD_REACTORS
330
47
102
}
330
47
100
AcDbScale
 70
     0
300
1/16" = 1'-0"
140
0.0625
141
12.0
290
     0
  0
SCALE
  5
5D
102
{ACAD_REACTORS
330
47
102
}
330
47
100
AcDbScale
 70
     0
300
3/32" = 1'-0"
140
0.09375
141
12.0
290
     0
  0
SCALE
  5
5E
102
{ACAD_REACTORS
330
47
102
}
330
47
100
AcDbScale
 70
     0
300
1/8" = 1'-0"
140
0.125
141
12.0
290
     0
  0
SCALE
  5
5F
102
{ACAD_REACTORS
330
47
102
}
330
47
100
AcDbScale
 70
     0
300
3/16" = 1'-0"
140
0.1875
141
12.0
290
     0
  0
SCALE
  5
60
102
{ACAD_REACTORS
330
47
102
}
330
47
100
AcDbScale
 70
     0
300
1/4" = 1'-0"
140
0.25
141
12.0
290
     0
  0
SCALE
  5
61
102
{ACAD_REACTORS
330
47
102
}
330
47
100
AcDbScale
 70
     0
300
3/8" = 1'-0"
140
0.375
141
12.0
290
     0
  0
SCALE
  5
62
102
{ACAD_REACTORS
330
47
102
}
330
47
100
AcDbScale
 70
     0
300
1/2" = 1'-0"
140
0.5
141
12.0
290
     0
  0
SCALE
  5
63
102
{ACAD_REACTORS
330
47
102
}
330
47
100
AcDbScale
 70
     0
300
3/4" = 1'-0"
140
0.75
141
12.0
290
     0
  0
SCALE
  5
64
102
{ACAD_REACTORS
330
47
102
}
330
47
100
AcDbScale
 70
     0
300
1" = 1'-0"
140
1.0
141
12.0
290
     0
  0
SCALE
  5
65
102
{ACAD_REACTORS
330
47
102
}
330
47
100
AcDbScale
 70
     0
300
1-1/2" = 1'-0"
140
1.5
141
12.0
290
     0
  0
SCALE
  5
66
102
{ACAD_REACTORS
330
47
102
}
330
47
100
AcDbScale
 70
     0
300
3" = 1'-0"
140
3.0
141
12.0
290
     0
  0
SCALE
  5
67
102
{ACAD_REACTORS
330
47
102
}
330
47
100
AcDbScale
 70
     0
300
6" = 1'-0"
140
6.0
141
12.0
290
     0
  0
SCALE
  5
68
102
{ACAD_REACTORS
330
47
102
}
330
47
100
AcDbScale
 70
     0
300
1'-0" = 1'-0"
140
12.0
141
12.0
290
     0
  0
ENDSEC
  0
EOF
