  0
SECTION
  2
HEADER
  9
$ACADVER
  1
AC1015
  9
$ACADMAINTVER
 70
     6
  9
$DWGCODEPAGE
  3
ANSI_949
  9
$INSBASE
 10
0.0
 20
0.0
 30
0.0
  9
$EXTMIN
 10
-110.7214580216121
 20
-49.97180738881174
 30
0.0
  9
$EXTMAX
 10
73.27947534634632
 20
53.93332450504429
 30
0.0
  9
$LIMMIN
 10
0.0
 20
0.0
  9
$LIMMAX
 10
420.0
 20
297.0
  9
$ORTHOMODE
 70
     1
  9
$REGENMODE
 70
     1
  9
$FILLMODE
 70
     1
  9
$QTEXTMODE
 70
     0
  9
$MIRRTEXT
 70
     1
  9
$LTSCALE
 40
1.0
  9
$ATTMODE
 70
     1
  9
$TEXTSIZE
 40
3.5
  9
$TRACEWID
 40
1.0
  9
$TEXTSTYLE
  7
Standard
  9
$CLAYER
  8
0
  9
$CELTYPE
  6
ByLayer
  9
$CECOLOR
 62
   256
  9
$CELTSCALE
 40
1.0
  9
$DISPSILH
 70
     0
  9
$DIMSCALE
 40
1.0
  9
$DIMASZ
 40
3.302
  9
$DIMEXO
 40
1.0
  9
$DIMDLI
 40
3.75
  9
$DIMRND
 40
0.0
  9
$DIMDLE
 40
0.0
  9
$DIMEXE
 40
1.0
  9
$DIMTP
 40
0.0
  9
$DIMTM
 40
0.0
  9
$DIMTXT
 40
3.5
  9
$DIMCEN
 40
2.5
  9
$DIMTSZ
 40
0.0
  9
$DIMTOL
 70
     0
  9
$DIMLIM
 70
     0
  9
$DIMTIH
 70
     1
  9
$DIMTOH
 70
     1
  9
$DIMSE1
 70
     0
  9
$DIMSE2
 70
     0
  9
$DIMTAD
 70
     1
  9
$DIMZIN
 70
     0
  9
$DIMBLK
  1

  9
$DIMASO
 70
     1
  9
$DIMSHO
 70
     1
  9
$DIMPOST
  1

  9
$DIMAPOST
  1

  9
$DIMALT
 70
     0
  9
$DIMALTD
 70
     3
  9
$DIMALTF
 40
0.0393700787401575
  9
$DIMLFAC
 40
1.0
  9
$DIMTOFL
 70
     1
  9
$DIMTVP
 40
0.0
  9
$DIMTIX
 70
     0
  9
$DIMSOXD
 70
     0
  9
$DIMSAH
 70
     0
  9
$DIMBLK1
  1

  9
$DIMBLK2
  1

  9
$DIMSTYLE
  2
ISO-25
  9
$DIMCLRD
 70
     0
  9
$DIMCLRE
 70
     0
  9
$DIMCLRT
 70
     0
  9
$DIMTFAC
 40
1.0
  9
$DIMGAP
 40
1.524
  9
$DIMJUST
 70
     0
  9
$DIMSD1
 70
     0
  9
$DIMSD2
 70
     0
  9
$DIMTOLJ
 70
     0
  9
$DIMTZIN
 70
     0
  9
$DIMALTZ
 70
     0
  9
$DIMALTTZ
 70
     0
  9
$DIMUPT
 70
     0
  9
$DIMDEC
 70
     2
  9
$DIMTDEC
 70
     2
  9
$DIMALTU
 70
     2
  9
$DIMALTTD
 70
     3
  9
$DIMTXSTY
  7
Standard
  9
$DIMAUNIT
 70
     0
  9
$DIMADEC
 70
     2
  9
$DIMALTRND
 40
0.0
  9
$DIMAZIN
 70
     0
  9
$DIMDSEP
 70
    44
  9
$DIMATFIT
 70
     3
  9
$DIMFRAC
 70
     0
  9
$DIMLDRBLK
  1

  9
$DIMLUNIT
 70
     2
  9
$DIMLWD
 70
    -2
  9
$DIMLWE
 70
    -2
  9
$DIMTMOVE
 70
     0
  9
$LUNITS
 70
     2
  9
$LUPREC
 70
     2
  9
$SKETCHINC
 40
1.0
  9
$FILLETRAD
 40
10.0
  9
$AUNITS
 70
     0
  9
$AUPREC
 70
     2
  9
$MENU
  1
.
  9
$ELEVATION
 40
0.0
  9
$PELEVATION
 40
0.0
  9
$THICKNESS
 40
0.0
  9
$LIMCHECK
 70
     0
  9
$CHAMFERA
 40
0.0
  9
$CHAMFERB
 40
0.0
  9
$CHAMFERC
 40
0.0
  9
$CHAMFERD
 40
0.0
  9
$SKPOLY
 70
     0
  9
$TDCREATE
 40
2458263.81211007
  9
$TDUCREATE
 40
2458263.43711007
  9
$TDUPDATE
 40
2459577.331786574
  9
$TDUUPDATE
 40
2459576.956786574
  9
$TDINDWG
 40
0.0039607176
  9
$TDUSRTIMER
 40
0.0007353009
  9
$USRTIMER
 70
     1
  9
$ANGBASE
 50
0.0
  9
$ANGDIR
 70
     0
  9
$PDMODE
 70
     0
  9
$PDSIZE
 40
-1.0
  9
$PLINEWID
 40
0.0
  9
$SPLFRAME
 70
     0
  9
$SPLINETYPE
 70
     6
  9
$SPLINESEGS
 70
     8
  9
$HANDSEED
  5
196
  9
$SURFTAB1
 70
     6
  9
$SURFTAB2
 70
     6
  9
$SURFTYPE
 70
     6
  9
$SURFU
 70
     6
  9
$SURFV
 70
     6
  9
$UCSBASE
  2

  9
$UCSNAME
  2

  9
$UCSORG
 10
0.0
 20
0.0
 30
0.0
  9
$UCSXDIR
 10
1.0
 20
0.0
 30
0.0
  9
$UCSYDIR
 10
0.0
 20
1.0
 30
0.0
  9
$UCSORTHOREF
  2

  9
$UCSORTHOVIEW
 70
     0
  9
$UCSORGTOP
 10
0.0
 20
0.0
 30
0.0
  9
$UCSORGBOTTOM
 10
0.0
 20
0.0
 30
0.0
  9
$UCSORGLEFT
 10
0.0
 20
0.0
 30
0.0
  9
$UCSORGRIGHT
 10
0.0
 20
0.0
 30
0.0
  9
$UCSORGFRONT
 10
0.0
 20
0.0
 30
0.0
  9
$UCSORGBACK
 10
0.0
 20
0.0
 30
0.0
  9
$PUCSBASE
  2

  9
$PUCSNAME
  2

  9
$PUCSORG
 10
0.0
 20
0.0
 30
0.0
  9
$PUCSXDIR
 10
1.0
 20
0.0
 30
0.0
  9
$PUCSYDIR
 10
0.0
 20
1.0
 30
0.0
  9
$PUCSORTHOREF
  2

  9
$PUCSORTHOVIEW
 70
     0
  9
$PUCSORGTOP
 10
0.0
 20
0.0
 30
0.0
  9
$PUCSORGBOTTOM
 10
0.0
 20
0.0
 30
0.0
  9
$PUCSORGLEFT
 10
0.0
 20
0.0
 30
0.0
  9
$PUCSORGRIGHT
 10
0.0
 20
0.0
 30
0.0
  9
$PUCSORGFRONT
 10
0.0
 20
0.0
 30
0.0
  9
$PUCSORGBACK
 10
0.0
 20
0.0
 30
0.0
  9
$USERI1
 70
     0
  9
$USERI2
 70
     0
  9
$USERI3
 70
     0
  9
$USERI4
 70
     0
  9
$USERI5
 70
     0
  9
$USERR1
 40
0.0
  9
$USERR2
 40
0.0
  9
$USERR3
 40
0.0
  9
$USERR4
 40
0.0
  9
$USERR5
 40
0.0
  9
$WORLDVIEW
 70
     1
  9
$SHADEDGE
 70
     3
  9
$SHADEDIF
 70
    70
  9
$TILEMODE
 70
     1
  9
$MAXACTVP
 70
    64
  9
$PINSBASE
 10
0.0
 20
0.0
 30
0.0
  9
$PLIMCHECK
 70
     0
  9
$PEXTMIN
 10
1.000000000000000E+20
 20
1.000000000000000E+20
 30
1.000000000000000E+20
  9
$PEXTMAX
 10
-1.000000000000000E+20
 20
-1.000000000000000E+20
 30
-1.000000000000000E+20
  9
$PLIMMIN
 10
0.0
 20
0.0
  9
$PLIMMAX
 10
0.0
 20
0.0
  9
$UNITMODE
 70
     0
  9
$VISRETAIN
 70
     1
  9
$PLINEGEN
 70
     0
  9
$PSLTSCALE
 70
     1
  9
$TREEDEPTH
 70
  3020
  9
$CMLSTYLE
  2
Standard
  9
$CMLJUST
 70
     0
  9
$CMLSCALE
 40
20.0
  9
$PROXYGRAPHICS
 70
     1
  9
$MEASUREMENT
 70
     1
  9
$CELWEIGHT
370
    -1
  9
$ENDCAPS
280
     0
  9
$JOINSTYLE
280
     0
  9
$LWDISPLAY
290
     1
  9
$INSUNITS
 70
     4
  9
$HYPERLINKBASE
  1

  9
$STYLESHEET
  1

  9
$XEDIT
290
     1
  9
$CEPSNTYPE
380
     0
  9
$PSTYLEMODE
290
     1
  9
$FINGERPRINTGUID
  2
{1F079AA5-4F04-4969-BB5C-7AF56D76FBFE}
  9
$VERSIONGUID
  2
{FAEB1C32-E019-11D5-929B-00C0DF256EC4}
  9
$EXTNAMES
290
     1
  9
$PSVPSCALE
 40
0.0
  9
$OLESTARTUP
290
     0
  0
ENDSEC
  0
SECTION
  2
CLASSES
  0
CLASS
  1
ACDBDICTIONARYWDFLT
  2
AcDbDictionaryWithDefault
  3
ObjectDBX Classes
 90
        0
280
     0
281
     0
  0
CLASS
  1
VISUALSTYLE
  2
AcDbVisualStyle
  3
ObjectDBX Classes
 90
     4095
280
     0
281
     0
  0
CLASS
  1
MATERIAL
  2
AcDbMaterial
  3
ObjectDBX Classes
 90
     1153
280
     0
281
     0
  0
CLASS
  1
SCALE
  2
AcDbScale
  3
ObjectDBX Classes
 90
     1153
280
     0
281
     0
  0
CLASS
  1
TABLESTYLE
  2
AcDbTableStyle
  3
ObjectDBX Classes
 90
     4095
280
     0
281
     0
  0
CLASS
  1
MLEADERSTYLE
  2
AcDbMLeaderStyle
  3
ACDB_MLEADERSTYLE_CLASS
 90
     4095
280
     0
281
     0
  0
CLASS
  1
SUN
  2
AcDbSun
  3
SCENEOE
 90
     1153
280
     0
281
     0
  0
CLASS
  1
ACDBPLACEHOLDER
  2
AcDbPlaceHolder
  3
ObjectDBX Classes
 90
        0
280
     0
281
     0
  0
CLASS
  1
LAYOUT
  2
AcDbLayout
  3
ObjectDBX Classes
 90
        0
280
     0
281
     0
  0
CLASS
  1
RASTERVARIABLES
  2
AcDbRasterVariables
  3
ISM
 90
        0
280
     0
281
     0
  0
CLASS
  1
DIMASSOC
  2
AcDbDimAssoc
  3
"AcDbDimAssoc|Product Desc:     AcDim ARX App For Dimension|Company:          Autodesk, Inc.|WEB Address:      www.autodesk.com"
 90
        0
280
     0
281
     0
  0
ENDSEC
  0
SECTION
  2
TABLES
  0
TABLE
  2
VPORT
  5
8
330
0
100
AcDbSymbolTable
 70
     1
  0
VPORT
  5
29
330
8
100
AcDbSymbolTableRecord
100
AcDbViewportTableRecord
  2
*Active
 70
     0
 10
0.0
 20
0.0
 11
1.0
 21
1.0
 12
-18.72099133763291
 22
1.980758558116271
 13
0.0
 23
0.0
 14
10.0
 24
10.0
 15
10.0
 25
10.0
 16
0.0
 26
0.0
 36
1.0
 17
0.0
 27
0.0
 37
0.0
 40
105.9832345317331
 41
2.070175438596491
 42
50.0
 43
0.0
 44
0.0
 50
0.0
 51
0.0
 71
    16
 72
  2000
 73
     1
 74
     3
 75
     0
 76
     0
 77
     0
 78
     0
281
     0
 65
     1
110
0.0
120
0.0
130
0.0
111
1.0
121
0.0
131
0.0
112
0.0
122
1.0
132
0.0
 79
     0
146
0.0
  0
ENDTAB
  0
TABLE
  2
LTYPE
  5
5
330
0
100
AcDbSymbolTable
 70
     6
  0
LTYPE
  5
14
330
5
100
AcDbSymbolTableRecord
100
AcDbLinetypeTableRecord
  2
ByBlock
 70
     0
  3

 72
    65
 73
     0
 40
0.0
  0
LTYPE
  5
15
330
5
100
AcDbSymbolTableRecord
100
AcDbLinetypeTableRecord
  2
ByLayer
 70
     0
  3

 72
    65
 73
     0
 40
0.0
  0
LTYPE
  5
16
330
5
100
AcDbSymbolTableRecord
100
AcDbLinetypeTableRecord
  2
Continuous
 70
     0
  3
Solid line
 72
    65
 73
     0
 40
0.0
  0
LTYPE
  5
6E
330
5
100
AcDbSymbolTableRecord
100
AcDbLinetypeTableRecord
  2
HIDDEN
 70
     0
  3
Hidden __ __ __ __ __ __ __ __ __ __ __ __ __ __
 72
    65
 73
     2
 40
1.905
 49
1.27
 74
     0
 49
-0.635
 74
     0
  0
LTYPE
  5
6F
330
5
100
AcDbSymbolTableRecord
100
AcDbLinetypeTableRecord
  2
PHANTOM
 70
     0
  3
Phantom ______  __  __  ______  __  __  ______
 72
    65
 73
     6
 40
12.7
 49
6.35
 74
     0
 49
-1.27
 74
     0
 49
1.27
 74
     0
 49
-1.27
 74
     0
 49
1.27
 74
     0
 49
-1.27
 74
     0
  0
LTYPE
  5
70
330
5
100
AcDbSymbolTableRecord
100
AcDbLinetypeTableRecord
  2
CENTER
 70
     0
  3
Center ____ _ ____ _ ____ _ ____ _ ____ _ ____
 72
    65
 73
     4
 40
10.16
 49
6.35
 74
     0
 49
-1.27
 74
     0
 49
1.27
 74
     0
 49
-1.27
 74
     0
  0
LTYPE
  5
71
330
5
100
AcDbSymbolTableRecord
100
AcDbLinetypeTableRecord
  2
CENTERX2
 70
     0
  3
Center (2x) ________  __  ________  __  _____
 72
    65
 73
     4
 40
20.32
 49
12.7
 74
     0
 49
-2.54
 74
     0
 49
2.54
 74
     0
 49
-2.54
 74
     0
  0
LTYPE
  5
72
330
5
100
AcDbSymbolTableRecord
100
AcDbLinetypeTableRecord
  2
DOT2
 70
     0
  3
Dot (.5x) ........................................
 72
    65
 73
     2
 40
0.635
 49
0.0
 74
     0
 49
-0.635
 74
     0
  0
ENDTAB
  0
TABLE
  2
LAYER
  5
2
330
0
100
AcDbSymbolTable
 70
    17
  0
LAYER
  5
10
330
2
100
AcDbSymbolTableRecord
100
AcDbLayerTableRecord
  2
0
 70
     0
 62
     7
  6
Continuous
370
    -3
390
F
  0
LAYER
  5
73
330
2
100
AcDbSymbolTableRecord
100
AcDbLayerTableRecord
  2
FORMAT
 70
     0
 62
     2
  6
Continuous
370
    -3
390
F
  0
LAYER
  5
74
330
2
100
AcDbSymbolTableRecord
100
AcDbLayerTableRecord
  2
외형선
 70
     0
 62
   100
  6
Continuous
370
    35
390
F
  0
LAYER
  5
75
330
2
100
AcDbSymbolTableRecord
100
AcDbLayerTableRecord
  2
숨은선
 70
     0
 62
     2
  6
HIDDEN
370
    25
390
F
  0
LAYER
  5
76
330
2
100
AcDbSymbolTableRecord
100
AcDbLayerTableRecord
  2
중심선
 70
     0
 62
     1
  6
CENTERX2
370
    -3
390
F
  0
LAYER
  5
77
330
2
100
AcDbSymbolTableRecord
100
AcDbLayerTableRecord
  2
파단선
 70
     0
 62
     4
  6
Continuous
370
    -3
390
F
  0
LAYER
  5
78
330
2
100
AcDbSymbolTableRecord
100
AcDbLayerTableRecord
  2
해칭선
 70
     0
 62
     4
  6
Continuous
370
    -3
390
F
  0
LAYER
  5
79
330
2
100
AcDbSymbolTableRecord
100
AcDbLayerTableRecord
  2
가는실선
 70
     0
 62
     4
  6
Continuous
370
    -3
390
F
  0
LAYER
  5
7A
330
2
100
AcDbSymbolTableRecord
100
AcDbLayerTableRecord
  2
치수_보조선
 70
     0
 62
     4
  6
Continuous
370
    -3
390
F
  0
LAYER
  5
7B
330
2
100
AcDbSymbolTableRecord
100
AcDbLayerTableRecord
  2
치수문자_일반주서
 70
     0
 62
     7
  6
Continuous
370
    25
390
F
  0
LAYER
  5
7C
330
2
100
AcDbSymbolTableRecord
100
AcDbLayerTableRecord
  2
개별주서
 70
     0
 62
   100
  6
Continuous
370
    35
390
F
  0
LAYER
  5
7D
330
2
100
AcDbSymbolTableRecord
100
AcDbLayerTableRecord
  2
중간선
 70
     0
 62
     2
  6
Continuous
370
    25
390
F
  0
LAYER
  5
7E
330
2
100
AcDbSymbolTableRecord
100
AcDbLayerTableRecord
  2
윤곽선
 70
     0
 62
     3
  6
Continuous
370
    50
390
F
  0
LAYER
  5
7F
330
2
100
AcDbSymbolTableRecord
100
AcDbLayerTableRecord
  2
중심마크
 70
     0
 62
   100
  6
Continuous
370
    35
390
F
  0
LAYER
  5
80
330
2
100
AcDbSymbolTableRecord
100
AcDbLayerTableRecord
  2
가상선
 70
     0
 62
     4
  6
PHANTOM
370
    -3
390
F
  0
LAYER
  5
81
330
2
100
AcDbSymbolTableRecord
100
AcDbLayerTableRecord
  2
특수지정선
 70
     0
 62
     5
  6
CENTERX2
370
    70
390
F
  0
LAYER
  5
13D
330
2
100
AcDbSymbolTableRecord
100
AcDbLayerTableRecord
  2
Defpoints
 70
     0
 62
     7
  6
Continuous
290
     0
370
    -3
390
F
  0
ENDTAB
  0
TABLE
  2
STYLE
  5
3
330
0
100
AcDbSymbolTable
 70
     2
  0
STYLE
  5
11
330
3
100
AcDbSymbolTableRecord
100
AcDbTextStyleTableRecord
  2
Standard
 70
     0
 40
0.0
 41
1.0
 50
0.0
 71
     0
 42
3.5
  3
txt
  4

  0
STYLE
  5
97
330
3
100
AcDbSymbolTableRecord
100
AcDbTextStyleTableRecord
  2
SLDTEXTSTYLE0
 70
     0
 40
0.0
 41
0.75
 50
0.0
 71
     0
 42
3.5
  3
TXT
  4

  0
ENDTAB
  0
TABLE
  2
VIEW
  5
6
330
0
100
AcDbSymbolTable
 70
     0
  0
ENDTAB
  0
TABLE
  2
UCS
  5
7
330
0
100
AcDbSymbolTable
 70
     0
  0
ENDTAB
  0
TABLE
  2
APPID
  5
9
330
0
100
AcDbSymbolTable
 70
     3
  0
APPID
  5
12
330
9
100
AcDbSymbolTableRecord
100
AcDbRegAppTableRecord
  2
ACAD
 70
     0
  0
APPID
  5
14F
330
9
100
AcDbSymbolTableRecord
100
AcDbRegAppTableRecord
  2
ACAD_DSTYLE_DIMRADIAL_EXTENSION
 70
     0
  0
APPID
  5
192
330
9
100
AcDbSymbolTableRecord
100
AcDbRegAppTableRecord
  2
PE_URL
 70
     0
  0
ENDTAB
  0
TABLE
  2
DIMSTYLE
  5
A
330
0
100
AcDbSymbolTable
 70
     3
100
AcDbDimStyleTable
  0
DIMSTYLE
105
27
330
A
100
AcDbSymbolTableRecord
100
AcDbDimStyleTableRecord
  2
ISO-25
 70
     0
 41
2.5
 42
0.625
 43
3.75
 44
1.25
 73
     0
 74
     0
 77
     1
 78
     8
140
2.5
141
2.5
143
0.03937007874016
147
0.625
171
     3
172
     1
178
     0
271
     2
272
     2
274
     3
278
    44
283
     0
284
     8
340
11
  0
DIMSTYLE
105
D7
102
{ACAD_REACTORS
330
D6
330
FA
102
}
330
A
100
AcDbSymbolTableRecord
100
AcDbDimStyleTableRecord
  2
SLDDIMSTYLE0
 70
     0
 41
3.302
 44
0.0
 45
0.000000001
 73
     0
 74
     0
 77
     1
 78
    12
 79
     3
140
3.5
147
0.875
172
     1
173
     1
178
     0
271
     2
272
     2
276
     2
284
    12
289
     0
340
97
  0
DIMSTYLE
105
E5
102
{ACAD_REACTORS
330
E4
330
F0
330
106
330
162
102
}
330
A
100
AcDbSymbolTableRecord
100
AcDbDimStyleTableRecord
  2
SLDDIMSTYLE1
 70
     0
 41
3.302
 44
0.0
 45
0.000000001
 73
     0
 74
     0
 77
     1
 78
    12
 79
     3
140
3.5
147
0.875
173
     1
178
     0
271
     2
272
     2
276
     2
284
    12
340
97
  0
ENDTAB
  0
TABLE
  2
BLOCK_RECORD
  5
1
330
0
100
AcDbSymbolTable
 70
    10
  0
BLOCK_RECORD
  5
1F
330
1
100
AcDbSymbolTableRecord
100
AcDbBlockTableRecord
  2
*Model_Space
340
22
  0
BLOCK_RECORD
  5
1B
330
1
100
AcDbSymbolTableRecord
100
AcDbBlockTableRecord
  2
*Paper_Space
340
1E
  0
BLOCK_RECORD
  5
23
330
1
100
AcDbSymbolTableRecord
100
AcDbBlockTableRecord
  2
*Paper_Space0
340
26
  0
BLOCK_RECORD
  5
82
330
1
100
AcDbSymbolTableRecord
100
AcDbBlockTableRecord
  2
블럭10
340
0
102
{BLKREFS
331
CF
102
}
  0
BLOCK_RECORD
  5
D8
330
1
100
AcDbSymbolTableRecord
100
AcDbBlockTableRecord
  2
_D
340
0
  0
BLOCK_RECORD
  5
E6
330
1
100
AcDbSymbolTableRecord
100
AcDbBlockTableRecord
  2
_D_1
340
0
  0
BLOCK_RECORD
  5
F1
330
1
100
AcDbSymbolTableRecord
100
AcDbBlockTableRecord
  2
_D_2
340
0
  0
BLOCK_RECORD
  5
FB
330
1
100
AcDbSymbolTableRecord
100
AcDbBlockTableRecord
  2
_D_3
340
0
  0
BLOCK_RECORD
  5
107
330
1
100
AcDbSymbolTableRecord
100
AcDbBlockTableRecord
  2
_D_4
340
0
  0
BLOCK_RECORD
  5
112
330
1
100
AcDbSymbolTableRecord
100
AcDbBlockTableRecord
  2
SW_DOWELSYMBOL_0
340
0
102
{BLKREFS
331
118
102
}
  0
BLOCK_RECORD
  5
153
330
1
100
AcDbSymbolTableRecord
100
AcDbBlockTableRecord
  2
*D8
340
0
  0
BLOCK_RECORD
  5
165
330
1
100
AcDbSymbolTableRecord
100
AcDbBlockTableRecord
  2
*D9
340
0
  0
ENDTAB
  0
ENDSEC
  0
SECTION
  2
BLOCKS
  0
BLOCK
  5
20
330
1F
100
AcDbEntity
  8
0
100
AcDbBlockBegin
  2
*Model_Space
 70
     0
 10
0.0
 20
0.0
 30
0.0
  3
*Model_Space
  1
*Model_Space
  0
ENDBLK
  5
21
330
1F
100
AcDbEntity
  8
0
100
AcDbBlockEnd
  0
BLOCK
  5
1C
330
1B
100
AcDbEntity
 67
     1
  8
0
100
AcDbBlockBegin
  2
*Paper_Space
 70
     0
 10
0.0
 20
0.0
 30
0.0
  3
*Paper_Space
  1
*Paper_Space
  0
ENDBLK
  5
1D
330
1B
100
AcDbEntity
 67
     1
  8
0
100
AcDbBlockEnd
  0
BLOCK
  5
24
330
23
100
AcDbEntity
  8
0
100
AcDbBlockBegin
  2
*Paper_Space0
 70
     0
 10
0.0
 20
0.0
 30
0.0
  3
*Paper_Space0
  1
*Paper_Space0
  0
ENDBLK
  5
25
330
23
100
AcDbEntity
  8
0
100
AcDbBlockEnd
  0
BLOCK
  5
83
330
82
100
AcDbEntity
  8
0
100
AcDbBlockBegin
  2
블럭10
 70
     2
 10
0.0
 20
0.0
 30
0.0
  3
블럭10
  1
블럭10
  0
ELLIPSE
  5
85
330
82
100
AcDbEntity
  8
중심선
100
AcDbEllipse
 10
20.54032771741204
 20
12.0471743016438
 30
0.0
 11
6.600054785286829
 21
-1.261213355974178E-13
 31
0.0
210
0.0
220
0.0
230
1.0
 40
0.636358354079598
 41
0.9219305317359503
 42
6.513795318482858
  0
ELLIPSE
  5
86
330
82
100
AcDbEntity
  8
중심선
100
AcDbEllipse
 10
20.54032771746488
 20
12.04717430159265
 30
0.0
 11
3.960054785062283
 21
1.540847449632565E-10
 31
0.0
210
0.0
220
0.0
230
1.0
 40
0.3939339440162632
 41
1.131841032648279
 42
5.62031148352944
  0
LINE
  5
87
330
82
100
AcDbEntity
  8
중심선
100
AcDbLine
 10
2.268634060543552
 20
16.24717430164393
 30
0.0
 11
5.714909304380834
 21
16.24717430164393
 31
0.0
  0
LINE
  5
88
330
82
100
AcDbEntity
  8
중심선
100
AcDbLine
 10
5.245725140726316
 20
7.84717430164391
 30
0.0
 11
8.692000384563599
 21
7.84717430164391
 31
0.0
  0
LINE
  5
89
330
82
100
AcDbEntity
  8
중심선
100
AcDbLine
 10
15.74043728645272
 20
16.24717430164393
 30
0.0
 11
8.692000384563599
 21
7.84717430164391
 31
0.0
  0
LINE
  5
8A
330
82
100
AcDbEntity
  8
중심선
100
AcDbLine
 10
0.1404042013395286
 20
13.71084872107135
 30
0.0
 11
3.58671253028996
 21
13.71088815037384
 31
0.0
  0
LINE
  5
8B
330
82
100
AcDbEntity
  8
중심선
100
AcDbLine
 10
2.750260043222114
 20
10.84717430164391
 30
0.0
 11
6.196535287059397
 21
10.84717430164391
 31
0.0
  0
LINE
  5
8C
330
82
100
AcDbEntity
  8
중심선
100
AcDbLine
 10
12.29416204261559
 20
16.24717430164393
 30
0.0
 11
5.245725140726316
 21
7.84717430164391
 31
0.0
  0
LINE
  5
8D
330
82
100
AcDbEntity
  8
중심선
100
AcDbLine
 10
10.72767329541681
 20
16.24717430164393
 30
0.0
 11
6.196535287059397
 21
10.84717430164391
 31
0.0
  0
LINE
  5
8E
330
82
100
AcDbEntity
  8
중심선
100
AcDbLine
 10
7.28139805157953
 20
16.24717430164393
 30
0.0
 11
2.750260043222114
 21
10.84717430164391
 31
0.0
  0
LINE
  5
8F
330
82
100
AcDbEntity
  8
중심선
100
AcDbLine
 10
5.714909304380834
 20
16.24717430164393
 30
0.0
 11
3.58671253028996
 21
13.71088815037384
 31
0.0
  0
LINE
  5
90
330
82
100
AcDbEntity
  8
중심선
100
AcDbLine
 10
2.268634060543552
 20
16.24717430164393
 30
0.0
 11
0.1404042013395286
 21
13.71084872107135
 31
0.0
  0
LINE
  5
91
330
82
100
AcDbEntity
  8
중심선
100
AcDbLine
 10
7.28139805157953
 20
16.24717430164393
 30
0.0
 11
10.72767329541681
 21
16.24717430164393
 31
0.0
  0
LINE
  5
92
330
82
100
AcDbEntity
  8
중심선
100
AcDbLine
 10
12.29416204261559
 20
16.24717430164393
 30
0.0
 11
15.74043728645272
 21
16.24717430164393
 31
0.0
  0
LINE
  5
93
330
82
100
AcDbEntity
  8
중심선
100
AcDbLine
 10
19.22036997980202
 20
11.08717430171403
 30
0.0
 11
23.66174974927406
 21
11.08717430171406
 31
0.0
  0
LINE
  5
94
330
82
100
AcDbEntity
  8
중심선
100
AcDbLine
 10
19.22039502424796
 20
13.00717430171391
 30
0.0
 11
19.22036997980202
 21
11.08717430171403
 31
0.0
  0
LINE
  5
95
330
82
100
AcDbEntity
  8
중심선
100
AcDbLine
 10
19.22039502424796
 20
13.00717430171391
 30
0.0
 11
26.96566020931264
 21
13.00717430171391
 31
0.0
  0
LINE
  5
96
330
82
100
AcDbEntity
  8
중심선
100
AcDbLine
 10
22.22332737316547
 20
13.45928029700563
 30
0.0
 11
24.52862924686651
 21
15.39360700705356
 31
0.0
  0
ATTDEF
  5
98
330
82
100
AcDbEntity
  8
FORMAT
 62
     2
100
AcDbText
 10
-20.85824753159254
 20
2.075366912832191
 30
0.0
 40
4.233333333333333
  1
SEME6120010150E [ 2 FLUTE ]
 41
0.75
  7
SLDTEXTSTYLE0
 11
-20.85824753159254
 21
-0.0412997538344756
 31
0.0
100
AcDbAttributeDefinition
  3

  2
AUTOATTR0
 70
     0
 74
     1
  0
ENDBLK
  5
84
330
82
100
AcDbEntity
  8
0
100
AcDbBlockEnd
  0
BLOCK
  5
D9
330
D8
100
AcDbEntity
  8
0
100
AcDbBlockBegin
  2
_D
 70
     0
 10
0.0
 20
0.0
 30
0.0
  3
_D
  1
_D
  0
LINE
  5
DB
330
D8
100
AcDbEntity
  8
치수문자_일반주서
 62
     0
370
    -2
100
AcDbLine
 10
-93.9125
 20
9.99999999999999
 30
0.0
 11
-106.3464580216122
 21
9.999999999999943
 31
0.0
  0
LINE
  5
DC
330
D8
100
AcDbEntity
  8
치수문자_일반주서
 62
     0
370
    -2
100
AcDbLine
 10
-93.9125
 20
-9.999999999999996
 30
0.0
 11
-106.3464580216121
 21
-10.00000000000004
 31
0.0
  0
LINE
  5
DD
330
D8
100
AcDbEntity
  8
치수문자_일반주서
 62
     0
370
    -2
100
AcDbLine
 10
-106.3464580216121
 20
6.697999999999944
 30
0.0
 11
-106.3464580216121
 21
-6.698000000000043
 31
0.0
  0
SOLID
  5
DE
330
D8
100
AcDbEntity
  8
치수문자_일반주서
 62
     0
100
AcDbTrace
 10
-105.7961246882788
 20
6.697999999999945
 30
0.0
 11
-106.8967913549455
 21
6.697999999999942
 31
0.0
 12
-106.3464580216122
 22
9.999999999999943
 32
0.0
 13
-106.3464580216122
 23
9.999999999999943
 33
0.0
  0
SOLID
  5
DF
330
D8
100
AcDbEntity
  8
치수문자_일반주서
 62
     0
100
AcDbTrace
 10
-106.8967913549454
 20
-6.698000000000045
 30
0.0
 11
-105.7961246882788
 21
-6.698000000000041
 31
0.0
 12
-106.3464580216121
 22
-10.00000000000004
 32
0.0
 13
-106.3464580216121
 23
-10.00000000000004
 33
0.0
  0
MTEXT
  5
E0
330
D8
100
AcDbEntity
  8
치수문자_일반주서
 62
     0
100
AcDbMText
 10
-110.7214580216121
 20
-0.0000000000000187
 30
0.0
 40
3.5
 41
0.0
 71
     2
 72
     1
  1
\A1;%%c20
  7
SLDTEXTSTYLE0
 11
-3.552713678800503E-15
 21
1.0
 31
0.0
 73
     1
 44
1.0
  0
POINT
  5
E1
330
D8
100
AcDbEntity
  8
Defpoints
 62
     0
100
AcDbPoint
 10
-93.85
 20
9.99999999999999
 30
0.0
  0
POINT
  5
E2
330
D8
100
AcDbEntity
  8
Defpoints
 62
     0
100
AcDbPoint
 10
-93.85
 20
-9.999999999999996
 30
0.0
  0
POINT
  5
E3
330
D8
100
AcDbEntity
  8
Defpoints
 62
     0
100
AcDbPoint
 10
-106.346458021612
 20
-10.00000000000004
 30
0.0
  0
ENDBLK
  5
DA
330
D8
100
AcDbEntity
  8
0
100
AcDbBlockEnd
  0
BLOCK
  5
E7
330
E6
100
AcDbEntity
  8
0
100
AcDbBlockBegin
  2
_D_1
 70
     0
 10
0.0
 20
0.0
 30
0.0
  3
_D_1
  1
_D_1
  0
LINE
  5
E9
330
E6
100
AcDbEntity
  8
치수문자_일반주서
 62
     0
370
    -2
100
AcDbLine
 10
55.14999999999999
 20
9.0625
 30
0.0
 11
55.14999999999999
 21
27.49999999999964
 31
0.0
  0
LINE
  5
EA
330
E6
100
AcDbEntity
  8
치수문자_일반주서
 62
     0
370
    -2
100
AcDbLine
 10
15.15
 20
8.783808216689536
 30
0.0
 11
15.15
 21
27.49999999999964
 31
0.0
  0
LINE
  5
EB
330
E6
100
AcDbEntity
  8
치수문자_일반주서
 62
     0
370
    -2
100
AcDbLine
 10
51.84799999999999
 20
27.49999999999964
 30
0.0
 11
18.452
 21
27.49999999999964
 31
0.0
  0
SOLID
  5
EC
330
E6
100
AcDbEntity
  8
치수문자_일반주서
 62
     0
100
AcDbTrace
 10
51.84799999999999
 20
26.94966666666631
 30
0.0
 11
51.84799999999999
 21
28.05033333333298
 31
0.0
 12
55.14999999999999
 22
27.49999999999964
 32
0.0
 13
55.14999999999999
 23
27.49999999999964
 33
0.0
  0
SOLID
  5
ED
330
E6
100
AcDbEntity
  8
치수문자_일반주서
 62
     0
100
AcDbTrace
 10
18.452
 20
28.05033333333298
 30
0.0
 11
18.452
 21
26.94966666666631
 31
0.0
 12
15.15
 22
27.49999999999964
 32
0.0
 13
15.15
 23
27.49999999999964
 33
0.0
  0
MTEXT
  5
EE
330
E6
100
AcDbEntity
  8
치수문자_일반주서
 62
     0
100
AcDbMText
 10
35.14999999999999
 20
31.87499999999964
 30
0.0
 40
3.5
 41
0.0
 71
     2
 72
     1
  1
\A1;40
  7
SLDTEXTSTYLE0
 73
     1
 44
1.0
  0
POINT
  5
EF
330
E6
100
AcDbEntity
  8
Defpoints
 62
     0
100
AcDbPoint
 10
55.14999999999999
 20
9.0
 30
0.0
  0
POINT
  5
144
330
E6
100
AcDbEntity
  8
Defpoints
 62
     0
100
AcDbPoint
 10
15.15
 20
8.721308216689536
 30
0.0
  0
POINT
  5
145
330
E6
100
AcDbEntity
  8
Defpoints
 62
     0
100
AcDbPoint
 10
15.15
 20
27.49999999999964
 30
0.0
  0
ENDBLK
  5
E8
330
E6
100
AcDbEntity
  8
0
100
AcDbBlockEnd
  0
BLOCK
  5
F2
330
F1
100
AcDbEntity
  8
0
100
AcDbBlockBegin
  2
_D_2
 70
     0
 10
0.0
 20
0.0
 30
0.0
  3
_D_2
  1
_D_2
  0
LINE
  5
F4
330
F1
100
AcDbEntity
  8
치수문자_일반주서
 62
     0
370
    -2
100
AcDbLine
 10
55.14999999999999
 20
9.0625
 30
0.0
 11
55.15
 21
49.55832450504428
 31
0.0
  0
LINE
  5
F5
330
F1
100
AcDbEntity
  8
치수문자_일반주서
 62
     0
370
    -2
100
AcDbLine
 10
-94.85
 20
9.062499999999988
 30
0.0
 11
-94.84999999999997
 21
49.55832450504428
 31
0.0
  0
LINE
  5
F6
330
F1
100
AcDbEntity
  8
치수문자_일반주서
 62
     0
370
    -2
100
AcDbLine
 10
51.848
 20
49.55832450504428
 30
0.0
 11
-91.54799999999996
 21
49.55832450504428
 31
0.0
  0
SOLID
  5
F7
330
F1
100
AcDbEntity
  8
치수문자_일반주서
 62
     0
100
AcDbTrace
 10
51.848
 20
49.00799117171095
 30
0.0
 11
51.848
 21
50.10865783837762
 31
0.0
 12
55.15
 22
49.55832450504428
 32
0.0
 13
55.15
 23
49.55832450504428
 33
0.0
  0
SOLID
  5
F8
330
F1
100
AcDbEntity
  8
치수문자_일반주서
 62
     0
100
AcDbTrace
 10
-91.54799999999996
 20
50.10865783837762
 30
0.0
 11
-91.54799999999996
 21
49.00799117171095
 31
0.0
 12
-94.84999999999997
 22
49.55832450504428
 32
0.0
 13
-94.84999999999997
 23
49.55832450504428
 33
0.0
  0
MTEXT
  5
F9
330
F1
100
AcDbEntity
  8
치수문자_일반주서
 62
     0
100
AcDbMText
 10
-19.85000000000002
 20
53.93332450504428
 30
0.0
 40
3.5
 41
0.0
 71
     2
 72
     1
  1
\A1;150
  7
SLDTEXTSTYLE0
 73
     1
 44
1.0
  0
POINT
  5
147
330
F1
100
AcDbEntity
  8
Defpoints
 62
     0
100
AcDbPoint
 10
55.14999999999999
 20
9.0
 30
0.0
  0
POINT
  5
148
330
F1
100
AcDbEntity
  8
Defpoints
 62
     0
100
AcDbPoint
 10
-94.85
 20
8.999999999999988
 30
0.0
  0
POINT
  5
149
330
F1
100
AcDbEntity
  8
Defpoints
 62
     0
100
AcDbPoint
 10
-94.85
 20
49.55832450504428
 30
0.0
  0
ENDBLK
  5
F3
330
F1
100
AcDbEntity
  8
0
100
AcDbBlockEnd
  0
BLOCK
  5
FC
330
FB
100
AcDbEntity
  8
0
100
AcDbBlockBegin
  2
_D_3
 70
     0
 10
0.0
 20
0.0
 30
0.0
  3
_D_3
  1
_D_3
  0
LINE
  5
FE
330
FB
100
AcDbEntity
  8
치수문자_일반주서
 62
     0
370
    -2
100
AcDbLine
 10
55.14999999999999
 20
9.046532896023896
 30
0.0
 11
55.14999999999999
 21
36.71963783791156
 31
0.0
  0
LINE
  5
FF
330
FB
100
AcDbEntity
  8
치수문자_일반주서
 62
     0
370
    -2
100
AcDbLine
 10
0.1499999999999946
 20
9.9125
 30
0.0
 11
0.149999999999995
 21
36.71963783791156
 31
0.0
  0
LINE
  5
100
330
FB
100
AcDbEntity
  8
치수문자_일반주서
 62
     0
370
    -2
100
AcDbLine
 10
51.84799999999999
 20
36.71963783791156
 30
0.0
 11
3.451999999999995
 21
36.71963783791156
 31
0.0
  0
SOLID
  5
101
330
FB
100
AcDbEntity
  8
치수문자_일반주서
 62
     0
100
AcDbTrace
 10
51.84799999999999
 20
36.16930450457823
 30
0.0
 11
51.84799999999999
 21
37.2699711712449
 31
0.0
 12
55.14999999999999
 22
36.71963783791156
 32
0.0
 13
55.14999999999999
 23
36.71963783791156
 33
0.0
  0
SOLID
  5
102
330
FB
100
AcDbEntity
  8
치수문자_일반주서
 62
     0
100
AcDbTrace
 10
3.451999999999995
 20
37.2699711712449
 30
0.0
 11
3.451999999999995
 21
36.16930450457823
 31
0.0
 12
0.149999999999995
 22
36.71963783791156
 32
0.0
 13
0.149999999999995
 23
36.71963783791156
 33
0.0
  0
MTEXT
  5
103
330
FB
100
AcDbEntity
  8
치수문자_일반주서
 62
     0
100
AcDbMText
 10
27.65
 20
41.09463783791156
 30
0.0
 40
3.5
 41
0.0
 71
     2
 72
     1
  1
\A1;55
  7
SLDTEXTSTYLE0
 73
     1
 44
1.0
  0
POINT
  5
104
330
FB
100
AcDbEntity
  8
Defpoints
 62
     0
100
AcDbPoint
 10
55.14999999999999
 20
8.984032896023896
 30
0.0
  0
POINT
  5
105
330
FB
100
AcDbEntity
  8
Defpoints
 62
     0
100
AcDbPoint
 10
0.1499999999999946
 20
9.85
 30
0.0
  0
POINT
  5
13E
330
FB
100
AcDbEntity
  8
Defpoints
 62
     0
100
AcDbPoint
 10
0.1499999999999946
 20
36.71963783791156
 30
0.0
  0
ENDBLK
  5
FD
330
FB
100
AcDbEntity
  8
0
100
AcDbBlockEnd
  0
BLOCK
  5
108
330
107
100
AcDbEntity
  8
0
100
AcDbBlockBegin
  2
_D_4
 70
     0
 10
0.0
 20
0.0
 30
0.0
  3
_D_4
  1
_D_4
  0
LINE
  5
10A
330
107
100
AcDbEntity
  8
치수문자_일반주서
 62
     0
370
    -2
100
AcDbLine
 10
55.21249999999999
 20
10.04772753687835
 30
0.0
 11
72.72914201301293
 21
10.04772753687842
 31
0.0
  0
LINE
  5
10B
330
107
100
AcDbEntity
  8
치수문자_일반주서
 62
     0
370
    -2
100
AcDbLine
 10
54.26463102366282
 20
-9.952691378252348
 30
0.0
 11
72.72914201301302
 21
-9.95269137825228
 31
0.0
  0
LINE
  5
10C
330
107
100
AcDbEntity
  8
치수문자_일반주서
 62
     0
370
    -2
100
AcDbLine
 10
72.72914201301295
 20
6.745727536878416
 30
0.0
 11
72.729142013013
 21
-6.650691378252281
 31
0.0
  0
SOLID
  5
10D
330
107
100
AcDbEntity
  8
치수문자_일반주서
 62
     0
100
AcDbTrace
 10
73.27947534634627
 20
6.745727536878418
 30
0.0
 11
72.17880867967962
 21
6.745727536878414
 31
0.0
 12
72.72914201301293
 22
10.04772753687842
 32
0.0
 13
72.72914201301293
 23
10.04772753687842
 33
0.0
  0
SOLID
  5
10E
330
107
100
AcDbEntity
  8
치수문자_일반주서
 62
     0
100
AcDbTrace
 10
72.17880867967968
 20
-6.650691378252283
 30
0.0
 11
73.27947534634633
 21
-6.650691378252279
 31
0.0
 12
72.72914201301302
 22
-9.95269137825228
 32
0.0
 13
72.72914201301302
 23
-9.95269137825228
 33
0.0
  0
MTEXT
  5
10F
330
107
100
AcDbEntity
  8
치수문자_일반주서
 62
     0
100
AcDbMText
 10
68.35414201301298
 20
0.0475180793130528
 30
0.0
 40
3.5
 41
0.0
 71
     2
 72
     1
  1
\A1;%%c20
  7
SLDTEXTSTYLE0
 11
-3.552639266083378E-15
 21
1.0
 31
0.0
 73
     1
 44
1.0
  0
POINT
  5
110
330
107
100
AcDbEntity
  8
Defpoints
 62
     0
100
AcDbPoint
 10
55.14999999999999
 20
10.04772753687835
 30
0.0
  0
POINT
  5
111
330
107
100
AcDbEntity
  8
Defpoints
 62
     0
100
AcDbPoint
 10
54.20213102366282
 20
-9.952691378252348
 30
0.0
  0
POINT
  5
142
330
107
100
AcDbEntity
  8
Defpoints
 62
     0
100
AcDbPoint
 10
72.72914201301302
 20
-9.952691378252279
 30
0.0
  0
ENDBLK
  5
109
330
107
100
AcDbEntity
  8
0
100
AcDbBlockEnd
  0
BLOCK
  5
113
330
112
100
AcDbEntity
  8
0
100
AcDbBlockBegin
  2
SW_DOWELSYMBOL_0
 70
     0
 10
0.0
 20
0.0
 30
0.0
  3
SW_DOWELSYMBOL_0
  1
SW_DOWELSYMBOL_0
  0
CIRCLE
  5
115
330
112
100
AcDbEntity
  8
외형선
 62
     0
100
AcDbCircle
 10
0.0
 20
0.0
 30
0.0
 40
3.000000000000004
  0
HATCH
  5
116
330
112
100
AcDbEntity
  8
0
  6
Continuous
 62
     0
370
    35
100
AcDbHatch
 10
0.0
 20
0.0
 30
0.0
210
0.0
220
0.0
230
1.0
  2
SOLID
 70
     1
 71
     0
 91
        1
 92
        0
 93
        3
 72
     2
 10
0.0000000000000104
 20
0.0
 40
3.000000000000004
 50
0.0
 51
90.0
 73
     1
 72
     1
 10
0.0000000000000104
 20
3.000000000000004
 11
0.0000000000000104
 21
0.0
 72
     1
 10
0.0000000000000104
 20
0.0
 11
3.000000000000015
 21
0.0
 97
        0
 75
     0
 76
     1
 98
        1
 10
0.0
 20
0.0
  0
HATCH
  5
117
330
112
100
AcDbEntity
  8
0
  6
Continuous
 62
     0
370
    35
100
AcDbHatch
 10
0.0
 20
0.0
 30
0.0
210
0.0
220
0.0
230
1.0
  2
SOLID
 70
     1
 71
     0
 91
        1
 92
        0
 93
        3
 72
     2
 10
0.0000000000000104
 20
0.0
 40
3.000000000000004
 50
180.0
 51
270.0000000000007
 73
     1
 72
     1
 10
0.0000000000000104
 20
-3.000000000000004
 11
0.0000000000000104
 21
0.0
 72
     1
 10
0.0000000000000104
 20
0.0
 11
-2.999999999999994
 21
0.0
 97
        0
 75
     0
 76
     1
 98
        1
 10
0.0
 20
0.0
  0
ENDBLK
  5
114
330
112
100
AcDbEntity
  8
0
100
AcDbBlockEnd
  0
BLOCK
  5
154
330
153
100
AcDbEntity
  8
0
100
AcDbBlockBegin
  2
*D8
 70
     1
 10
0.0
 20
0.0
 30
0.0
  3
*D8
  1
*D8
  0
LINE
  5
156
330
153
100
AcDbEntity
  8
치수문자_일반주서
 62
     0
370
    -2
100
AcDbLine
 10
58.50905236514179
 20
-12.96609218307448
 30
0.0
 11
63.84489438472119
 21
-25.90747650986329
 31
0.0
  0
MTEXT
  5
157
330
153
100
AcDbEntity
  8
치수문자_일반주서
 62
     0
100
AcDbMText
 10
64.52066588356355
 20
-20.65995357576836
 30
0.0
 40
3.5
 41
0.0
 71
     5
 72
     1
  1
\A1;R0.5
  7
SLDTEXTSTYLE0
 11
0.3811795749622454
 21
-0.9245010176476833
 31
0.0
 73
     1
 44
1.0
  0
SOLID
  5
158
330
153
100
AcDbEntity
  8
치수문자_일반주서
 62
     0
100
AcDbTrace
 10
59.0178360918539
 20
-12.75631635698693
 30
0.0
 11
58.00026863842968
 21
-13.17586800916204
 31
0.0
 12
57.25039740861646
 22
-9.913389822801834
 32
0.0
 13
57.25039740861646
 23
-9.913389822801834
 33
0.0
  0
LINE
  5
159
330
153
100
AcDbEntity
  8
치수문자_일반주서
 62
     0
100
AcDbLine
 10
56.96980762113533
 20
-9.451139313977992
 30
0.0
 11
57.14980762113534
 21
-9.451139313977992
 31
0.0
  0
LINE
  5
15A
330
153
100
AcDbEntity
  8
치수문자_일반주서
 62
     0
100
AcDbLine
 10
57.05980762113533
 20
-9.541139313977991
 30
0.0
 11
57.05980762113533
 21
-9.361139313977992
 31
0.0
  0
POINT
  5
15B
330
153
100
AcDbEntity
  8
Defpoints
 62
     0
100
AcDbPoint
 10
57.25039740861646
 20
-9.913389822801834
 30
0.0
  0
POINT
  5
15C
330
153
100
AcDbEntity
  8
Defpoints
 62
     0
100
AcDbPoint
 10
57.05980762113533
 20
-9.451139313977992
 30
0.0
  0
ENDBLK
  5
155
330
153
100
AcDbEntity
  8
0
100
AcDbBlockEnd
  0
BLOCK
  5
166
330
165
100
AcDbEntity
  8
0
100
AcDbBlockBegin
  2
*D9
 70
     1
 10
0.0
 20
0.0
 30
0.0
  3
*D9
  1
*D9
  0
LINE
  5
168
330
165
100
AcDbEntity
  8
치수문자_일반주서
 62
     0
370
    -2
100
AcDbLine
 10
56.10495317764757
 20
-12.78328780708283
 30
0.0
 11
62.98899962495129
 21
-26.27756916436977
 31
0.0
  0
MTEXT
  5
169
330
165
100
AcDbEntity
  8
치수문자_일반주서
 62
     0
100
AcDbMText
 10
64.1344291235741
 20
-22.74638787991485
 30
0.0
 40
3.5
 41
0.0
 71
     5
 72
     1
  1
\A1;R1
  7
SLDTEXTSTYLE0
 11
0.454428911587071
 21
-0.8907830063005188
 31
0.0
 73
     1
 44
1.0
  0
SOLID
  5
16A
330
165
100
AcDbEntity
  8
치수문자_일반주서
 62
     0
100
AcDbTrace
 10
56.59518075878162
 20
-12.53320042940607
 30
0.0
 11
55.61472559651352
 21
-13.03337518475958
 31
0.0
 12
54.60442891158706
 22
-9.841922320278512
 32
0.0
 13
54.60442891158706
 23
-9.841922320278512
 33
0.0
  0
LINE
  5
16B
330
165
100
AcDbEntity
  8
치수문자_일반주서
 62
     0
100
AcDbLine
 10
54.05999999999999
 20
-8.95113931397799
 30
0.0
 11
54.23999999999999
 21
-8.95113931397799
 31
0.0
  0
LINE
  5
16C
330
165
100
AcDbEntity
  8
치수문자_일반주서
 62
     0
100
AcDbLine
 10
54.14999999999999
 20
-9.04113931397799
 30
0.0
 11
54.14999999999999
 21
-8.86113931397799
 31
0.0
  0
POINT
  5
16D
330
165
100
AcDbEntity
  8
Defpoints
 62
     0
100
AcDbPoint
 10
54.60442891158706
 20
-9.841922320278512
 30
0.0
  0
POINT
  5
16E
330
165
100
AcDbEntity
  8
Defpoints
 62
     0
100
AcDbPoint
 10
54.14999999999999
 20
-8.95113931397799
 30
0.0
  0
ENDBLK
  5
167
330
165
100
AcDbEntity
  8
0
100
AcDbBlockEnd
  0
ENDSEC
  0
SECTION
  2
ENTITIES
  0
LINE
  5
9B
330
1F
100
AcDbEntity
  8
0
  6
Continuous
 62
     4
370
    25
100
AcDbLine
 10
-0.0000000000000004
 20
9.999999999999996
 30
0.0
 11
-93.85
 21
9.999999999999991
 31
0.0
  0
LINE
  5
9C
330
1F
100
AcDbEntity
  8
0
  6
Continuous
 62
     4
370
    25
100
AcDbLine
 10
-93.85
 20
-9.999999999999998
 30
0.0
 11
0.0000000000000084
 21
-9.999999999999993
 31
0.0
1001
PE_URL
1000

  0
LINE
  5
9D
330
1F
100
AcDbEntity
  8
0
  6
Continuous
 62
     4
370
    25
100
AcDbLine
 10
-93.85
 20
9.99999999999999
 30
0.0
 11
-94.85
 21
8.999999999999988
 31
0.0
  0
LINE
  5
9E
330
1F
100
AcDbEntity
  8
0
  6
Continuous
 62
     4
370
    25
100
AcDbLine
 10
-94.85
 20
-8.999999999999995
 30
0.0
 11
-93.85
 21
-9.999999999999996
 31
0.0
  0
LINE
  5
9F
330
1F
100
AcDbEntity
  8
0
  6
Continuous
 62
     4
370
    25
100
AcDbLine
 10
12.10003181565912
 20
9.85
 30
0.0
 11
0.1499999999999946
 21
9.85
 31
0.0
  0
LINE
  5
A0
330
1F
100
AcDbEntity
  8
0
  6
Continuous
 62
     4
370
    25
100
AcDbLine
 10
0.1499999999999946
 20
-9.849999999999996
 30
0.0
 11
12.10003181565912
 21
-9.849999999999996
 31
0.0
  0
SPLINE
  5
A1
330
1F
100
AcDbEntity
  8
0
  6
Continuous
 62
     4
370
    25
100
AcDbSpline
210
0.0
220
0.0
230
1.0
 70
     8
 71
     3
 72
     9
 73
     5
 74
     0
 42
0.000000001
 43
0.00000001
 40
0.0
 40
0.0
 40
0.0
 40
0.0
 40
0.5065483456922387
 40
1.0
 40
1.0
 40
1.0
 40
1.0
 10
12.10004398831889
 20
-8.206263669985052
 30
0.0
 10
12.61738300311512
 20
-8.162504320061727
 30
0.0
 10
13.63868535104645
 20
-8.076117008178352
 30
0.0
 10
14.6506462301243
 20
-8.011988239995583
 30
0.0
 10
15.15
 20
-7.980343793247076
 30
0.0
  0
SPLINE
  5
A2
330
1F
100
AcDbEntity
  8
0
  6
Continuous
 62
     1
370
    25
100
AcDbSpline
210
0.0
220
0.0
230
1.0
 70
     8
 71
     3
 72
     9
 73
     5
 74
     0
 42
0.000000001
 43
0.00000001
 40
0.0
 40
0.0
 40
0.0
 40
0.0
 40
0.5240155846514604
 40
0.9999999999999999
 40
0.9999999999999999
 40
0.9999999999999999
 40
0.9999999999999999
 10
29.24302039340254
 20
2.562412145692095
 30
0.0
 10
28.75830629390193
 20
2.793544163724351
 30
0.0
 10
27.83330689751374
 20
3.23462268276494
 30
0.0
 10
26.90826993022671
 20
3.71936635316166
 30
0.0
 10
26.4679667501768
 20
3.950096785709348
 30
0.0
  0
SPLINE
  5
A3
330
1F
100
AcDbEntity
  8
0
  6
Continuous
 62
     1
370
    25
100
AcDbSpline
210
0.0
220
0.0
230
1.0
 70
     8
 71
     3
 72
    19
 73
    15
 74
     0
 42
0.000000001
 43
0.00000001
 40
0.0
 40
0.0
 40
0.0
 40
0.0
 40
0.101769506439658
 40
0.1942836085198504
 40
0.2774916871398351
 40
0.343498594348913
 40
0.3921393782061384
 40
0.457111162068139
 40
0.5861948295101076
 40
0.6743649841074771
 40
0.7792381200947753
 40
0.8651688232299587
 40
0.9605616922217411
 40
1.0
 40
1.0
 40
1.0
 40
1.0
 10
25.93753679231498
 20
7.946394065963053
 30
0.0
 10
25.67025501345195
 20
7.932532903172196
 30
0.0
 10
25.15999933563846
 20
7.906071177852879
 30
0.0
 10
24.40131406583199
 20
7.874755096964408
 30
0.0
 10
23.73009582049675
 20
7.853026702868112
 30
0.0
 10
23.18158484274436
 20
7.838087651462475
 30
0.0
 10
22.69098848448375
 20
7.827189773614842
 30
0.0
 10
22.03010153457117
 20
7.815792187005195
 30
0.0
 10
21.25824916658179
 20
7.808968266437128
 30
0.0
 10
20.37874649643365
 20
7.809518521740895
 30
0.0
 10
19.61680410500508
 20
7.816367597712672
 30
0.0
 10
18.83514057616416
 20
7.83009446285696
 30
0.0
 10
18.23215965446893
 20
7.84469961854691
 30
0.0
 10
17.8638438844865
 20
7.856871895736143
 30
0.0
 10
17.75611100664529
 20
7.860432303837973
 30
0.0
  0
SPLINE
  5
A4
330
1F
100
AcDbEntity
  8
0
  6
Continuous
 62
     1
370
    25
100
AcDbSpline
210
0.0
220
0.0
230
1.0
 70
     8
 71
     3
 72
    33
 73
    29
 74
     0
 42
0.000000001
 43
0.00000001
 40
0.0
 40
0.0
 40
0.0
 40
0.0
 40
0.0755045777736767
 40
0.1299894666494298
 40
0.1674871557691415
 40
0.1954933137688194
 40
0.2200388942059749
 40
0.249118677408452
 40
0.2829879085384563
 40
0.3176783466056785
 40
0.3521153513411219
 40
0.3941340356369585
 40
0.4298102847586966
 40
0.4724002928866016
 40
0.5187701092879241
 40
0.5477342621853919
 40
0.5682781477143947
 40
0.5980047512522564
 40
0.6384720667352606
 40
0.6764885238591718
 40
0.7081186679929193
 40
0.7431851482494227
 40
0.7875741171944551
 40
0.8275853786475574
 40
0.8528234088717714
 40
0.8873001122417439
 40
0.9363310760765767
 40
1.0
 40
1.0
 40
1.0
 40
1.0
 10
51.43504668369032
 20
6.839534244091184
 30
0.0
 10
50.99585738352941
 20
6.804035947386931
 30
0.0
 10
50.23974451501997
 20
6.742921710454429
 30
0.0
 10
49.26672611570176
 20
6.684670090821937
 30
0.0
 10
48.56499420702686
 20
6.649884727297676
 30
0.0
 10
48.03878775693209
 20
6.628393663374307
 30
0.0
 10
47.56405464454282
 20
6.61217721009413
 30
0.0
 10
47.0543174232746
 20
6.598259734345401
 30
0.0
 10
46.48549418790034
 20
6.587304547789743
 30
0.0
 10
45.88572164744524
 20
6.58101472592061
 30
0.0
 10
45.23898264869079
 20
6.579991301355151
 30
0.0
 10
44.58626549125002
 20
6.585393489747744
 30
0.0
 10
43.88551453352596
 20
6.598161909451939
 30
0.0
 10
43.15965263773107
 20
6.618644986339574
 30
0.0
 10
42.47319822743229
 20
6.645860354106404
 30
0.0
 10
41.91510228261287
 20
6.673365682014882
 30
0.0
 10
41.45358801649034
 20
6.698932225970427
 30
0.0
 10
40.92532937960208
 20
6.731490695603474
 30
0.0
 10
40.29521751172582
 20
6.775792744269121
 30
0.0
 10
39.6539337637181
 20
6.827084321008047
 30
0.0
 10
39.04394334585169
 20
6.881218174532806
 30
0.0
 10
38.39734262959099
 20
6.943722511673361
 30
0.0
 10
37.70224198671002
 20
7.01725096070539
 30
0.0
 10
37.0630611268623
 20
7.091092912687508
 30
0.0
 10
36.47940502881762
 20
7.162877618368793
 30
0.0
 10
35.84638554565906
 20
7.245331752750276
 30
0.0
 10
34.99074976747342
 20
7.363833290083112
 30
0.0
 10
34.33487276344081
 20
7.464486503837875
 30
0.0
 10
33.96434015774334
 20
7.521349753098125
 30
0.0
  0
SPLINE
  5
A5
330
1F
100
AcDbEntity
  8
0
  6
Continuous
 62
     1
370
    25
100
AcDbSpline
210
0.0
220
0.0
230
1.0
 70
     8
 71
     3
 72
    17
 73
    13
 74
     0
 42
0.000000001
 43
0.00000001
 40
0.0
 40
0.0
 40
0.0
 40
0.0
 40
0.145351552072268
 40
0.2613689169053327
 40
0.3536954507668487
 40
0.4335245252382597
 40
0.5042084843349434
 40
0.5856167315790047
 40
0.6803202757245249
 40
0.846302156031107
 40
0.9847353177978247
 40
0.9999999999999999
 40
0.9999999999999999
 40
0.9999999999999999
 40
0.9999999999999999
 10
33.96434015774334
 20
-7.521349753098117
 30
0.0
 10
34.31659234704979
 20
-7.466976763212016
 30
0.0
 10
34.95000679556412
 20
-7.369204092244122
 30
0.0
 10
35.84033195205589
 20
-7.24561832690324
 30
0.0
 10
36.57810874488305
 20
-7.150165082353567
 30
0.0
 10
37.19643702532581
 20
-7.074975601664962
 30
0.0
 10
37.75914452064823
 20
-7.011521273714641
 30
0.0
 10
38.36866485649045
 20
-6.946768202932041
 30
0.0
 10
39.22454609768629
 20
-6.863023238679558
 30
0.0
 10
40.21967489493775
 20
-6.780778315814141
 30
0.0
 10
41.01843812469092
 20
-6.722942682851071
 30
0.0
 10
41.40215566915884
 20
-6.702956858185753
 30
0.0
 10
41.4402650285386
 20
-6.70097194249542
 30
0.0
  0
SPLINE
  5
A6
330
1F
100
AcDbEntity
  8
0
  6
Continuous
 62
     1
370
    25
100
AcDbSpline
210
0.0
220
0.0
230
1.0
 70
     8
 71
     3
 72
    24
 73
    20
 74
     0
 42
0.000000001
 43
0.00000001
 40
0.0
 40
0.0
 40
0.0
 40
0.0
 40
0.0295612486369362
 40
0.1215905627876485
 40
0.1840992438567785
 40
0.2263234067619232
 40
0.2785916149199786
 40
0.3475841750869836
 40
0.4087185608489286
 40
0.4614781330409909
 40
0.5072314694400976
 40
0.5485331060427538
 40
0.6045007916610865
 40
0.669787112427206
 40
0.7121622751889561
 40
0.7608688603708689
 40
0.8290799968582466
 40
0.9097541787598279
 40
1.0
 40
1.0
 40
1.0
 40
1.0
 10
15.15188495185386
 20
-7.980907526971415
 30
0.0
 10
15.25831612972909
 20
-7.97443817424124
 30
0.0
 10
15.69608609590812
 20
-7.947828600031615
 30
0.0
 10
16.35874069723269
 20
-7.914911419588479
 30
0.0
 10
17.06655261208214
 20
-7.884430523231265
 30
0.0
 10
17.63171025267068
 20
-7.863718994838329
 30
0.0
 10
18.22020288673258
 20
-7.845256098581931
 30
0.0
 10
18.87669623995317
 20
-7.829187811680761
 30
0.0
 10
19.53494233849247
 20
-7.817930085325083
 30
0.0
 10
20.10946833466013
 20
-7.811837375574993
 30
0.0
 10
20.61266786501728
 20
-7.809366789188983
 30
0.0
 10
21.12741383073642
 20
-7.80941452878085
 30
0.0
 10
21.71222987513555
 20
-7.812715904592104
 30
0.0
 10
22.3023313084299
 20
-7.820170805745772
 30
0.0
 10
22.86139873756159
 20
-7.830622414136744
 30
0.0
 10
23.43971455668079
 20
-7.844608041212688
 30
0.0
 10
24.16308593419872
 20
-7.866222188555684
 30
0.0
 10
25.03228606613051
 20
-7.899638181653064
 30
0.0
 10
25.62472750570132
 20
-7.930237575398668
 30
0.0
 10
25.93753679231499
 20
-7.946394065963048
 30
0.0
  0
LINE
  5
A7
330
1F
100
AcDbEntity
  8
0
  6
Continuous
 62
     4
370
    25
100
AcDbLine
 10
0.1499999999999946
 20
9.850000000000001
 30
0.0
 11
0.1499999999999946
 21
-9.849999999999998
 31
0.0
1001
PE_URL
1000

  0
LINE
  5
A9
330
1F
100
AcDbEntity
  8
0
  6
Continuous
 62
     4
370
    25
100
AcDbLine
 10
-93.85
 20
9.99999999999999
 30
0.0
 11
-93.85
 21
-9.999999999999996
 31
0.0
  0
LINE
  5
AA
330
1F
100
AcDbEntity
  8
0
  6
Continuous
 62
     4
370
    25
100
AcDbLine
 10
-94.85
 20
8.999999999999988
 30
0.0
 11
-94.85
 21
-9.0
 31
0.0
  0
SPLINE
  5
AB
330
1F
100
AcDbEntity
  8
0
  6
Continuous
 62
     4
370
    25
100
AcDbSpline
210
0.0
220
0.0
230
1.0
 70
     8
 71
     3
 72
     8
 73
     4
 74
     0
 42
0.000000001
 43
0.00000001
 40
0.0
 40
0.0
 40
0.0
 40
0.0
 40
1.0
 40
1.0
 40
1.0
 40
1.0
 10
15.15
 20
8.621203229698054
 30
0.0
 10
14.13107592458539
 20
8.901069615982285
 30
0.0
 10
13.1189235202588
 20
9.13570448957562
 30
0.0
 10
12.1000651552279
 20
9.32251392598764
 30
0.0
  0
LINE
  5
AC
330
1F
100
AcDbEntity
  8
0
  6
Continuous
 62
     4
370
    25
100
AcDbLine
 10
15.15
 20
7.030821807026804
 30
0.0
 11
15.15
 21
6.955080792322034
 31
0.0
  0
SPLINE
  5
AD
330
1F
100
AcDbEntity
  8
0
  6
Continuous
 62
     4
370
    25
100
AcDbSpline
210
0.0
220
0.0
230
1.0
 70
     8
 71
     3
 72
     8
 73
     4
 74
     0
 42
0.000000001
 43
0.00000001
 40
0.0
 40
0.0
 40
0.0
 40
0.0
 40
1.0
 40
1.0
 40
1.0
 40
1.0
 10
15.15
 20
6.955080792322034
 30
0.0
 10
14.13106481067924
 20
7.364818920835984
 30
0.0
 10
13.1189013211743
 20
7.737657382962738
 30
0.0
 10
12.10003181565919
 20
8.06947201105526
 30
0.0
  0
SPLINE
  5
AE
330
1F
100
AcDbEntity
  8
0
  6
Continuous
 62
     4
370
    25
100
AcDbSpline
210
0.0
220
0.0
230
1.0
 70
     8
 71
     3
 72
     8
 73
     4
 74
     0
 42
0.000000001
 43
0.00000001
 40
0.0
 40
0.0
 40
0.0
 40
0.0
 40
1.0
 40
1.0
 40
1.0
 40
1.0
 10
15.15
 20
-8.621203229698049
 30
0.0
 10
14.1310759245854
 20
-8.901069615982278
 30
0.0
 10
13.11892352025881
 20
-9.135704489575614
 30
0.0
 10
12.10006515522791
 20
-9.322513925987636
 30
0.0
  0
LINE
  5
AF
330
1F
100
AcDbEntity
  8
0
  6
Continuous
 62
     4
370
    25
100
AcDbLine
 10
12.10003181565912
 20
9.322660339793467
 30
0.0
 11
12.10003181565908
 21
9.85
 31
0.0
  0
LINE
  5
B0
330
1F
100
AcDbEntity
  8
0
  6
Continuous
 62
     4
370
    25
100
AcDbLine
 10
12.10003181565908
 20
-9.849999999999996
 30
0.0
 11
12.1000318156592
 21
8.069503696909285
 31
0.0
  0
SPLINE
  5
B1
330
1F
100
AcDbEntity
  8
0
  6
Continuous
 62
     4
370
    25
100
AcDbSpline
210
0.0
220
0.0
230
1.0
 70
    24
 71
     3
 72
    14
 73
    10
 74
     0
 42
0.000000001
 43
0.00000001
 40
0.0
 40
0.0
 40
0.0
 40
0.0
 40
0.2499999999999999
 40
0.2499999999999999
 40
0.4999999999999999
 40
0.4999999999999999
 40
0.7499999999999999
 40
0.7499999999999999
 40
1.0
 40
1.0
 40
1.0
 40
1.0
 10
15.15
 20
4.712802720716733
 30
0.0
 10
15.15
 20
3.945846142214125
 30
0.0
 10
15.15
 20
3.099925346938421
 30
0.0
 10
15.15000000000001
 20
1.311812948442831
 30
0.0
 10
15.15
 20
0.3703034120165432
 30
0.0
 10
15.15
 20
-1.518610564913379
 30
0.0
 10
15.15000000000001
 20
-2.465008513077973
 30
0.0
 10
15.15
 20
-4.271747339773929
 30
0.0
 10
15.15000000000001
 20
-5.131379989688254
 30
0.0
 10
15.15
 20
-5.915264572202796
 30
0.0
  0
SPLINE
  5
B2
330
1F
100
AcDbEntity
  8
0
  6
Continuous
 62
     4
370
    25
100
AcDbSpline
210
0.0
220
0.0
230
1.0
 70
     8
 71
     3
 72
     8
 73
     4
 74
     0
 42
0.000000001
 43
0.00000001
 40
0.0
 40
0.0
 40
0.0
 40
0.0
 40
1.0
 40
1.0
 40
1.0
 40
1.0
 10
15.15
 20
-5.915264572202794
 30
0.0
 10
14.13106886849407
 20
-5.598863948391358
 30
0.0
 10
13.1189094263158
 20
-5.252557926262803
 30
0.0
 10
12.10004398831889
 20
-4.880181260834792
 30
0.0
  0
SPLINE
  5
B3
330
1F
100
AcDbEntity
  8
0
  6
Continuous
 62
     4
370
    25
100
AcDbSpline
210
0.0
220
0.0
230
1.0
 70
     8
 71
     3
 72
     8
 73
     4
 74
     0
 42
0.000000001
 43
0.00000001
 40
0.0
 40
0.0
 40
0.0
 40
0.0
 40
1.0
 40
1.0
 40
1.0
 40
1.0
 10
15.14999999999996
 20
4.712802720716741
 30
0.0
 10
14.1310674877878
 20
5.016855473187346
 30
0.0
 10
13.11890666847207
 20
5.29584624048719
 30
0.0
 10
12.1000398464672
 20
5.546688815440258
 30
0.0
  0
SPLINE
  5
B4
330
1F
100
AcDbEntity
  8
0
  6
Continuous
 62
     4
370
    25
100
AcDbSpline
210
0.0
220
0.0
230
1.0
 70
    24
 71
     3
 72
    10
 73
     6
 74
     0
 42
0.000000001
 43
0.00000001
 40
0.0
 40
0.0
 40
0.0
 40
0.0
 40
0.5
 40
0.5
 40
1.0
 40
1.0
 40
1.0
 40
1.0
 10
15.15
 20
6.955080792322038
 30
0.0
 10
15.15
 20
6.70697093976687
 30
0.0
 10
15.15
 20
6.372468057497025
 30
0.0
 10
15.15000000000001
 20
5.596046238448388
 30
0.0
 10
15.15
 20
5.156223993913279
 30
0.0
 10
15.15
 20
4.712802720716735
 30
0.0
  0
SPLINE
  5
B5
330
1F
100
AcDbEntity
  8
0
  6
Continuous
 62
     4
370
    25
100
AcDbSpline
210
0.0
220
0.0
230
1.0
 70
    24
 71
     3
 72
    12
 73
     8
 74
     0
 42
0.000000001
 43
0.00000001
 40
0.0
 40
0.0
 40
0.0
 40
0.0
 40
0.1822694067083136
 40
0.3645388134166273
 40
0.6312598790707346
 40
0.9057158736977796
 40
1.0
 40
1.0
 40
1.0
 40
1.0
 10
15.15
 20
-5.915264572202794
 30
0.0
 10
15.15
 20
-6.146766036598696
 30
0.0
 10
15.15
 20
-6.609768965390504
 30
0.0
 10
15.15000000000003
 20
-7.236767371178852
 30
0.0
 10
15.15
 20
-7.736443475702763
 30
0.0
 10
15.15
 20
-7.98724789030457
 30
0.0
 10
15.15
 20
-7.958233489912006
 30
0.0
 10
15.15
 20
-7.950814721961552
 30
0.0
  0
SPLINE
  5
B6
330
1F
100
AcDbEntity
  8
0
  6
Continuous
 62
     4
370
    25
100
AcDbSpline
210
0.0
220
0.0
230
1.0
 70
    24
 71
     3
 72
    10
 73
     6
 74
     0
 42
0.000000001
 43
0.00000001
 40
0.0
 40
0.0
 40
0.0
 40
0.0
 40
0.2193227075558076
 40
0.9233571075608217
 40
1.0
 40
1.0
 40
1.0
 40
1.0
 10
15.15
 20
-7.980343793247076
 30
0.0
 10
15.15
 20
-8.030499716579328
 30
0.0
 10
15.15
 20
-8.241658099636064
 30
0.0
 10
15.15000000000001
 20
-8.448709559538779
 30
0.0
 10
15.15
 20
-8.605782603843732
 30
0.0
 10
15.15
 20
-8.62120322969807
 30
0.0
  0
SPLINE
  5
B7
330
1F
100
AcDbEntity
  8
0
  6
Continuous
 62
     1
370
    25
100
AcDbSpline
210
0.0
220
0.0
230
1.0
 70
     8
 71
     3
 72
    54
 73
    50
 74
     0
 42
0.000000001
 43
0.00000001
 40
0.001237727169808
 40
0.001237727169808
 40
0.001237727169808
 40
0.001237727169808
 40
0.0312500000000003
 40
0.0312500000000003
 40
0.0625000000000005
 40
0.0625000000000005
 40
0.1250000000000006
 40
0.1250000000000006
 40
0.1562500000000007
 40
0.1562500000000007
 40
0.1875000000000007
 40
0.1875000000000007
 40
0.2500000000000005
 40
0.2500000000000005
 40
0.2812500000000004
 40
0.2812500000000004
 40
0.3125000000000002
 40
0.3125000000000002
 40
0.3750000000000001
 40
0.3750000000000001
 40
0.4062499999999999
 40
0.4062499999999999
 40
0.4374999999999998
 40
0.4374999999999998
 40
0.4999999999999996
 40
0.4999999999999996
 40
0.5312499999999994
 40
0.5312499999999994
 40
0.5624999999999994
 40
0.5624999999999994
 40
0.6249999999999996
 40
0.6249999999999996
 40
0.6562499999999998
 40
0.6562499999999998
 40
0.6874999999999999
 40
0.6874999999999999
 40
0.7500000000000001
 40
0.7500000000000001
 40
0.7812500000000001
 40
0.7812500000000001
 40
0.8125000000000002
 40
0.8125000000000002
 40
0.8750000000000001
 40
0.8750000000000001
 40
0.9375000000000001
 40
0.9375000000000001
 40
0.9687500000000001
 40
0.9687500000000001
 40
1.0
 40
1.0
 40
1.0
 40
1.0
 10
54.20320958208095
 20
-9.94972268074051
 30
0.0
 10
53.71098126684682
 20
-9.925471871336505
 30
0.0
 10
53.31966473015218
 20
-9.894997937486773
 30
0.0
 10
52.52234114197579
 20
-9.817495763589905
 30
0.0
 10
52.11748548996023
 20
-9.769888785259955
 30
0.0
 10
50.90182752174876
 20
-9.603030663459577
 30
0.0
 10
50.08463724878035
 20
-9.459317007916273
 30
0.0
 10
48.86684207675739
 20
-9.198138362655303
 30
0.0
 10
48.46290160280575
 20
-9.10357812741247
 30
0.0
 10
47.65036381587437
 20
-8.899240553632865
 30
0.0
 10
47.24296934226104
 20
-8.789540419781831
 30
0.0
 10
46.02194444551508
 20
-8.439027792314997
 30
0.0
 10
45.21385547082114
 20
-8.177302724534906
 30
0.0
 10
43.99315886624336
 20
-7.744663999392694
 30
0.0
 10
43.5856989033024
 20
-7.593860371395027
 30
0.0
 10
42.77268191368806
 20
-7.28020352501812
 30
0.0
 10
42.36843885980309
 20
-7.11753686577734
 30
0.0
 10
41.15162537802176
 20
-6.611815446225155
 30
0.0
 10
40.33439234841507
 20
-6.250814155288638
 30
0.0
 10
39.11762754473214
 20
-5.681537578531362
 30
0.0
 10
38.71336364626197
 20
-5.487152722544519
 30
0.0
 10
37.90032627798819
 20
-5.088928936261556
 30
0.0
 10
37.49286424954278
 20
-4.88529238813851
 30
0.0
 10
36.27218589639018
 20
-4.263065435729049
 30
0.0
 10
35.46409113993219
 20
-3.83378146440109
 30
0.0
 10
34.24305389082831
 20
-3.171456155671772
 30
0.0
 10
33.83566345670214
 20
-2.94780692588563
 30
0.0
 10
33.02314996295297
 20
-2.496429891382928
 30
0.0
 10
32.61921685127827
 20
-2.268929763973546
 30
0.0
 10
31.40137884302141
 20
-1.580256251590685
 30
0.0
 10
30.58419255587551
 20
-1.113390486835172
 30
0.0
 10
29.36858909008873
 20
-0.411830259597359
 30
0.0
 10
28.96369911868704
 20
-0.1775046995210695
 30
0.0
 10
28.15025015347253
 20
0.2917587005297269
 30
0.0
 10
27.74276490349715
 20
0.526489187599383
 30
0.0
 10
26.52256547624737
 20
1.228362528980252
 30
0.0
 10
25.71420531101582
 20
1.69279102798252
 30
0.0
 10
24.49295992953104
 20
2.380418564424623
 30
0.0
 10
24.08568333152635
 20
2.607884173860827
 30
0.0
 10
23.2737611288467
 20
3.057651419104839
 30
0.0
 10
22.869835191826
 20
3.279827827216679
 30
0.0
 10
21.65110401351413
 20
3.93896438673406
 30
0.0
 10
20.83405395078654
 20
4.367594238764013
 30
0.0
 10
19.21497184878789
 20
5.190694292509257
 30
0.0
 10
18.39921677896421
 20
5.587492057071257
 30
0.0
 10
17.17962848674133
 20
6.152413134116205
 30
0.0
 10
16.77534174835436
 20
6.335457500312981
 30
0.0
 10
15.96419993489796
 20
6.691199898029255
 30
0.0
 10
15.5571069754681
 20
6.863918181937793
 30
0.0
 10
15.14999999999996
 20
7.030821807026816
 30
0.0
  0
SPLINE
  5
B9
330
1F
100
AcDbEntity
  8
0
  6
Continuous
 62
     1
370
    25
100
AcDbSpline
210
0.0
220
0.0
230
1.0
 70
     8
 71
     3
 72
    12
 73
     8
 74
     0
 42
0.000000001
 43
0.00000001
 40
0.0
 40
0.0
 40
0.0
 40
0.0
 40
0.0176013726974725
 40
0.2543117231583793
 40
0.4909927312164066
 40
0.7454535424849441
 40
1.0
 40
1.0
 40
1.0
 40
1.0
 10
30.30279836497991
 20
-0.9490781797664591
 30
0.0
 10
30.21389602149053
 20
-0.9141513902601098
 30
0.0
 10
28.92939914989973
 20
-0.4095150657860997
 30
0.0
 10
26.44951617672045
 20
0.6116329188777702
 30
0.0
 10
22.77343321530025
 20
2.070587512842521
 30
0.0
 10
19.0068865703137
 20
3.493176608219123
 30
0.0
 10
16.43577306310826
 20
4.306215082235743
 30
0.0
 10
15.15000000000001
 20
4.71280272071673
 30
0.0
  0
SPLINE
  5
BA
330
1F
100
AcDbEntity
  8
0
  6
Continuous
 62
     4
370
    25
100
AcDbSpline
210
0.0
220
0.0
230
1.0
 70
    24
 71
     3
 72
    10
 73
     6
 74
     0
 42
0.000000001
 43
0.00000001
 40
0.0
 40
0.0
 40
0.0
 40
0.0
 40
0.5
 40
0.5
 40
1.0
 40
1.0
 40
1.0
 40
1.0
 10
15.15
 20
7.030821807026801
 30
0.0
 10
15.15
 20
6.788396434395048
 30
0.0
 10
15.15
 20
6.448131757977669
 30
0.0
 10
15.15
 20
5.64242556002467
 30
0.0
 10
15.15
 20
5.179623307391849
 30
0.0
 10
15.15
 20
4.712802720716735
 30
0.0
  0
SPLINE
  5
BB
330
1F
100
AcDbEntity
  8
0
  6
Continuous
 62
     1
370
    25
100
AcDbSpline
210
0.0
220
0.0
230
1.0
 70
     8
 71
     3
 72
    15
 73
    11
 74
     0
 42
0.000000001
 43
0.00000001
 40
0.0
 40
0.0
 40
0.0
 40
0.0
 40
0.1381256611995493
 40
0.2762817314882722
 40
0.4144585667191743
 40
0.5526464721873905
 40
0.690835726193336
 40
0.8290166037470651
 40
0.9671794002898517
 40
0.9999999999999999
 40
0.9999999999999999
 40
0.9999999999999999
 40
0.9999999999999999
 10
55.14999999999999
 20
-7.889722643682153
 30
0.0
 10
53.95453478635025
 20
-7.638698227181837
 30
0.0
 10
51.56334117111037
 20
-7.136594129838579
 30
0.0
 10
47.97608089197163
 20
-5.988143834600693
 30
0.0
 10
44.38821266131687
 20
-4.607670482647082
 30
0.0
 10
40.80001225751777
 20
-3.024396245657257
 30
0.0
 10
37.21176978096217
 20
-1.310890847625859
 30
0.0
 10
33.62378672535584
 20
0.4491343099471028
 30
0.0
 10
30.94784460013322
 20
1.775161888631916
 30
0.0
 10
29.46797681583842
 20
2.448924330862303
 30
0.0
 10
29.18391327963147
 20
2.578254358811119
 30
0.0
  0
SPLINE
  5
BC
330
1F
100
AcDbEntity
  8
0
  6
Continuous
 62
     1
370
    25
100
AcDbSpline
210
0.0
220
0.0
230
1.0
 70
    24
 71
     3
 72
     8
 73
     4
 74
     0
 42
0.000000001
 43
0.00000001
 40
0.0
 40
0.0
 40
0.0
 40
0.0
 40
1.0
 40
1.0
 40
1.0
 40
1.0
 10
55.14999999999999
 20
-8.416347464743948
 30
0.0
 10
55.14999999999999
 20
-8.240388761152591
 30
0.0
 10
55.14999999999999
 20
-8.064726146123702
 30
0.0
 10
55.14999999999999
 20
-7.889722643682153
 30
0.0
  0
SPLINE
  5
BD
330
1F
100
AcDbEntity
  8
0
  6
Continuous
 62
     1
370
    25
100
AcDbSpline
210
0.0
220
0.0
230
1.0
 70
     8
 71
     3
 72
    16
 73
    12
 74
     0
 42
0.000000001
 43
0.00000001
 40
0.0
 40
0.0
 40
0.0
 40
0.0
 40
0.1250000000000018
 40
0.1250000000000018
 40
0.2500000000000037
 40
0.2500000000000037
 40
0.5000000000000024
 40
0.5000000000000024
 40
0.7500000000000012
 40
0.7500000000000012
 40
1.0
 40
1.0
 40
1.0
 40
1.0
 10
55.14999999999999
 20
-8.416347464743948
 30
0.0
 10
55.14999999999999
 20
-8.485182398856034
 30
0.0
 10
55.14374181101904
 20
-8.552901698408416
 30
0.0
 10
55.11811826305254
 20
-8.68596166621329
 30
0.0
 10
55.098353940967
 20
-8.752006621921211
 30
0.0
 10
55.02031411794299
 20
-8.936874929572928
 30
0.0
 10
54.94080071024013
 20
-9.046982813228304
 30
0.0
 10
54.74619327407623
 20
-9.211623150452372
 30
0.0
 10
54.63079619022617
 20
-9.26706470139633
 30
0.0
 10
54.39130529997691
 20
-9.319234916580555
 30
0.0
 10
54.2692538519626
 20
-9.316849429046215
 30
0.0
 10
54.14999999999994
 20
-9.291414403674544
 30
0.0
  0
SPLINE
  5
BE
330
1F
100
AcDbEntity
  8
0
  6
Continuous
 62
     1
370
    25
100
AcDbSpline
210
0.0
220
0.0
230
1.0
 70
     8
 71
     3
 72
    54
 73
    50
 74
     0
 42
0.000000001
 43
0.00000001
 40
0.0
 40
0.0
 40
0.0
 40
0.0
 40
0.0312500000000004
 40
0.0312500000000004
 40
0.0625000000000008
 40
0.0625000000000008
 40
0.1250000000000012
 40
0.1250000000000012
 40
0.1562500000000016
 40
0.1562500000000016
 40
0.187500000000002
 40
0.187500000000002
 40
0.2500000000000024
 40
0.2500000000000024
 40
0.2812500000000023
 40
0.2812500000000023
 40
0.3125000000000023
 40
0.3125000000000023
 40
0.3750000000000022
 40
0.3750000000000022
 40
0.4062500000000024
 40
0.4062500000000024
 40
0.4375000000000026
 40
0.4375000000000026
 40
0.5000000000000026
 40
0.5000000000000026
 40
0.5312500000000026
 40
0.5312500000000026
 40
0.5625000000000024
 40
0.5625000000000024
 40
0.6250000000000021
 40
0.6250000000000021
 40
0.6562500000000018
 40
0.6562500000000018
 40
0.6875000000000016
 40
0.6875000000000016
 40
0.7500000000000011
 40
0.7500000000000011
 40
0.781250000000001
 40
0.781250000000001
 40
0.8125000000000009
 40
0.8125000000000009
 40
0.8750000000000006
 40
0.8750000000000006
 40
0.9375000000000003
 40
0.9375000000000003
 40
0.9687500000000001
 40
0.9687500000000001
 40
1.0
 40
1.0
 40
1.0
 40
1.0
 10
54.15000000000008
 20
-9.29141440367376
 30
0.0
 10
53.74325880961992
 20
-9.204662719541485
 30
0.0
 10
53.33577365041632
 20
-9.110175606836457
 30
0.0
 10
52.52234114197587
 20
-8.90643305656673
 30
0.0
 10
52.11748548996032
 20
-8.797284309503185
 30
0.0
 10
50.90182752174886
 20
-8.448298410984295
 30
0.0
 10
50.0846372487804
 20
-8.186252891352193
 30
0.0
 10
48.86684207675746
 20
-7.754840586729004
 30
0.0
 10
48.46290160280581
 20
-7.604769789907675
 30
0.0
 10
47.65036381587444
 20
-7.291761797067906
 30
0.0
 10
47.24296934226111
 20
-7.128959554834045
 30
0.0
 10
46.02194444551515
 20
-6.623438580281655
 30
0.0
 10
45.21385547082119
 20
-6.26427549785138
 30
0.0
 10
43.99315886624339
 20
-5.695077958676165
 30
0.0
 10
43.58569890330244
 20
-5.50039135988944
 30
0.0
 10
42.77268191368812
 20
-5.102564390751843
 30
0.0
 10
42.36843885980313
 20
-4.899651055596856
 30
0.0
 10
41.15162537802181
 20
-4.278631722417042
 30
0.0
 10
40.33439234841509
 20
-3.848052600246588
 30
0.0
 10
39.11762754473219
 20
-3.18688275243477
 30
0.0
 10
38.71336364626203
 20
-2.963927947527208
 30
0.0
 10
37.90032627798824
 20
-2.51266941589234
 30
0.0
 10
37.49286424954281
 20
-2.284602505643256
 30
0.0
 10
36.27218589639019
 20
-1.595623480347436
 30
0.0
 10
35.46409113993224
 20
-1.130595203958223
 30
0.0
 10
34.24305389082836
 20
-0.4280681837087606
 30
0.0
 10
33.83566345670217
 20
-0.1932725543946978
 30
0.0
 10
33.02314996295303
 20
0.2758146113901807
 30
0.0
 10
32.61921685127832
 20
0.5098771147305052
 30
0.0
 10
31.40137884302145
 20
1.211386362380242
 30
0.0
 10
30.58419255587555
 20
1.677600854809869
 30
0.0
 10
29.36858909008875
 20
2.3644111553958
 30
0.0
 10
28.96369911868706
 20
2.591532098259567
 30
0.0
 10
28.15025015347257
 20
3.04180344325627
 30
0.0
 10
27.74276490349716
 20
3.264750319869364
 30
0.0
 10
26.5225654762474
 20
3.924541184004138
 30
0.0
 10
25.71420531101585
 20
4.351986431694177
 30
0.0
 10
24.49295992953106
 20
4.971036252970613
 30
0.0
 10
24.08568333152638
 20
5.173476856091934
 30
0.0
 10
23.27376112884674
 20
5.569059993290595
 30
0.0
 10
22.869835191826
 20
5.762100006806828
 30
0.0
 10
21.65110401351413
 20
6.327593751648989
 30
0.0
 10
20.83405395078656
 20
6.685549524664761
 30
0.0
 10
19.2149718487879
 20
7.352955328252798
 30
0.0
 10
18.39921677896423
 20
7.664301606377469
 30
0.0
 10
17.17962848674134
 20
8.091323526988537
 30
0.0
 10
16.77534174835437
 20
8.226849972859966
 30
0.0
 10
15.96419993489796
 20
8.48442074916882
 30
0.0
 10
15.55710697546811
 20
8.606471472826913
 30
0.0
 10
15.14999999999998
 20
8.721308216689543
 30
0.0
  0
LINE
  5
BF
330
1F
100
AcDbEntity
  8
0
  6
Continuous
 62
     4
370
    25
100
AcDbLine
 10
15.15
 20
7.030821807026804
 30
0.0
 11
15.15
 21
8.721308216689536
 31
0.0
  0
SPLINE
  5
C0
330
1F
100
AcDbEntity
  8
0
  6
Continuous
 62
     1
370
    25
100
AcDbSpline
210
0.0
220
0.0
230
1.0
 70
     8
 71
     3
 72
    15
 73
    11
 74
     0
 42
0.000000001
 43
0.00000001
 40
0.0
 40
0.0
 40
0.0
 40
0.0
 40
0.1277544300924707
 40
0.2555546205601567
 40
0.3833778063264408
 40
0.5112011155568232
 40
0.6390016758430969
 40
0.7667567203932303
 40
0.8872214162641839
 40
1.0
 40
1.0
 40
1.0
 40
1.0
 10
55.14999999999999
 20
0.0000000000000083
 30
0.0
 10
53.90599035816774
 20
0.5747436697765945
 30
0.0
 10
51.41752548253479
 20
1.724436876836378
 30
0.0
 10
47.68413313041781
 20
3.368813342828921
 30
0.0
 10
43.94999944178151
 20
4.857587436926566
 30
0.0
 10
40.2158582886488
 20
6.120959815333029
 30
0.0
 10
36.48246386567387
 20
7.103126349760115
 30
0.0
 10
32.82092476842925
 20
7.736384597439133
 30
0.0
 10
29.30582387506903
 20
8.04357827879511
 30
0.0
 10
27.03459587943927
 20
7.971376191283508
 30
0.0
 10
25.93640399532537
 20
7.936464792395377
 30
0.0
  0
SPLINE
  5
C1
330
1F
100
AcDbEntity
  8
0
  6
Continuous
 62
     1
370
    25
100
AcDbSpline
210
0.0
220
0.0
230
1.0
 70
    24
 71
     3
 72
    14
 73
    10
 74
     0
 42
0.000000001
 43
0.00000001
 40
0.0
 40
0.0
 40
0.0
 40
0.0
 40
0.25
 40
0.25
 40
0.5
 40
0.5
 40
0.75
 40
0.75
 40
1.0
 40
1.0
 40
1.0
 40
1.0
 10
55.14999999999999
 20
-7.889722643682151
 30
0.0
 10
55.14999999999999
 20
-7.462824157685999
 30
0.0
 10
55.15000000000003
 20
-6.95748968753037
 30
0.0
 10
55.14999999999999
 20
-5.809896021957766
 30
0.0
 10
55.14999999999999
 20
-5.167798560973769
 30
0.0
 10
55.14999999999999
 20
-3.788874051098527
 30
0.0
 10
55.15000000000001
 20
-3.052445193746962
 30
0.0
 10
55.14999999999999
 20
-1.540808592794403
 30
0.0
 10
55.14999999999999
 20
-0.7660492462443671
 30
0.0
 10
55.14999999999999
 20
0.0000000000000083
 30
0.0
  0
SPLINE
  5
C2
330
1F
100
AcDbEntity
  8
0
  6
Continuous
 62
     1
370
    25
100
AcDbSpline
210
0.0
220
0.0
230
1.0
 70
     8
 71
     3
 72
     9
 73
     5
 74
     0
 42
0.000000001
 43
0.00000001
 40
0.0
 40
0.0
 40
0.0
 40
0.0
 40
0.9650028418832067
 40
1.0
 40
1.0
 40
1.0
 40
1.0
 10
55.14999999999999
 20
7.000000000000008
 30
0.0
 10
53.95453891433652
 20
6.997218309130899
 30
0.0
 10
52.71572278470676
 20
6.99433573640844
 30
0.0
 10
51.47686273338397
 20
6.839780397111245
 30
0.0
 10
51.43350615228326
 20
6.834371399464065
 30
0.0
  0
SPLINE
  5
C3
330
1F
100
AcDbEntity
  8
0
  6
Continuous
 62
     1
370
    25
100
AcDbSpline
210
0.0
220
0.0
230
1.0
 70
    24
 71
     3
 72
    14
 73
    10
 74
     0
 42
0.000000001
 43
0.00000001
 40
0.0
 40
0.0
 40
0.0
 40
0.0
 40
0.2500000000000001
 40
0.2500000000000001
 40
0.5000000000000001
 40
0.5000000000000001
 40
0.7500000000000002
 40
0.7500000000000002
 40
1.0
 40
1.0
 40
1.0
 40
1.0
 10
55.14999999999999
 20
0.0000000000000079
 30
0.0
 10
55.14999999999999
 20
0.8328435170139651
 30
0.0
 10
55.14999999999999
 20
1.655435763754547
 30
0.0
 10
55.14999999999999
 20
3.19372549957756
 30
0.0
 10
55.14999999999999
 20
3.908467303747673
 30
0.0
 10
55.15000000000001
 20
5.152569121518273
 30
0.0
 10
55.14999999999999
 20
5.681266225656571
 30
0.0
 10
55.14999999999999
 20
6.510665542113568
 30
0.0
 10
55.14999999999999
 20
6.811407744363909
 30
0.0
 10
55.14999999999999
 20
7.000000000000008
 30
0.0
  0
SPLINE
  5
C4
330
1F
100
AcDbEntity
  8
0
  6
Continuous
 62
     1
370
    25
100
AcDbSpline
210
0.0
220
0.0
230
1.0
 70
     8
 71
     3
 72
    13
 73
     9
 74
     0
 42
0.000000001
 43
0.00000001
 40
0.0
 40
0.0
 40
0.0
 40
0.0
 40
0.0080188342322521
 40
0.1816426276811504
 40
0.386243138455618
 40
0.5907527384103676
 40
0.7953437057817606
 40
1.0
 40
1.0
 40
1.0
 40
1.0
 10
33.96675130320934
 20
-7.515189717297692
 30
0.0
 10
33.91645879271216
 20
-7.525011351343522
 30
0.0
 10
32.77723287847054
 20
-7.74749099919953
 30
0.0
 10
30.35491334907115
 20
-7.956155881516122
 30
0.0
 10
26.699528448008
 20
-8.05268912387002
 30
0.0
 10
22.85056295164598
 20
-7.71469876344776
 30
0.0
 10
19.00080895172589
 20
-7.028134012800055
 30
0.0
 10
16.43373957496555
 20
-6.286260526708455
 30
0.0
 10
15.15
 20
-5.915264572202794
 30
0.0
  0
SPLINE
  5
C5
330
1F
100
AcDbEntity
  8
0
  6
Continuous
 62
     4
370
    25
100
AcDbSpline
210
0.0
220
0.0
230
1.0
 70
    24
 71
     3
 72
    14
 73
    10
 74
     0
 42
0.000000001
 43
0.00000001
 40
0.0
 40
0.0
 40
0.0
 40
0.0
 40
0.2499999999999999
 40
0.2499999999999999
 40
0.4999999999999999
 40
0.4999999999999999
 40
0.7499999999999999
 40
0.7499999999999999
 40
1.0
 40
1.0
 40
1.0
 40
1.0
 10
15.15
 20
4.712802720716733
 30
0.0
 10
15.15
 20
3.945846142214125
 30
0.0
 10
15.15
 20
3.099925346938421
 30
0.0
 10
15.15000000000001
 20
1.311812948442831
 30
0.0
 10
15.15
 20
0.3703034120165432
 30
0.0
 10
15.15
 20
-1.518610564913379
 30
0.0
 10
15.15000000000001
 20
-2.465008513077973
 30
0.0
 10
15.15
 20
-4.271747339773929
 30
0.0
 10
15.15000000000001
 20
-5.131379989688254
 30
0.0
 10
15.15
 20
-5.915264572202796
 30
0.0
  0
SPLINE
  5
C6
330
1F
100
AcDbEntity
  8
0
  6
Continuous
 62
     4
370
    25
100
AcDbSpline
210
0.0
220
0.0
230
1.0
 70
    24
 71
     3
 72
    12
 73
     8
 74
     0
 42
0.000000001
 43
0.00000001
 40
0.0
 40
0.0
 40
0.0
 40
0.0
 40
0.1823824759286989
 40
0.3647649518573979
 40
0.6316514755743722
 40
0.9062777265593163
 40
1.0
 40
1.0
 40
1.0
 40
1.0
 10
15.15
 20
-5.915264572202794
 30
0.0
 10
15.15
 20
-6.146765463297284
 30
0.0
 10
15.15
 20
-6.60976724548626
 30
0.0
 10
15.15000000000003
 20
-7.236775578946736
 30
0.0
 10
15.14999999999999
 20
-7.736395797320831
 30
0.0
 10
15.15
 20
-7.987133856035781
 30
0.0
 10
15.15
 20
-7.958238211357534
 30
0.0
 10
15.15
 20
-7.950886029029662
 30
0.0
  0
LINE
  5
C7
330
1F
100
AcDbEntity
  8
0
  6
Continuous
 62
     1
370
    25
100
AcDbLine
 10
55.14999999999999
 20
-8.416347464743948
 30
0.0
 11
55.14999999999999
 21
-8.95113931397799
 31
0.0
  0
SPLINE
  5
C8
330
1F
100
AcDbEntity
  8
0
  6
Continuous
 62
     1
370
    25
100
AcDbSpline
210
0.0
220
0.0
230
1.0
 70
     8
 71
     3
 72
    11
 73
     7
 74
     0
 42
0.000000001
 43
0.00000001
 40
0.0
 40
0.0
 40
0.0
 40
0.0
 40
0.1899104669051971
 40
0.4599440726582603
 40
0.729975269380593
 40
0.9523718269577296
 40
0.9523718269577296
 40
0.9523718269577296
 40
0.9523718269577296
 10
41.43903548622937
 20
6.700467344949862
 30
0.0
 10
42.24368465855758
 20
7.04298449602552
 30
0.0
 10
44.19246411981013
 20
7.872526627053428
 30
0.0
 10
47.2853705997581
 20
8.845762975411274
 30
0.0
 10
50.51591540045796
 20
9.59693809881657
 30
0.0
 10
52.60231634367634
 20
9.810036753575764
 30
0.0
 10
54.14999999999999
 20
9.951139313978006
 30
0.0
  0
SPLINE
  5
CA
330
1F
100
AcDbEntity
  8
0
  6
Continuous
 62
     1
370
    25
100
AcDbSpline
210
0.0
220
0.0
230
1.0
 70
    24
 71
     3
 72
    10
 73
     6
 74
     0
 42
0.000000001
 43
0.00000001
 40
0.0
 40
0.0
 40
0.0
 40
0.0
 40
0.5
 40
0.5
 40
0.9564668962765766
 40
0.9564668962765766
 40
0.9564668962765766
 40
0.9564668962765766
 10
55.14999999999999
 20
7.00000000000001
 30
0.0
 10
55.14999999999999
 20
7.286524855558279
 30
0.0
 10
55.14999999999999
 20
7.603740640450785
 30
0.0
 10
55.14999999999999
 20
8.246100083268432
 30
0.0
 10
55.15000000000003
 20
8.567911856228076
 30
0.0
 10
55.14999999999999
 20
8.951139313978006
 30
0.0
  0
LINE
  5
CB
330
1F
100
AcDbEntity
  8
0
  6
Continuous
 62
     1
370
    25
100
AcDbLine
 10
17.7563260564278
 20
-7.860361266504043
 30
0.0
 11
15.15
 21
-8.72130821668953
 31
0.0
  0
SPLINE
  5
CC
330
1F
100
AcDbEntity
  8
0
  6
Continuous
 62
     4
370
    25
100
AcDbSpline
210
0.0
220
0.0
230
1.0
 70
    24
 71
     3
 72
    11
 73
     7
 74
     0
 42
0.000000001
 43
0.00000001
 40
0.0
 40
0.0
 40
0.0
 40
0.0
 40
0.1904179844779586
 40
0.490596858221272
 40
0.7911251766445047
 40
1.0
 40
1.0
 40
1.0
 40
1.0
 10
15.15
 20
-7.980343793247076
 30
0.0
 10
15.15
 20
-8.030427121262477
 30
0.0
 10
15.15000000000001
 20
-8.159462849904305
 30
0.0
 10
15.15000000000001
 20
-8.357810171967374
 30
0.0
 10
15.15
 20
-8.554546878327479
 30
0.0
 10
15.15
 20
-8.672814114421431
 30
0.0
 10
15.15
 20
-8.72130821667924
 30
0.0
  0
LINE
  5
CD
330
1F
100
AcDbEntity
  8
중심선
100
AcDbLine
 10
-97.85
 20
-0.0000000000000019
 30
0.0
 11
62.15
 21
0.0000000000000088
 31
0.0
  0
CIRCLE
  5
CE
330
1F
100
AcDbEntity
  8
외형선
100
AcDbCircle
 10
0.0
 20
0.0
 30
0.0
 40
3.000000000000005
  0
INSERT
  5
CF
330
1F
100
AcDbEntity
  8
0
  6
Continuous
 62
     7
100
AcDbBlockReference
 66
     1
  2
블럭10
 10
-30.87358523345418
 20
-52.04717430164393
 30
0.0
  0
ATTRIB
  5
D0
330
CF
100
AcDbEntity
  8
FORMAT
 62
     2
100
AcDbText
 10
-51.73183276504672
 20
-49.97180738881174
 30
0.0
 40
4.233333333333333
  1
SEME6120010150E [ 2 FLUTE ]
 41
0.75
  7
SLDTEXTSTYLE0
 11
-51.73183276504672
 21
-52.08847405547841
 31
0.0
100
AcDbAttribute
  2
AUTOATTR0
 70
     0
 74
     1
  0
SEQEND
  5
D1
330
CF
100
AcDbEntity
  8
0
  6
Continuous
 62
     7
  0
HATCH
  5
D2
330
1F
100
AcDbEntity
  8
중심선
100
AcDbHatch
 10
0.0
 20
0.0
 30
0.0
210
0.0
220
0.0
230
1.0
  2
SOLID
 70
     1
 71
     0
 91
        1
 92
        0
 93
        4
 72
     1
 10
-25.15867592907333
 20
-35.8
 11
-28.60495117291061
 21
-35.8
 72
     1
 10
-28.60495117291061
 20
-35.8
 11
-30.73318103211463
 21
-38.3363255805726
 72
     1
 10
-30.73318103211464
 20
-38.3363255805726
 11
-27.2868727031642
 21
-38.33628615127011
 72
     1
 10
-27.2868727031642
 20
-38.33628615127011
 11
-25.15867592907333
 21
-35.8
 97
        0
 75
     0
 76
     1
 98
        1
 10
-7.934141545388288
 20
-0.0010749287238934
  0
HATCH
  5
D3
330
1F
100
AcDbEntity
  8
중심선
100
AcDbHatch
 10
0.0
 20
0.0
 30
0.0
210
0.0
220
0.0
230
1.0
  2
SOLID
 70
     1
 71
     0
 91
        1
 92
        0
 93
        4
 72
     1
 10
-20.14591193803738
 20
-35.8
 11
-23.59218718187466
 21
-35.8
 72
     1
 10
-23.59218718187466
 20
-35.8
 11
-28.12332519023205
 21
-41.20000000000002
 72
     1
 10
-28.12332519023205
 20
-41.20000000000002
 11
-24.67704994639477
 21
-41.20000000000002
 72
     1
 10
-24.67704994639477
 20
-41.20000000000002
 11
-20.14591193803738
 21
-35.8
 97
        0
 75
     0
 76
     1
 98
        1
 10
-7.934141545388288
 20
-0.0010749287238934
  0
HATCH
  5
D4
330
1F
100
AcDbEntity
  8
중심선
100
AcDbHatch
 10
0.0
 20
0.0
 30
0.0
210
0.0
220
0.0
230
1.0
  2
SOLID
 70
     1
 71
     0
 91
        1
 92
        0
 93
        4
 72
     1
 10
-15.13314794700148
 20
-35.80000000000003
 11
-18.5794231908386
 21
-35.8
 72
     1
 10
-18.5794231908386
 20
-35.8
 11
-25.62786009272785
 21
-44.20000000000002
 72
     1
 10
-25.62786009272785
 20
-44.20000000000002
 11
-22.18158484889057
 21
-44.20000000000002
 72
     1
 10
-22.18158484889057
 20
-44.20000000000002
 11
-15.13314794700148
 21
-35.80000000000003
 97
        0
 75
     0
 76
     1
 98
        1
 10
-7.934141545388288
 20
-0.0010749287238934
  0
HATCH
  5
D5
330
1F
100
AcDbEntity
  8
중심선
100
AcDbHatch
 10
0.0
 20
0.0
 30
0.0
210
0.0
220
0.0
230
1.0
  2
SOLID
 70
     1
 71
     0
 91
        1
 92
        0
 93
        6
 72
     3
 10
-10.33325751598928
 20
-40.00000000005127
 11
3.960054785062283
 21
1.540882976769353E-10
 40
0.3939339440162628
 50
17.09539180608436
 51
320.0019657685078
 73
     0
 72
     1
 10
-8.650257860288688
 20
-38.5878940046383
 11
-6.34495598658765
 21
-36.65356729459038
 72
     3
 10
-10.33325751604213
 20
-40.00000000000015
 11
6.600054785286829
 21
-1.278976924368180E-13
 40
0.636358354079598
 50
39.99873849337411
 51
368.4976242363724
 73
     1
 72
     1
 10
-3.90792502414152
 20
-39.03999999993002
 11
-11.65319020920621
 21
-39.03999999993
 72
     1
 10
-11.65319020920621
 20
-39.03999999993
 11
-11.65321525365214
 21
-40.95999999992991
 72
     1
 10
-11.65321525365214
 20
-40.95999999992991
 11
-7.211835484180106
 21
-40.95999999992988
 97
        0
 75
     0
 76
     1
 98
        1
 10
-7.934141545388288
 20
-0.0010749287238934
  0
DIMENSION
  5
D6
330
1F
100
AcDbEntity
  8
치수문자_일반주서
100
AcDbDimension
  2
_D
 10
-106.3464580216121
 20
-10.00000000000004
 30
0.0
 11
-106.3464580216121
 21
-0.0000000000000032
 31
0.0
 70
   160
  1
%%c<>
 71
     2
 42
19.99999999999999
 52
-270.0
  3
SLDDIMSTYLE0
100
AcDbAlignedDimension
 13
-93.85
 23
9.99999999999999
 33
0.0
 14
-93.85
 24
-9.999999999999996
 34
0.0
 50
90.0000000000002
100
AcDbRotatedDimension
  0
DIMENSION
  5
E4
330
1F
100
AcDbEntity
  8
치수문자_일반주서
100
AcDbDimension
  2
_D_1
 10
15.15
 20
27.49999999999964
 30
0.0
 11
35.14999999999999
 21
27.49999999999964
 31
0.0
 70
   160
  1
<>
 71
     2
 42
39.99999999999999
  3
SLDDIMSTYLE1
100
AcDbAlignedDimension
 13
55.14999999999999
 23
9.0
 33
0.0
 14
15.15
 24
8.721308216689536
 34
0.0
100
AcDbRotatedDimension
  0
DIMENSION
  5
F0
330
1F
100
AcDbEntity
  8
치수문자_일반주서
100
AcDbDimension
  2
_D_2
 10
-94.84999999999997
 20
49.55832450504428
 30
0.0
 11
-19.85000000000002
 21
49.55832450504428
 31
0.0
 70
   160
  1
<>
 71
     2
 42
150.0
  3
SLDDIMSTYLE1
100
AcDbAlignedDimension
 13
55.14999999999999
 23
9.0
 33
0.0
 14
-94.85
 24
8.999999999999988
 34
0.0
 50
0.0000000000000027
100
AcDbRotatedDimension
  0
DIMENSION
  5
FA
330
1F
100
AcDbEntity
  8
치수문자_일반주서
100
AcDbDimension
  2
_D_3
 10
0.149999999999995
 20
36.71963783791156
 30
0.0
 11
27.65
 21
36.71963783791156
 31
0.0
 70
   160
  1
<>
 71
     2
 42
55.00000000000004
  3
SLDDIMSTYLE0
100
AcDbAlignedDimension
 13
55.14999999999999
 23
8.984032896023896
 33
0.0
 14
0.1499999999999946
 24
9.85
 34
0.0
 50
-0.0000000000022354
100
AcDbRotatedDimension
  0
DIMENSION
  5
106
330
1F
100
AcDbEntity
  8
치수문자_일반주서
100
AcDbDimension
  2
_D_4
 10
72.72914201301302
 20
-9.95269137825228
 30
0.0
 11
72.72914201301298
 21
0.0475180793130683
 31
0.0
 70
   160
  1
%%c<>
 71
     2
 42
20.0004189151307
 52
-270.0
  3
SLDDIMSTYLE1
100
AcDbAlignedDimension
 13
55.14999999999999
 23
10.04772753687835
 33
0.0
 14
54.20213102366282
 24
-9.952691378252348
 34
0.0
 50
90.0000000000002
100
AcDbRotatedDimension
  0
INSERT
  5
118
330
1F
100
AcDbEntity
  8
외형선
100
AcDbBlockReference
  2
SW_DOWELSYMBOL_0
 10
0.0
 20
0.0
 30
0.0
  0
ARC
  5
160
330
1F
100
AcDbEntity
  8
0
  6
Continuous
 62
     1
370
    25
100
AcDbCircle
 10
54.14999999999999
 20
8.951139313978006
 30
0.0
 40
1.0
100
AcDbArc
 50
0.0
 51
90.0
  0
ARC
  5
161
330
1F
100
AcDbEntity
  8
0
  6
Continuous
 62
     1
370
    25
100
AcDbCircle
 10
54.14999999999999
 20
-8.95113931397799
 30
0.0
 40
1.0
100
AcDbArc
 50
273.0501249217457
 51
0.0
  0
DIMENSION
  5
162
330
1F
100
AcDbEntity
  8
치수문자_일반주서
100
AcDbDimension
  2
*D9
 10
54.14999999999999
 20
-8.95113931397799
 30
0.0
 11
61.79612373203523
 21
-23.93926377283091
 31
0.0
 70
   164
  1
<>
 71
     5
 42
1.000000000000003
  3
SLDDIMSTYLE1
100
AcDbRadialDimension
 15
54.60442891158706
 25
-9.841922320278512
 35
0.0
 40
0.0
1001
ACAD_DSTYLE_DIMRADIAL_EXTENSION
1070
   387
1070
     1
1070
   388
1040
4.765623702866287
1070
   390
1040
0.0
  0
LINE
  5
191
330
1F
100
AcDbEntity
  8
0
  6
Continuous
 62
     4
370
    25
100
AcDbLine
 10
0.1499999999999946
 20
9.850000000000001
 30
0.0
 11
-0.0000000000000004
 21
9.999999999999996
 31
0.0
1001
PE_URL
1000

  0
LINE
  5
193
330
1F
100
AcDbEntity
  8
0
  6
Continuous
 62
     4
370
    25
100
AcDbLine
 10
-0.0000000000000004
 20
9.999999999999996
 30
0.0
 11
0.0000000000000004
 21
-9.999999999999996
 31
0.0
1001
PE_URL
1000

  0
LINE
  5
194
330
1F
100
AcDbEntity
  8
0
  6
Continuous
 62
     4
370
    25
100
AcDbLine
 10
0.0000000000000084
 20
-9.999999999999993
 30
0.0
 11
0.1499999999999946
 21
-9.849999999999998
 31
0.0
1001
PE_URL
1000

  0
ENDSEC
  0
SECTION
  2
OBJECTS
  0
DICTIONARY
  5
C
330
0
100
AcDbDictionary
281
     1
  3
ACAD_GROUP
350
D
  3
ACAD_IMAGE_VARS
350
13C
  3
ACAD_LAYOUT
350
1A
  3
ACAD_MLINESTYLE
350
17
  3
ACAD_PLOTSETTINGS
350
19
  3
ACAD_PLOTSTYLENAME
350
E
  3
ACAD_SCALELIST
350
47
  3
APPDATA
350
13A
  3
DWGPROPS
350
195
  0
DICTIONARY
  5
D
102
{ACAD_REACTORS
330
C
102
}
330
C
100
AcDbDictionary
281
     1
  0
RASTERVARIABLES
  5
13C
102
{ACAD_REACTORS
330
C
102
}
330
C
100
AcDbRasterVariables
 90
        0
 70
     1
 71
     1
 72
     1
  0
DICTIONARY
  5
1A
102
{ACAD_REACTORS
330
C
102
}
330
C
100
AcDbDictionary
281
     1
  3
Layout1
350
1E
  3
Layout2
350
26
  3
Model
350
22
  0
DICTIONARY
  5
17
102
{ACAD_REACTORS
330
C
102
}
330
C
100
AcDbDictionary
281
     1
  3
Standard
350
18
  0
DICTIONARY
  5
19
102
{ACAD_REACTORS
330
C
102
}
330
C
100
AcDbDictionary
281
     1
  0
ACDBDICTIONARYWDFLT
  5
E
102
{ACAD_REACTORS
330
C
102
}
330
C
100
AcDbDictionary
281
     1
  3
Normal
350
F
100
AcDbDictionaryWithDefault
340
F
  0
DICTIONARY
  5
47
102
{ACAD_REACTORS
330
C
102
}
330
C
100
AcDbDictionary
281
     1
  3
A0
350
48
  3
A1
350
49
  3
A2
350
4A
  3
A3
350
4B
  3
A4
350
4C
  3
A5
350
4D
  3
A6
350
4E
  3
A7
350
4F
  3
A8
350
50
  3
A9
350
51
  3
B0
350
52
  3
B1
350
53
  3
B2
350
54
  3
B3
350
55
  3
B4
350
56
  3
B5
350
57
  3
B6
350
58
  3
B7
350
59
  3
B8
350
5A
  3
B9
350
5B
  3
C0
350
5C
  3
C1
350
5D
  3
C2
350
5E
  3
C3
350
5F
  3
C4
350
60
  3
C5
350
61
  3
C6
350
62
  3
C7
350
63
  3
C8
350
64
  3
C9
350
65
  3
D0
350
66
  3
D1
350
67
  3
D2
350
68
  0
DICTIONARY
  5
13A
102
{ACAD_REACTORS
330
C
102
}
330
C
100
AcDbDictionary
281
     1
  0
XRECORD
  5
195
102
{ACAD_REACTORS
330
C
102
}
330
C
100
AcDbXrecord
280
     1
  1
DWGPROPS COOKIE
  2

  3

  4

  6

  7

  8
12014102
  9

300
=
301
=
302
=
303
=
304
=
305
=
306
=
307
=
308
=
309
=
 40
0.0
 41
2458263.43711007
 42
2459576.956786574
  1

 90
        0
  0
LAYOUT
  5
1E
102
{ACAD_REACTORS
330
1A
102
}
330
1A
100
AcDbPlotSettings
  1

  2
none_device
  4

  6

 40
0.0
 41
0.0
 42
0.0
 43
0.0
 44
0.0
 45
0.0
 46
0.0
 47
0.0
 48
0.0
 49
0.0
140
0.0
141
0.0
142
1.0
143
1.0
 70
   688
 72
     1
 73
     0
 74
     5
  7

 75
    16
147
1.0
148
0.0
149
0.0
100
AcDbLayout
  1
Layout1
 70
     1
 71
     1
 10
0.0
 20
0.0
 11
420.0
 21
297.0
 12
0.0
 22
0.0
 32
0.0
 14
1.000000000000000E+20
 24
1.000000000000000E+20
 34
1.000000000000000E+20
 15
-1.000000000000000E+20
 25
-1.000000000000000E+20
 35
-1.000000000000000E+20
146
0.0
 13
0.0
 23
0.0
 33
0.0
 16
1.0
 26
0.0
 36
0.0
 17
0.0
 27
1.0
 37
0.0
 76
     0
330
1B
  0
LAYOUT
  5
26
102
{ACAD_REACTORS
330
1A
102
}
330
1A
100
AcDbPlotSettings
  1

  2
none_device
  4

  6

 40
0.0
 41
0.0
 42
0.0
 43
0.0
 44
0.0
 45
0.0
 46
0.0
 47
0.0
 48
0.0
 49
0.0
140
0.0
141
0.0
142
1.0
143
1.0
 70
   688
 72
     1
 73
     0
 74
     5
  7

 75
    16
147
1.0
148
0.0
149
0.0
100
AcDbLayout
  1
Layout2
 70
     1
 71
     2
 10
0.0
 20
0.0
 11
0.0
 21
0.0
 12
0.0
 22
0.0
 32
0.0
 14
0.0
 24
0.0
 34
0.0
 15
0.0
 25
0.0
 35
0.0
146
0.0
 13
0.0
 23
0.0
 33
0.0
 16
1.0
 26
0.0
 36
0.0
 17
0.0
 27
1.0
 37
0.0
 76
     0
330
23
  0
LAYOUT
  5
22
102
{ACAD_REACTORS
330
1A
102
}
330
1A
100
AcDbPlotSettings
  1

  2
none_device
  4
ANSI_A_(11.00_x_8.50_Inches)
  6

 40
6.35
 41
19.05
 42
6.35000508
 43
19.05000254
 44
279.4
 45
215.9
 46
126.015481836452
 47
86.71446829502204
 48
0.0
 49
0.0
140
0.0
141
0.0
142
0.0512713188558054
143
1.0
 70
  1696
 72
     0
 73
     0
 74
     0
  7

 75
     0
147
0.0235690232323232
148
0.0
149
0.0
100
AcDbLayout
  1
Model
 70
     1
 71
     0
 10
0.0
 20
0.0
 11
420.0
 21
297.0
 12
0.0
 22
0.0
 32
0.0
 14
-110.7214580216121
 24
-49.97180738881174
 34
0.0
 15
73.27947534634632
 25
53.93332450504429
 35
0.0
146
0.0
 13
0.0
 23
0.0
 33
0.0
 16
1.0
 26
0.0
 36
0.0
 17
0.0
 27
1.0
 37
0.0
 76
     0
330
1F
331
29
  0
MLINESTYLE
  5
18
102
{ACAD_REACTORS
330
17
102
}
330
17
100
AcDbMlineStyle
  2
Standard
 70
     0
  3

 62
   256
 51
90.0
 52
90.0
 71
     2
 49
0.5
 62
   256
  6
BYLAYER
 49
-0.5
 62
   256
  6
BYLAYER
  0
ACDBPLACEHOLDER
  5
F
102
{ACAD_REACTORS
330
E
102
}
330
E
  0
SCALE
  5
48
102
{ACAD_REACTORS
330
47
102
}
330
47
100
AcDbScale
 70
     0
300
1:1
140
1.0
141
1.0
290
     1
  0
SCALE
  5
49
102
{ACAD_REACTORS
330
47
102
}
330
47
100
AcDbScale
 70
     0
300
1:2
140
1.0
141
2.0
290
     0
  0
SCALE
  5
4A
102
{ACAD_REACTORS
330
47
102
}
330
47
100
AcDbScale
 70
     0
300
1:4
140
1.0
141
4.0
290
     0
  0
SCALE
  5
4B
102
{ACAD_REACTORS
330
47
102
}
330
47
100
AcDbScale
 70
     0
300
1:5
140
1.0
141
5.0
290
     0
  0
SCALE
  5
4C
102
{ACAD_REACTORS
330
47
102
}
330
47
100
AcDbScale
 70
     0
300
1:8
140
1.0
141
8.0
290
     0
  0
SCALE
  5
4D
102
{ACAD_REACTORS
330
47
102
}
330
47
100
AcDbScale
 70
     0
300
1:10
140
1.0
141
10.0
290
     0
  0
SCALE
  5
4E
102
{ACAD_REACTORS
330
47
102
}
330
47
100
AcDbScale
 70
     0
300
1:16
140
1.0
141
16.0
290
     0
  0
SCALE
  5
4F
102
{ACAD_REACTORS
330
47
102
}
330
47
100
AcDbScale
 70
     0
300
1:20
140
1.0
141
20.0
290
     0
  0
SCALE
  5
50
102
{ACAD_REACTORS
330
47
102
}
330
47
100
AcDbScale
 70
     0
300
1:30
140
1.0
141
30.0
290
     0
  0
SCALE
  5
51
102
{ACAD_REACTORS
330
47
102
}
330
47
100
AcDbScale
 70
     0
300
1:40
140
1.0
141
40.0
290
     0
  0
SCALE
  5
52
102
{ACAD_REACTORS
330
47
102
}
330
47
100
AcDbScale
 70
     0
300
1:50
140
1.0
141
50.0
290
     0
  0
SCALE
  5
53
102
{ACAD_REACTORS
330
47
102
}
330
47
100
AcDbScale
 70
     0
300
1:100
140
1.0
141
100.0
290
     0
  0
SCALE
  5
54
102
{ACAD_REACTORS
330
47
102
}
330
47
100
AcDbScale
 70
     0
300
2:1
140
2.0
141
1.0
290
     0
  0
SCALE
  5
55
102
{ACAD_REACTORS
330
47
102
}
330
47
100
AcDbScale
 70
     0
300
4:1
140
4.0
141
1.0
290
     0
  0
SCALE
  5
56
102
{ACAD_REACTORS
330
47
102
}
330
47
100
AcDbScale
 70
     0
300
8:1
140
8.0
141
1.0
290
     0
  0
SCALE
  5
57
102
{ACAD_REACTORS
330
47
102
}
330
47
100
AcDbScale
 70
     0
300
10:1
140
10.0
141
1.0
290
     0
  0
SCALE
  5
58
102
{ACAD_REACTORS
330
47
102
}
330
47
100
AcDbScale
 70
     0
300
100:1
140
100.0
141
1.0
290
     0
  0
SCALE
  5
59
102
{ACAD_REACTORS
330
47
102
}
330
47
100
AcDbScale
 70
     0
300
1/128" = 1'-0"
140
0.0078125
141
12.0
290
     0
  0
SCALE
  5
5A
102
{ACAD_REACTORS
330
47
102
}
330
47
100
AcDbScale
 70
     0
300
1/64" = 1'-0"
140
0.015625
141
12.0
290
     0
  0
SCALE
  5
5B
102
{ACAD_REACTORS
330
47
102
}
330
47
100
AcDbScale
 70
     0
300
1/32" = 1'-0"
140
0.03125
141
12.0
290
     0
  0
SCALE
  5
5C
102
{ACAD_REACTORS
330
47
102
}
330
47
100
AcDbScale
 70
     0
300
1/16" = 1'-0"
140
0.0625
141
12.0
290
     0
  0
SCALE
  5
5D
102
{ACAD_REACTORS
330
47
102
}
330
47
100
AcDbScale
 70
     0
300
3/32" = 1'-0"
140
0.09375
141
12.0
290
     0
  0
SCALE
  5
5E
102
{ACAD_REACTORS
330
47
102
}
330
47
100
AcDbScale
 70
     0
300
1/8" = 1'-0"
140
0.125
141
12.0
290
     0
  0
SCALE
  5
5F
102
{ACAD_REACTORS
330
47
102
}
330
47
100
AcDbScale
 70
     0
300
3/16" = 1'-0"
140
0.1875
141
12.0
290
     0
  0
SCALE
  5
60
102
{ACAD_REACTORS
330
47
102
}
330
47
100
AcDbScale
 70
     0
300
1/4" = 1'-0"
140
0.25
141
12.0
290
     0
  0
SCALE
  5
61
102
{ACAD_REACTORS
330
47
102
}
330
47
100
AcDbScale
 70
     0
300
3/8" = 1'-0"
140
0.375
141
12.0
290
     0
  0
SCALE
  5
62
102
{ACAD_REACTORS
330
47
102
}
330
47
100
AcDbScale
 70
     0
300
1/2" = 1'-0"
140
0.5
141
12.0
290
     0
  0
SCALE
  5
63
102
{ACAD_REACTORS
330
47
102
}
330
47
100
AcDbScale
 70
     0
300
3/4" = 1'-0"
140
0.75
141
12.0
290
     0
  0
SCALE
  5
64
102
{ACAD_REACTORS
330
47
102
}
330
47
100
AcDbScale
 70
     0
300
1" = 1'-0"
140
1.0
141
12.0
290
     0
  0
SCALE
  5
65
102
{ACAD_REACTORS
330
47
102
}
330
47
100
AcDbScale
 70
     0
300
1-1/2" = 1'-0"
140
1.5
141
12.0
290
     0
  0
SCALE
  5
66
102
{ACAD_REACTORS
330
47
102
}
330
47
100
AcDbScale
 70
     0
300
3" = 1'-0"
140
3.0
141
12.0
290
     0
  0
SCALE
  5
67
102
{ACAD_REACTORS
330
47
102
}
330
47
100
AcDbScale
 70
     0
300
6" = 1'-0"
140
6.0
141
12.0
290
     0
  0
SCALE
  5
68
102
{ACAD_REACTORS
330
47
102
}
330
47
100
AcDbScale
 70
     0
300
1'-0" = 1'-0"
140
12.0
141
12.0
290
     0
  0
ENDSEC
  0
EOF
