  0
SECTION
  2
HEADER
  9
$ACADVER
  1
AC1015
  9
$ACADMAINTVER
 70
     6
  9
$DWGCODEPAGE
  3
ANSI_949
  9
$INSBASE
 10
0.0
 20
0.0
 30
0.0
  9
$EXTMIN
 10
-57.22907078052725
 20
-49.97180738881174
 30
0.0
  9
$EXTMAX
 10
40.8353761762484
 20
35.37500000000003
 30
0.0
  9
$LIMMIN
 10
0.0
 20
0.0
  9
$LIMMAX
 10
420.0
 20
297.0
  9
$ORTHOMODE
 70
     0
  9
$REGENMODE
 70
     1
  9
$FILLMODE
 70
     1
  9
$QTEXTMODE
 70
     0
  9
$MIRRTEXT
 70
     1
  9
$LTSCALE
 40
1.0
  9
$ATTMODE
 70
     1
  9
$TEXTSIZE
 40
3.5
  9
$TRACEWID
 40
1.0
  9
$TEXTSTYLE
  7
Standard
  9
$CLAYER
  8
0
  9
$CELTYPE
  6
ByLayer
  9
$CECOLOR
 62
   256
  9
$CELTSCALE
 40
1.0
  9
$DISPSILH
 70
     0
  9
$DIMSCALE
 40
1.0
  9
$DIMASZ
 40
3.302
  9
$DIMEXO
 40
1.0
  9
$DIMDLI
 40
3.75
  9
$DIMRND
 40
0.0
  9
$DIMDLE
 40
0.0
  9
$DIMEXE
 40
1.0
  9
$DIMTP
 40
0.0
  9
$DIMTM
 40
0.0
  9
$DIMTXT
 40
3.5
  9
$DIMCEN
 40
2.5
  9
$DIMTSZ
 40
0.0
  9
$DIMTOL
 70
     0
  9
$DIMLIM
 70
     0
  9
$DIMTIH
 70
     1
  9
$DIMTOH
 70
     1
  9
$DIMSE1
 70
     0
  9
$DIMSE2
 70
     0
  9
$DIMTAD
 70
     1
  9
$DIMZIN
 70
     0
  9
$DIMBLK
  1

  9
$DIMASO
 70
     1
  9
$DIMSHO
 70
     1
  9
$DIMPOST
  1

  9
$DIMAPOST
  1

  9
$DIMALT
 70
     0
  9
$DIMALTD
 70
     3
  9
$DIMALTF
 40
0.0393700787401575
  9
$DIMLFAC
 40
1.0
  9
$DIMTOFL
 70
     1
  9
$DIMTVP
 40
0.0
  9
$DIMTIX
 70
     0
  9
$DIMSOXD
 70
     0
  9
$DIMSAH
 70
     0
  9
$DIMBLK1
  1

  9
$DIMBLK2
  1

  9
$DIMSTYLE
  2
ISO-25
  9
$DIMCLRD
 70
     0
  9
$DIMCLRE
 70
     0
  9
$DIMCLRT
 70
     0
  9
$DIMTFAC
 40
1.0
  9
$DIMGAP
 40
1.524
  9
$DIMJUST
 70
     0
  9
$DIMSD1
 70
     0
  9
$DIMSD2
 70
     0
  9
$DIMTOLJ
 70
     0
  9
$DIMTZIN
 70
     0
  9
$DIMALTZ
 70
     0
  9
$DIMALTTZ
 70
     0
  9
$DIMUPT
 70
     0
  9
$DIMDEC
 70
     2
  9
$DIMTDEC
 70
     2
  9
$DIMALTU
 70
     2
  9
$DIMALTTD
 70
     3
  9
$DIMTXSTY
  7
Standard
  9
$DIMAUNIT
 70
     0
  9
$DIMADEC
 70
     2
  9
$DIMALTRND
 40
0.0
  9
$DIMAZIN
 70
     0
  9
$DIMDSEP
 70
    44
  9
$DIMATFIT
 70
     3
  9
$DIMFRAC
 70
     0
  9
$DIMLDRBLK
  1

  9
$DIMLUNIT
 70
     2
  9
$DIMLWD
 70
    -2
  9
$DIMLWE
 70
    -2
  9
$DIMTMOVE
 70
     0
  9
$LUNITS
 70
     2
  9
$LUPREC
 70
     2
  9
$SKETCHINC
 40
1.0
  9
$FILLETRAD
 40
1.5
  9
$AUNITS
 70
     0
  9
$AUPREC
 70
     2
  9
$MENU
  1
.
  9
$ELEVATION
 40
0.0
  9
$PELEVATION
 40
0.0
  9
$THICKNESS
 40
0.0
  9
$LIMCHECK
 70
     0
  9
$CHAMFERA
 40
0.0
  9
$CHAMFERB
 40
0.0
  9
$CHAMFERC
 40
0.0
  9
$CHAMFERD
 40
0.0
  9
$SKPOLY
 70
     0
  9
$TDCREATE
 40
2458213.466881366
  9
$TDUCREATE
 40
2458213.091881366
  9
$TDUPDATE
 40
2458268.577900845
  9
$TDUUPDATE
 40
2458268.202900845
  9
$TDINDWG
 40
0.0140729861
  9
$TDUSRTIMER
 40
0.0008261111
  9
$USRTIMER
 70
     1
  9
$ANGBASE
 50
0.0
  9
$ANGDIR
 70
     0
  9
$PDMODE
 70
     0
  9
$PDSIZE
 40
-1.0
  9
$PLINEWID
 40
0.0
  9
$SPLFRAME
 70
     0
  9
$SPLINETYPE
 70
     6
  9
$SPLINESEGS
 70
     8
  9
$HANDSEED
  5
EB1
  9
$SURFTAB1
 70
     6
  9
$SURFTAB2
 70
     6
  9
$SURFTYPE
 70
     6
  9
$SURFU
 70
     6
  9
$SURFV
 70
     6
  9
$UCSBASE
  2

  9
$UCSNAME
  2

  9
$UCSORG
 10
0.0
 20
0.0
 30
0.0
  9
$UCSXDIR
 10
1.0
 20
0.0
 30
0.0
  9
$UCSYDIR
 10
0.0
 20
1.0
 30
0.0
  9
$UCSORTHOREF
  2

  9
$UCSORTHOVIEW
 70
     0
  9
$UCSORGTOP
 10
0.0
 20
0.0
 30
0.0
  9
$UCSORGBOTTOM
 10
0.0
 20
0.0
 30
0.0
  9
$UCSORGLEFT
 10
0.0
 20
0.0
 30
0.0
  9
$UCSORGRIGHT
 10
0.0
 20
0.0
 30
0.0
  9
$UCSORGFRONT
 10
0.0
 20
0.0
 30
0.0
  9
$UCSORGBACK
 10
0.0
 20
0.0
 30
0.0
  9
$PUCSBASE
  2

  9
$PUCSNAME
  2

  9
$PUCSORG
 10
0.0
 20
0.0
 30
0.0
  9
$PUCSXDIR
 10
1.0
 20
0.0
 30
0.0
  9
$PUCSYDIR
 10
0.0
 20
1.0
 30
0.0
  9
$PUCSORTHOREF
  2

  9
$PUCSORTHOVIEW
 70
     0
  9
$PUCSORGTOP
 10
0.0
 20
0.0
 30
0.0
  9
$PUCSORGBOTTOM
 10
0.0
 20
0.0
 30
0.0
  9
$PUCSORGLEFT
 10
0.0
 20
0.0
 30
0.0
  9
$PUCSORGRIGHT
 10
0.0
 20
0.0
 30
0.0
  9
$PUCSORGFRONT
 10
0.0
 20
0.0
 30
0.0
  9
$PUCSORGBACK
 10
0.0
 20
0.0
 30
0.0
  9
$USERI1
 70
     0
  9
$USERI2
 70
     0
  9
$USERI3
 70
     0
  9
$USERI4
 70
     0
  9
$USERI5
 70
     0
  9
$USERR1
 40
0.0
  9
$USERR2
 40
0.0
  9
$USERR3
 40
0.0
  9
$USERR4
 40
0.0
  9
$USERR5
 40
0.0
  9
$WORLDVIEW
 70
     1
  9
$SHADEDGE
 70
     3
  9
$SHADEDIF
 70
    70
  9
$TILEMODE
 70
     1
  9
$MAXACTVP
 70
    64
  9
$PINSBASE
 10
0.0
 20
0.0
 30
0.0
  9
$PLIMCHECK
 70
     0
  9
$PEXTMIN
 10
1.000000000000000E+20
 20
1.000000000000000E+20
 30
1.000000000000000E+20
  9
$PEXTMAX
 10
-1.000000000000000E+20
 20
-1.000000000000000E+20
 30
-1.000000000000000E+20
  9
$PLIMMIN
 10
0.0
 20
0.0
  9
$PLIMMAX
 10
0.0
 20
0.0
  9
$UNITMODE
 70
     0
  9
$VISRETAIN
 70
     1
  9
$PLINEGEN
 70
     0
  9
$PSLTSCALE
 70
     1
  9
$TREEDEPTH
 70
  3020
  9
$CMLSTYLE
  2
Standard
  9
$CMLJUST
 70
     0
  9
$CMLSCALE
 40
20.0
  9
$PROXYGRAPHICS
 70
     1
  9
$MEASUREMENT
 70
     1
  9
$CELWEIGHT
370
    -1
  9
$ENDCAPS
280
     0
  9
$JOINSTYLE
280
     0
  9
$LWDISPLAY
290
     1
  9
$INSUNITS
 70
     4
  9
$HYPERLINKBASE
  1

  9
$STYLESHEET
  1

  9
$XEDIT
290
     1
  9
$CEPSNTYPE
380
     0
  9
$PSTYLEMODE
290
     1
  9
$FINGERPRINTGUID
  2
{94B346A6-F221-4E84-A8DD-A9CBEE6E5E59}
  9
$VERSIONGUID
  2
{FAEB1C32-E019-11D5-929B-00C0DF256EC4}
  9
$EXTNAMES
290
     1
  9
$PSVPSCALE
 40
0.0
  9
$OLESTARTUP
290
     0
  0
ENDSEC
  0
SECTION
  2
CLASSES
  0
CLASS
  1
ACDBDICTIONARYWDFLT
  2
AcDbDictionaryWithDefault
  3
ObjectDBX Classes
 90
        0
280
     0
281
     0
  0
CLASS
  1
VISUALSTYLE
  2
AcDbVisualStyle
  3
ObjectDBX Classes
 90
     4095
280
     0
281
     0
  0
CLASS
  1
MATERIAL
  2
AcDbMaterial
  3
ObjectDBX Classes
 90
     1153
280
     0
281
     0
  0
CLASS
  1
SCALE
  2
AcDbScale
  3
ObjectDBX Classes
 90
     1153
280
     0
281
     0
  0
CLASS
  1
SUN
  2
AcDbSun
  3
SCENEOE
 90
     1153
280
     0
281
     0
  0
CLASS
  1
ACDBPLACEHOLDER
  2
AcDbPlaceHolder
  3
ObjectDBX Classes
 90
        0
280
     0
281
     0
  0
CLASS
  1
LAYOUT
  2
AcDbLayout
  3
ObjectDBX Classes
 90
        0
280
     0
281
     0
  0
CLASS
  1
TABLESTYLE
  2
AcDbTableStyle
  3
ObjectDBX Classes
 90
     4095
280
     0
281
     0
  0
CLASS
  1
MLEADERSTYLE
  2
AcDbMLeaderStyle
  3
ACDB_MLEADERSTYLE_CLASS
 90
     4095
280
     0
281
     0
  0
CLASS
  1
RASTERVARIABLES
  2
AcDbRasterVariables
  3
ISM
 90
        0
280
     0
281
     0
  0
CLASS
  1
DICTIONARYVAR
  2
AcDbDictionaryVar
  3
ObjectDBX Classes
 90
        0
280
     0
281
     0
  0
CLASS
  1
DIMASSOC
  2
AcDbDimAssoc
  3
"AcDbDimAssoc|Product Desc:     AcDim ARX App For Dimension|Company:          Autodesk, Inc.|WEB Address:      www.autodesk.com"
 90
        0
280
     0
281
     0
  0
ENDSEC
  0
SECTION
  2
TABLES
  0
TABLE
  2
VPORT
  5
8
330
0
100
AcDbSymbolTable
 70
     1
  0
VPORT
  5
29
330
8
100
AcDbSymbolTableRecord
100
AcDbViewportTableRecord
  2
*Active
 70
     0
 10
0.0
 20
0.0
 11
1.0
 21
1.0
 12
-8.196847302139439
 22
-7.298403694405856
 13
0.0
 23
0.0
 14
10.0
 24
10.0
 15
10.0
 25
10.0
 16
0.0
 26
0.0
 36
1.0
 17
0.0
 27
0.0
 37
0.0
 40
87.053743536588
 41
2.174863387978142
 42
50.0
 43
0.0
 44
0.0
 50
0.0
 51
0.0
 71
    16
 72
  2000
 73
     1
 74
     3
 75
     0
 76
     0
 77
     0
 78
     0
281
     0
 65
     1
110
0.0
120
0.0
130
0.0
111
1.0
121
0.0
131
0.0
112
0.0
122
1.0
132
0.0
 79
     0
146
0.0
  0
ENDTAB
  0
TABLE
  2
LTYPE
  5
5
330
0
100
AcDbSymbolTable
 70
     6
  0
LTYPE
  5
14
330
5
100
AcDbSymbolTableRecord
100
AcDbLinetypeTableRecord
  2
ByBlock
 70
     0
  3

 72
    65
 73
     0
 40
0.0
  0
LTYPE
  5
15
330
5
100
AcDbSymbolTableRecord
100
AcDbLinetypeTableRecord
  2
ByLayer
 70
     0
  3

 72
    65
 73
     0
 40
0.0
  0
LTYPE
  5
16
330
5
100
AcDbSymbolTableRecord
100
AcDbLinetypeTableRecord
  2
Continuous
 70
     0
  3
Solid line
 72
    65
 73
     0
 40
0.0
  0
LTYPE
  5
6A
330
5
100
AcDbSymbolTableRecord
100
AcDbLinetypeTableRecord
  2
HIDDEN
 70
     0
  3
Hidden __ __ __ __ __ __ __ __ __ __ __ __ __ __
 72
    65
 73
     2
 40
1.905
 49
1.27
 74
     0
 49
-0.635
 74
     0
  0
LTYPE
  5
6B
330
5
100
AcDbSymbolTableRecord
100
AcDbLinetypeTableRecord
  2
PHANTOM
 70
     0
  3
Phantom ______  __  __  ______  __  __  ______
 72
    65
 73
     6
 40
12.7
 49
6.35
 74
     0
 49
-1.27
 74
     0
 49
1.27
 74
     0
 49
-1.27
 74
     0
 49
1.27
 74
     0
 49
-1.27
 74
     0
  0
LTYPE
  5
6C
330
5
100
AcDbSymbolTableRecord
100
AcDbLinetypeTableRecord
  2
CENTER
 70
     0
  3
Center ____ _ ____ _ ____ _ ____ _ ____ _ ____
 72
    65
 73
     4
 40
10.16
 49
6.35
 74
     0
 49
-1.27
 74
     0
 49
1.27
 74
     0
 49
-1.27
 74
     0
  0
LTYPE
  5
6D
330
5
100
AcDbSymbolTableRecord
100
AcDbLinetypeTableRecord
  2
CENTERX2
 70
     0
  3
Center (2x) ________  __  ________  __  _____
 72
    65
 73
     4
 40
20.32
 49
12.7
 74
     0
 49
-2.54
 74
     0
 49
2.54
 74
     0
 49
-2.54
 74
     0
  0
LTYPE
  5
6E
330
5
100
AcDbSymbolTableRecord
100
AcDbLinetypeTableRecord
  2
DOT2
 70
     0
  3
Dot (.5x) ........................................
 72
    65
 73
     2
 40
0.635
 49
0.0
 74
     0
 49
-0.635
 74
     0
  0
ENDTAB
  0
TABLE
  2
LAYER
  5
2
102
{ACAD_XDICTIONARY
360
1C4
102
}
330
0
100
AcDbSymbolTable
 70
    18
  0
LAYER
  5
10
330
2
100
AcDbSymbolTableRecord
100
AcDbLayerTableRecord
  2
0
 70
     0
 62
     7
  6
Continuous
370
    -3
390
F
  0
LAYER
  5
6F
330
2
100
AcDbSymbolTableRecord
100
AcDbLayerTableRecord
  2
FORMAT
 70
     0
 62
     2
  6
Continuous
370
    -3
390
F
  0
LAYER
  5
70
330
2
100
AcDbSymbolTableRecord
100
AcDbLayerTableRecord
  2
외형선
 70
     0
 62
   100
  6
Continuous
370
    30
390
F
  0
LAYER
  5
71
330
2
100
AcDbSymbolTableRecord
100
AcDbLayerTableRecord
  2
숨은선
 70
     0
 62
     2
  6
HIDDEN
370
    15
390
F
  0
LAYER
  5
72
330
2
100
AcDbSymbolTableRecord
100
AcDbLayerTableRecord
  2
중심선
 70
     0
 62
     1
  6
CENTERX2
370
    -3
390
F
  0
LAYER
  5
73
330
2
100
AcDbSymbolTableRecord
100
AcDbLayerTableRecord
  2
파단선
 70
     0
 62
     4
  6
Continuous
370
    -3
390
F
  0
LAYER
  5
74
330
2
100
AcDbSymbolTableRecord
100
AcDbLayerTableRecord
  2
해칭선
 70
     0
 62
     4
  6
Continuous
370
    -3
390
F
  0
LAYER
  5
75
330
2
100
AcDbSymbolTableRecord
100
AcDbLayerTableRecord
  2
가는실선
 70
     0
 62
     4
  6
Continuous
370
    -3
390
F
  0
LAYER
  5
76
330
2
100
AcDbSymbolTableRecord
100
AcDbLayerTableRecord
  2
치수_보조선
 70
     0
 62
     4
  6
Continuous
370
    -3
390
F
  0
LAYER
  5
77
330
2
100
AcDbSymbolTableRecord
100
AcDbLayerTableRecord
  2
치수문자_일반주서
 70
     0
 62
     7
  6
Continuous
370
    15
390
F
  0
LAYER
  5
78
330
2
100
AcDbSymbolTableRecord
100
AcDbLayerTableRecord
  2
개별주서
 70
     0
 62
   100
  6
Continuous
370
    30
390
F
  0
LAYER
  5
79
330
2
100
AcDbSymbolTableRecord
100
AcDbLayerTableRecord
  2
중간선
 70
     0
 62
     2
  6
Continuous
370
    15
390
F
  0
LAYER
  5
7A
330
2
100
AcDbSymbolTableRecord
100
AcDbLayerTableRecord
  2
윤곽선
 70
     0
 62
     3
  6
Continuous
370
    40
390
F
  0
LAYER
  5
7B
330
2
100
AcDbSymbolTableRecord
100
AcDbLayerTableRecord
  2
중심마크
 70
     0
 62
   100
  6
Continuous
370
    30
390
F
  0
LAYER
  5
7C
330
2
100
AcDbSymbolTableRecord
100
AcDbLayerTableRecord
  2
가상선
 70
     0
 62
     4
  6
PHANTOM
370
    -3
390
F
  0
LAYER
  5
7D
330
2
100
AcDbSymbolTableRecord
100
AcDbLayerTableRecord
  2
특수지정선
 70
     0
 62
     5
  6
CENTERX2
370
    60
390
F
  0
LAYER
  5
141
330
2
100
AcDbSymbolTableRecord
100
AcDbLayerTableRecord
  2
Defpoints
 70
     0
 62
     7
  6
Continuous
290
     0
370
    -3
390
F
  0
LAYER
  5
194
330
2
100
AcDbSymbolTableRecord
100
AcDbLayerTableRecord
  2
CENTER
 70
     0
 62
     2
  6
CENTER
370
    -3
390
F
1001
AcAecLayerStandard
1000

1000

  0
ENDTAB
  0
TABLE
  2
STYLE
  5
3
330
0
100
AcDbSymbolTable
 70
     2
  0
STYLE
  5
11
330
3
100
AcDbSymbolTableRecord
100
AcDbTextStyleTableRecord
  2
Standard
 70
     0
 40
0.0
 41
1.0
 50
0.0
 71
     0
 42
3.5
  3
txt
  4

  0
STYLE
  5
93
330
3
100
AcDbSymbolTableRecord
100
AcDbTextStyleTableRecord
  2
SLDTEXTSTYLE0
 70
     0
 40
0.0
 41
0.75
 50
0.0
 71
     0
 42
3.5
  3
TXT
  4

  0
ENDTAB
  0
TABLE
  2
VIEW
  5
6
330
0
100
AcDbSymbolTable
 70
     0
  0
ENDTAB
  0
TABLE
  2
UCS
  5
7
330
0
100
AcDbSymbolTable
 70
     0
  0
ENDTAB
  0
TABLE
  2
APPID
  5
9
330
0
100
AcDbSymbolTable
 70
     6
  0
APPID
  5
12
330
9
100
AcDbSymbolTableRecord
100
AcDbRegAppTableRecord
  2
ACAD
 70
     0
  0
APPID
  5
14E
330
9
100
AcDbSymbolTableRecord
100
AcDbRegAppTableRecord
  2
ACAD_DSTYLE_DIMFLIPARROW_SYMBOL
 70
     0
  0
APPID
  5
14F
330
9
100
AcDbSymbolTableRecord
100
AcDbRegAppTableRecord
  2
ACAD_DSTYLE_DIMFLIPARROW_WHICH_SYMBOL
 70
     0
  0
APPID
  5
197
330
9
100
AcDbSymbolTableRecord
100
AcDbRegAppTableRecord
  2
AcAecLayerStandard
 70
     0
  0
APPID
  5
1D9
330
9
100
AcDbSymbolTableRecord
100
AcDbRegAppTableRecord
  2
PE_URL
 70
     0
  0
APPID
  5
211
330
9
100
AcDbSymbolTableRecord
100
AcDbRegAppTableRecord
  2
ACAD_DSTYLE_DIMRADIAL_EXTENSION
 70
     0
  0
ENDTAB
  0
TABLE
  2
DIMSTYLE
  5
A
330
0
100
AcDbSymbolTable
 70
     4
100
AcDbDimStyleTable
  0
DIMSTYLE
105
27
330
A
100
AcDbSymbolTableRecord
100
AcDbDimStyleTableRecord
  2
ISO-25
 70
     0
 41
2.5
 42
0.625
 43
3.75
 44
1.25
 73
     0
 74
     0
 77
     1
 78
     8
140
2.5
141
2.5
143
0.03937007874016
147
0.625
171
     3
172
     1
178
     0
271
     2
272
     2
274
     3
278
    44
283
     0
284
     8
340
11
  0
DIMSTYLE
105
DF
102
{ACAD_REACTORS
330
DAB
330
DC2
330
DCF
330
DDB
102
}
330
A
100
AcDbSymbolTableRecord
100
AcDbDimStyleTableRecord
  2
SLDDIMSTYLE0
 70
     0
 41
3.302
 44
0.0
 45
0.000000001
 73
     0
 74
     0
 77
     1
 78
    12
 79
     3
140
3.5
147
0.875
173
     1
178
     0
271
     2
272
     2
276
     2
284
    12
340
93
  0
DIMSTYLE
105
F4
102
{ACAD_REACTORS
330
DB8
330
EA0
102
}
330
A
100
AcDbSymbolTableRecord
100
AcDbDimStyleTableRecord
  2
SLDDIMSTYLE1
 70
     0
 41
3.302
 44
0.0
 45
0.000000001
 73
     0
 74
     0
 77
     1
 78
     8
 79
     2
140
3.5
141
0.0
147
0.875
173
     1
178
     0
271
     1
272
     1
276
     2
284
    12
340
93
  0
DIMSTYLE
105
FD
102
{ACAD_REACTORS
330
3BD
330
3BE
330
3BF
330
3BC
330
3BB
102
}
330
A
100
AcDbSymbolTableRecord
100
AcDbDimStyleTableRecord
  2
SLDDIMSTYLE2
 70
     0
 41
3.302
 44
0.0
 45
0.000000001
 73
     0
 74
     0
 77
     1
 78
    12
 79
     3
140
3.5
147
0.875
172
     1
173
     1
178
     0
271
     2
272
     2
276
     2
284
    12
289
     0
340
93
  0
ENDTAB
  0
TABLE
  2
BLOCK_RECORD
  5
1
330
0
100
AcDbSymbolTable
 70
    81
  0
BLOCK_RECORD
  5
1F
330
1
100
AcDbSymbolTableRecord
100
AcDbBlockTableRecord
  2
*Model_Space
340
22
  0
BLOCK_RECORD
  5
1B
330
1
100
AcDbSymbolTableRecord
100
AcDbBlockTableRecord
  2
*Paper_Space
340
1E
  0
BLOCK_RECORD
  5
23
330
1
100
AcDbSymbolTableRecord
100
AcDbBlockTableRecord
  2
*Paper_Space0
340
26
  0
BLOCK_RECORD
  5
7E
330
1
100
AcDbSymbolTableRecord
100
AcDbBlockTableRecord
  2
블럭10
340
0
102
{BLKREFS
331
3B4
331
D8E
331
0
102
}
  0
BLOCK_RECORD
  5
E0
330
1
100
AcDbSymbolTableRecord
100
AcDbBlockTableRecord
  2
_D
340
0
  0
BLOCK_RECORD
  5
EA
330
1
100
AcDbSymbolTableRecord
100
AcDbBlockTableRecord
  2
_D_1
340
0
  0
BLOCK_RECORD
  5
F5
330
1
100
AcDbSymbolTableRecord
100
AcDbBlockTableRecord
  2
_D_2
340
0
  0
BLOCK_RECORD
  5
FE
330
1
100
AcDbSymbolTableRecord
100
AcDbBlockTableRecord
  2
_D_3
340
0
  0
BLOCK_RECORD
  5
10B
330
1
100
AcDbSymbolTableRecord
100
AcDbBlockTableRecord
  2
_D_4
340
0
  0
BLOCK_RECORD
  5
117
330
1
100
AcDbSymbolTableRecord
100
AcDbBlockTableRecord
  2
SW_DOWELSYMBOL_0
340
0
102
{BLKREFS
331
3C0
331
DE7
331
0
102
}
  0
BLOCK_RECORD
  5
3C1
330
1
100
AcDbSymbolTableRecord
100
AcDbBlockTableRecord
  2
*D8
340
0
  0
BLOCK_RECORD
  5
3CE
330
1
100
AcDbSymbolTableRecord
100
AcDbBlockTableRecord
  2
*D9
340
0
  0
BLOCK_RECORD
  5
3DA
330
1
100
AcDbSymbolTableRecord
100
AcDbBlockTableRecord
  2
*D10
340
0
  0
BLOCK_RECORD
  5
3E6
330
1
100
AcDbSymbolTableRecord
100
AcDbBlockTableRecord
  2
*D11
340
0
  0
BLOCK_RECORD
  5
3F2
330
1
100
AcDbSymbolTableRecord
100
AcDbBlockTableRecord
  2
*D12
340
0
  0
BLOCK_RECORD
  5
410
330
1
100
AcDbSymbolTableRecord
100
AcDbBlockTableRecord
  2
*D13
340
0
  0
BLOCK_RECORD
  5
550
330
1
100
AcDbSymbolTableRecord
100
AcDbBlockTableRecord
  2
*D14
340
0
  0
BLOCK_RECORD
  5
55C
330
1
100
AcDbSymbolTableRecord
100
AcDbBlockTableRecord
  2
*D15
340
0
  0
BLOCK_RECORD
  5
568
330
1
100
AcDbSymbolTableRecord
100
AcDbBlockTableRecord
  2
*D16
340
0
  0
BLOCK_RECORD
  5
574
330
1
100
AcDbSymbolTableRecord
100
AcDbBlockTableRecord
  2
*D17
340
0
  0
BLOCK_RECORD
  5
580
330
1
100
AcDbSymbolTableRecord
100
AcDbBlockTableRecord
  2
*D18
340
0
  0
BLOCK_RECORD
  5
5DB
330
1
100
AcDbSymbolTableRecord
100
AcDbBlockTableRecord
  2
*D19
340
0
  0
BLOCK_RECORD
  5
5E7
330
1
100
AcDbSymbolTableRecord
100
AcDbBlockTableRecord
  2
*D20
340
0
  0
BLOCK_RECORD
  5
5F3
330
1
100
AcDbSymbolTableRecord
100
AcDbBlockTableRecord
  2
*D21
340
0
  0
BLOCK_RECORD
  5
5FF
330
1
100
AcDbSymbolTableRecord
100
AcDbBlockTableRecord
  2
*D22
340
0
  0
BLOCK_RECORD
  5
60B
330
1
100
AcDbSymbolTableRecord
100
AcDbBlockTableRecord
  2
*D23
340
0
  0
BLOCK_RECORD
  5
61A
330
1
100
AcDbSymbolTableRecord
100
AcDbBlockTableRecord
  2
*D24
340
0
  0
BLOCK_RECORD
  5
715
330
1
100
AcDbSymbolTableRecord
100
AcDbBlockTableRecord
  2
*D25
340
0
  0
BLOCK_RECORD
  5
722
330
1
100
AcDbSymbolTableRecord
100
AcDbBlockTableRecord
  2
*D26
340
0
  0
BLOCK_RECORD
  5
72E
330
1
100
AcDbSymbolTableRecord
100
AcDbBlockTableRecord
  2
*D27
340
0
  0
BLOCK_RECORD
  5
73A
330
1
100
AcDbSymbolTableRecord
100
AcDbBlockTableRecord
  2
*D28
340
0
  0
BLOCK_RECORD
  5
746
330
1
100
AcDbSymbolTableRecord
100
AcDbBlockTableRecord
  2
*D29
340
0
  0
BLOCK_RECORD
  5
7A2
330
1
100
AcDbSymbolTableRecord
100
AcDbBlockTableRecord
  2
*D30
340
0
  0
BLOCK_RECORD
  5
7AF
330
1
100
AcDbSymbolTableRecord
100
AcDbBlockTableRecord
  2
*D31
340
0
  0
BLOCK_RECORD
  5
7BB
330
1
100
AcDbSymbolTableRecord
100
AcDbBlockTableRecord
  2
*D32
340
0
  0
BLOCK_RECORD
  5
7C7
330
1
100
AcDbSymbolTableRecord
100
AcDbBlockTableRecord
  2
*D33
340
0
  0
BLOCK_RECORD
  5
7D3
330
1
100
AcDbSymbolTableRecord
100
AcDbBlockTableRecord
  2
*D34
340
0
  0
BLOCK_RECORD
  5
7E2
330
1
100
AcDbSymbolTableRecord
100
AcDbBlockTableRecord
  2
*D35
340
0
  0
BLOCK_RECORD
  5
8DD
330
1
100
AcDbSymbolTableRecord
100
AcDbBlockTableRecord
  2
*D36
340
0
  0
BLOCK_RECORD
  5
8EA
330
1
100
AcDbSymbolTableRecord
100
AcDbBlockTableRecord
  2
*D37
340
0
  0
BLOCK_RECORD
  5
8F6
330
1
100
AcDbSymbolTableRecord
100
AcDbBlockTableRecord
  2
*D38
340
0
  0
BLOCK_RECORD
  5
902
330
1
100
AcDbSymbolTableRecord
100
AcDbBlockTableRecord
  2
*D39
340
0
  0
BLOCK_RECORD
  5
90E
330
1
100
AcDbSymbolTableRecord
100
AcDbBlockTableRecord
  2
*D40
340
0
  0
BLOCK_RECORD
  5
96A
330
1
100
AcDbSymbolTableRecord
100
AcDbBlockTableRecord
  2
*D41
340
0
  0
BLOCK_RECORD
  5
977
330
1
100
AcDbSymbolTableRecord
100
AcDbBlockTableRecord
  2
*D42
340
0
  0
BLOCK_RECORD
  5
983
330
1
100
AcDbSymbolTableRecord
100
AcDbBlockTableRecord
  2
*D43
340
0
  0
BLOCK_RECORD
  5
98F
330
1
100
AcDbSymbolTableRecord
100
AcDbBlockTableRecord
  2
*D44
340
0
  0
BLOCK_RECORD
  5
99B
330
1
100
AcDbSymbolTableRecord
100
AcDbBlockTableRecord
  2
*D45
340
0
  0
BLOCK_RECORD
  5
9AA
330
1
100
AcDbSymbolTableRecord
100
AcDbBlockTableRecord
  2
*D46
340
0
  0
BLOCK_RECORD
  5
A80
330
1
100
AcDbSymbolTableRecord
100
AcDbBlockTableRecord
  2
*D47
340
0
  0
BLOCK_RECORD
  5
A8D
330
1
100
AcDbSymbolTableRecord
100
AcDbBlockTableRecord
  2
*D48
340
0
  0
BLOCK_RECORD
  5
A99
330
1
100
AcDbSymbolTableRecord
100
AcDbBlockTableRecord
  2
*D49
340
0
  0
BLOCK_RECORD
  5
AA5
330
1
100
AcDbSymbolTableRecord
100
AcDbBlockTableRecord
  2
*D50
340
0
  0
BLOCK_RECORD
  5
AB1
330
1
100
AcDbSymbolTableRecord
100
AcDbBlockTableRecord
  2
*D51
340
0
  0
BLOCK_RECORD
  5
B09
330
1
100
AcDbSymbolTableRecord
100
AcDbBlockTableRecord
  2
*D52
340
0
  0
BLOCK_RECORD
  5
B16
330
1
100
AcDbSymbolTableRecord
100
AcDbBlockTableRecord
  2
*D53
340
0
  0
BLOCK_RECORD
  5
B22
330
1
100
AcDbSymbolTableRecord
100
AcDbBlockTableRecord
  2
*D54
340
0
  0
BLOCK_RECORD
  5
B2E
330
1
100
AcDbSymbolTableRecord
100
AcDbBlockTableRecord
  2
*D55
340
0
  0
BLOCK_RECORD
  5
B3A
330
1
100
AcDbSymbolTableRecord
100
AcDbBlockTableRecord
  2
*D56
340
0
  0
BLOCK_RECORD
  5
B49
330
1
100
AcDbSymbolTableRecord
100
AcDbBlockTableRecord
  2
*D57
340
0
  0
BLOCK_RECORD
  5
C48
330
1
100
AcDbSymbolTableRecord
100
AcDbBlockTableRecord
  2
*D58
340
0
  0
BLOCK_RECORD
  5
C55
330
1
100
AcDbSymbolTableRecord
100
AcDbBlockTableRecord
  2
*D59
340
0
  0
BLOCK_RECORD
  5
C61
330
1
100
AcDbSymbolTableRecord
100
AcDbBlockTableRecord
  2
*D60
340
0
  0
BLOCK_RECORD
  5
C6E
330
1
100
AcDbSymbolTableRecord
100
AcDbBlockTableRecord
  2
*D61
340
0
  0
BLOCK_RECORD
  5
C7B
330
1
100
AcDbSymbolTableRecord
100
AcDbBlockTableRecord
  2
*D62
340
0
  0
BLOCK_RECORD
  5
CB9
330
1
100
AcDbSymbolTableRecord
100
AcDbBlockTableRecord
  2
*D63
340
0
  0
BLOCK_RECORD
  5
CC6
330
1
100
AcDbSymbolTableRecord
100
AcDbBlockTableRecord
  2
*D64
340
0
  0
BLOCK_RECORD
  5
CD2
330
1
100
AcDbSymbolTableRecord
100
AcDbBlockTableRecord
  2
*D65
340
0
  0
BLOCK_RECORD
  5
CDF
330
1
100
AcDbSymbolTableRecord
100
AcDbBlockTableRecord
  2
*D66
340
0
  0
BLOCK_RECORD
  5
CEC
330
1
100
AcDbSymbolTableRecord
100
AcDbBlockTableRecord
  2
*D67
340
0
  0
BLOCK_RECORD
  5
D08
330
1
100
AcDbSymbolTableRecord
100
AcDbBlockTableRecord
  2
*D68
340
0
  0
BLOCK_RECORD
  5
DF0
330
1
100
AcDbSymbolTableRecord
100
AcDbBlockTableRecord
  2
*D70
340
0
  0
BLOCK_RECORD
  5
DFD
330
1
100
AcDbSymbolTableRecord
100
AcDbBlockTableRecord
  2
*D71
340
0
  0
BLOCK_RECORD
  5
E09
330
1
100
AcDbSymbolTableRecord
100
AcDbBlockTableRecord
  2
*D72
340
0
  0
BLOCK_RECORD
  5
E16
330
1
100
AcDbSymbolTableRecord
100
AcDbBlockTableRecord
  2
*D73
340
0
  0
BLOCK_RECORD
  5
E23
330
1
100
AcDbSymbolTableRecord
100
AcDbBlockTableRecord
  2
*D74
340
0
  0
BLOCK_RECORD
  5
E61
330
1
100
AcDbSymbolTableRecord
100
AcDbBlockTableRecord
  2
*D75
340
0
  0
BLOCK_RECORD
  5
E6E
330
1
100
AcDbSymbolTableRecord
100
AcDbBlockTableRecord
  2
*D76
340
0
  0
BLOCK_RECORD
  5
E7A
330
1
100
AcDbSymbolTableRecord
100
AcDbBlockTableRecord
  2
*D77
340
0
  0
BLOCK_RECORD
  5
E87
330
1
100
AcDbSymbolTableRecord
100
AcDbBlockTableRecord
  2
*D78
340
0
  0
BLOCK_RECORD
  5
E94
330
1
100
AcDbSymbolTableRecord
100
AcDbBlockTableRecord
  2
*D79
340
0
  0
BLOCK_RECORD
  5
EA3
330
1
100
AcDbSymbolTableRecord
100
AcDbBlockTableRecord
  2
*D80
340
0
  0
ENDTAB
  0
ENDSEC
  0
SECTION
  2
BLOCKS
  0
BLOCK
  5
20
330
1F
100
AcDbEntity
  8
0
100
AcDbBlockBegin
  2
*Model_Space
 70
     0
 10
0.0
 20
0.0
 30
0.0
  3
*Model_Space
  1
*Model_Space
  0
ENDBLK
  5
21
330
1F
100
AcDbEntity
  8
0
100
AcDbBlockEnd
  0
BLOCK
  5
1C
330
1B
100
AcDbEntity
 67
     1
  8
0
100
AcDbBlockBegin
  2
*Paper_Space
 70
     0
 10
0.0
 20
0.0
 30
0.0
  3
*Paper_Space
  1
*Paper_Space
  0
ENDBLK
  5
1D
330
1B
100
AcDbEntity
 67
     1
  8
0
100
AcDbBlockEnd
  0
BLOCK
  5
24
330
23
100
AcDbEntity
  8
0
100
AcDbBlockBegin
  2
*Paper_Space0
 70
     0
 10
0.0
 20
0.0
 30
0.0
  3
*Paper_Space0
  1
*Paper_Space0
  0
ENDBLK
  5
25
330
23
100
AcDbEntity
  8
0
100
AcDbBlockEnd
  0
BLOCK
  5
7F
330
7E
100
AcDbEntity
  8
0
100
AcDbBlockBegin
  2
블럭10
 70
     2
 10
0.0
 20
0.0
 30
0.0
  3
블럭10
  1
블럭10
  0
ELLIPSE
  5
81
330
7E
100
AcDbEntity
  8
중심선
100
AcDbEllipse
 10
20.54032771741204
 20
12.0471743016438
 30
0.0
 11
6.600054785286829
 21
-1.261213355974178E-13
 31
0.0
210
0.0
220
0.0
230
1.0
 40
0.636358354079598
 41
0.9219305317359503
 42
6.513795318482858
  0
ELLIPSE
  5
82
330
7E
100
AcDbEntity
  8
중심선
100
AcDbEllipse
 10
20.54032771746488
 20
12.04717430159265
 30
0.0
 11
3.960054785062283
 21
1.540847449632565E-10
 31
0.0
210
0.0
220
0.0
230
1.0
 40
0.3939339440162632
 41
1.131841032648279
 42
5.62031148352944
  0
LINE
  5
83
330
7E
100
AcDbEntity
  8
중심선
100
AcDbLine
 10
2.268634060543552
 20
16.24717430164393
 30
0.0
 11
5.714909304380834
 21
16.24717430164393
 31
0.0
  0
LINE
  5
84
330
7E
100
AcDbEntity
  8
중심선
100
AcDbLine
 10
5.245725140726316
 20
7.84717430164391
 30
0.0
 11
8.692000384563599
 21
7.84717430164391
 31
0.0
  0
LINE
  5
85
330
7E
100
AcDbEntity
  8
중심선
100
AcDbLine
 10
15.74043728645272
 20
16.24717430164393
 30
0.0
 11
8.692000384563599
 21
7.84717430164391
 31
0.0
  0
LINE
  5
86
330
7E
100
AcDbEntity
  8
중심선
100
AcDbLine
 10
0.1404042013395286
 20
13.71084872107135
 30
0.0
 11
3.58671253028996
 21
13.71088815037384
 31
0.0
  0
LINE
  5
87
330
7E
100
AcDbEntity
  8
중심선
100
AcDbLine
 10
2.750260043222114
 20
10.84717430164391
 30
0.0
 11
6.196535287059397
 21
10.84717430164391
 31
0.0
  0
LINE
  5
88
330
7E
100
AcDbEntity
  8
중심선
100
AcDbLine
 10
12.29416204261559
 20
16.24717430164393
 30
0.0
 11
5.245725140726316
 21
7.84717430164391
 31
0.0
  0
LINE
  5
89
330
7E
100
AcDbEntity
  8
중심선
100
AcDbLine
 10
10.72767329541681
 20
16.24717430164393
 30
0.0
 11
6.196535287059397
 21
10.84717430164391
 31
0.0
  0
LINE
  5
8A
330
7E
100
AcDbEntity
  8
중심선
100
AcDbLine
 10
7.28139805157953
 20
16.24717430164393
 30
0.0
 11
2.750260043222114
 21
10.84717430164391
 31
0.0
  0
LINE
  5
8B
330
7E
100
AcDbEntity
  8
중심선
100
AcDbLine
 10
5.714909304380834
 20
16.24717430164393
 30
0.0
 11
3.58671253028996
 21
13.71088815037384
 31
0.0
  0
LINE
  5
8C
330
7E
100
AcDbEntity
  8
중심선
100
AcDbLine
 10
2.268634060543552
 20
16.24717430164393
 30
0.0
 11
0.1404042013395286
 21
13.71084872107135
 31
0.0
  0
LINE
  5
8D
330
7E
100
AcDbEntity
  8
중심선
100
AcDbLine
 10
7.28139805157953
 20
16.24717430164393
 30
0.0
 11
10.72767329541681
 21
16.24717430164393
 31
0.0
  0
LINE
  5
8E
330
7E
100
AcDbEntity
  8
중심선
100
AcDbLine
 10
12.29416204261559
 20
16.24717430164393
 30
0.0
 11
15.74043728645272
 21
16.24717430164393
 31
0.0
  0
LINE
  5
8F
330
7E
100
AcDbEntity
  8
중심선
100
AcDbLine
 10
19.22036997980202
 20
11.08717430171403
 30
0.0
 11
23.66174974927406
 21
11.08717430171406
 31
0.0
  0
LINE
  5
90
330
7E
100
AcDbEntity
  8
중심선
100
AcDbLine
 10
19.22039502424796
 20
13.00717430171391
 30
0.0
 11
19.22036997980202
 21
11.08717430171403
 31
0.0
  0
LINE
  5
91
330
7E
100
AcDbEntity
  8
중심선
100
AcDbLine
 10
19.22039502424796
 20
13.00717430171391
 30
0.0
 11
26.96566020931264
 21
13.00717430171391
 31
0.0
  0
LINE
  5
92
330
7E
100
AcDbEntity
  8
중심선
100
AcDbLine
 10
22.22332737316547
 20
13.45928029700563
 30
0.0
 11
24.52862924686651
 21
15.39360700705356
 31
0.0
  0
ATTDEF
  5
94
330
7E
100
AcDbEntity
  8
FORMAT
 62
     2
100
AcDbText
 10
-10.82367519849508
 20
2.075366912832191
 30
0.0
 40
4.233333333333333
  1
GMF58140 [ 4 FLUTE ]
 41
0.75
  7
SLDTEXTSTYLE0
 11
-10.82367519849508
 21
-0.0412997538344756
 31
0.0
100
AcDbAttributeDefinition
  3

  2
AUTOATTR0
 70
     0
 74
     1
  0
ENDBLK
  5
80
330
7E
100
AcDbEntity
  8
0
100
AcDbBlockEnd
  0
BLOCK
  5
E1
330
E0
100
AcDbEntity
  8
0
100
AcDbBlockBegin
  2
_D
 70
     0
 10
0.0
 20
0.0
 30
0.0
  3
_D
  1
_D
  0
LINE
  5
E3
330
E0
100
AcDbEntity
  8
치수문자_일반주서
 62
     0
370
    -2
100
AcDbLine
 10
-45.0000427306089
 20
6.562499999999996
 30
0.0
 11
-45.0000427306089
 21
41.66248416807875
 31
0.0
  0
LINE
  5
E4
330
E0
100
AcDbEntity
  8
치수문자_일반주서
 62
     0
370
    -2
100
AcDbLine
 10
37.99995726939112
 20
7.125000000000004
 30
0.0
 11
37.99995726939112
 21
41.66248416807875
 31
0.0
  0
LINE
  5
E5
330
E0
100
AcDbEntity
  8
치수문자_일반주서
 62
     0
370
    -2
100
AcDbLine
 10
-41.6980427306089
 20
41.66248416807875
 30
0.0
 11
34.69795726939113
 21
41.66248416807875
 31
0.0
  0
SOLID
  5
E6
330
E0
100
AcDbEntity
  8
치수문자_일반주서
 62
     0
100
AcDbTrace
 10
-41.6980427306089
 20
42.21281750141208
 30
0.0
 11
-41.6980427306089
 21
41.11215083474541
 31
0.0
 12
-45.0000427306089
 22
41.66248416807875
 32
0.0
 13
-45.0000427306089
 23
41.66248416807875
 33
0.0
  0
SOLID
  5
E7
330
E0
100
AcDbEntity
  8
치수문자_일반주서
 62
     0
100
AcDbTrace
 10
34.69795726939113
 20
41.11215083474541
 30
0.0
 11
34.69795726939113
 21
42.21281750141208
 31
0.0
 12
37.99995726939112
 22
41.66248416807875
 32
0.0
 13
37.99995726939112
 23
41.66248416807875
 33
0.0
  0
MTEXT
  5
E8
330
E0
100
AcDbEntity
  8
치수문자_일반주서
 62
     0
100
AcDbMText
 10
-3.500042730608889
 20
46.03748416807875
 30
0.0
 40
3.5
 41
0.0
 71
     2
 72
     1
  1
\A1;83
  7
SLDTEXTSTYLE0
 73
     1
 44
1.0
  0
POINT
  5
149
330
E0
100
AcDbEntity
  8
Defpoints
 62
     0
100
AcDbPoint
 10
-45.0000427306089
 20
6.499999999999996
 30
0.0
  0
POINT
  5
14A
330
E0
100
AcDbEntity
  8
Defpoints
 62
     0
100
AcDbPoint
 10
37.99995726939112
 20
7.062500000000004
 30
0.0
  0
POINT
  5
14B
330
E0
100
AcDbEntity
  8
Defpoints
 62
     0
100
AcDbPoint
 10
37.99995726939112
 20
41.66248416807875
 30
0.0
  0
ENDBLK
  5
E2
330
E0
100
AcDbEntity
  8
0
100
AcDbBlockEnd
  0
BLOCK
  5
EB
330
EA
100
AcDbEntity
  8
0
100
AcDbBlockBegin
  2
_D_1
 70
     0
 10
0.0
 20
0.0
 30
0.0
  3
_D_1
  1
_D_1
  0
LINE
  5
ED
330
EA
100
AcDbEntity
  8
치수문자_일반주서
 62
     0
370
    -2
100
AcDbLine
 10
11.99999913361988
 20
-0.6010474837848685
 30
0.0
 11
11.99999913361988
 21
32.67947958926196
 31
0.0
  0
LINE
  5
EE
330
EA
100
AcDbEntity
  8
치수문자_일반주서
 62
     0
370
    -2
100
AcDbLine
 10
37.99995726939112
 20
7.062500000000004
 30
0.0
 11
37.99995726939112
 21
32.67947958926196
 31
0.0
  0
LINE
  5
EF
330
EA
100
AcDbEntity
  8
치수문자_일반주서
 62
     0
370
    -2
100
AcDbLine
 10
15.30199913361988
 20
32.67947958926196
 30
0.0
 11
34.69795726939113
 21
32.67947958926196
 31
0.0
  0
SOLID
  5
F0
330
EA
100
AcDbEntity
  8
치수문자_일반주서
 62
     0
100
AcDbTrace
 10
15.30199913361988
 20
33.22981292259529
 30
0.0
 11
15.30199913361988
 21
32.12914625592862
 31
0.0
 12
11.99999913361988
 22
32.67947958926196
 32
0.0
 13
11.99999913361988
 23
32.67947958926196
 33
0.0
  0
SOLID
  5
F1
330
EA
100
AcDbEntity
  8
치수문자_일반주서
 62
     0
100
AcDbTrace
 10
34.69795726939113
 20
32.12914625592862
 30
0.0
 11
34.69795726939113
 21
33.22981292259529
 31
0.0
 12
37.99995726939112
 22
32.67947958926196
 32
0.0
 13
37.99995726939112
 23
32.67947958926196
 33
0.0
  0
MTEXT
  5
F2
330
EA
100
AcDbEntity
  8
치수문자_일반주서
 62
     0
100
AcDbMText
 10
25.04655299632314
 20
37.05447958926196
 30
0.0
 40
3.5
 41
0.0
 71
     2
 72
     1
  1
\A1;26
  7
SLDTEXTSTYLE0
 73
     1
 44
1.0
  0
POINT
  5
146
330
EA
100
AcDbEntity
  8
Defpoints
 62
     0
100
AcDbPoint
 10
11.99999913361988
 20
-0.6635474837848685
 30
0.0
  0
POINT
  5
147
330
EA
100
AcDbEntity
  8
Defpoints
 62
     0
100
AcDbPoint
 10
37.99995726939112
 20
7.000000000000004
 30
0.0
  0
POINT
  5
148
330
EA
100
AcDbEntity
  8
Defpoints
 62
     0
100
AcDbPoint
 10
37.99995726939112
 20
32.67947958926196
 30
0.0
  0
ENDBLK
  5
EC
330
EA
100
AcDbEntity
  8
0
100
AcDbBlockEnd
  0
BLOCK
  5
F6
330
F5
100
AcDbEntity
  8
0
100
AcDbBlockBegin
  2
_D_2
 70
     0
 10
0.0
 20
0.0
 30
0.0
  3
_D_2
  1
_D_2
  0
LINE
  5
F8
330
F5
100
AcDbEntity
  8
치수문자_일반주서
 62
     0
370
    -2
100
AcDbLine
 10
73.85642292674117
 20
9.242246977090005
 30
0.0
 11
86.14290759565546
 21
21.52873164600436
 31
0.0
  0
MTEXT
  5
F9
330
F5
100
AcDbEntity
  8
치수문자_일반주서
 62
     0
100
AcDbMText
 10
77.17149030935114
 20
18.7444986950823
 30
0.0
 40
3.5
 41
0.0
 71
     1
 72
     1
  1
\A1;R0.5
  7
SLDTEXTSTYLE0
 11
0.7071067811865457
 21
0.7071067811865492
 31
0.0
 73
     1
 44
1.0
  0
SOLID
  5
FA
330
F5
100
AcDbEntity
  8
치수문자_일반주서
 62
     0
100
AcDbTrace
 10
73.46727849482818
 20
9.631391409003001
 30
0.0
 11
74.24556735865417
 21
8.85310254517701
 31
0.0
 12
71.5215563352632
 22
6.90738038561202
 32
0.0
 13
71.5215563352632
 23
6.90738038561202
 33
0.0
  0
POINT
  5
FB
330
F5
100
AcDbEntity
  8
Defpoints
 62
     0
100
AcDbPoint
 10
71.5215563352632
 20
6.90738038561202
 30
0.0
  0
POINT
  5
14C
330
F5
100
AcDbEntity
  8
Defpoints
 62
     0
100
AcDbPoint
 10
71.16800294466992
 20
6.553826995018742
 30
0.0
  0
ENDBLK
  5
F7
330
F5
100
AcDbEntity
  8
0
100
AcDbBlockEnd
  0
BLOCK
  5
FF
330
FE
100
AcDbEntity
  8
0
100
AcDbBlockBegin
  2
_D_3
 70
     0
 10
0.0
 20
0.0
 30
0.0
  3
_D_3
  1
_D_3
  0
LINE
  5
101
330
FE
100
AcDbEntity
  8
치수문자_일반주서
 62
     0
370
    -2
100
AcDbLine
 10
-44.56254273060889
 20
7.000000000000005
 30
0.0
 11
-60.00004273060895
 21
6.999999999999948
 31
0.0
  0
LINE
  5
102
330
FE
100
AcDbEntity
  8
치수문자_일반주서
 62
     0
370
    -2
100
AcDbLine
 10
-44.56254273060889
 20
-6.999999999999996
 30
0.0
 11
-60.0000427306089
 21
-7.000000000000054
 31
0.0
  0
LINE
  5
103
330
FE
100
AcDbEntity
  8
치수문자_일반주서
 62
     0
370
    -2
100
AcDbLine
 10
-60.00004273060895
 20
6.999999999999948
 30
0.0
 11
-60.0000427306089
 21
-7.000000000000054
 31
0.0
  0
LINE
  5
104
330
FE
100
AcDbEntity
  8
치수문자_일반주서
 62
     0
370
    -2
100
AcDbLine
 10
-60.00004273060896
 20
10.30199999999995
 30
0.0
 11
-60.00004273060897
 21
13.60399999999995
 31
0.0
  0
LINE
  5
105
330
FE
100
AcDbEntity
  8
치수문자_일반주서
 62
     0
370
    -2
100
AcDbLine
 10
-60.00004273060888
 20
-10.30200000000005
 30
0.0
 11
-60.00004273060887
 21
-13.60400000000005
 31
0.0
  0
SOLID
  5
106
330
FE
100
AcDbEntity
  8
치수문자_일반주서
 62
     0
100
AcDbTrace
 10
-60.55037606394229
 20
10.30199999999995
 30
0.0
 11
-59.44970939727563
 21
10.30199999999995
 31
0.0
 12
-60.00004273060895
 22
6.999999999999948
 32
0.0
 13
-60.00004273060895
 23
6.999999999999948
 33
0.0
  0
SOLID
  5
107
330
FE
100
AcDbEntity
  8
치수문자_일반주서
 62
     0
100
AcDbTrace
 10
-59.44970939727555
 20
-10.30200000000005
 30
0.0
 11
-60.55037606394222
 21
-10.30200000000006
 31
0.0
 12
-60.0000427306089
 22
-7.000000000000054
 32
0.0
 13
-60.0000427306089
 23
-7.000000000000054
 33
0.0
  0
MTEXT
  5
108
330
FE
100
AcDbEntity
  8
치수문자_일반주서
 62
     0
100
AcDbMText
 10
-64.37504273060893
 20
-0.0000000000000101
 30
0.0
 40
3.5
 41
0.0
 71
     2
 72
     1
  1
\A1;%%c14
  7
SLDTEXTSTYLE0
 11
-3.552713678800501E-15
 21
1.0
 31
0.0
 73
     1
 44
1.0
  0
POINT
  5
109
330
FE
100
AcDbEntity
  8
Defpoints
 62
     0
100
AcDbPoint
 10
-44.50004273060889
 20
7.000000000000005
 30
0.0
  0
POINT
  5
144
330
FE
100
AcDbEntity
  8
Defpoints
 62
     0
100
AcDbPoint
 10
-44.50004273060889
 20
-6.999999999999996
 30
0.0
  0
POINT
  5
145
330
FE
100
AcDbEntity
  8
Defpoints
 62
     0
100
AcDbPoint
 10
-60.0000427306089
 20
-7.000000000000054
 30
0.0
  0
ENDBLK
  5
100
330
FE
100
AcDbEntity
  8
0
100
AcDbBlockEnd
  0
BLOCK
  5
10C
330
10B
100
AcDbEntity
  8
0
100
AcDbBlockBegin
  2
_D_4
 70
     0
 10
0.0
 20
0.0
 30
0.0
  3
_D_4
  1
_D_4
  0
LINE
  5
10E
330
10B
100
AcDbEntity
  8
치수문자_일반주서
 62
     0
370
    -2
100
AcDbLine
 10
38.06245726939113
 20
7.000000000000004
 30
0.0
 11
52.99995726939112
 21
7.000000000000061
 31
0.0
  0
LINE
  5
10F
330
10B
100
AcDbEntity
  8
치수문자_일반주서
 62
     0
370
    -2
100
AcDbLine
 10
38.06245726939112
 20
-6.999999999999996
 30
0.0
 11
52.99995726939117
 21
-6.99999999999994
 31
0.0
  0
LINE
  5
110
330
10B
100
AcDbEntity
  8
치수문자_일반주서
 62
     0
370
    -2
100
AcDbLine
 10
52.99995726939112
 20
7.000000000000061
 30
0.0
 11
52.99995726939117
 21
-6.99999999999994
 31
0.0
  0
LINE
  5
111
330
10B
100
AcDbEntity
  8
치수문자_일반주서
 62
     0
370
    -2
100
AcDbLine
 10
52.99995726939111
 20
10.30200000000006
 30
0.0
 11
52.9999572693911
 21
13.60400000000006
 31
0.0
  0
LINE
  5
112
330
10B
100
AcDbEntity
  8
치수문자_일반주서
 62
     0
370
    -2
100
AcDbLine
 10
52.99995726939119
 20
-10.30199999999994
 30
0.0
 11
52.9999572693912
 21
-13.60399999999994
 31
0.0
  0
SOLID
  5
113
330
10B
100
AcDbEntity
  8
치수문자_일반주서
 62
     0
100
AcDbTrace
 10
52.44962393605778
 20
10.30200000000006
 30
0.0
 11
53.55029060272444
 21
10.30200000000006
 31
0.0
 12
52.99995726939112
 22
7.000000000000061
 32
0.0
 13
52.99995726939112
 23
7.000000000000061
 33
0.0
  0
SOLID
  5
114
330
10B
100
AcDbEntity
  8
치수문자_일반주서
 62
     0
100
AcDbTrace
 10
53.55029060272452
 20
-10.30199999999994
 30
0.0
 11
52.44962393605785
 21
-10.30199999999994
 31
0.0
 12
52.99995726939117
 22
-6.99999999999994
 32
0.0
 13
52.99995726939117
 23
-6.99999999999994
 33
0.0
  0
MTEXT
  5
115
330
10B
100
AcDbEntity
  8
치수문자_일반주서
 62
     0
100
AcDbMText
 10
48.62495726939115
 20
0.0657043817130371
 30
0.0
 40
3.5
 41
0.0
 71
     2
 72
     1
  1
\A1;%%c14
  7
SLDTEXTSTYLE0
 11
-3.552713678800501E-15
 21
1.0
 31
0.0
 73
     1
 44
1.0
  0
POINT
  5
116
330
10B
100
AcDbEntity
  8
Defpoints
 62
     0
100
AcDbPoint
 10
37.99995726939113
 20
7.000000000000004
 30
0.0
  0
POINT
  5
142
330
10B
100
AcDbEntity
  8
Defpoints
 62
     0
100
AcDbPoint
 10
37.99995726939112
 20
-6.999999999999996
 30
0.0
  0
POINT
  5
143
330
10B
100
AcDbEntity
  8
Defpoints
 62
     0
100
AcDbPoint
 10
52.99995726939117
 20
-6.99999999999994
 30
0.0
  0
ENDBLK
  5
10D
330
10B
100
AcDbEntity
  8
0
100
AcDbBlockEnd
  0
BLOCK
  5
118
330
117
100
AcDbEntity
  8
0
100
AcDbBlockBegin
  2
SW_DOWELSYMBOL_0
 70
     0
 10
0.0
 20
0.0
 30
0.0
  3
SW_DOWELSYMBOL_0
  1
SW_DOWELSYMBOL_0
  0
CIRCLE
  5
11A
330
117
100
AcDbEntity
  8
외형선
 62
     0
100
AcDbCircle
 10
0.0
 20
0.0
 30
0.0
 40
3.000000000000002
  0
HATCH
  5
11B
330
117
100
AcDbEntity
  8
0
  6
Continuous
 62
     0
370
    30
100
AcDbHatch
 10
0.0
 20
0.0
 30
0.0
210
0.0
220
0.0
230
1.0
  2
SOLID
 70
     1
 71
     0
 91
        1
 92
        0
 93
        3
 72
     2
 10
0.0
 20
0.0
 40
3.000000000000002
 50
0.0
 51
90.0
 73
     1
 72
     1
 10
0.0
 20
3.000000000000002
 11
0.0
 21
0.0
 72
     1
 10
0.0
 20
0.0
 11
3.000000000000002
 21
0.0
 97
        0
 75
     0
 76
     1
 98
        1
 10
0.0
 20
0.0
  0
HATCH
  5
11C
330
117
100
AcDbEntity
  8
0
  6
Continuous
 62
     0
370
    30
100
AcDbHatch
 10
0.0
 20
0.0
 30
0.0
210
0.0
220
0.0
230
1.0
  2
SOLID
 70
     1
 71
     0
 91
        1
 92
        0
 93
        3
 72
     2
 10
0.0
 20
0.0
 40
3.000000000000002
 50
180.0
 51
270.0000000000007
 73
     1
 72
     1
 10
0.0
 20
-3.000000000000002
 11
0.0
 21
0.0
 72
     1
 10
0.0
 20
0.0
 11
-3.000000000000002
 21
0.0
 97
        0
 75
     0
 76
     1
 98
        1
 10
0.0
 20
0.0
  0
ENDBLK
  5
119
330
117
100
AcDbEntity
  8
0
100
AcDbBlockEnd
  0
BLOCK
  5
3C2
330
3C1
100
AcDbEntity
  8
0
100
AcDbBlockBegin
  2
*D8
 70
     1
 10
0.0
 20
0.0
 30
0.0
  3
*D8
  1

  0
LINE
  5
3C4
330
3C1
100
AcDbEntity
  8
치수문자_일반주서
 62
     0
370
    -2
100
AcDbLine
 10
17.20842921947281
 20
-2.499999999999993
 30
0.0
 11
27.14592921947281
 21
-2.499999999999957
 31
0.0
  0
LINE
  5
3C5
330
3C1
100
AcDbEntity
  8
치수문자_일반주서
 62
     0
370
    -2
100
AcDbLine
 10
17.20842921947281
 20
2.500000000000008
 30
0.0
 11
27.14592921947279
 21
2.500000000000044
 31
0.0
  0
LINE
  5
3C6
330
3C1
100
AcDbEntity
  8
치수문자_일반주서
 62
     0
370
    -2
100
AcDbLine
 10
27.14592921947281
 20
-2.499999999999957
 30
0.0
 11
27.14592921947274
 21
16.48961822363192
 31
0.0
  0
LINE
  5
3C7
330
3C1
100
AcDbEntity
  8
치수문자_일반주서
 62
     0
370
    -2
100
AcDbLine
 10
27.14592921947281
 20
-2.499999999999957
 30
0.0
 11
27.14592921947279
 21
2.500000000000044
 31
0.0
  0
LINE
  5
3C8
330
3C1
100
AcDbEntity
  8
치수문자_일반주서
 62
     0
370
    -2
100
AcDbLine
 10
27.14592921947282
 20
-5.801999999999957
 30
0.0
 11
27.14592921947283
 21
-9.103999999999957
 31
0.0
  0
LINE
  5
3C9
330
3C1
100
AcDbEntity
  8
치수문자_일반주서
 62
     0
370
    -2
100
AcDbLine
 10
27.14592921947278
 20
5.802000000000044
 30
0.0
 11
27.14592921947277
 21
9.104000000000044
 31
0.0
  0
SOLID
  5
3CA
330
3C1
100
AcDbEntity
  8
치수문자_일반주서
 62
     0
100
AcDbTrace
 10
27.69626255280615
 20
-5.801999999999955
 30
0.0
 11
26.59559588613948
 21
-5.801999999999959
 31
0.0
 12
27.14592921947281
 22
-2.499999999999957
 32
0.0
 13
27.14592921947281
 23
-2.499999999999957
 33
0.0
  0
SOLID
  5
3CB
330
3C1
100
AcDbEntity
  8
치수문자_일반주서
 62
     0
100
AcDbTrace
 10
26.59559588613945
 20
5.802000000000042
 30
0.0
 11
27.69626255280611
 21
5.802000000000046
 31
0.0
 12
27.14592921947279
 22
2.500000000000044
 32
0.0
 13
27.14592921947279
 23
2.500000000000044
 33
0.0
  0
MTEXT
  5
3CC
330
3C1
100
AcDbEntity
  8
치수문자_일반주서
 62
     0
100
AcDbMText
 10
22.77092921947275
 20
13.42711822363191
 30
0.0
 40
3.5
 41
0.0
 71
     2
 72
     1
  1
\A1;%%c5
  7
SLDTEXTSTYLE0
 11
-3.552713678800500E-15
 21
1.0
 31
0.0
 73
     1
 44
1.0
  0
POINT
  5
40A
330
3C1
100
AcDbEntity
  8
Defpoints
 62
     0
100
AcDbPoint
 10
17.14592921947281
 20
-2.499999999999994
 30
0.0
  0
POINT
  5
40B
330
3C1
100
AcDbEntity
  8
Defpoints
 62
     0
100
AcDbPoint
 10
17.14592921947281
 20
2.500000000000007
 30
0.0
  0
POINT
  5
40C
330
3C1
100
AcDbEntity
  8
Defpoints
 62
     0
100
AcDbPoint
 10
27.14592921947279
 20
2.500000000000044
 30
0.0
  0
ENDBLK
  5
3C3
330
3C1
100
AcDbEntity
  8
0
100
AcDbBlockEnd
  0
BLOCK
  5
3CF
330
3CE
100
AcDbEntity
  8
0
100
AcDbBlockBegin
  2
*D9
 70
     1
 10
0.0
 20
0.0
 30
0.0
  3
*D9
  1

  0
LINE
  5
3D1
330
3CE
100
AcDbEntity
  8
치수문자_일반주서
 62
     0
370
    -2
100
AcDbLine
 10
-42.85407078052719
 20
2.562500000000007
 30
0.0
 11
-42.85407078052719
 21
31.00000000000003
 31
0.0
  0
LINE
  5
3D2
330
3CE
100
AcDbEntity
  8
치수문자_일반주서
 62
     0
370
    -2
100
AcDbLine
 10
17.14592921947281
 20
2.562500000000007
 30
0.0
 11
17.14592921947281
 21
31.00000000000003
 31
0.0
  0
LINE
  5
3D3
330
3CE
100
AcDbEntity
  8
치수문자_일반주서
 62
     0
370
    -2
100
AcDbLine
 10
-39.5520707805272
 20
31.00000000000003
 30
0.0
 11
13.84392921947281
 21
31.00000000000003
 31
0.0
  0
SOLID
  5
3D4
330
3CE
100
AcDbEntity
  8
치수문자_일반주서
 62
     0
100
AcDbTrace
 10
-39.5520707805272
 20
31.55033333333336
 30
0.0
 11
-39.5520707805272
 21
30.44966666666669
 31
0.0
 12
-42.85407078052719
 22
31.00000000000003
 32
0.0
 13
-42.85407078052719
 23
31.00000000000003
 33
0.0
  0
SOLID
  5
3D5
330
3CE
100
AcDbEntity
  8
치수문자_일반주서
 62
     0
100
AcDbTrace
 10
13.84392921947281
 20
30.44966666666669
 30
0.0
 11
13.84392921947281
 21
31.55033333333336
 31
0.0
 12
17.14592921947281
 22
31.00000000000003
 32
0.0
 13
17.14592921947281
 23
31.00000000000003
 33
0.0
  0
MTEXT
  5
3D6
330
3CE
100
AcDbEntity
  8
치수문자_일반주서
 62
     0
100
AcDbMText
 10
-12.85407078052719
 20
35.37500000000003
 30
0.0
 40
3.5
 41
0.0
 71
     2
 72
     1
  1
\A1;60
  7
SLDTEXTSTYLE0
 73
     1
 44
1.0
  0
POINT
  5
3D7
330
3CE
100
AcDbEntity
  8
Defpoints
 62
     0
100
AcDbPoint
 10
-42.85407078052719
 20
2.500000000000007
 30
0.0
  0
POINT
  5
3D8
330
3CE
100
AcDbEntity
  8
Defpoints
 62
     0
100
AcDbPoint
 10
17.14592921947281
 20
2.500000000000007
 30
0.0
  0
POINT
  5
3D9
330
3CE
100
AcDbEntity
  8
Defpoints
 62
     0
100
AcDbPoint
 10
17.14592921947281
 20
31.00000000000003
 30
0.0
  0
ENDBLK
  5
3D0
330
3CE
100
AcDbEntity
  8
0
100
AcDbBlockEnd
  0
BLOCK
  5
3DB
330
3DA
100
AcDbEntity
  8
0
100
AcDbBlockBegin
  2
*D10
 70
     1
 10
0.0
 20
0.0
 30
0.0
  3
*D10
  1

  0
LINE
  5
3DD
330
3DA
100
AcDbEntity
  8
치수문자_일반주서
 62
     0
370
    -2
100
AcDbLine
 10
-42.41657078052719
 20
3.000000000000007
 30
0.0
 11
-52.85407078052722
 21
2.999999999999968
 31
0.0
  0
LINE
  5
3DE
330
3DA
100
AcDbEntity
  8
치수문자_일반주서
 62
     0
370
    -2
100
AcDbLine
 10
-42.41657078052719
 20
-2.999999999999986
 30
0.0
 11
-52.85407078052719
 21
-3.000000000000025
 31
0.0
  0
LINE
  5
3DF
330
3DA
100
AcDbEntity
  8
치수문자_일반주서
 62
     0
370
    -2
100
AcDbLine
 10
-52.85407078052722
 20
2.999999999999968
 30
0.0
 11
-52.85407078052727
 21
15.72899999999997
 31
0.0
  0
LINE
  5
3E0
330
3DA
100
AcDbEntity
  8
치수문자_일반주서
 62
     0
370
    -2
100
AcDbLine
 10
-52.85407078052722
 20
2.999999999999968
 30
0.0
 11
-52.85407078052719
 21
-3.000000000000025
 31
0.0
  0
LINE
  5
3E1
330
3DA
100
AcDbEntity
  8
치수문자_일반주서
 62
     0
370
    -2
100
AcDbLine
 10
-52.85407078052723
 20
6.301999999999968
 30
0.0
 11
-52.85407078052724
 21
9.603999999999967
 31
0.0
  0
LINE
  5
3E2
330
3DA
100
AcDbEntity
  8
치수문자_일반주서
 62
     0
370
    -2
100
AcDbLine
 10
-52.85407078052718
 20
-6.302000000000024
 30
0.0
 11
-52.85407078052717
 21
-9.604000000000024
 31
0.0
  0
SOLID
  5
3E3
330
3DA
100
AcDbEntity
  8
치수문자_일반주서
 62
     0
100
AcDbTrace
 10
-53.40440411386056
 20
6.301999999999966
 30
0.0
 11
-52.3037374471939
 21
6.301999999999969
 31
0.0
 12
-52.85407078052722
 22
2.999999999999968
 32
0.0
 13
-52.85407078052722
 23
2.999999999999968
 33
0.0
  0
SOLID
  5
3E4
330
3DA
100
AcDbEntity
  8
치수문자_일반주서
 62
     0
100
AcDbTrace
 10
-52.30373744719385
 20
-6.302000000000023
 30
0.0
 11
-53.40440411386052
 21
-6.302000000000026
 31
0.0
 12
-52.85407078052719
 22
-3.000000000000025
 32
0.0
 13
-52.85407078052719
 23
-3.000000000000025
 33
0.0
  0
MTEXT
  5
3E5
330
3DA
100
AcDbEntity
  8
치수문자_일반주서
 62
     0
100
AcDbMText
 10
-57.22907078052725
 20
12.66649999999996
 30
0.0
 40
3.5
 41
0.0
 71
     2
 72
     1
  1
\A1;%%c6
  7
SLDTEXTSTYLE0
 11
-3.552713678800505E-15
 21
1.0
 31
0.0
 73
     1
 44
1.0
  0
POINT
  5
405
330
3DA
100
AcDbEntity
  8
Defpoints
 62
     0
100
AcDbPoint
 10
-42.35407078052719
 20
3.000000000000007
 30
0.0
  0
POINT
  5
406
330
3DA
100
AcDbEntity
  8
Defpoints
 62
     0
100
AcDbPoint
 10
-42.35407078052719
 20
-2.999999999999986
 30
0.0
  0
POINT
  5
407
330
3DA
100
AcDbEntity
  8
Defpoints
 62
     0
100
AcDbPoint
 10
-52.85407078052719
 20
-3.000000000000025
 30
0.0
  0
ENDBLK
  5
3DC
330
3DA
100
AcDbEntity
  8
0
100
AcDbBlockEnd
  0
BLOCK
  5
3E7
330
3E6
100
AcDbEntity
  8
0
100
AcDbBlockBegin
  2
*D11
 70
     1
 10
0.0
 20
0.0
 30
0.0
  3
*D11
  1

  0
LINE
  5
3E9
330
3E6
100
AcDbEntity
  8
치수문자_일반주서
 62
     0
370
    -2
100
AcDbLine
 10
9.145929219472805
 20
2.025534946823164
 30
0.0
 11
9.145929219472805
 21
16.78544754509491
 31
0.0
  0
LINE
  5
3EA
330
3E6
100
AcDbEntity
  8
치수문자_일반주서
 62
     0
370
    -2
100
AcDbLine
 10
17.14592921947281
 20
2.562500000000007
 30
0.0
 11
17.14592921947281
 21
16.78544754509491
 31
0.0
  0
LINE
  5
3EB
330
3E6
100
AcDbEntity
  8
치수문자_일반주서
 62
     0
370
    -2
100
AcDbLine
 10
12.4479292194728
 20
16.78544754509491
 30
0.0
 11
13.84392921947281
 21
16.78544754509491
 31
0.0
  0
SOLID
  5
3EC
330
3E6
100
AcDbEntity
  8
치수문자_일반주서
 62
     0
100
AcDbTrace
 10
12.4479292194728
 20
17.33578087842825
 30
0.0
 11
12.4479292194728
 21
16.23511421176158
 31
0.0
 12
9.145929219472805
 22
16.78544754509491
 32
0.0
 13
9.145929219472805
 23
16.78544754509491
 33
0.0
  0
SOLID
  5
3ED
330
3E6
100
AcDbEntity
  8
치수문자_일반주서
 62
     0
100
AcDbTrace
 10
13.84392921947281
 20
16.23511421176158
 30
0.0
 11
13.84392921947281
 21
17.33578087842825
 31
0.0
 12
17.14592921947281
 22
16.78544754509491
 32
0.0
 13
17.14592921947281
 23
16.78544754509491
 33
0.0
  0
MTEXT
  5
3EE
330
3E6
100
AcDbEntity
  8
치수문자_일반주서
 62
     0
100
AcDbMText
 10
13.14592921947281
 20
21.16044754509491
 30
0.0
 40
3.5
 41
0.0
 71
     2
 72
     1
  1
\A1;8
  7
SLDTEXTSTYLE0
 73
     1
 44
1.0
  0
POINT
  5
3EF
330
3E6
100
AcDbEntity
  8
Defpoints
 62
     0
100
AcDbPoint
 10
9.145929219472805
 20
1.963034946823164
 30
0.0
  0
POINT
  5
3F0
330
3E6
100
AcDbEntity
  8
Defpoints
 62
     0
100
AcDbPoint
 10
17.14592921947281
 20
2.500000000000007
 30
0.0
  0
POINT
  5
3F1
330
3E6
100
AcDbEntity
  8
Defpoints
 62
     0
100
AcDbPoint
 10
17.14592921947281
 20
16.78544754509491
 30
0.0
  0
ENDBLK
  5
3E8
330
3E6
100
AcDbEntity
  8
0
100
AcDbBlockEnd
  0
BLOCK
  5
3F3
330
3F2
100
AcDbEntity
  8
0
100
AcDbBlockBegin
  2
*D12
 70
     1
 10
0.0
 20
0.0
 30
0.0
  3
*D12
  1

  0
LINE
  5
3F5
330
3F2
100
AcDbEntity
  8
치수문자_일반주서
 62
     0
370
    -2
100
AcDbLine
 10
17.14592921947281
 20
2.562500000000007
 30
0.0
 11
17.14592921947281
 21
25.84600157995483
 31
0.0
  0
LINE
  5
3F6
330
3F2
100
AcDbEntity
  8
치수문자_일반주서
 62
     0
370
    -2
100
AcDbLine
 10
2.145929214352066
 20
2.487500000000011
 30
0.0
 11
2.145929214352066
 21
25.84600157995483
 31
0.0
  0
LINE
  5
3F7
330
3F2
100
AcDbEntity
  8
치수문자_일반주서
 62
     0
370
    -2
100
AcDbLine
 10
13.84392921947281
 20
25.84600157995483
 30
0.0
 11
5.447929214352065
 21
25.84600157995483
 31
0.0
  0
SOLID
  5
3F8
330
3F2
100
AcDbEntity
  8
치수문자_일반주서
 62
     0
100
AcDbTrace
 10
13.84392921947281
 20
25.2956682466215
 30
0.0
 11
13.84392921947281
 21
26.39633491328816
 31
0.0
 12
17.14592921947281
 22
25.84600157995483
 32
0.0
 13
17.14592921947281
 23
25.84600157995483
 33
0.0
  0
SOLID
  5
3F9
330
3F2
100
AcDbEntity
  8
치수문자_일반주서
 62
     0
100
AcDbTrace
 10
5.447929214352065
 20
26.39633491328816
 30
0.0
 11
5.447929214352065
 21
25.2956682466215
 31
0.0
 12
2.145929214352066
 22
25.84600157995483
 32
0.0
 13
2.145929214352066
 23
25.84600157995483
 33
0.0
  0
MTEXT
  5
3FA
330
3F2
100
AcDbEntity
  8
치수문자_일반주서
 62
     0
100
AcDbMText
 10
9.645929216912435
 20
30.22100157995483
 30
0.0
 40
3.5
 41
0.0
 71
     2
 72
     1
  1
\A1;15
  7
SLDTEXTSTYLE0
 73
     1
 44
1.0
  0
POINT
  5
3FB
330
3F2
100
AcDbEntity
  8
Defpoints
 62
     0
100
AcDbPoint
 10
17.14592921947281
 20
2.500000000000007
 30
0.0
  0
POINT
  5
3FC
330
3F2
100
AcDbEntity
  8
Defpoints
 62
     0
100
AcDbPoint
 10
2.145929214352066
 20
2.425000000000011
 30
0.0
  0
POINT
  5
3FD
330
3F2
100
AcDbEntity
  8
Defpoints
 62
     0
100
AcDbPoint
 10
2.145929214352066
 20
25.84600157995483
 30
0.0
  0
ENDBLK
  5
3F4
330
3F2
100
AcDbEntity
  8
0
100
AcDbBlockEnd
  0
BLOCK
  5
411
330
410
100
AcDbEntity
  8
0
100
AcDbBlockBegin
  2
*D13
 70
     1
 10
0.0
 20
0.0
 30
0.0
  3
*D13
  1

  0
LINE
  5
413
330
410
100
AcDbEntity
  8
치수문자_일반주서
 62
     0
370
    -2
100
AcDbLine
 10
19.16018801248125
 20
-5.065241781937678
 30
0.0
 11
30.66530248717062
 21
-19.56862798296424
 31
0.0
  0
MTEXT
  5
414
330
410
100
AcDbEntity
  8
치수문자_일반주서
 62
     0
100
AcDbMText
 10
30.1388097091415
 20
-14.68110873316244
 30
0.0
 40
3.5
 41
0.0
 71
     5
 72
     1
  1
\A1;R0.1
  7
SLDTEXTSTYLE0
 11
0.6214752477979044
 21
-0.7834337983355921
 31
0.0
 73
     1
 44
1.0
  0
SOLID
  5
415
330
410
100
AcDbEntity
  8
치수문자_일반주서
 62
     0
100
AcDbTrace
 10
19.59133774616527
 20
-4.723223237232897
 30
0.0
 11
18.72903827879723
 21
-5.407260326642458
 31
0.0
 12
17.10807674425257
 22
-2.478343379833553
 32
0.0
 13
17.10807674425257
 23
-2.478343379833553
 33
0.0
  0
POINT
  5
416
330
410
100
AcDbEntity
  8
Defpoints
 62
     0
100
AcDbPoint
 10
17.10807674425257
 20
-2.478343379833553
 30
0.0
  0
POINT
  5
417
330
410
100
AcDbEntity
  8
Defpoints
 62
     0
100
AcDbPoint
 10
17.04592921947278
 20
-2.399999999999991
 30
0.0
  0
ENDBLK
  5
412
330
410
100
AcDbEntity
  8
0
100
AcDbBlockEnd
  0
BLOCK
  5
551
330
550
100
AcDbEntity
  8
0
100
AcDbBlockBegin
  2
*D14
 70
     1
 10
0.0
 20
0.0
 30
0.0
  3
*D14
  1

  0
LINE
  5
553
330
550
100
AcDbEntity
  8
치수문자_일반주서
 62
     0
370
    -2
100
AcDbLine
 10
73.9867752715054
 20
42.30165592565448
 30
0.0
 11
95.64417746898091
 21
42.30165592565456
 31
0.0
  0
LINE
  5
554
330
550
100
AcDbEntity
  8
치수문자_일반주서
 62
     0
370
    -2
100
AcDbLine
 10
73.86178112170916
 20
53.92611185670478
 30
0.0
 11
95.64417746898087
 21
53.92611185670486
 31
0.0
  0
LINE
  5
555
330
550
100
AcDbEntity
  8
치수문자_일반주서
 62
     0
370
    -2
100
AcDbLine
 10
95.6441774689809
 20
45.60365592565456
 30
0.0
 11
95.64417746898089
 21
50.62411185670486
 31
0.0
  0
SOLID
  5
556
330
550
100
AcDbEntity
  8
치수문자_일반주서
 62
     0
100
AcDbTrace
 10
95.09384413564757
 20
45.60365592565456
 30
0.0
 11
96.19451080231423
 21
45.60365592565456
 31
0.0
 12
95.64417746898091
 22
42.30165592565456
 32
0.0
 13
95.64417746898091
 23
42.30165592565456
 33
0.0
  0
SOLID
  5
557
330
550
100
AcDbEntity
  8
치수문자_일반주서
 62
     0
100
AcDbTrace
 10
96.19451080231421
 20
50.62411185670486
 30
0.0
 11
95.09384413564756
 21
50.62411185670486
 31
0.0
 12
95.64417746898087
 22
53.92611185670486
 32
0.0
 13
95.64417746898087
 23
53.92611185670486
 33
0.0
  0
MTEXT
  5
558
330
550
100
AcDbEntity
  8
치수문자_일반주서
 62
     0
100
AcDbMText
 10
91.26917746898089
 20
49.9718073888117
 30
0.0
 40
3.5
 41
0.0
 71
     2
 72
     1
  1
\A1;%%c11.62
  7
SLDTEXTSTYLE0
 11
-3.667488990321635E-15
 21
1.0
 31
0.0
 73
     1
 44
1.0
  0
POINT
  5
559
330
550
100
AcDbEntity
  8
Defpoints
 62
     0
100
AcDbPoint
 10
73.9242752715054
 20
42.30165592565448
 30
0.0
  0
POINT
  5
55A
330
550
100
AcDbEntity
  8
Defpoints
 62
     0
100
AcDbPoint
 10
73.79928112170916
 20
53.92611185670478
 30
0.0
  0
POINT
  5
55B
330
550
100
AcDbEntity
  8
Defpoints
 62
     0
100
AcDbPoint
 10
95.64417746898087
 20
53.92611185670486
 30
0.0
  0
ENDBLK
  5
552
330
550
100
AcDbEntity
  8
0
100
AcDbBlockEnd
  0
BLOCK
  5
55D
330
55C
100
AcDbEntity
  8
0
100
AcDbBlockBegin
  2
*D15
 70
     1
 10
0.0
 20
0.0
 30
0.0
  3
*D15
  1

  0
LINE
  5
55F
330
55C
100
AcDbEntity
  8
치수문자_일반주서
 62
     0
370
    -2
100
AcDbLine
 10
16.56166728747383
 20
52.53430738881175
 30
0.0
 11
16.56166728747383
 21
80.97180738881175
 31
0.0
  0
LINE
  5
560
330
55C
100
AcDbEntity
  8
치수문자_일반주서
 62
     0
370
    -2
100
AcDbLine
 10
76.56166728747384
 20
51.65306730030348
 30
0.0
 11
76.56166728747384
 21
80.97180738881175
 31
0.0
  0
LINE
  5
561
330
55C
100
AcDbEntity
  8
치수문자_일반주서
 62
     0
370
    -2
100
AcDbLine
 10
19.86366728747383
 20
80.97180738881175
 30
0.0
 11
73.25966728747383
 21
80.97180738881175
 31
0.0
  0
SOLID
  5
562
330
55C
100
AcDbEntity
  8
치수문자_일반주서
 62
     0
100
AcDbTrace
 10
19.86366728747383
 20
81.52214072214508
 30
0.0
 11
19.86366728747383
 21
80.42147405547843
 31
0.0
 12
16.56166728747383
 22
80.97180738881175
 32
0.0
 13
16.56166728747383
 23
80.97180738881175
 33
0.0
  0
SOLID
  5
563
330
55C
100
AcDbEntity
  8
치수문자_일반주서
 62
     0
100
AcDbTrace
 10
73.25966728747383
 20
80.42147405547843
 30
0.0
 11
73.25966728747383
 21
81.52214072214508
 31
0.0
 12
76.56166728747384
 22
80.97180738881175
 32
0.0
 13
76.56166728747384
 23
80.97180738881175
 33
0.0
  0
MTEXT
  5
564
330
55C
100
AcDbEntity
  8
치수문자_일반주서
 62
     0
100
AcDbMText
 10
46.56166728747384
 20
85.34680738881175
 30
0.0
 40
3.5
 41
0.0
 71
     2
 72
     1
  1
\A1;60
  7
SLDTEXTSTYLE0
 73
     1
 44
1.0
  0
POINT
  5
565
330
55C
100
AcDbEntity
  8
Defpoints
 62
     0
100
AcDbPoint
 10
16.56166728747383
 20
52.47180738881175
 30
0.0
  0
POINT
  5
566
330
55C
100
AcDbEntity
  8
Defpoints
 62
     0
100
AcDbPoint
 10
76.56166728747384
 20
51.59056730030348
 30
0.0
  0
POINT
  5
567
330
55C
100
AcDbEntity
  8
Defpoints
 62
     0
100
AcDbPoint
 10
76.56166728747384
 20
80.97180738881175
 30
0.0
  0
ENDBLK
  5
55E
330
55C
100
AcDbEntity
  8
0
100
AcDbBlockEnd
  0
BLOCK
  5
569
330
568
100
AcDbEntity
  8
0
100
AcDbBlockBegin
  2
*D16
 70
     1
 10
0.0
 20
0.0
 30
0.0
  3
*D16
  1

  0
LINE
  5
56B
330
568
100
AcDbEntity
  8
치수문자_일반주서
 62
     0
370
    -2
100
AcDbLine
 10
16.99916728747383
 20
52.97180738881175
 30
0.0
 11
4.565209265861743
 21
52.9718073888117
 31
0.0
  0
LINE
  5
56C
330
568
100
AcDbEntity
  8
치수문자_일반주서
 62
     0
370
    -2
100
AcDbLine
 10
16.99916728747383
 20
46.97180738881175
 30
0.0
 11
4.565209265861764
 21
46.9718073888117
 31
0.0
  0
LINE
  5
56D
330
568
100
AcDbEntity
  8
치수문자_일반주서
 62
     0
370
    -2
100
AcDbLine
 10
4.565209265861754
 20
49.6698073888117
 30
0.0
 11
4.565209265861752
 21
50.2738073888117
 31
0.0
  0
SOLID
  5
56E
330
568
100
AcDbEntity
  8
치수문자_일반주서
 62
     0
100
AcDbTrace
 10
5.115542599195088
 20
49.6698073888117
 30
0.0
 11
4.014875932528421
 21
49.6698073888117
 31
0.0
 12
4.565209265861743
 22
52.9718073888117
 32
0.0
 13
4.565209265861743
 23
52.9718073888117
 33
0.0
  0
SOLID
  5
56F
330
568
100
AcDbEntity
  8
치수문자_일반주서
 62
     0
100
AcDbTrace
 10
4.014875932528419
 20
50.2738073888117
 30
0.0
 11
5.115542599195086
 21
50.2738073888117
 31
0.0
 12
4.565209265861764
 22
46.9718073888117
 32
0.0
 13
4.565209265861764
 23
46.9718073888117
 33
0.0
  0
MTEXT
  5
570
330
568
100
AcDbEntity
  8
치수문자_일반주서
 62
     0
100
AcDbMText
 10
0.1902092658617534
 20
49.97180738881173
 30
0.0
 40
3.5
 41
0.0
 71
     2
 72
     1
  1
\A1;%%c6
  7
SLDTEXTSTYLE0
 11
-3.552713678800505E-15
 21
1.0
 31
0.0
 73
     1
 44
1.0
  0
POINT
  5
571
330
568
100
AcDbEntity
  8
Defpoints
 62
     0
100
AcDbPoint
 10
17.06166728747383
 20
52.97180738881175
 30
0.0
  0
POINT
  5
572
330
568
100
AcDbEntity
  8
Defpoints
 62
     0
100
AcDbPoint
 10
17.06166728747383
 20
46.97180738881175
 30
0.0
  0
POINT
  5
573
330
568
100
AcDbEntity
  8
Defpoints
 62
     0
100
AcDbPoint
 10
4.565209265861753
 20
46.9718073888117
 30
0.0
  0
ENDBLK
  5
56A
330
568
100
AcDbEntity
  8
0
100
AcDbBlockEnd
  0
BLOCK
  5
575
330
574
100
AcDbEntity
  8
0
100
AcDbBlockBegin
  2
*D17
 70
     1
 10
0.0
 20
0.0
 30
0.0
  3
*D17
  1

  0
LINE
  5
577
330
574
100
AcDbEntity
  8
치수문자_일반주서
 62
     0
370
    -2
100
AcDbLine
 10
68.56166728747384
 20
51.99734233563491
 30
0.0
 11
68.56166728747384
 21
66.75725493390665
 31
0.0
  0
LINE
  5
578
330
574
100
AcDbEntity
  8
치수문자_일반주서
 62
     0
370
    -2
100
AcDbLine
 10
76.56166728747384
 20
51.65306730030348
 30
0.0
 11
76.56166728747384
 21
66.75725493390665
 31
0.0
  0
LINE
  5
579
330
574
100
AcDbEntity
  8
치수문자_일반주서
 62
     0
370
    -2
100
AcDbLine
 10
71.86366728747385
 20
66.75725493390665
 30
0.0
 11
73.25966728747383
 21
66.75725493390665
 31
0.0
  0
SOLID
  5
57A
330
574
100
AcDbEntity
  8
치수문자_일반주서
 62
     0
100
AcDbTrace
 10
71.86366728747385
 20
67.30758826723998
 30
0.0
 11
71.86366728747385
 21
66.20692160057332
 31
0.0
 12
68.56166728747384
 22
66.75725493390665
 32
0.0
 13
68.56166728747384
 23
66.75725493390665
 33
0.0
  0
SOLID
  5
57B
330
574
100
AcDbEntity
  8
치수문자_일반주서
 62
     0
100
AcDbTrace
 10
73.25966728747383
 20
66.20692160057332
 30
0.0
 11
73.25966728747383
 21
67.30758826723998
 31
0.0
 12
76.56166728747384
 22
66.75725493390665
 32
0.0
 13
76.56166728747384
 23
66.75725493390665
 33
0.0
  0
MTEXT
  5
57C
330
574
100
AcDbEntity
  8
치수문자_일반주서
 62
     0
100
AcDbMText
 10
72.56166728747384
 20
71.13225493390665
 30
0.0
 40
3.5
 41
0.0
 71
     2
 72
     1
  1
\A1;8
  7
SLDTEXTSTYLE0
 73
     1
 44
1.0
  0
POINT
  5
57D
330
574
100
AcDbEntity
  8
Defpoints
 62
     0
100
AcDbPoint
 10
68.56166728747384
 20
51.93484233563491
 30
0.0
  0
POINT
  5
57E
330
574
100
AcDbEntity
  8
Defpoints
 62
     0
100
AcDbPoint
 10
76.56166728747384
 20
51.59056730030348
 30
0.0
  0
POINT
  5
57F
330
574
100
AcDbEntity
  8
Defpoints
 62
     0
100
AcDbPoint
 10
76.56166728747384
 20
66.75725493390665
 30
0.0
  0
ENDBLK
  5
576
330
574
100
AcDbEntity
  8
0
100
AcDbBlockEnd
  0
BLOCK
  5
581
330
580
100
AcDbEntity
  8
0
100
AcDbBlockBegin
  2
*D18
 70
     1
 10
0.0
 20
0.0
 30
0.0
  3
*D18
  1

  0
LINE
  5
583
330
580
100
AcDbEntity
  8
치수문자_일반주서
 62
     0
370
    -2
100
AcDbLine
 10
76.56166728747384
 20
52.32744877187121
 30
0.0
 11
76.56166728747384
 21
75.71662404156508
 31
0.0
  0
LINE
  5
584
330
580
100
AcDbEntity
  8
치수문자_일반주서
 62
     0
370
    -2
100
AcDbLine
 10
61.56166727486906
 20
52.45930738881174
 30
0.0
 11
61.56166727486906
 21
75.71662404156508
 31
0.0
  0
LINE
  5
585
330
580
100
AcDbEntity
  8
치수문자_일반주서
 62
     0
370
    -2
100
AcDbLine
 10
73.25966728747383
 20
75.71662404156508
 30
0.0
 11
64.86366727486906
 21
75.71662404156508
 31
0.0
  0
SOLID
  5
586
330
580
100
AcDbEntity
  8
치수문자_일반주서
 62
     0
100
AcDbTrace
 10
73.25966728747383
 20
75.16629070823176
 30
0.0
 11
73.25966728747383
 21
76.26695737489841
 31
0.0
 12
76.56166728747384
 22
75.71662404156508
 32
0.0
 13
76.56166728747384
 23
75.71662404156508
 33
0.0
  0
SOLID
  5
587
330
580
100
AcDbEntity
  8
치수문자_일반주서
 62
     0
100
AcDbTrace
 10
64.86366727486906
 20
76.26695737489841
 30
0.0
 11
64.86366727486906
 21
75.16629070823176
 31
0.0
 12
61.56166727486906
 22
75.71662404156508
 32
0.0
 13
61.56166727486906
 23
75.71662404156508
 33
0.0
  0
MTEXT
  5
588
330
580
100
AcDbEntity
  8
치수문자_일반주서
 62
     0
100
AcDbMText
 10
69.06166728117144
 20
80.09162404156508
 30
0.0
 40
3.5
 41
0.0
 71
     2
 72
     1
  1
\A1;15
  7
SLDTEXTSTYLE0
 73
     1
 44
1.0
  0
POINT
  5
589
330
580
100
AcDbEntity
  8
Defpoints
 62
     0
100
AcDbPoint
 10
76.56166728747384
 20
52.26494877187121
 30
0.0
  0
POINT
  5
58A
330
580
100
AcDbEntity
  8
Defpoints
 62
     0
100
AcDbPoint
 10
61.56166727486906
 20
52.39680738881174
 30
0.0
  0
POINT
  5
58B
330
580
100
AcDbEntity
  8
Defpoints
 62
     0
100
AcDbPoint
 10
61.56166727486906
 20
75.71662404156508
 30
0.0
  0
ENDBLK
  5
582
330
580
100
AcDbEntity
  8
0
100
AcDbBlockEnd
  0
BLOCK
  5
5DC
330
5DB
100
AcDbEntity
  8
0
100
AcDbBlockBegin
  2
*D19
 70
     1
 10
0.0
 20
0.0
 30
0.0
  3
*D19
  1

  0
LINE
  5
5DE
330
5DB
100
AcDbEntity
  8
치수문자_일반주서
 62
     0
370
    -2
100
AcDbLine
 10
156.5251773809831
 20
-7.714343455379272
 30
0.0
 11
178.1825795784586
 21
-7.71434345537919
 31
0.0
  0
LINE
  5
5DF
330
5DB
100
AcDbEntity
  8
치수문자_일반주서
 62
     0
370
    -2
100
AcDbLine
 10
156.4001832311869
 20
3.910112475671028
 30
0.0
 11
178.1825795784586
 21
3.91011247567111
 31
0.0
  0
LINE
  5
5E0
330
5DB
100
AcDbEntity
  8
치수문자_일반주서
 62
     0
370
    -2
100
AcDbLine
 10
178.1825795784586
 20
-4.41234345537919
 30
0.0
 11
178.1825795784586
 21
0.6081124756711098
 31
0.0
  0
SOLID
  5
5E1
330
5DB
100
AcDbEntity
  8
치수문자_일반주서
 62
     0
100
AcDbTrace
 10
177.6322462451253
 20
-4.412343455379192
 30
0.0
 11
178.732912911792
 21
-4.412343455379188
 31
0.0
 12
178.1825795784586
 22
-7.71434345537919
 32
0.0
 13
178.1825795784586
 23
-7.71434345537919
 33
0.0
  0
SOLID
  5
5E2
330
5DB
100
AcDbEntity
  8
치수문자_일반주서
 62
     0
100
AcDbTrace
 10
178.7329129117919
 20
0.6081124756711112
 30
0.0
 11
177.6322462451253
 21
0.6081124756711085
 31
0.0
 12
178.1825795784586
 22
3.91011247567111
 32
0.0
 13
178.1825795784586
 23
3.91011247567111
 33
0.0
  0
MTEXT
  5
5E3
330
5DB
100
AcDbEntity
  8
치수문자_일반주서
 62
     0
100
AcDbMText
 10
173.8075795784586
 20
-0.0441919922220428
 30
0.0
 40
3.5
 41
0.0
 71
     2
 72
     1
  1
\A1;%%c11.62
  7
SLDTEXTSTYLE0
 11
-2.444992660214424E-15
 21
1.0
 31
0.0
 73
     1
 44
1.0
  0
POINT
  5
5E4
330
5DB
100
AcDbEntity
  8
Defpoints
 62
     0
100
AcDbPoint
 10
156.4626773809831
 20
-7.714343455379272
 30
0.0
  0
POINT
  5
5E5
330
5DB
100
AcDbEntity
  8
Defpoints
 62
     0
100
AcDbPoint
 10
156.3376832311869
 20
3.910112475671028
 30
0.0
  0
POINT
  5
5E6
330
5DB
100
AcDbEntity
  8
Defpoints
 62
     0
100
AcDbPoint
 10
178.1825795784586
 20
3.910112475671109
 30
0.0
  0
ENDBLK
  5
5DD
330
5DB
100
AcDbEntity
  8
0
100
AcDbBlockEnd
  0
BLOCK
  5
5E8
330
5E7
100
AcDbEntity
  8
0
100
AcDbBlockBegin
  2
*D20
 70
     1
 10
0.0
 20
0.0
 30
0.0
  3
*D20
  1

  0
LINE
  5
5EA
330
5E7
100
AcDbEntity
  8
치수문자_일반주서
 62
     0
370
    -2
100
AcDbLine
 10
99.10006939695157
 20
2.518308007777996
 30
0.0
 11
99.10006939695157
 21
30.955808007778
 31
0.0
  0
LINE
  5
5EB
330
5E7
100
AcDbEntity
  8
치수문자_일반주서
 62
     0
370
    -2
100
AcDbLine
 10
159.1000693969516
 20
1.637067919269732
 30
0.0
 11
159.1000693969516
 21
30.955808007778
 31
0.0
  0
LINE
  5
5EC
330
5E7
100
AcDbEntity
  8
치수문자_일반주서
 62
     0
370
    -2
100
AcDbLine
 10
102.4020693969516
 20
30.955808007778
 30
0.0
 11
155.7980693969516
 21
30.955808007778
 31
0.0
  0
SOLID
  5
5ED
330
5E7
100
AcDbEntity
  8
치수문자_일반주서
 62
     0
100
AcDbTrace
 10
102.4020693969516
 20
31.50614134111134
 30
0.0
 11
102.4020693969516
 21
30.40547467444467
 31
0.0
 12
99.10006939695157
 22
30.955808007778
 32
0.0
 13
99.10006939695157
 23
30.955808007778
 33
0.0
  0
SOLID
  5
5EE
330
5E7
100
AcDbEntity
  8
치수문자_일반주서
 62
     0
100
AcDbTrace
 10
155.7980693969516
 20
30.40547467444467
 30
0.0
 11
155.7980693969516
 21
31.50614134111134
 31
0.0
 12
159.1000693969516
 22
30.955808007778
 32
0.0
 13
159.1000693969516
 23
30.955808007778
 33
0.0
  0
MTEXT
  5
5EF
330
5E7
100
AcDbEntity
  8
치수문자_일반주서
 62
     0
100
AcDbMText
 10
129.1000693969516
 20
35.330808007778
 30
0.0
 40
3.5
 41
0.0
 71
     2
 72
     1
  1
\A1;60
  7
SLDTEXTSTYLE0
 73
     1
 44
1.0
  0
POINT
  5
5F0
330
5E7
100
AcDbEntity
  8
Defpoints
 62
     0
100
AcDbPoint
 10
99.10006939695157
 20
2.455808007777996
 30
0.0
  0
POINT
  5
5F1
330
5E7
100
AcDbEntity
  8
Defpoints
 62
     0
100
AcDbPoint
 10
159.1000693969516
 20
1.574567919269732
 30
0.0
  0
POINT
  5
5F2
330
5E7
100
AcDbEntity
  8
Defpoints
 62
     0
100
AcDbPoint
 10
159.1000693969516
 20
30.955808007778
 30
0.0
  0
ENDBLK
  5
5E9
330
5E7
100
AcDbEntity
  8
0
100
AcDbBlockEnd
  0
BLOCK
  5
5F4
330
5F3
100
AcDbEntity
  8
0
100
AcDbBlockBegin
  2
*D21
 70
     1
 10
0.0
 20
0.0
 30
0.0
  3
*D21
  1

  0
LINE
  5
5F6
330
5F3
100
AcDbEntity
  8
치수문자_일반주서
 62
     0
370
    -2
100
AcDbLine
 10
99.53756939695157
 20
2.955808007777996
 30
0.0
 11
87.1036113753395
 21
2.955808007777949
 31
0.0
  0
LINE
  5
5F7
330
5F3
100
AcDbEntity
  8
치수문자_일반주서
 62
     0
370
    -2
100
AcDbLine
 10
99.53756939695157
 20
-3.044191992221997
 30
0.0
 11
87.10361137533951
 21
-3.044191992222044
 31
0.0
  0
LINE
  5
5F8
330
5F3
100
AcDbEntity
  8
치수문자_일반주서
 62
     0
370
    -2
100
AcDbLine
 10
87.10361137533951
 20
-0.3461919922220513
 30
0.0
 11
87.1036113753395
 21
0.2578080077779559
 31
0.0
  0
SOLID
  5
5F9
330
5F3
100
AcDbEntity
  8
치수문자_일반주서
 62
     0
100
AcDbTrace
 10
87.65394470867284
 20
-0.34619199222205
 30
0.0
 11
86.55327804200618
 21
-0.3461919922220526
 31
0.0
 12
87.1036113753395
 22
2.955808007777949
 32
0.0
 13
87.1036113753395
 23
2.955808007777949
 33
0.0
  0
SOLID
  5
5FA
330
5F3
100
AcDbEntity
  8
치수문자_일반주서
 62
     0
100
AcDbTrace
 10
86.55327804200617
 20
0.2578080077779546
 30
0.0
 11
87.65394470867282
 21
0.2578080077779571
 31
0.0
 12
87.10361137533951
 22
-3.044191992222044
 32
0.0
 13
87.10361137533951
 23
-3.044191992222044
 33
0.0
  0
MTEXT
  5
5FB
330
5F3
100
AcDbEntity
  8
치수문자_일반주서
 62
     0
100
AcDbMText
 10
82.7286113753395
 20
-0.0441919922220141
 30
0.0
 40
3.5
 41
0.0
 71
     2
 72
     1
  1
\A1;%%c6
  7
SLDTEXTSTYLE0
 11
-2.368475785867004E-15
 21
1.0
 31
0.0
 73
     1
 44
1.0
  0
POINT
  5
5FC
330
5F3
100
AcDbEntity
  8
Defpoints
 62
     0
100
AcDbPoint
 10
99.60006939695157
 20
2.955808007777996
 30
0.0
  0
POINT
  5
5FD
330
5F3
100
AcDbEntity
  8
Defpoints
 62
     0
100
AcDbPoint
 10
99.60006939695157
 20
-3.044191992221997
 30
0.0
  0
POINT
  5
5FE
330
5F3
100
AcDbEntity
  8
Defpoints
 62
     0
100
AcDbPoint
 10
87.10361137533951
 20
-3.044191992222043
 30
0.0
  0
ENDBLK
  5
5F5
330
5F3
100
AcDbEntity
  8
0
100
AcDbBlockEnd
  0
BLOCK
  5
600
330
5FF
100
AcDbEntity
  8
0
100
AcDbBlockBegin
  2
*D22
 70
     1
 10
0.0
 20
0.0
 30
0.0
  3
*D22
  1

  0
LINE
  5
602
330
5FF
100
AcDbEntity
  8
치수문자_일반주서
 62
     0
370
    -2
100
AcDbLine
 10
151.1000693969516
 20
1.98134295460116
 30
0.0
 11
151.1000693969516
 21
16.7412555528729
 31
0.0
  0
LINE
  5
603
330
5FF
100
AcDbEntity
  8
치수문자_일반주서
 62
     0
370
    -2
100
AcDbLine
 10
159.1000693969516
 20
1.637067919269732
 30
0.0
 11
159.1000693969516
 21
16.7412555528729
 31
0.0
  0
LINE
  5
604
330
5FF
100
AcDbEntity
  8
치수문자_일반주서
 62
     0
370
    -2
100
AcDbLine
 10
154.4020693969516
 20
16.7412555528729
 30
0.0
 11
155.7980693969516
 21
16.7412555528729
 31
0.0
  0
SOLID
  5
605
330
5FF
100
AcDbEntity
  8
치수문자_일반주서
 62
     0
100
AcDbTrace
 10
154.4020693969516
 20
17.29158888620623
 30
0.0
 11
154.4020693969516
 21
16.19092221953957
 31
0.0
 12
151.1000693969516
 22
16.7412555528729
 32
0.0
 13
151.1000693969516
 23
16.7412555528729
 33
0.0
  0
SOLID
  5
606
330
5FF
100
AcDbEntity
  8
치수문자_일반주서
 62
     0
100
AcDbTrace
 10
155.7980693969516
 20
16.19092221953957
 30
0.0
 11
155.7980693969516
 21
17.29158888620623
 31
0.0
 12
159.1000693969516
 22
16.7412555528729
 32
0.0
 13
159.1000693969516
 23
16.7412555528729
 33
0.0
  0
MTEXT
  5
607
330
5FF
100
AcDbEntity
  8
치수문자_일반주서
 62
     0
100
AcDbMText
 10
155.1000693969516
 20
21.1162555528729
 30
0.0
 40
3.5
 41
0.0
 71
     2
 72
     1
  1
\A1;8
  7
SLDTEXTSTYLE0
 73
     1
 44
1.0
  0
POINT
  5
608
330
5FF
100
AcDbEntity
  8
Defpoints
 62
     0
100
AcDbPoint
 10
151.1000693969516
 20
1.91884295460116
 30
0.0
  0
POINT
  5
609
330
5FF
100
AcDbEntity
  8
Defpoints
 62
     0
100
AcDbPoint
 10
159.1000693969516
 20
1.574567919269732
 30
0.0
  0
POINT
  5
60A
330
5FF
100
AcDbEntity
  8
Defpoints
 62
     0
100
AcDbPoint
 10
159.1000693969516
 20
16.7412555528729
 30
0.0
  0
ENDBLK
  5
601
330
5FF
100
AcDbEntity
  8
0
100
AcDbBlockEnd
  0
BLOCK
  5
60C
330
60B
100
AcDbEntity
  8
0
100
AcDbBlockBegin
  2
*D23
 70
     1
 10
0.0
 20
0.0
 30
0.0
  3
*D23
  1

  0
LINE
  5
60E
330
60B
100
AcDbEntity
  8
치수문자_일반주서
 62
     0
370
    -2
100
AcDbLine
 10
159.1000693969516
 20
2.31144939083746
 30
0.0
 11
159.1000693969516
 21
25.70062466053133
 31
0.0
  0
LINE
  5
60F
330
60B
100
AcDbEntity
  8
치수문자_일반주서
 62
     0
370
    -2
100
AcDbLine
 10
144.1000693843468
 20
2.443308007777993
 30
0.0
 11
144.1000693843468
 21
25.70062466053133
 31
0.0
  0
LINE
  5
610
330
60B
100
AcDbEntity
  8
치수문자_일반주서
 62
     0
370
    -2
100
AcDbLine
 10
155.7980693969516
 20
25.70062466053133
 30
0.0
 11
147.4020693843468
 21
25.70062466053133
 31
0.0
  0
SOLID
  5
611
330
60B
100
AcDbEntity
  8
치수문자_일반주서
 62
     0
100
AcDbTrace
 10
155.7980693969516
 20
25.150291327198
 30
0.0
 11
155.7980693969516
 21
26.25095799386467
 31
0.0
 12
159.1000693969516
 22
25.70062466053133
 32
0.0
 13
159.1000693969516
 23
25.70062466053133
 33
0.0
  0
SOLID
  5
612
330
60B
100
AcDbEntity
  8
치수문자_일반주서
 62
     0
100
AcDbTrace
 10
147.4020693843468
 20
26.25095799386467
 30
0.0
 11
147.4020693843468
 21
25.150291327198
 31
0.0
 12
144.1000693843468
 22
25.70062466053133
 32
0.0
 13
144.1000693843468
 23
25.70062466053133
 33
0.0
  0
MTEXT
  5
613
330
60B
100
AcDbEntity
  8
치수문자_일반주서
 62
     0
100
AcDbMText
 10
151.6000693906492
 20
30.07562466053133
 30
0.0
 40
3.5
 41
0.0
 71
     2
 72
     1
  1
\A1;15
  7
SLDTEXTSTYLE0
 73
     1
 44
1.0
  0
POINT
  5
614
330
60B
100
AcDbEntity
  8
Defpoints
 62
     0
100
AcDbPoint
 10
159.1000693969516
 20
2.24894939083746
 30
0.0
  0
POINT
  5
615
330
60B
100
AcDbEntity
  8
Defpoints
 62
     0
100
AcDbPoint
 10
144.1000693843468
 20
2.380808007777993
 30
0.0
  0
POINT
  5
616
330
60B
100
AcDbEntity
  8
Defpoints
 62
     0
100
AcDbPoint
 10
144.1000693843468
 20
25.70062466053133
 30
0.0
  0
ENDBLK
  5
60D
330
60B
100
AcDbEntity
  8
0
100
AcDbBlockEnd
  0
BLOCK
  5
61B
330
61A
100
AcDbEntity
  8
0
100
AcDbBlockBegin
  2
*D24
 70
     1
 10
0.0
 20
0.0
 30
0.0
  3
*D24
  1

  0
LINE
  5
61D
330
61A
100
AcDbEntity
  8
치수문자_일반주서
 62
     0
370
    -2
100
AcDbLine
 10
19.08259257918785
 20
-5.074648389841697
 30
0.0
 11
30.11561901540002
 21
-19.40201956748922
 31
0.0
  0
MTEXT
  5
61E
330
61A
100
AcDbEntity
  8
치수문자_일반주서
 62
     0
100
AcDbMText
 10
29.39264777457861
 20
-14.16079102377495
 30
0.0
 40
3.5
 41
0.0
 71
     5
 72
     1
  1
\A1;R0.2
  7
SLDTEXTSTYLE0
 11
0.6101266018603823
 21
-0.7923039377046556
 31
0.0
 73
     1
 44
1.0
  0
SOLID
  5
61F
330
61A
100
AcDbEntity
  8
치수문자_일반주서
 62
     0
100
AcDbTrace
 10
19.51862384623798
 20
-4.738875383284533
 30
0.0
 11
18.64656131213772
 21
-5.41042139639886
 31
0.0
 12
17.06795453984487
 22
-2.458460787540923
 32
0.0
 13
17.06795453984487
 23
-2.458460787540923
 33
0.0
  0
POINT
  5
620
330
61A
100
AcDbEntity
  8
Defpoints
 62
     0
100
AcDbPoint
 10
17.06795453984487
 20
-2.458460787540923
 30
0.0
  0
POINT
  5
621
330
61A
100
AcDbEntity
  8
Defpoints
 62
     0
100
AcDbPoint
 10
16.94592921947279
 20
-2.29999999999999
 30
0.0
  0
ENDBLK
  5
61C
330
61A
100
AcDbEntity
  8
0
100
AcDbBlockEnd
  0
BLOCK
  5
716
330
715
100
AcDbEntity
  8
0
100
AcDbBlockBegin
  2
*D25
 70
     1
 10
0.0
 20
0.0
 30
0.0
  3
*D25
  1

  0
LINE
  5
718
330
715
100
AcDbEntity
  8
치수문자_일반주서
 62
     0
370
    -2
100
AcDbLine
 10
69.58866092365797
 20
49.37180738881174
 30
0.0
 11
95.64417746898087
 21
49.37180738881184
 31
0.0
  0
LINE
  5
719
330
715
100
AcDbEntity
  8
치수문자_일반주서
 62
     0
370
    -2
100
AcDbLine
 10
69.58866092365797
 20
50.57180738881175
 30
0.0
 11
95.64417746898087
 21
50.57180738881185
 31
0.0
  0
LINE
  5
71A
330
715
100
AcDbEntity
  8
치수문자_일반주서
 62
     0
370
    -2
100
AcDbLine
 10
95.64417746898087
 20
46.06980738881184
 30
0.0
 11
95.64417746898087
 21
42.76780738881184
 31
0.0
  0
LINE
  5
71B
330
715
100
AcDbEntity
  8
치수문자_일반주서
 62
     0
370
    -2
100
AcDbLine
 10
95.64417746898087
 20
53.87380738881185
 30
0.0
 11
95.64417746898087
 21
57.17580738881185
 31
0.0
  0
SOLID
  5
71C
330
715
100
AcDbEntity
  8
치수문자_일반주서
 62
     0
100
AcDbTrace
 10
96.1945108023142
 20
46.06980738881184
 30
0.0
 11
95.09384413564754
 21
46.06980738881184
 31
0.0
 12
95.64417746898087
 22
49.37180738881184
 32
0.0
 13
95.64417746898087
 23
49.37180738881184
 33
0.0
  0
SOLID
  5
71D
330
715
100
AcDbEntity
  8
치수문자_일반주서
 62
     0
100
AcDbTrace
 10
95.09384413564754
 20
53.87380738881185
 30
0.0
 11
96.1945108023142
 21
53.87380738881185
 31
0.0
 12
95.64417746898087
 22
50.57180738881185
 32
0.0
 13
95.64417746898087
 23
50.57180738881185
 33
0.0
  0
MTEXT
  5
71E
330
715
100
AcDbEntity
  8
치수문자_일반주서
 62
     0
100
AcDbMText
 10
91.26917746898087
 20
49.97180738881172
 30
0.0
 40
3.5
 41
0.0
 71
     2
 72
     1
  1
\A1;%%c1.2
  7
SLDTEXTSTYLE0
 11
0.0
 21
1.0
 31
0.0
 73
     1
 44
1.0
  0
POINT
  5
71F
330
715
100
AcDbEntity
  8
Defpoints
 62
     0
100
AcDbPoint
 10
69.52616092365797
 20
49.37180738881174
 30
0.0
  0
POINT
  5
720
330
715
100
AcDbEntity
  8
Defpoints
 62
     0
100
AcDbPoint
 10
69.52616092365797
 20
50.57180738881175
 30
0.0
  0
POINT
  5
721
330
715
100
AcDbEntity
  8
Defpoints
 62
     0
100
AcDbPoint
 10
95.64417746898087
 20
50.57180738881185
 30
0.0
  0
ENDBLK
  5
717
330
715
100
AcDbEntity
  8
0
100
AcDbBlockEnd
  0
BLOCK
  5
723
330
722
100
AcDbEntity
  8
0
100
AcDbBlockBegin
  2
*D26
 70
     1
 10
0.0
 20
0.0
 30
0.0
  3
*D26
  1

  0
LINE
  5
725
330
722
100
AcDbEntity
  8
치수문자_일반주서
 62
     0
370
    -2
100
AcDbLine
 10
16.5616672874738
 20
52.53430738881175
 30
0.0
 11
16.5616672874738
 21
80.97180738881175
 31
0.0
  0
LINE
  5
726
330
722
100
AcDbEntity
  8
치수문자_일반주서
 62
     0
370
    -2
100
AcDbLine
 10
76.56166728747381
 20
51.65306730030348
 30
0.0
 11
76.56166728747381
 21
80.97180738881175
 31
0.0
  0
LINE
  5
727
330
722
100
AcDbEntity
  8
치수문자_일반주서
 62
     0
370
    -2
100
AcDbLine
 10
19.8636672874738
 20
80.97180738881175
 30
0.0
 11
73.2596672874738
 21
80.97180738881175
 31
0.0
  0
SOLID
  5
728
330
722
100
AcDbEntity
  8
치수문자_일반주서
 62
     0
100
AcDbTrace
 10
19.8636672874738
 20
81.52214072214508
 30
0.0
 11
19.8636672874738
 21
80.42147405547843
 31
0.0
 12
16.5616672874738
 22
80.97180738881175
 32
0.0
 13
16.5616672874738
 23
80.97180738881175
 33
0.0
  0
SOLID
  5
729
330
722
100
AcDbEntity
  8
치수문자_일반주서
 62
     0
100
AcDbTrace
 10
73.2596672874738
 20
80.42147405547843
 30
0.0
 11
73.2596672874738
 21
81.52214072214508
 31
0.0
 12
76.56166728747381
 22
80.97180738881175
 32
0.0
 13
76.56166728747381
 23
80.97180738881175
 33
0.0
  0
MTEXT
  5
72A
330
722
100
AcDbEntity
  8
치수문자_일반주서
 62
     0
100
AcDbMText
 10
46.56166728747381
 20
85.34680738881175
 30
0.0
 40
3.5
 41
0.0
 71
     2
 72
     1
  1
\A1;60
  7
SLDTEXTSTYLE0
 73
     1
 44
1.0
  0
POINT
  5
72B
330
722
100
AcDbEntity
  8
Defpoints
 62
     0
100
AcDbPoint
 10
16.5616672874738
 20
52.47180738881175
 30
0.0
  0
POINT
  5
72C
330
722
100
AcDbEntity
  8
Defpoints
 62
     0
100
AcDbPoint
 10
76.56166728747381
 20
51.59056730030348
 30
0.0
  0
POINT
  5
72D
330
722
100
AcDbEntity
  8
Defpoints
 62
     0
100
AcDbPoint
 10
76.56166728747381
 20
80.97180738881175
 30
0.0
  0
ENDBLK
  5
724
330
722
100
AcDbEntity
  8
0
100
AcDbBlockEnd
  0
BLOCK
  5
72F
330
72E
100
AcDbEntity
  8
0
100
AcDbBlockBegin
  2
*D27
 70
     1
 10
0.0
 20
0.0
 30
0.0
  3
*D27
  1

  0
LINE
  5
731
330
72E
100
AcDbEntity
  8
치수문자_일반주서
 62
     0
370
    -2
100
AcDbLine
 10
16.99916728747382
 20
52.97180738881175
 30
0.0
 11
4.565209265861736
 21
52.9718073888117
 31
0.0
  0
LINE
  5
732
330
72E
100
AcDbEntity
  8
치수문자_일반주서
 62
     0
370
    -2
100
AcDbLine
 10
16.99916728747382
 20
46.97180738881175
 30
0.0
 11
4.565209265861757
 21
46.9718073888117
 31
0.0
  0
LINE
  5
733
330
72E
100
AcDbEntity
  8
치수문자_일반주서
 62
     0
370
    -2
100
AcDbLine
 10
4.565209265861747
 20
49.6698073888117
 30
0.0
 11
4.565209265861745
 21
50.2738073888117
 31
0.0
  0
SOLID
  5
734
330
72E
100
AcDbEntity
  8
치수문자_일반주서
 62
     0
100
AcDbTrace
 10
5.115542599195081
 20
49.6698073888117
 30
0.0
 11
4.014875932528414
 21
49.6698073888117
 31
0.0
 12
4.565209265861736
 22
52.9718073888117
 32
0.0
 13
4.565209265861736
 23
52.9718073888117
 33
0.0
  0
SOLID
  5
735
330
72E
100
AcDbEntity
  8
치수문자_일반주서
 62
     0
100
AcDbTrace
 10
4.014875932528412
 20
50.2738073888117
 30
0.0
 11
5.115542599195079
 21
50.2738073888117
 31
0.0
 12
4.565209265861757
 22
46.9718073888117
 32
0.0
 13
4.565209265861757
 23
46.9718073888117
 33
0.0
  0
MTEXT
  5
736
330
72E
100
AcDbEntity
  8
치수문자_일반주서
 62
     0
100
AcDbMText
 10
0.1902092658617462
 20
49.97180738881173
 30
0.0
 40
3.5
 41
0.0
 71
     2
 72
     1
  1
\A1;%%c6
  7
SLDTEXTSTYLE0
 11
-3.552713678800505E-15
 21
1.0
 31
0.0
 73
     1
 44
1.0
  0
POINT
  5
737
330
72E
100
AcDbEntity
  8
Defpoints
 62
     0
100
AcDbPoint
 10
17.06166728747382
 20
52.97180738881175
 30
0.0
  0
POINT
  5
738
330
72E
100
AcDbEntity
  8
Defpoints
 62
     0
100
AcDbPoint
 10
17.06166728747382
 20
46.97180738881175
 30
0.0
  0
POINT
  5
739
330
72E
100
AcDbEntity
  8
Defpoints
 62
     0
100
AcDbPoint
 10
4.565209265861746
 20
46.9718073888117
 30
0.0
  0
ENDBLK
  5
730
330
72E
100
AcDbEntity
  8
0
100
AcDbBlockEnd
  0
BLOCK
  5
73B
330
73A
100
AcDbEntity
  8
0
100
AcDbBlockBegin
  2
*D28
 70
     1
 10
0.0
 20
0.0
 30
0.0
  3
*D28
  1

  0
LINE
  5
73D
330
73A
100
AcDbEntity
  8
치수문자_일반주서
 62
     0
370
    -2
100
AcDbLine
 10
68.56166728747381
 20
51.99734233563491
 30
0.0
 11
68.56166728747381
 21
66.75725493390665
 31
0.0
  0
LINE
  5
73E
330
73A
100
AcDbEntity
  8
치수문자_일반주서
 62
     0
370
    -2
100
AcDbLine
 10
76.56166728747381
 20
51.65306730030348
 30
0.0
 11
76.56166728747381
 21
66.75725493390665
 31
0.0
  0
LINE
  5
73F
330
73A
100
AcDbEntity
  8
치수문자_일반주서
 62
     0
370
    -2
100
AcDbLine
 10
71.86366728747382
 20
66.75725493390665
 30
0.0
 11
73.2596672874738
 21
66.75725493390665
 31
0.0
  0
SOLID
  5
740
330
73A
100
AcDbEntity
  8
치수문자_일반주서
 62
     0
100
AcDbTrace
 10
71.86366728747382
 20
67.30758826723998
 30
0.0
 11
71.86366728747382
 21
66.20692160057332
 31
0.0
 12
68.56166728747381
 22
66.75725493390665
 32
0.0
 13
68.56166728747381
 23
66.75725493390665
 33
0.0
  0
SOLID
  5
741
330
73A
100
AcDbEntity
  8
치수문자_일반주서
 62
     0
100
AcDbTrace
 10
73.2596672874738
 20
66.20692160057332
 30
0.0
 11
73.2596672874738
 21
67.30758826723998
 31
0.0
 12
76.56166728747381
 22
66.75725493390665
 32
0.0
 13
76.56166728747381
 23
66.75725493390665
 33
0.0
  0
MTEXT
  5
742
330
73A
100
AcDbEntity
  8
치수문자_일반주서
 62
     0
100
AcDbMText
 10
72.56166728747381
 20
71.13225493390665
 30
0.0
 40
3.5
 41
0.0
 71
     2
 72
     1
  1
\A1;8
  7
SLDTEXTSTYLE0
 73
     1
 44
1.0
  0
POINT
  5
743
330
73A
100
AcDbEntity
  8
Defpoints
 62
     0
100
AcDbPoint
 10
68.56166728747381
 20
51.93484233563491
 30
0.0
  0
POINT
  5
744
330
73A
100
AcDbEntity
  8
Defpoints
 62
     0
100
AcDbPoint
 10
76.56166728747381
 20
51.59056730030348
 30
0.0
  0
POINT
  5
745
330
73A
100
AcDbEntity
  8
Defpoints
 62
     0
100
AcDbPoint
 10
76.56166728747381
 20
66.75725493390665
 30
0.0
  0
ENDBLK
  5
73C
330
73A
100
AcDbEntity
  8
0
100
AcDbBlockEnd
  0
BLOCK
  5
747
330
746
100
AcDbEntity
  8
0
100
AcDbBlockBegin
  2
*D29
 70
     1
 10
0.0
 20
0.0
 30
0.0
  3
*D29
  1

  0
LINE
  5
749
330
746
100
AcDbEntity
  8
치수문자_일반주서
 62
     0
370
    -2
100
AcDbLine
 10
76.56166728747381
 20
52.22570316360384
 30
0.0
 11
76.56166728747381
 21
75.61487843329772
 31
0.0
  0
LINE
  5
74A
330
746
100
AcDbEntity
  8
치수문자_일반주서
 62
     0
370
    -2
100
AcDbLine
 10
61.56166726332517
 20
52.45930738881174
 30
0.0
 11
61.56166726332517
 21
75.61487843329772
 31
0.0
  0
LINE
  5
74B
330
746
100
AcDbEntity
  8
치수문자_일반주서
 62
     0
370
    -2
100
AcDbLine
 10
73.2596672874738
 20
75.61487843329772
 30
0.0
 11
64.86366726332517
 21
75.61487843329772
 31
0.0
  0
SOLID
  5
74C
330
746
100
AcDbEntity
  8
치수문자_일반주서
 62
     0
100
AcDbTrace
 10
73.2596672874738
 20
75.06454509996439
 30
0.0
 11
73.2596672874738
 21
76.16521176663105
 31
0.0
 12
76.56166728747381
 22
75.61487843329772
 32
0.0
 13
76.56166728747381
 23
75.61487843329772
 33
0.0
  0
SOLID
  5
74D
330
746
100
AcDbEntity
  8
치수문자_일반주서
 62
     0
100
AcDbTrace
 10
64.86366726332517
 20
76.16521176663105
 30
0.0
 11
64.86366726332517
 21
75.06454509996439
 31
0.0
 12
61.56166726332517
 22
75.61487843329772
 32
0.0
 13
61.56166726332517
 23
75.61487843329772
 33
0.0
  0
MTEXT
  5
74E
330
746
100
AcDbEntity
  8
치수문자_일반주서
 62
     0
100
AcDbMText
 10
69.06166727539949
 20
79.98987843329772
 30
0.0
 40
3.5
 41
0.0
 71
     2
 72
     1
  1
\A1;15
  7
SLDTEXTSTYLE0
 73
     1
 44
1.0
  0
POINT
  5
74F
330
746
100
AcDbEntity
  8
Defpoints
 62
     0
100
AcDbPoint
 10
76.56166728747381
 20
52.16320316360384
 30
0.0
  0
POINT
  5
750
330
746
100
AcDbEntity
  8
Defpoints
 62
     0
100
AcDbPoint
 10
61.56166726332517
 20
52.39680738881174
 30
0.0
  0
POINT
  5
751
330
746
100
AcDbEntity
  8
Defpoints
 62
     0
100
AcDbPoint
 10
61.56166726332517
 20
75.61487843329772
 30
0.0
  0
ENDBLK
  5
748
330
746
100
AcDbEntity
  8
0
100
AcDbBlockEnd
  0
BLOCK
  5
7A3
330
7A2
100
AcDbEntity
  8
0
100
AcDbBlockBegin
  2
*D30
 70
     1
 10
0.0
 20
0.0
 30
0.0
  3
*D30
  1

  0
LINE
  5
7A5
330
7A2
100
AcDbEntity
  8
치수문자_일반주서
 62
     0
370
    -2
100
AcDbLine
 10
156.4804202266238
 20
3.813242026403224
 30
0.0
 11
182.5359367719467
 21
3.813242026403321
 31
0.0
  0
LINE
  5
7A6
330
7A2
100
AcDbEntity
  8
치수문자_일반주서
 62
     0
370
    -2
100
AcDbLine
 10
156.4804202266238
 20
5.013242026403233
 30
0.0
 11
182.5359367719467
 21
5.013242026403331
 31
0.0
  0
LINE
  5
7A7
330
7A2
100
AcDbEntity
  8
치수문자_일반주서
 62
     0
370
    -2
100
AcDbLine
 10
182.5359367719467
 20
0.5112420264033211
 30
0.0
 11
182.5359367719467
 21
-2.790757973596679
 31
0.0
  0
LINE
  5
7A8
330
7A2
100
AcDbEntity
  8
치수문자_일반주서
 62
     0
370
    -2
100
AcDbLine
 10
182.5359367719467
 20
8.31524202640333
 30
0.0
 11
182.5359367719467
 21
11.61724202640333
 31
0.0
  0
SOLID
  5
7A9
330
7A2
100
AcDbEntity
  8
치수문자_일반주서
 62
     0
100
AcDbTrace
 10
183.08627010528
 20
0.5112420264033211
 30
0.0
 11
181.9856034386133
 21
0.5112420264033211
 31
0.0
 12
182.5359367719467
 22
3.813242026403321
 32
0.0
 13
182.5359367719467
 23
3.813242026403321
 33
0.0
  0
SOLID
  5
7AA
330
7A2
100
AcDbEntity
  8
치수문자_일반주서
 62
     0
100
AcDbTrace
 10
181.9856034386133
 20
8.31524202640333
 30
0.0
 11
183.08627010528
 21
8.31524202640333
 31
0.0
 12
182.5359367719467
 22
5.013242026403331
 32
0.0
 13
182.5359367719467
 23
5.013242026403331
 33
0.0
  0
MTEXT
  5
7AB
330
7A2
100
AcDbEntity
  8
치수문자_일반주서
 62
     0
100
AcDbMText
 10
178.1609367719467
 20
4.413242026403204
 30
0.0
 40
3.5
 41
0.0
 71
     2
 72
     1
  1
\A1;%%c1.2
  7
SLDTEXTSTYLE0
 11
0.0
 21
1.0
 31
0.0
 73
     1
 44
1.0
  0
POINT
  5
7AC
330
7A2
100
AcDbEntity
  8
Defpoints
 62
     0
100
AcDbPoint
 10
156.4179202266238
 20
3.813242026403223
 30
0.0
  0
POINT
  5
7AD
330
7A2
100
AcDbEntity
  8
Defpoints
 62
     0
100
AcDbPoint
 10
156.4179202266238
 20
5.013242026403233
 30
0.0
  0
POINT
  5
7AE
330
7A2
100
AcDbEntity
  8
Defpoints
 62
     0
100
AcDbPoint
 10
182.5359367719467
 20
5.013242026403331
 30
0.0
  0
ENDBLK
  5
7A4
330
7A2
100
AcDbEntity
  8
0
100
AcDbBlockEnd
  0
BLOCK
  5
7B0
330
7AF
100
AcDbEntity
  8
0
100
AcDbBlockBegin
  2
*D31
 70
     1
 10
0.0
 20
0.0
 30
0.0
  3
*D31
  1

  0
LINE
  5
7B2
330
7AF
100
AcDbEntity
  8
치수문자_일반주서
 62
     0
370
    -2
100
AcDbLine
 10
103.4534265904396
 20
6.975742026403232
 30
0.0
 11
103.4534265904396
 21
35.41324202640324
 31
0.0
  0
LINE
  5
7B3
330
7AF
100
AcDbEntity
  8
치수문자_일반주서
 62
     0
370
    -2
100
AcDbLine
 10
163.4534265904396
 20
6.094501937894961
 30
0.0
 11
163.4534265904396
 21
35.41324202640324
 31
0.0
  0
LINE
  5
7B4
330
7AF
100
AcDbEntity
  8
치수문자_일반주서
 62
     0
370
    -2
100
AcDbLine
 10
106.7554265904396
 20
35.41324202640324
 30
0.0
 11
160.1514265904396
 21
35.41324202640324
 31
0.0
  0
SOLID
  5
7B5
330
7AF
100
AcDbEntity
  8
치수문자_일반주서
 62
     0
100
AcDbTrace
 10
106.7554265904396
 20
35.96357535973657
 30
0.0
 11
106.7554265904396
 21
34.8629086930699
 31
0.0
 12
103.4534265904396
 22
35.41324202640324
 32
0.0
 13
103.4534265904396
 23
35.41324202640324
 33
0.0
  0
SOLID
  5
7B6
330
7AF
100
AcDbEntity
  8
치수문자_일반주서
 62
     0
100
AcDbTrace
 10
160.1514265904396
 20
34.8629086930699
 30
0.0
 11
160.1514265904396
 21
35.96357535973657
 31
0.0
 12
163.4534265904396
 22
35.41324202640324
 32
0.0
 13
163.4534265904396
 23
35.41324202640324
 33
0.0
  0
MTEXT
  5
7B7
330
7AF
100
AcDbEntity
  8
치수문자_일반주서
 62
     0
100
AcDbMText
 10
133.4534265904396
 20
39.78824202640324
 30
0.0
 40
3.5
 41
0.0
 71
     2
 72
     1
  1
\A1;60
  7
SLDTEXTSTYLE0
 73
     1
 44
1.0
  0
POINT
  5
7B8
330
7AF
100
AcDbEntity
  8
Defpoints
 62
     0
100
AcDbPoint
 10
103.4534265904396
 20
6.913242026403232
 30
0.0
  0
POINT
  5
7B9
330
7AF
100
AcDbEntity
  8
Defpoints
 62
     0
100
AcDbPoint
 10
163.4534265904396
 20
6.032001937894961
 30
0.0
  0
POINT
  5
7BA
330
7AF
100
AcDbEntity
  8
Defpoints
 62
     0
100
AcDbPoint
 10
163.4534265904396
 20
35.41324202640324
 30
0.0
  0
ENDBLK
  5
7B1
330
7AF
100
AcDbEntity
  8
0
100
AcDbBlockEnd
  0
BLOCK
  5
7BC
330
7BB
100
AcDbEntity
  8
0
100
AcDbBlockBegin
  2
*D32
 70
     1
 10
0.0
 20
0.0
 30
0.0
  3
*D32
  1

  0
LINE
  5
7BE
330
7BB
100
AcDbEntity
  8
치수문자_일반주서
 62
     0
370
    -2
100
AcDbLine
 10
103.8909265904396
 20
7.413242026403232
 30
0.0
 11
91.45696856882753
 21
7.413242026403184
 31
0.0
  0
LINE
  5
7BF
330
7BB
100
AcDbEntity
  8
치수문자_일반주서
 62
     0
370
    -2
100
AcDbLine
 10
103.8909265904396
 20
1.413242026403239
 30
0.0
 11
91.45696856882755
 21
1.413242026403191
 31
0.0
  0
LINE
  5
7C0
330
7BB
100
AcDbEntity
  8
치수문자_일반주서
 62
     0
370
    -2
100
AcDbLine
 10
91.45696856882755
 20
4.111242026403184
 30
0.0
 11
91.45696856882753
 21
4.715242026403191
 31
0.0
  0
SOLID
  5
7C1
330
7BB
100
AcDbEntity
  8
치수문자_일반주서
 62
     0
100
AcDbTrace
 10
92.00730190216088
 20
4.111242026403185
 30
0.0
 11
90.90663523549422
 21
4.111242026403183
 31
0.0
 12
91.45696856882753
 22
7.413242026403184
 32
0.0
 13
91.45696856882753
 23
7.413242026403184
 33
0.0
  0
SOLID
  5
7C2
330
7BB
100
AcDbEntity
  8
치수문자_일반주서
 62
     0
100
AcDbTrace
 10
90.9066352354942
 20
4.71524202640319
 30
0.0
 11
92.00730190216086
 21
4.715242026403192
 31
0.0
 12
91.45696856882755
 22
1.413242026403191
 32
0.0
 13
91.45696856882755
 23
1.413242026403191
 33
0.0
  0
MTEXT
  5
7C3
330
7BB
100
AcDbEntity
  8
치수문자_일반주서
 62
     0
100
AcDbMText
 10
87.08196856882753
 20
4.413242026403221
 30
0.0
 40
3.5
 41
0.0
 71
     2
 72
     1
  1
\A1;%%c6
  7
SLDTEXTSTYLE0
 11
-2.368475785867004E-15
 21
1.0
 31
0.0
 73
     1
 44
1.0
  0
POINT
  5
7C4
330
7BB
100
AcDbEntity
  8
Defpoints
 62
     0
100
AcDbPoint
 10
103.9534265904396
 20
7.413242026403232
 30
0.0
  0
POINT
  5
7C5
330
7BB
100
AcDbEntity
  8
Defpoints
 62
     0
100
AcDbPoint
 10
103.9534265904396
 20
1.413242026403239
 30
0.0
  0
POINT
  5
7C6
330
7BB
100
AcDbEntity
  8
Defpoints
 62
     0
100
AcDbPoint
 10
91.45696856882755
 20
1.413242026403192
 30
0.0
  0
ENDBLK
  5
7BD
330
7BB
100
AcDbEntity
  8
0
100
AcDbBlockEnd
  0
BLOCK
  5
7C8
330
7C7
100
AcDbEntity
  8
0
100
AcDbBlockBegin
  2
*D33
 70
     1
 10
0.0
 20
0.0
 30
0.0
  3
*D33
  1

  0
LINE
  5
7CA
330
7C7
100
AcDbEntity
  8
치수문자_일반주서
 62
     0
370
    -2
100
AcDbLine
 10
155.4534265904396
 20
6.438776973226396
 30
0.0
 11
155.4534265904396
 21
21.19868957149814
 31
0.0
  0
LINE
  5
7CB
330
7C7
100
AcDbEntity
  8
치수문자_일반주서
 62
     0
370
    -2
100
AcDbLine
 10
163.4534265904396
 20
6.094501937894961
 30
0.0
 11
163.4534265904396
 21
21.19868957149814
 31
0.0
  0
LINE
  5
7CC
330
7C7
100
AcDbEntity
  8
치수문자_일반주서
 62
     0
370
    -2
100
AcDbLine
 10
158.7554265904396
 20
21.19868957149814
 30
0.0
 11
160.1514265904396
 21
21.19868957149814
 31
0.0
  0
SOLID
  5
7CD
330
7C7
100
AcDbEntity
  8
치수문자_일반주서
 62
     0
100
AcDbTrace
 10
158.7554265904396
 20
21.74902290483147
 30
0.0
 11
158.7554265904396
 21
20.6483562381648
 31
0.0
 12
155.4534265904396
 22
21.19868957149814
 32
0.0
 13
155.4534265904396
 23
21.19868957149814
 33
0.0
  0
SOLID
  5
7CE
330
7C7
100
AcDbEntity
  8
치수문자_일반주서
 62
     0
100
AcDbTrace
 10
160.1514265904396
 20
20.6483562381648
 30
0.0
 11
160.1514265904396
 21
21.74902290483147
 31
0.0
 12
163.4534265904396
 22
21.19868957149814
 32
0.0
 13
163.4534265904396
 23
21.19868957149814
 33
0.0
  0
MTEXT
  5
7CF
330
7C7
100
AcDbEntity
  8
치수문자_일반주서
 62
     0
100
AcDbMText
 10
159.4534265904396
 20
25.57368957149814
 30
0.0
 40
3.5
 41
0.0
 71
     2
 72
     1
  1
\A1;8
  7
SLDTEXTSTYLE0
 73
     1
 44
1.0
  0
POINT
  5
7D0
330
7C7
100
AcDbEntity
  8
Defpoints
 62
     0
100
AcDbPoint
 10
155.4534265904396
 20
6.376276973226396
 30
0.0
  0
POINT
  5
7D1
330
7C7
100
AcDbEntity
  8
Defpoints
 62
     0
100
AcDbPoint
 10
163.4534265904396
 20
6.032001937894961
 30
0.0
  0
POINT
  5
7D2
330
7C7
100
AcDbEntity
  8
Defpoints
 62
     0
100
AcDbPoint
 10
163.4534265904396
 20
21.19868957149814
 30
0.0
  0
ENDBLK
  5
7C9
330
7C7
100
AcDbEntity
  8
0
100
AcDbBlockEnd
  0
BLOCK
  5
7D4
330
7D3
100
AcDbEntity
  8
0
100
AcDbBlockBegin
  2
*D34
 70
     1
 10
0.0
 20
0.0
 30
0.0
  3
*D34
  1

  0
LINE
  5
7D6
330
7D3
100
AcDbEntity
  8
치수문자_일반주서
 62
     0
370
    -2
100
AcDbLine
 10
163.4534265904396
 20
6.667137801195324
 30
0.0
 11
163.4534265904396
 21
30.0563130708892
 31
0.0
  0
LINE
  5
7D7
330
7D3
100
AcDbEntity
  8
치수문자_일반주서
 62
     0
370
    -2
100
AcDbLine
 10
148.453426566291
 20
6.900742026403229
 30
0.0
 11
148.453426566291
 21
30.0563130708892
 31
0.0
  0
LINE
  5
7D8
330
7D3
100
AcDbEntity
  8
치수문자_일반주서
 62
     0
370
    -2
100
AcDbLine
 10
160.1514265904396
 20
30.0563130708892
 30
0.0
 11
151.755426566291
 21
30.0563130708892
 31
0.0
  0
SOLID
  5
7D9
330
7D3
100
AcDbEntity
  8
치수문자_일반주서
 62
     0
100
AcDbTrace
 10
160.1514265904396
 20
29.50597973755587
 30
0.0
 11
160.1514265904396
 21
30.60664640422254
 31
0.0
 12
163.4534265904396
 22
30.0563130708892
 32
0.0
 13
163.4534265904396
 23
30.0563130708892
 33
0.0
  0
SOLID
  5
7DA
330
7D3
100
AcDbEntity
  8
치수문자_일반주서
 62
     0
100
AcDbTrace
 10
151.755426566291
 20
30.60664640422254
 30
0.0
 11
151.755426566291
 21
29.50597973755587
 31
0.0
 12
148.453426566291
 22
30.0563130708892
 32
0.0
 13
148.453426566291
 23
30.0563130708892
 33
0.0
  0
MTEXT
  5
7DB
330
7D3
100
AcDbEntity
  8
치수문자_일반주서
 62
     0
100
AcDbMText
 10
155.9534265783653
 20
34.4313130708892
 30
0.0
 40
3.5
 41
0.0
 71
     2
 72
     1
  1
\A1;15
  7
SLDTEXTSTYLE0
 73
     1
 44
1.0
  0
POINT
  5
7DC
330
7D3
100
AcDbEntity
  8
Defpoints
 62
     0
100
AcDbPoint
 10
163.4534265904396
 20
6.604637801195324
 30
0.0
  0
POINT
  5
7DD
330
7D3
100
AcDbEntity
  8
Defpoints
 62
     0
100
AcDbPoint
 10
148.453426566291
 20
6.838242026403229
 30
0.0
  0
POINT
  5
7DE
330
7D3
100
AcDbEntity
  8
Defpoints
 62
     0
100
AcDbPoint
 10
148.453426566291
 20
30.0563130708892
 30
0.0
  0
ENDBLK
  5
7D5
330
7D3
100
AcDbEntity
  8
0
100
AcDbBlockEnd
  0
BLOCK
  5
7E3
330
7E2
100
AcDbEntity
  8
0
100
AcDbBlockBegin
  2
*D35
 70
     1
 10
0.0
 20
0.0
 30
0.0
  3
*D35
  1

  0
LINE
  5
7E5
330
7E2
100
AcDbEntity
  8
치수문자_일반주서
 62
     0
370
    -2
100
AcDbLine
 10
18.91292586558597
 20
-5.149903195862018
 30
0.0
 11
29.1266313123338
 21
-19.72633823537276
 31
0.0
  0
MTEXT
  5
7E6
330
7E2
100
AcDbEntity
  8
치수문자_일반주서
 62
     0
100
AcDbMText
 10
28.64029873211602
 20
-14.45788071120891
 30
0.0
 40
3.5
 41
0.0
 71
     5
 72
     1
  1
\A1;R0.3
  7
SLDTEXTSTYLE0
 11
0.5738469311807731
 21
-0.8189625751976761
 31
0.0
 73
     1
 44
1.0
  0
SOLID
  5
7E7
330
7E2
100
AcDbEntity
  8
치수문자_일반주서
 62
     0
100
AcDbTrace
 10
19.36362826946976
 20
-4.834096101402199
 30
0.0
 11
18.46222346170218
 21
-5.465710290321837
 31
0.0
 12
17.01808329882705
 22
-2.445688772559292
 32
0.0
 13
17.01808329882705
 23
-2.445688772559292
 33
0.0
  0
POINT
  5
7E8
330
7E2
100
AcDbEntity
  8
Defpoints
 62
     0
100
AcDbPoint
 10
17.01808329882705
 20
-2.445688772559292
 30
0.0
  0
POINT
  5
7E9
330
7E2
100
AcDbEntity
  8
Defpoints
 62
     0
100
AcDbPoint
 10
16.84592921947282
 20
-2.199999999999989
 30
0.0
  0
ENDBLK
  5
7E4
330
7E2
100
AcDbEntity
  8
0
100
AcDbBlockEnd
  0
BLOCK
  5
8DE
330
8DD
100
AcDbEntity
  8
0
100
AcDbBlockBegin
  2
*D36
 70
     1
 10
0.0
 20
0.0
 30
0.0
  3
*D36
  1

  0
LINE
  5
8E0
330
8DD
100
AcDbEntity
  8
치수문자_일반주서
 62
     0
370
    -2
100
AcDbLine
 10
69.58866092365798
 20
49.37180738881174
 30
0.0
 11
95.64417746898087
 21
49.37180738881184
 31
0.0
  0
LINE
  5
8E1
330
8DD
100
AcDbEntity
  8
치수문자_일반주서
 62
     0
370
    -2
100
AcDbLine
 10
69.58866092365798
 20
50.57180738881175
 30
0.0
 11
95.64417746898087
 21
50.57180738881185
 31
0.0
  0
LINE
  5
8E2
330
8DD
100
AcDbEntity
  8
치수문자_일반주서
 62
     0
370
    -2
100
AcDbLine
 10
95.64417746898087
 20
46.06980738881184
 30
0.0
 11
95.64417746898087
 21
42.76780738881184
 31
0.0
  0
LINE
  5
8E3
330
8DD
100
AcDbEntity
  8
치수문자_일반주서
 62
     0
370
    -2
100
AcDbLine
 10
95.64417746898087
 20
53.87380738881185
 30
0.0
 11
95.64417746898087
 21
57.17580738881185
 31
0.0
  0
SOLID
  5
8E4
330
8DD
100
AcDbEntity
  8
치수문자_일반주서
 62
     0
100
AcDbTrace
 10
96.1945108023142
 20
46.06980738881184
 30
0.0
 11
95.09384413564754
 21
46.06980738881184
 31
0.0
 12
95.64417746898087
 22
49.37180738881184
 32
0.0
 13
95.64417746898087
 23
49.37180738881184
 33
0.0
  0
SOLID
  5
8E5
330
8DD
100
AcDbEntity
  8
치수문자_일반주서
 62
     0
100
AcDbTrace
 10
95.09384413564754
 20
53.87380738881185
 30
0.0
 11
96.1945108023142
 21
53.87380738881185
 31
0.0
 12
95.64417746898087
 22
50.57180738881185
 32
0.0
 13
95.64417746898087
 23
50.57180738881185
 33
0.0
  0
MTEXT
  5
8E6
330
8DD
100
AcDbEntity
  8
치수문자_일반주서
 62
     0
100
AcDbMText
 10
91.26917746898087
 20
49.97180738881172
 30
0.0
 40
3.5
 41
0.0
 71
     2
 72
     1
  1
\A1;%%c1.2
  7
SLDTEXTSTYLE0
 11
0.0
 21
1.0
 31
0.0
 73
     1
 44
1.0
  0
POINT
  5
8E7
330
8DD
100
AcDbEntity
  8
Defpoints
 62
     0
100
AcDbPoint
 10
69.52616092365798
 20
49.37180738881174
 30
0.0
  0
POINT
  5
8E8
330
8DD
100
AcDbEntity
  8
Defpoints
 62
     0
100
AcDbPoint
 10
69.52616092365798
 20
50.57180738881175
 30
0.0
  0
POINT
  5
8E9
330
8DD
100
AcDbEntity
  8
Defpoints
 62
     0
100
AcDbPoint
 10
95.64417746898087
 20
50.57180738881185
 30
0.0
  0
ENDBLK
  5
8DF
330
8DD
100
AcDbEntity
  8
0
100
AcDbBlockEnd
  0
BLOCK
  5
8EB
330
8EA
100
AcDbEntity
  8
0
100
AcDbBlockBegin
  2
*D37
 70
     1
 10
0.0
 20
0.0
 30
0.0
  3
*D37
  1

  0
LINE
  5
8ED
330
8EA
100
AcDbEntity
  8
치수문자_일반주서
 62
     0
370
    -2
100
AcDbLine
 10
16.56166728747382
 20
52.53430738881175
 30
0.0
 11
16.56166728747382
 21
80.97180738881175
 31
0.0
  0
LINE
  5
8EE
330
8EA
100
AcDbEntity
  8
치수문자_일반주서
 62
     0
370
    -2
100
AcDbLine
 10
76.56166728747382
 20
51.65306730030348
 30
0.0
 11
76.56166728747382
 21
80.97180738881175
 31
0.0
  0
LINE
  5
8EF
330
8EA
100
AcDbEntity
  8
치수문자_일반주서
 62
     0
370
    -2
100
AcDbLine
 10
19.86366728747382
 20
80.97180738881175
 30
0.0
 11
73.25966728747382
 21
80.97180738881175
 31
0.0
  0
SOLID
  5
8F0
330
8EA
100
AcDbEntity
  8
치수문자_일반주서
 62
     0
100
AcDbTrace
 10
19.86366728747382
 20
81.52214072214508
 30
0.0
 11
19.86366728747382
 21
80.42147405547843
 31
0.0
 12
16.56166728747382
 22
80.97180738881175
 32
0.0
 13
16.56166728747382
 23
80.97180738881175
 33
0.0
  0
SOLID
  5
8F1
330
8EA
100
AcDbEntity
  8
치수문자_일반주서
 62
     0
100
AcDbTrace
 10
73.25966728747382
 20
80.42147405547843
 30
0.0
 11
73.25966728747382
 21
81.52214072214508
 31
0.0
 12
76.56166728747382
 22
80.97180738881175
 32
0.0
 13
76.56166728747382
 23
80.97180738881175
 33
0.0
  0
MTEXT
  5
8F2
330
8EA
100
AcDbEntity
  8
치수문자_일반주서
 62
     0
100
AcDbMText
 10
46.56166728747383
 20
85.34680738881175
 30
0.0
 40
3.5
 41
0.0
 71
     2
 72
     1
  1
\A1;60
  7
SLDTEXTSTYLE0
 73
     1
 44
1.0
  0
POINT
  5
8F3
330
8EA
100
AcDbEntity
  8
Defpoints
 62
     0
100
AcDbPoint
 10
16.56166728747382
 20
52.47180738881175
 30
0.0
  0
POINT
  5
8F4
330
8EA
100
AcDbEntity
  8
Defpoints
 62
     0
100
AcDbPoint
 10
76.56166728747382
 20
51.59056730030348
 30
0.0
  0
POINT
  5
8F5
330
8EA
100
AcDbEntity
  8
Defpoints
 62
     0
100
AcDbPoint
 10
76.56166728747382
 20
80.97180738881175
 30
0.0
  0
ENDBLK
  5
8EC
330
8EA
100
AcDbEntity
  8
0
100
AcDbBlockEnd
  0
BLOCK
  5
8F7
330
8F6
100
AcDbEntity
  8
0
100
AcDbBlockBegin
  2
*D38
 70
     1
 10
0.0
 20
0.0
 30
0.0
  3
*D38
  1

  0
LINE
  5
8F9
330
8F6
100
AcDbEntity
  8
치수문자_일반주서
 62
     0
370
    -2
100
AcDbLine
 10
16.99916728747382
 20
52.97180738881175
 30
0.0
 11
4.565209265861736
 21
52.9718073888117
 31
0.0
  0
LINE
  5
8FA
330
8F6
100
AcDbEntity
  8
치수문자_일반주서
 62
     0
370
    -2
100
AcDbLine
 10
16.99916728747382
 20
46.97180738881175
 30
0.0
 11
4.565209265861757
 21
46.9718073888117
 31
0.0
  0
LINE
  5
8FB
330
8F6
100
AcDbEntity
  8
치수문자_일반주서
 62
     0
370
    -2
100
AcDbLine
 10
4.565209265861747
 20
49.6698073888117
 30
0.0
 11
4.565209265861745
 21
50.2738073888117
 31
0.0
  0
SOLID
  5
8FC
330
8F6
100
AcDbEntity
  8
치수문자_일반주서
 62
     0
100
AcDbTrace
 10
5.115542599195081
 20
49.6698073888117
 30
0.0
 11
4.014875932528414
 21
49.6698073888117
 31
0.0
 12
4.565209265861736
 22
52.9718073888117
 32
0.0
 13
4.565209265861736
 23
52.9718073888117
 33
0.0
  0
SOLID
  5
8FD
330
8F6
100
AcDbEntity
  8
치수문자_일반주서
 62
     0
100
AcDbTrace
 10
4.014875932528412
 20
50.2738073888117
 30
0.0
 11
5.115542599195079
 21
50.2738073888117
 31
0.0
 12
4.565209265861757
 22
46.9718073888117
 32
0.0
 13
4.565209265861757
 23
46.9718073888117
 33
0.0
  0
MTEXT
  5
8FE
330
8F6
100
AcDbEntity
  8
치수문자_일반주서
 62
     0
100
AcDbMText
 10
0.1902092658617462
 20
49.97180738881173
 30
0.0
 40
3.5
 41
0.0
 71
     2
 72
     1
  1
\A1;%%c6
  7
SLDTEXTSTYLE0
 11
-3.552713678800505E-15
 21
1.0
 31
0.0
 73
     1
 44
1.0
  0
POINT
  5
8FF
330
8F6
100
AcDbEntity
  8
Defpoints
 62
     0
100
AcDbPoint
 10
17.06166728747382
 20
52.97180738881175
 30
0.0
  0
POINT
  5
900
330
8F6
100
AcDbEntity
  8
Defpoints
 62
     0
100
AcDbPoint
 10
17.06166728747382
 20
46.97180738881175
 30
0.0
  0
POINT
  5
901
330
8F6
100
AcDbEntity
  8
Defpoints
 62
     0
100
AcDbPoint
 10
4.565209265861746
 20
46.9718073888117
 30
0.0
  0
ENDBLK
  5
8F8
330
8F6
100
AcDbEntity
  8
0
100
AcDbBlockEnd
  0
BLOCK
  5
903
330
902
100
AcDbEntity
  8
0
100
AcDbBlockBegin
  2
*D39
 70
     1
 10
0.0
 20
0.0
 30
0.0
  3
*D39
  1

  0
LINE
  5
905
330
902
100
AcDbEntity
  8
치수문자_일반주서
 62
     0
370
    -2
100
AcDbLine
 10
68.56166728747382
 20
51.99734233563491
 30
0.0
 11
68.56166728747382
 21
66.75725493390665
 31
0.0
  0
LINE
  5
906
330
902
100
AcDbEntity
  8
치수문자_일반주서
 62
     0
370
    -2
100
AcDbLine
 10
76.56166728747382
 20
51.65306730030348
 30
0.0
 11
76.56166728747382
 21
66.75725493390665
 31
0.0
  0
LINE
  5
907
330
902
100
AcDbEntity
  8
치수문자_일반주서
 62
     0
370
    -2
100
AcDbLine
 10
71.86366728747383
 20
66.75725493390665
 30
0.0
 11
73.25966728747382
 21
66.75725493390665
 31
0.0
  0
SOLID
  5
908
330
902
100
AcDbEntity
  8
치수문자_일반주서
 62
     0
100
AcDbTrace
 10
71.86366728747383
 20
67.30758826723998
 30
0.0
 11
71.86366728747383
 21
66.20692160057332
 31
0.0
 12
68.56166728747382
 22
66.75725493390665
 32
0.0
 13
68.56166728747382
 23
66.75725493390665
 33
0.0
  0
SOLID
  5
909
330
902
100
AcDbEntity
  8
치수문자_일반주서
 62
     0
100
AcDbTrace
 10
73.25966728747382
 20
66.20692160057332
 30
0.0
 11
73.25966728747382
 21
67.30758826723998
 31
0.0
 12
76.56166728747382
 22
66.75725493390665
 32
0.0
 13
76.56166728747382
 23
66.75725493390665
 33
0.0
  0
MTEXT
  5
90A
330
902
100
AcDbEntity
  8
치수문자_일반주서
 62
     0
100
AcDbMText
 10
72.56166728747382
 20
71.13225493390665
 30
0.0
 40
3.5
 41
0.0
 71
     2
 72
     1
  1
\A1;8
  7
SLDTEXTSTYLE0
 73
     1
 44
1.0
  0
POINT
  5
90B
330
902
100
AcDbEntity
  8
Defpoints
 62
     0
100
AcDbPoint
 10
68.56166728747382
 20
51.93484233563491
 30
0.0
  0
POINT
  5
90C
330
902
100
AcDbEntity
  8
Defpoints
 62
     0
100
AcDbPoint
 10
76.56166728747382
 20
51.59056730030348
 30
0.0
  0
POINT
  5
90D
330
902
100
AcDbEntity
  8
Defpoints
 62
     0
100
AcDbPoint
 10
76.56166728747382
 20
66.75725493390665
 30
0.0
  0
ENDBLK
  5
904
330
902
100
AcDbEntity
  8
0
100
AcDbBlockEnd
  0
BLOCK
  5
90F
330
90E
100
AcDbEntity
  8
0
100
AcDbBlockBegin
  2
*D40
 70
     1
 10
0.0
 20
0.0
 30
0.0
  3
*D40
  1

  0
LINE
  5
911
330
90E
100
AcDbEntity
  8
치수문자_일반주서
 62
     0
370
    -2
100
AcDbLine
 10
76.56166728747382
 20
52.01960110841858
 30
0.0
 11
76.56166728747382
 21
75.40877637811245
 31
0.0
  0
LINE
  5
912
330
90E
100
AcDbEntity
  8
치수문자_일반주서
 62
     0
370
    -2
100
AcDbLine
 10
61.56166722918666
 20
52.45930738881175
 30
0.0
 11
61.56166722918666
 21
75.40877637811245
 31
0.0
  0
LINE
  5
913
330
90E
100
AcDbEntity
  8
치수문자_일반주서
 62
     0
370
    -2
100
AcDbLine
 10
73.25966728747382
 20
75.40877637811245
 30
0.0
 11
64.86366722918666
 21
75.40877637811245
 31
0.0
  0
SOLID
  5
914
330
90E
100
AcDbEntity
  8
치수문자_일반주서
 62
     0
100
AcDbTrace
 10
73.25966728747382
 20
74.85844304477912
 30
0.0
 11
73.25966728747382
 21
75.95910971144578
 31
0.0
 12
76.56166728747382
 22
75.40877637811245
 32
0.0
 13
76.56166728747382
 23
75.40877637811245
 33
0.0
  0
SOLID
  5
915
330
90E
100
AcDbEntity
  8
치수문자_일반주서
 62
     0
100
AcDbTrace
 10
64.86366722918666
 20
75.95910971144578
 30
0.0
 11
64.86366722918666
 21
74.85844304477912
 31
0.0
 12
61.56166722918666
 22
75.40877637811245
 32
0.0
 13
61.56166722918666
 23
75.40877637811245
 33
0.0
  0
MTEXT
  5
916
330
90E
100
AcDbEntity
  8
치수문자_일반주서
 62
     0
100
AcDbMText
 10
69.06166725833025
 20
79.78377637811245
 30
0.0
 40
3.5
 41
0.0
 71
     2
 72
     1
  1
\A1;15
  7
SLDTEXTSTYLE0
 73
     1
 44
1.0
  0
POINT
  5
917
330
90E
100
AcDbEntity
  8
Defpoints
 62
     0
100
AcDbPoint
 10
76.56166728747382
 20
51.95710110841858
 30
0.0
  0
POINT
  5
918
330
90E
100
AcDbEntity
  8
Defpoints
 62
     0
100
AcDbPoint
 10
61.56166722918666
 20
52.39680738881175
 30
0.0
  0
POINT
  5
919
330
90E
100
AcDbEntity
  8
Defpoints
 62
     0
100
AcDbPoint
 10
61.56166722918666
 20
75.40877637811245
 30
0.0
  0
ENDBLK
  5
910
330
90E
100
AcDbEntity
  8
0
100
AcDbBlockEnd
  0
BLOCK
  5
96B
330
96A
100
AcDbEntity
  8
0
100
AcDbBlockBegin
  2
*D41
 70
     1
 10
0.0
 20
0.0
 30
0.0
  3
*D41
  1

  0
LINE
  5
96D
330
96A
100
AcDbEntity
  8
치수문자_일반주서
 62
     0
370
    -2
100
AcDbLine
 10
174.4255657820744
 20
4.097089647869133
 30
0.0
 11
200.4810823273973
 21
4.097089647869231
 31
0.0
  0
LINE
  5
96E
330
96A
100
AcDbEntity
  8
치수문자_일반주서
 62
     0
370
    -2
100
AcDbLine
 10
174.4255657820744
 20
5.297089647869143
 30
0.0
 11
200.4810823273973
 21
5.297089647869241
 31
0.0
  0
LINE
  5
96F
330
96A
100
AcDbEntity
  8
치수문자_일반주서
 62
     0
370
    -2
100
AcDbLine
 10
200.4810823273973
 20
0.7950896478692306
 30
0.0
 11
200.4810823273973
 21
-2.506910352130769
 31
0.0
  0
LINE
  5
970
330
96A
100
AcDbEntity
  8
치수문자_일반주서
 62
     0
370
    -2
100
AcDbLine
 10
200.4810823273973
 20
8.59908964786924
 30
0.0
 11
200.4810823273973
 21
11.90108964786924
 31
0.0
  0
SOLID
  5
971
330
96A
100
AcDbEntity
  8
치수문자_일반주서
 62
     0
100
AcDbTrace
 10
201.0314156607306
 20
0.7950896478692306
 30
0.0
 11
199.930748994064
 21
0.7950896478692306
 31
0.0
 12
200.4810823273973
 22
4.097089647869231
 32
0.0
 13
200.4810823273973
 23
4.097089647869231
 33
0.0
  0
SOLID
  5
972
330
96A
100
AcDbEntity
  8
치수문자_일반주서
 62
     0
100
AcDbTrace
 10
199.930748994064
 20
8.59908964786924
 30
0.0
 11
201.0314156607306
 21
8.59908964786924
 31
0.0
 12
200.4810823273973
 22
5.297089647869241
 32
0.0
 13
200.4810823273973
 23
5.297089647869241
 33
0.0
  0
MTEXT
  5
973
330
96A
100
AcDbEntity
  8
치수문자_일반주서
 62
     0
100
AcDbMText
 10
196.1060823273973
 20
4.697089647869113
 30
0.0
 40
3.5
 41
0.0
 71
     2
 72
     1
  1
\A1;%%c1.2
  7
SLDTEXTSTYLE0
 11
0.0
 21
1.0
 31
0.0
 73
     1
 44
1.0
  0
POINT
  5
974
330
96A
100
AcDbEntity
  8
Defpoints
 62
     0
100
AcDbPoint
 10
174.3630657820744
 20
4.097089647869133
 30
0.0
  0
POINT
  5
975
330
96A
100
AcDbEntity
  8
Defpoints
 62
     0
100
AcDbPoint
 10
174.3630657820744
 20
5.297089647869143
 30
0.0
  0
POINT
  5
976
330
96A
100
AcDbEntity
  8
Defpoints
 62
     0
100
AcDbPoint
 10
200.4810823273973
 20
5.297089647869241
 30
0.0
  0
ENDBLK
  5
96C
330
96A
100
AcDbEntity
  8
0
100
AcDbBlockEnd
  0
BLOCK
  5
978
330
977
100
AcDbEntity
  8
0
100
AcDbBlockBegin
  2
*D42
 70
     1
 10
0.0
 20
0.0
 30
0.0
  3
*D42
  1

  0
LINE
  5
97A
330
977
100
AcDbEntity
  8
치수문자_일반주서
 62
     0
370
    -2
100
AcDbLine
 10
121.3985721458902
 20
7.259589647869142
 30
0.0
 11
121.3985721458902
 21
35.69708964786915
 31
0.0
  0
LINE
  5
97B
330
977
100
AcDbEntity
  8
치수문자_일반주서
 62
     0
370
    -2
100
AcDbLine
 10
181.3985721458902
 20
6.378349559360871
 30
0.0
 11
181.3985721458902
 21
35.69708964786915
 31
0.0
  0
LINE
  5
97C
330
977
100
AcDbEntity
  8
치수문자_일반주서
 62
     0
370
    -2
100
AcDbLine
 10
124.7005721458902
 20
35.69708964786915
 30
0.0
 11
178.0965721458902
 21
35.69708964786915
 31
0.0
  0
SOLID
  5
97D
330
977
100
AcDbEntity
  8
치수문자_일반주서
 62
     0
100
AcDbTrace
 10
124.7005721458902
 20
36.24742298120248
 30
0.0
 11
124.7005721458902
 21
35.14675631453581
 31
0.0
 12
121.3985721458902
 22
35.69708964786915
 32
0.0
 13
121.3985721458902
 23
35.69708964786915
 33
0.0
  0
SOLID
  5
97E
330
977
100
AcDbEntity
  8
치수문자_일반주서
 62
     0
100
AcDbTrace
 10
178.0965721458902
 20
35.14675631453581
 30
0.0
 11
178.0965721458902
 21
36.24742298120248
 31
0.0
 12
181.3985721458902
 22
35.69708964786915
 32
0.0
 13
181.3985721458902
 23
35.69708964786915
 33
0.0
  0
MTEXT
  5
97F
330
977
100
AcDbEntity
  8
치수문자_일반주서
 62
     0
100
AcDbMText
 10
151.3985721458903
 20
40.07208964786915
 30
0.0
 40
3.5
 41
0.0
 71
     2
 72
     1
  1
\A1;60
  7
SLDTEXTSTYLE0
 73
     1
 44
1.0
  0
POINT
  5
980
330
977
100
AcDbEntity
  8
Defpoints
 62
     0
100
AcDbPoint
 10
121.3985721458902
 20
7.197089647869142
 30
0.0
  0
POINT
  5
981
330
977
100
AcDbEntity
  8
Defpoints
 62
     0
100
AcDbPoint
 10
181.3985721458902
 20
6.315849559360871
 30
0.0
  0
POINT
  5
982
330
977
100
AcDbEntity
  8
Defpoints
 62
     0
100
AcDbPoint
 10
181.3985721458902
 20
35.69708964786915
 30
0.0
  0
ENDBLK
  5
979
330
977
100
AcDbEntity
  8
0
100
AcDbBlockEnd
  0
BLOCK
  5
984
330
983
100
AcDbEntity
  8
0
100
AcDbBlockBegin
  2
*D43
 70
     1
 10
0.0
 20
0.0
 30
0.0
  3
*D43
  1

  0
LINE
  5
986
330
983
100
AcDbEntity
  8
치수문자_일반주서
 62
     0
370
    -2
100
AcDbLine
 10
121.8360721458902
 20
7.697089647869142
 30
0.0
 11
109.4021141242782
 21
7.697089647869094
 31
0.0
  0
LINE
  5
987
330
983
100
AcDbEntity
  8
치수문자_일반주서
 62
     0
370
    -2
100
AcDbLine
 10
121.8360721458902
 20
1.697089647869148
 30
0.0
 11
109.4021141242782
 21
1.697089647869101
 31
0.0
  0
LINE
  5
988
330
983
100
AcDbEntity
  8
치수문자_일반주서
 62
     0
370
    -2
100
AcDbLine
 10
109.4021141242782
 20
4.395089647869094
 30
0.0
 11
109.4021141242782
 21
4.9990896478691
 31
0.0
  0
SOLID
  5
989
330
983
100
AcDbEntity
  8
치수문자_일반주서
 62
     0
100
AcDbTrace
 10
109.9524474576115
 20
4.395089647869095
 30
0.0
 11
108.8517807909449
 21
4.395089647869093
 31
0.0
 12
109.4021141242782
 22
7.697089647869094
 32
0.0
 13
109.4021141242782
 23
7.697089647869094
 33
0.0
  0
SOLID
  5
98A
330
983
100
AcDbEntity
  8
치수문자_일반주서
 62
     0
100
AcDbTrace
 10
108.8517807909448
 20
4.999089647869099
 30
0.0
 11
109.9524474576115
 21
4.999089647869101
 31
0.0
 12
109.4021141242782
 22
1.697089647869101
 32
0.0
 13
109.4021141242782
 23
1.697089647869101
 33
0.0
  0
MTEXT
  5
98B
330
983
100
AcDbEntity
  8
치수문자_일반주서
 62
     0
100
AcDbMText
 10
105.0271141242782
 20
4.697089647869131
 30
0.0
 40
3.5
 41
0.0
 71
     2
 72
     1
  1
\A1;%%c6
  7
SLDTEXTSTYLE0
 11
-2.368475785867004E-15
 21
1.0
 31
0.0
 73
     1
 44
1.0
  0
POINT
  5
98C
330
983
100
AcDbEntity
  8
Defpoints
 62
     0
100
AcDbPoint
 10
121.8985721458902
 20
7.697089647869142
 30
0.0
  0
POINT
  5
98D
330
983
100
AcDbEntity
  8
Defpoints
 62
     0
100
AcDbPoint
 10
121.8985721458902
 20
1.697089647869149
 30
0.0
  0
POINT
  5
98E
330
983
100
AcDbEntity
  8
Defpoints
 62
     0
100
AcDbPoint
 10
109.4021141242782
 20
1.697089647869102
 30
0.0
  0
ENDBLK
  5
985
330
983
100
AcDbEntity
  8
0
100
AcDbBlockEnd
  0
BLOCK
  5
990
330
98F
100
AcDbEntity
  8
0
100
AcDbBlockBegin
  2
*D44
 70
     1
 10
0.0
 20
0.0
 30
0.0
  3
*D44
  1

  0
LINE
  5
992
330
98F
100
AcDbEntity
  8
치수문자_일반주서
 62
     0
370
    -2
100
AcDbLine
 10
173.3985721458902
 20
6.722624594692306
 30
0.0
 11
173.3985721458902
 21
21.48253719296405
 31
0.0
  0
LINE
  5
993
330
98F
100
AcDbEntity
  8
치수문자_일반주서
 62
     0
370
    -2
100
AcDbLine
 10
181.3985721458902
 20
6.378349559360871
 30
0.0
 11
181.3985721458902
 21
21.48253719296405
 31
0.0
  0
LINE
  5
994
330
98F
100
AcDbEntity
  8
치수문자_일반주서
 62
     0
370
    -2
100
AcDbLine
 10
176.7005721458902
 20
21.48253719296405
 30
0.0
 11
178.0965721458902
 21
21.48253719296405
 31
0.0
  0
SOLID
  5
995
330
98F
100
AcDbEntity
  8
치수문자_일반주서
 62
     0
100
AcDbTrace
 10
176.7005721458902
 20
22.03287052629738
 30
0.0
 11
176.7005721458902
 21
20.93220385963071
 31
0.0
 12
173.3985721458902
 22
21.48253719296405
 32
0.0
 13
173.3985721458902
 23
21.48253719296405
 33
0.0
  0
SOLID
  5
996
330
98F
100
AcDbEntity
  8
치수문자_일반주서
 62
     0
100
AcDbTrace
 10
178.0965721458902
 20
20.93220385963071
 30
0.0
 11
178.0965721458902
 21
22.03287052629738
 31
0.0
 12
181.3985721458902
 22
21.48253719296405
 32
0.0
 13
181.3985721458902
 23
21.48253719296405
 33
0.0
  0
MTEXT
  5
997
330
98F
100
AcDbEntity
  8
치수문자_일반주서
 62
     0
100
AcDbMText
 10
177.3985721458902
 20
25.85753719296405
 30
0.0
 40
3.5
 41
0.0
 71
     2
 72
     1
  1
\A1;8
  7
SLDTEXTSTYLE0
 73
     1
 44
1.0
  0
POINT
  5
998
330
98F
100
AcDbEntity
  8
Defpoints
 62
     0
100
AcDbPoint
 10
173.3985721458902
 20
6.660124594692306
 30
0.0
  0
POINT
  5
999
330
98F
100
AcDbEntity
  8
Defpoints
 62
     0
100
AcDbPoint
 10
181.3985721458902
 20
6.315849559360871
 30
0.0
  0
POINT
  5
99A
330
98F
100
AcDbEntity
  8
Defpoints
 62
     0
100
AcDbPoint
 10
181.3985721458902
 20
21.48253719296405
 30
0.0
  0
ENDBLK
  5
991
330
98F
100
AcDbEntity
  8
0
100
AcDbBlockEnd
  0
BLOCK
  5
99C
330
99B
100
AcDbEntity
  8
0
100
AcDbBlockBegin
  2
*D45
 70
     1
 10
0.0
 20
0.0
 30
0.0
  3
*D45
  1

  0
LINE
  5
99E
330
99B
100
AcDbEntity
  8
치수문자_일반주서
 62
     0
370
    -2
100
AcDbLine
 10
181.3985721458902
 20
6.744883367475971
 30
0.0
 11
181.3985721458902
 21
30.13405863716984
 31
0.0
  0
LINE
  5
99F
330
99B
100
AcDbEntity
  8
치수문자_일반주서
 62
     0
370
    -2
100
AcDbLine
 10
166.3985720876031
 20
7.184589647869146
 30
0.0
 11
166.3985720876031
 21
30.13405863716984
 31
0.0
  0
LINE
  5
9A0
330
99B
100
AcDbEntity
  8
치수문자_일반주서
 62
     0
370
    -2
100
AcDbLine
 10
178.0965721458902
 20
30.13405863716984
 30
0.0
 11
169.7005720876031
 21
30.13405863716984
 31
0.0
  0
SOLID
  5
9A1
330
99B
100
AcDbEntity
  8
치수문자_일반주서
 62
     0
100
AcDbTrace
 10
178.0965721458902
 20
29.58372530383651
 30
0.0
 11
178.0965721458902
 21
30.68439197050318
 31
0.0
 12
181.3985721458902
 22
30.13405863716984
 32
0.0
 13
181.3985721458902
 23
30.13405863716984
 33
0.0
  0
SOLID
  5
9A2
330
99B
100
AcDbEntity
  8
치수문자_일반주서
 62
     0
100
AcDbTrace
 10
169.7005720876031
 20
30.68439197050318
 30
0.0
 11
169.7005720876031
 21
29.58372530383651
 31
0.0
 12
166.3985720876031
 22
30.13405863716984
 32
0.0
 13
166.3985720876031
 23
30.13405863716984
 33
0.0
  0
MTEXT
  5
9A3
330
99B
100
AcDbEntity
  8
치수문자_일반주서
 62
     0
100
AcDbMText
 10
173.8985721167467
 20
34.50905863716984
 30
0.0
 40
3.5
 41
0.0
 71
     2
 72
     1
  1
\A1;15
  7
SLDTEXTSTYLE0
 73
     1
 44
1.0
  0
POINT
  5
9A4
330
99B
100
AcDbEntity
  8
Defpoints
 62
     0
100
AcDbPoint
 10
181.3985721458902
 20
6.682383367475971
 30
0.0
  0
POINT
  5
9A5
330
99B
100
AcDbEntity
  8
Defpoints
 62
     0
100
AcDbPoint
 10
166.3985720876031
 20
7.122089647869146
 30
0.0
  0
POINT
  5
9A6
330
99B
100
AcDbEntity
  8
Defpoints
 62
     0
100
AcDbPoint
 10
166.3985720876031
 20
30.13405863716984
 30
0.0
  0
ENDBLK
  5
99D
330
99B
100
AcDbEntity
  8
0
100
AcDbBlockEnd
  0
BLOCK
  5
9AB
330
9AA
100
AcDbEntity
  8
0
100
AcDbBlockBegin
  2
*D46
 70
     1
 10
0.0
 20
0.0
 30
0.0
  3
*D46
  1

  0
LINE
  5
9AD
330
9AA
100
AcDbEntity
  8
치수문자_일반주서
 62
     0
370
    -2
100
AcDbLine
 10
18.96104112312711
 20
-5.015868179075159
 30
0.0
 11
30.88562705381656
 21
-20.54988154587951
 31
0.0
  0
MTEXT
  5
9AE
330
9AA
100
AcDbEntity
  8
치수문자_일반주서
 62
     0
100
AcDbMText
 10
30.17063722284875
 20
-15.30755824374403
 30
0.0
 40
3.5
 41
0.0
 71
     5
 72
     1
  1
\A1;R0.5
  7
SLDTEXTSTYLE0
 11
0.6089194907033931
 21
-0.7932320302670086
 31
0.0
 73
     1
 44
1.0
  0
SOLID
  5
9AF
330
9AA
100
AcDbEntity
  8
치수문자_일반주서
 62
     0
100
AcDbTrace
 10
19.39758315045072
 20
-4.680759486024725
 30
0.0
 11
18.5244990958035
 21
-5.350976872125593
 31
0.0
 12
16.9503889648245
 22
-2.396616015133497
 32
0.0
 13
16.9503889648245
 23
-2.396616015133497
 33
0.0
  0
POINT
  5
9B0
330
9AA
100
AcDbEntity
  8
Defpoints
 62
     0
100
AcDbPoint
 10
16.9503889648245
 20
-2.396616015133497
 30
0.0
  0
POINT
  5
9B1
330
9AA
100
AcDbEntity
  8
Defpoints
 62
     0
100
AcDbPoint
 10
16.64592921947281
 20
-1.999999999999993
 30
0.0
  0
ENDBLK
  5
9AC
330
9AA
100
AcDbEntity
  8
0
100
AcDbBlockEnd
  0
BLOCK
  5
A81
330
A80
100
AcDbEntity
  8
0
100
AcDbBlockBegin
  2
*D47
 70
     1
 10
0.0
 20
0.0
 30
0.0
  3
*D47
  1

  0
LINE
  5
A83
330
A80
100
AcDbEntity
  8
치수문자_일반주서
 62
     0
370
    -2
100
AcDbLine
 10
69.58866092365798
 20
49.37180738881174
 30
0.0
 11
95.64417746898087
 21
49.37180738881184
 31
0.0
  0
LINE
  5
A84
330
A80
100
AcDbEntity
  8
치수문자_일반주서
 62
     0
370
    -2
100
AcDbLine
 10
69.58866092365798
 20
50.57180738881175
 30
0.0
 11
95.64417746898087
 21
50.57180738881185
 31
0.0
  0
LINE
  5
A85
330
A80
100
AcDbEntity
  8
치수문자_일반주서
 62
     0
370
    -2
100
AcDbLine
 10
95.64417746898087
 20
46.06980738881184
 30
0.0
 11
95.64417746898087
 21
42.76780738881184
 31
0.0
  0
LINE
  5
A86
330
A80
100
AcDbEntity
  8
치수문자_일반주서
 62
     0
370
    -2
100
AcDbLine
 10
95.64417746898087
 20
53.87380738881185
 30
0.0
 11
95.64417746898087
 21
57.17580738881185
 31
0.0
  0
SOLID
  5
A87
330
A80
100
AcDbEntity
  8
치수문자_일반주서
 62
     0
100
AcDbTrace
 10
96.1945108023142
 20
46.06980738881184
 30
0.0
 11
95.09384413564754
 21
46.06980738881184
 31
0.0
 12
95.64417746898087
 22
49.37180738881184
 32
0.0
 13
95.64417746898087
 23
49.37180738881184
 33
0.0
  0
SOLID
  5
A88
330
A80
100
AcDbEntity
  8
치수문자_일반주서
 62
     0
100
AcDbTrace
 10
95.09384413564754
 20
53.87380738881185
 30
0.0
 11
96.1945108023142
 21
53.87380738881185
 31
0.0
 12
95.64417746898087
 22
50.57180738881185
 32
0.0
 13
95.64417746898087
 23
50.57180738881185
 33
0.0
  0
MTEXT
  5
A89
330
A80
100
AcDbEntity
  8
치수문자_일반주서
 62
     0
100
AcDbMText
 10
91.26917746898087
 20
49.97180738881172
 30
0.0
 40
3.5
 41
0.0
 71
     2
 72
     1
  1
\A1;%%c1.2
  7
SLDTEXTSTYLE0
 11
0.0
 21
1.0
 31
0.0
 73
     1
 44
1.0
  0
POINT
  5
A8A
330
A80
100
AcDbEntity
  8
Defpoints
 62
     0
100
AcDbPoint
 10
69.52616092365798
 20
49.37180738881174
 30
0.0
  0
POINT
  5
A8B
330
A80
100
AcDbEntity
  8
Defpoints
 62
     0
100
AcDbPoint
 10
69.52616092365798
 20
50.57180738881175
 30
0.0
  0
POINT
  5
A8C
330
A80
100
AcDbEntity
  8
Defpoints
 62
     0
100
AcDbPoint
 10
95.64417746898087
 20
50.57180738881185
 30
0.0
  0
ENDBLK
  5
A82
330
A80
100
AcDbEntity
  8
0
100
AcDbBlockEnd
  0
BLOCK
  5
A8E
330
A8D
100
AcDbEntity
  8
0
100
AcDbBlockBegin
  2
*D48
 70
     1
 10
0.0
 20
0.0
 30
0.0
  3
*D48
  1

  0
LINE
  5
A90
330
A8D
100
AcDbEntity
  8
치수문자_일반주서
 62
     0
370
    -2
100
AcDbLine
 10
16.56166728747382
 20
52.53430738881175
 30
0.0
 11
16.56166728747382
 21
80.97180738881175
 31
0.0
  0
LINE
  5
A91
330
A8D
100
AcDbEntity
  8
치수문자_일반주서
 62
     0
370
    -2
100
AcDbLine
 10
76.56166728747382
 20
51.48667614363953
 30
0.0
 11
76.56166728747382
 21
80.97180738881175
 31
0.0
  0
LINE
  5
A92
330
A8D
100
AcDbEntity
  8
치수문자_일반주서
 62
     0
370
    -2
100
AcDbLine
 10
19.86366728747382
 20
80.97180738881175
 30
0.0
 11
73.25966728747382
 21
80.97180738881175
 31
0.0
  0
SOLID
  5
A93
330
A8D
100
AcDbEntity
  8
치수문자_일반주서
 62
     0
100
AcDbTrace
 10
19.86366728747382
 20
81.52214072214508
 30
0.0
 11
19.86366728747382
 21
80.42147405547843
 31
0.0
 12
16.56166728747382
 22
80.97180738881175
 32
0.0
 13
16.56166728747382
 23
80.97180738881175
 33
0.0
  0
SOLID
  5
A94
330
A8D
100
AcDbEntity
  8
치수문자_일반주서
 62
     0
100
AcDbTrace
 10
73.25966728747382
 20
80.42147405547843
 30
0.0
 11
73.25966728747382
 21
81.52214072214508
 31
0.0
 12
76.56166728747382
 22
80.97180738881175
 32
0.0
 13
76.56166728747382
 23
80.97180738881175
 33
0.0
  0
MTEXT
  5
A95
330
A8D
100
AcDbEntity
  8
치수문자_일반주서
 62
     0
100
AcDbMText
 10
46.56166728747383
 20
85.34680738881175
 30
0.0
 40
3.5
 41
0.0
 71
     2
 72
     1
  1
\A1;60
  7
SLDTEXTSTYLE0
 73
     1
 44
1.0
  0
POINT
  5
A96
330
A8D
100
AcDbEntity
  8
Defpoints
 62
     0
100
AcDbPoint
 10
16.56166728747382
 20
52.47180738881175
 30
0.0
  0
POINT
  5
A97
330
A8D
100
AcDbEntity
  8
Defpoints
 62
     0
100
AcDbPoint
 10
76.56166728747382
 20
51.42417614363953
 30
0.0
  0
POINT
  5
A98
330
A8D
100
AcDbEntity
  8
Defpoints
 62
     0
100
AcDbPoint
 10
76.56166728747382
 20
80.97180738881175
 30
0.0
  0
ENDBLK
  5
A8F
330
A8D
100
AcDbEntity
  8
0
100
AcDbBlockEnd
  0
BLOCK
  5
A9A
330
A99
100
AcDbEntity
  8
0
100
AcDbBlockBegin
  2
*D49
 70
     1
 10
0.0
 20
0.0
 30
0.0
  3
*D49
  1

  0
LINE
  5
A9C
330
A99
100
AcDbEntity
  8
치수문자_일반주서
 62
     0
370
    -2
100
AcDbLine
 10
16.99916728747382
 20
52.97180738881175
 30
0.0
 11
4.565209265861736
 21
52.9718073888117
 31
0.0
  0
LINE
  5
A9D
330
A99
100
AcDbEntity
  8
치수문자_일반주서
 62
     0
370
    -2
100
AcDbLine
 10
16.99916728747382
 20
46.97180738881175
 30
0.0
 11
4.565209265861757
 21
46.9718073888117
 31
0.0
  0
LINE
  5
A9E
330
A99
100
AcDbEntity
  8
치수문자_일반주서
 62
     0
370
    -2
100
AcDbLine
 10
4.565209265861747
 20
49.6698073888117
 30
0.0
 11
4.565209265861745
 21
50.2738073888117
 31
0.0
  0
SOLID
  5
A9F
330
A99
100
AcDbEntity
  8
치수문자_일반주서
 62
     0
100
AcDbTrace
 10
5.115542599195081
 20
49.6698073888117
 30
0.0
 11
4.014875932528414
 21
49.6698073888117
 31
0.0
 12
4.565209265861736
 22
52.9718073888117
 32
0.0
 13
4.565209265861736
 23
52.9718073888117
 33
0.0
  0
SOLID
  5
AA0
330
A99
100
AcDbEntity
  8
치수문자_일반주서
 62
     0
100
AcDbTrace
 10
4.014875932528412
 20
50.2738073888117
 30
0.0
 11
5.115542599195079
 21
50.2738073888117
 31
0.0
 12
4.565209265861757
 22
46.9718073888117
 32
0.0
 13
4.565209265861757
 23
46.9718073888117
 33
0.0
  0
MTEXT
  5
AA1
330
A99
100
AcDbEntity
  8
치수문자_일반주서
 62
     0
100
AcDbMText
 10
0.1902092658617462
 20
49.97180738881173
 30
0.0
 40
3.5
 41
0.0
 71
     2
 72
     1
  1
\A1;%%c6
  7
SLDTEXTSTYLE0
 11
-3.552713678800501E-15
 21
1.0
 31
0.0
 73
     1
 44
1.0
  0
POINT
  5
AA2
330
A99
100
AcDbEntity
  8
Defpoints
 62
     0
100
AcDbPoint
 10
17.06166728747382
 20
52.97180738881175
 30
0.0
  0
POINT
  5
AA3
330
A99
100
AcDbEntity
  8
Defpoints
 62
     0
100
AcDbPoint
 10
17.06166728747382
 20
46.97180738881175
 30
0.0
  0
POINT
  5
AA4
330
A99
100
AcDbEntity
  8
Defpoints
 62
     0
100
AcDbPoint
 10
4.565209265861746
 20
46.9718073888117
 30
0.0
  0
ENDBLK
  5
A9B
330
A99
100
AcDbEntity
  8
0
100
AcDbBlockEnd
  0
BLOCK
  5
AA6
330
AA5
100
AcDbEntity
  8
0
100
AcDbBlockBegin
  2
*D50
 70
     1
 10
0.0
 20
0.0
 30
0.0
  3
*D50
  1

  0
LINE
  5
AA8
330
AA5
100
AcDbEntity
  8
치수문자_일반주서
 62
     0
370
    -2
100
AcDbLine
 10
68.56166728747382
 20
51.99734233563491
 30
0.0
 11
68.56166728747382
 21
66.75725493390667
 31
0.0
  0
LINE
  5
AA9
330
AA5
100
AcDbEntity
  8
치수문자_일반주서
 62
     0
370
    -2
100
AcDbLine
 10
76.56166728747382
 20
51.48667614363953
 30
0.0
 11
76.56166728747382
 21
66.75725493390667
 31
0.0
  0
LINE
  5
AAA
330
AA5
100
AcDbEntity
  8
치수문자_일반주서
 62
     0
370
    -2
100
AcDbLine
 10
71.86366728747383
 20
66.75725493390667
 30
0.0
 11
73.25966728747382
 21
66.75725493390667
 31
0.0
  0
SOLID
  5
AAB
330
AA5
100
AcDbEntity
  8
치수문자_일반주서
 62
     0
100
AcDbTrace
 10
71.86366728747383
 20
67.30758826723999
 30
0.0
 11
71.86366728747383
 21
66.20692160057334
 31
0.0
 12
68.56166728747382
 22
66.75725493390667
 32
0.0
 13
68.56166728747382
 23
66.75725493390667
 33
0.0
  0
SOLID
  5
AAC
330
AA5
100
AcDbEntity
  8
치수문자_일반주서
 62
     0
100
AcDbTrace
 10
73.25966728747382
 20
66.20692160057334
 30
0.0
 11
73.25966728747382
 21
67.30758826723999
 31
0.0
 12
76.56166728747382
 22
66.75725493390667
 32
0.0
 13
76.56166728747382
 23
66.75725493390667
 33
0.0
  0
MTEXT
  5
AAD
330
AA5
100
AcDbEntity
  8
치수문자_일반주서
 62
     0
100
AcDbMText
 10
72.56166728747378
 20
71.13225493390667
 30
0.0
 40
3.5
 41
0.0
 71
     2
 72
     1
  1
\A1;8
  7
SLDTEXTSTYLE0
 73
     1
 44
1.0
  0
POINT
  5
AAE
330
AA5
100
AcDbEntity
  8
Defpoints
 62
     0
100
AcDbPoint
 10
68.56166728747382
 20
51.93484233563491
 30
0.0
  0
POINT
  5
AAF
330
AA5
100
AcDbEntity
  8
Defpoints
 62
     0
100
AcDbPoint
 10
76.56166728747382
 20
51.42417614363953
 30
0.0
  0
POINT
  5
AB0
330
AA5
100
AcDbEntity
  8
Defpoints
 62
     0
100
AcDbPoint
 10
76.56166728747382
 20
66.75725493390668
 30
0.0
  0
ENDBLK
  5
AA7
330
AA5
100
AcDbEntity
  8
0
100
AcDbBlockEnd
  0
BLOCK
  5
AB2
330
AB1
100
AcDbEntity
  8
0
100
AcDbBlockBegin
  2
*D51
 70
     1
 10
0.0
 20
0.0
 30
0.0
  3
*D51
  1

  0
LINE
  5
AB4
330
AB1
100
AcDbEntity
  8
치수문자_일반주서
 62
     0
370
    -2
100
AcDbLine
 10
76.56166728747382
 20
51.48667614363953
 30
0.0
 11
76.56166728747382
 21
74.87585141333341
 31
0.0
  0
LINE
  5
AB5
330
AB1
100
AcDbEntity
  8
치수문자_일반주서
 62
     0
370
    -2
100
AcDbLine
 10
61.56166715091897
 20
52.45930738881175
 30
0.0
 11
61.56166715091897
 21
74.87585141333341
 31
0.0
  0
LINE
  5
AB6
330
AB1
100
AcDbEntity
  8
치수문자_일반주서
 62
     0
370
    -2
100
AcDbLine
 10
73.25966728747382
 20
74.87585141333341
 30
0.0
 11
64.86366715091897
 21
74.87585141333341
 31
0.0
  0
SOLID
  5
AB7
330
AB1
100
AcDbEntity
  8
치수문자_일반주서
 62
     0
100
AcDbTrace
 10
73.25966728747382
 20
74.32551808000008
 30
0.0
 11
73.25966728747382
 21
75.42618474666673
 31
0.0
 12
76.56166728747382
 22
74.87585141333341
 32
0.0
 13
76.56166728747382
 23
74.87585141333341
 33
0.0
  0
SOLID
  5
AB8
330
AB1
100
AcDbEntity
  8
치수문자_일반주서
 62
     0
100
AcDbTrace
 10
64.86366715091897
 20
75.42618474666673
 30
0.0
 11
64.86366715091897
 21
74.32551808000008
 31
0.0
 12
61.56166715091897
 22
74.87585141333341
 32
0.0
 13
61.56166715091897
 23
74.87585141333341
 33
0.0
  0
MTEXT
  5
AB9
330
AB1
100
AcDbEntity
  8
치수문자_일반주서
 62
     0
100
AcDbMText
 10
69.0616672191964
 20
79.25085141333341
 30
0.0
 40
3.5
 41
0.0
 71
     2
 72
     1
  1
\A1;15
  7
SLDTEXTSTYLE0
 73
     1
 44
1.0
  0
POINT
  5
ABA
330
AB1
100
AcDbEntity
  8
Defpoints
 62
     0
100
AcDbPoint
 10
76.56166728747382
 20
51.42417614363953
 30
0.0
  0
POINT
  5
ABB
330
AB1
100
AcDbEntity
  8
Defpoints
 62
     0
100
AcDbPoint
 10
61.56166715091897
 20
52.39680738881175
 30
0.0
  0
POINT
  5
ABC
330
AB1
100
AcDbEntity
  8
Defpoints
 62
     0
100
AcDbPoint
 10
61.56166715091897
 20
74.87585141333341
 30
0.0
  0
ENDBLK
  5
AB3
330
AB1
100
AcDbEntity
  8
0
100
AcDbBlockEnd
  0
BLOCK
  5
B0A
330
B09
100
AcDbEntity
  8
0
100
AcDbBlockBegin
  2
*D52
 70
     1
 10
0.0
 20
0.0
 30
0.0
  3
*D52
  1

  0
LINE
  5
B0C
330
B09
100
AcDbEntity
  8
치수문자_일반주서
 62
     0
370
    -2
100
AcDbLine
 10
175.9769357309483
 20
3.968938006732515
 30
0.0
 11
202.0324522762712
 21
3.968938006732612
 31
0.0
  0
LINE
  5
B0D
330
B09
100
AcDbEntity
  8
치수문자_일반주서
 62
     0
370
    -2
100
AcDbLine
 10
175.9769357309483
 20
5.168938006732525
 30
0.0
 11
202.0324522762712
 21
5.168938006732622
 31
0.0
  0
LINE
  5
B0E
330
B09
100
AcDbEntity
  8
치수문자_일반주서
 62
     0
370
    -2
100
AcDbLine
 10
202.0324522762712
 20
0.6669380067326123
 30
0.0
 11
202.0324522762712
 21
-2.635061993267388
 31
0.0
  0
LINE
  5
B0F
330
B09
100
AcDbEntity
  8
치수문자_일반주서
 62
     0
370
    -2
100
AcDbLine
 10
202.0324522762712
 20
8.470938006732622
 30
0.0
 11
202.0324522762712
 21
11.77293800673262
 31
0.0
  0
SOLID
  5
B10
330
B09
100
AcDbEntity
  8
치수문자_일반주서
 62
     0
100
AcDbTrace
 10
202.5827856096045
 20
0.6669380067326123
 30
0.0
 11
201.4821189429379
 21
0.6669380067326123
 31
0.0
 12
202.0324522762712
 22
3.968938006732612
 32
0.0
 13
202.0324522762712
 23
3.968938006732612
 33
0.0
  0
SOLID
  5
B11
330
B09
100
AcDbEntity
  8
치수문자_일반주서
 62
     0
100
AcDbTrace
 10
201.4821189429379
 20
8.470938006732622
 30
0.0
 11
202.5827856096045
 21
8.470938006732622
 31
0.0
 12
202.0324522762712
 22
5.168938006732622
 32
0.0
 13
202.0324522762712
 23
5.168938006732622
 33
0.0
  0
MTEXT
  5
B12
330
B09
100
AcDbEntity
  8
치수문자_일반주서
 62
     0
100
AcDbMText
 10
197.6574522762712
 20
4.568938006732495
 30
0.0
 40
3.5
 41
0.0
 71
     2
 72
     1
  1
\A1;%%c1.2
  7
SLDTEXTSTYLE0
 11
0.0
 21
1.0
 31
0.0
 73
     1
 44
1.0
  0
POINT
  5
B13
330
B09
100
AcDbEntity
  8
Defpoints
 62
     0
100
AcDbPoint
 10
175.9144357309483
 20
3.968938006732515
 30
0.0
  0
POINT
  5
B14
330
B09
100
AcDbEntity
  8
Defpoints
 62
     0
100
AcDbPoint
 10
175.9144357309483
 20
5.168938006732525
 30
0.0
  0
POINT
  5
B15
330
B09
100
AcDbEntity
  8
Defpoints
 62
     0
100
AcDbPoint
 10
202.0324522762712
 20
5.168938006732622
 30
0.0
  0
ENDBLK
  5
B0B
330
B09
100
AcDbEntity
  8
0
100
AcDbBlockEnd
  0
BLOCK
  5
B17
330
B16
100
AcDbEntity
  8
0
100
AcDbBlockBegin
  2
*D53
 70
     1
 10
0.0
 20
0.0
 30
0.0
  3
*D53
  1

  0
LINE
  5
B19
330
B16
100
AcDbEntity
  8
치수문자_일반주서
 62
     0
370
    -2
100
AcDbLine
 10
122.9499420947641
 20
7.131438006732523
 30
0.0
 11
122.9499420947641
 21
35.56893800673253
 31
0.0
  0
LINE
  5
B1A
330
B16
100
AcDbEntity
  8
치수문자_일반주서
 62
     0
370
    -2
100
AcDbLine
 10
182.9499420947641
 20
6.083806761560304
 30
0.0
 11
182.9499420947641
 21
35.56893800673253
 31
0.0
  0
LINE
  5
B1B
330
B16
100
AcDbEntity
  8
치수문자_일반주서
 62
     0
370
    -2
100
AcDbLine
 10
126.2519420947641
 20
35.56893800673253
 30
0.0
 11
179.6479420947641
 21
35.56893800673253
 31
0.0
  0
SOLID
  5
B1C
330
B16
100
AcDbEntity
  8
치수문자_일반주서
 62
     0
100
AcDbTrace
 10
126.2519420947641
 20
36.11927134006586
 30
0.0
 11
126.2519420947641
 21
35.0186046733992
 31
0.0
 12
122.9499420947641
 22
35.56893800673253
 32
0.0
 13
122.9499420947641
 23
35.56893800673253
 33
0.0
  0
SOLID
  5
B1D
330
B16
100
AcDbEntity
  8
치수문자_일반주서
 62
     0
100
AcDbTrace
 10
179.6479420947641
 20
35.0186046733992
 30
0.0
 11
179.6479420947641
 21
36.11927134006586
 31
0.0
 12
182.9499420947641
 22
35.56893800673253
 32
0.0
 13
182.9499420947641
 23
35.56893800673253
 33
0.0
  0
MTEXT
  5
B1E
330
B16
100
AcDbEntity
  8
치수문자_일반주서
 62
     0
100
AcDbMText
 10
152.9499420947641
 20
39.94393800673253
 30
0.0
 40
3.5
 41
0.0
 71
     2
 72
     1
  1
\A1;60
  7
SLDTEXTSTYLE0
 73
     1
 44
1.0
  0
POINT
  5
B1F
330
B16
100
AcDbEntity
  8
Defpoints
 62
     0
100
AcDbPoint
 10
122.9499420947641
 20
7.068938006732523
 30
0.0
  0
POINT
  5
B20
330
B16
100
AcDbEntity
  8
Defpoints
 62
     0
100
AcDbPoint
 10
182.9499420947641
 20
6.021306761560304
 30
0.0
  0
POINT
  5
B21
330
B16
100
AcDbEntity
  8
Defpoints
 62
     0
100
AcDbPoint
 10
182.9499420947641
 20
35.56893800673253
 30
0.0
  0
ENDBLK
  5
B18
330
B16
100
AcDbEntity
  8
0
100
AcDbBlockEnd
  0
BLOCK
  5
B23
330
B22
100
AcDbEntity
  8
0
100
AcDbBlockBegin
  2
*D54
 70
     1
 10
0.0
 20
0.0
 30
0.0
  3
*D54
  1

  0
LINE
  5
B25
330
B22
100
AcDbEntity
  8
치수문자_일반주서
 62
     0
370
    -2
100
AcDbLine
 10
123.3874420947641
 20
7.568938006732523
 30
0.0
 11
110.9534840731521
 21
7.568938006732475
 31
0.0
  0
LINE
  5
B26
330
B22
100
AcDbEntity
  8
치수문자_일반주서
 62
     0
370
    -2
100
AcDbLine
 10
123.3874420947641
 20
1.568938006732523
 30
0.0
 11
110.9534840731521
 21
1.568938006732475
 31
0.0
  0
LINE
  5
B27
330
B22
100
AcDbEntity
  8
치수문자_일반주서
 62
     0
370
    -2
100
AcDbLine
 10
110.9534840731521
 20
4.266938006732476
 30
0.0
 11
110.9534840731521
 21
4.870938006732475
 31
0.0
  0
SOLID
  5
B28
330
B22
100
AcDbEntity
  8
치수문자_일반주서
 62
     0
100
AcDbTrace
 10
111.5038174064854
 20
4.266938006732476
 30
0.0
 11
110.4031507398187
 21
4.266938006732475
 31
0.0
 12
110.9534840731521
 22
7.568938006732475
 32
0.0
 13
110.9534840731521
 23
7.568938006732475
 33
0.0
  0
SOLID
  5
B29
330
B22
100
AcDbEntity
  8
치수문자_일반주서
 62
     0
100
AcDbTrace
 10
110.4031507398187
 20
4.870938006732474
 30
0.0
 11
111.5038174064854
 21
4.870938006732476
 31
0.0
 12
110.9534840731521
 22
1.568938006732475
 32
0.0
 13
110.9534840731521
 23
1.568938006732475
 33
0.0
  0
MTEXT
  5
B2A
330
B22
100
AcDbEntity
  8
치수문자_일반주서
 62
     0
100
AcDbMText
 10
106.5784840731521
 20
4.568938006732512
 30
0.0
 40
3.5
 41
0.0
 71
     2
 72
     1
  1
\A1;%%c6
  7
SLDTEXTSTYLE0
 11
-2.368475785867001E-15
 21
1.0
 31
0.0
 73
     1
 44
1.0
  0
POINT
  5
B2B
330
B22
100
AcDbEntity
  8
Defpoints
 62
     0
100
AcDbPoint
 10
123.4499420947641
 20
7.568938006732523
 30
0.0
  0
POINT
  5
B2C
330
B22
100
AcDbEntity
  8
Defpoints
 62
     0
100
AcDbPoint
 10
123.4499420947641
 20
1.568938006732523
 30
0.0
  0
POINT
  5
B2D
330
B22
100
AcDbEntity
  8
Defpoints
 62
     0
100
AcDbPoint
 10
110.9534840731521
 20
1.568938006732477
 30
0.0
  0
ENDBLK
  5
B24
330
B22
100
AcDbEntity
  8
0
100
AcDbBlockEnd
  0
BLOCK
  5
B2F
330
B2E
100
AcDbEntity
  8
0
100
AcDbBlockBegin
  2
*D55
 70
     1
 10
0.0
 20
0.0
 30
0.0
  3
*D55
  1

  0
LINE
  5
B31
330
B2E
100
AcDbEntity
  8
치수문자_일반주서
 62
     0
370
    -2
100
AcDbLine
 10
174.9499420947641
 20
6.594472953555687
 30
0.0
 11
174.9499420947641
 21
21.35438555182744
 31
0.0
  0
LINE
  5
B32
330
B2E
100
AcDbEntity
  8
치수문자_일반주서
 62
     0
370
    -2
100
AcDbLine
 10
182.9499420947641
 20
6.083806761560304
 30
0.0
 11
182.9499420947641
 21
21.35438555182744
 31
0.0
  0
LINE
  5
B33
330
B2E
100
AcDbEntity
  8
치수문자_일반주서
 62
     0
370
    -2
100
AcDbLine
 10
178.2519420947641
 20
21.35438555182744
 30
0.0
 11
179.6479420947641
 21
21.35438555182744
 31
0.0
  0
SOLID
  5
B34
330
B2E
100
AcDbEntity
  8
치수문자_일반주서
 62
     0
100
AcDbTrace
 10
178.2519420947641
 20
21.90471888516078
 30
0.0
 11
178.2519420947641
 21
20.80405221849411
 31
0.0
 12
174.9499420947641
 22
21.35438555182744
 32
0.0
 13
174.9499420947641
 23
21.35438555182744
 33
0.0
  0
SOLID
  5
B35
330
B2E
100
AcDbEntity
  8
치수문자_일반주서
 62
     0
100
AcDbTrace
 10
179.6479420947641
 20
20.80405221849411
 30
0.0
 11
179.6479420947641
 21
21.90471888516078
 31
0.0
 12
182.9499420947641
 22
21.35438555182744
 32
0.0
 13
182.9499420947641
 23
21.35438555182744
 33
0.0
  0
MTEXT
  5
B36
330
B2E
100
AcDbEntity
  8
치수문자_일반주서
 62
     0
100
AcDbMText
 10
178.9499420947641
 20
25.72938555182744
 30
0.0
 40
3.5
 41
0.0
 71
     2
 72
     1
  1
\A1;8
  7
SLDTEXTSTYLE0
 73
     1
 44
1.0
  0
POINT
  5
B37
330
B2E
100
AcDbEntity
  8
Defpoints
 62
     0
100
AcDbPoint
 10
174.9499420947641
 20
6.531972953555687
 30
0.0
  0
POINT
  5
B38
330
B2E
100
AcDbEntity
  8
Defpoints
 62
     0
100
AcDbPoint
 10
182.9499420947641
 20
6.021306761560304
 30
0.0
  0
POINT
  5
B39
330
B2E
100
AcDbEntity
  8
Defpoints
 62
     0
100
AcDbPoint
 10
182.9499420947641
 20
21.35438555182744
 30
0.0
  0
ENDBLK
  5
B30
330
B2E
100
AcDbEntity
  8
0
100
AcDbBlockEnd
  0
BLOCK
  5
B3B
330
B3A
100
AcDbEntity
  8
0
100
AcDbBlockBegin
  2
*D56
 70
     1
 10
0.0
 20
0.0
 30
0.0
  3
*D56
  1

  0
LINE
  5
B3D
330
B3A
100
AcDbEntity
  8
치수문자_일반주서
 62
     0
370
    -2
100
AcDbLine
 10
182.9499420947641
 20
6.083806761560304
 30
0.0
 11
182.9499420947641
 21
29.47298203125418
 31
0.0
  0
LINE
  5
B3E
330
B3A
100
AcDbEntity
  8
치수문자_일반주서
 62
     0
370
    -2
100
AcDbLine
 10
167.9499419582093
 20
7.056438006732527
 30
0.0
 11
167.9499419582093
 21
29.47298203125418
 31
0.0
  0
LINE
  5
B3F
330
B3A
100
AcDbEntity
  8
치수문자_일반주서
 62
     0
370
    -2
100
AcDbLine
 10
179.6479420947641
 20
29.47298203125418
 30
0.0
 11
171.2519419582093
 21
29.47298203125418
 31
0.0
  0
SOLID
  5
B40
330
B3A
100
AcDbEntity
  8
치수문자_일반주서
 62
     0
100
AcDbTrace
 10
179.6479420947641
 20
28.92264869792085
 30
0.0
 11
179.6479420947641
 21
30.02331536458752
 31
0.0
 12
182.9499420947641
 22
29.47298203125418
 32
0.0
 13
182.9499420947641
 23
29.47298203125418
 33
0.0
  0
SOLID
  5
B41
330
B3A
100
AcDbEntity
  8
치수문자_일반주서
 62
     0
100
AcDbTrace
 10
171.2519419582093
 20
30.02331536458752
 30
0.0
 11
171.2519419582093
 21
28.92264869792085
 31
0.0
 12
167.9499419582093
 22
29.47298203125418
 32
0.0
 13
167.9499419582093
 23
29.47298203125418
 33
0.0
  0
MTEXT
  5
B42
330
B3A
100
AcDbEntity
  8
치수문자_일반주서
 62
     0
100
AcDbMText
 10
175.4499420264867
 20
33.84798203125418
 30
0.0
 40
3.5
 41
0.0
 71
     2
 72
     1
  1
\A1;15
  7
SLDTEXTSTYLE0
 73
     1
 44
1.0
  0
POINT
  5
B43
330
B3A
100
AcDbEntity
  8
Defpoints
 62
     0
100
AcDbPoint
 10
182.9499420947641
 20
6.021306761560304
 30
0.0
  0
POINT
  5
B44
330
B3A
100
AcDbEntity
  8
Defpoints
 62
     0
100
AcDbPoint
 10
167.9499419582093
 20
6.993938006732527
 30
0.0
  0
POINT
  5
B45
330
B3A
100
AcDbEntity
  8
Defpoints
 62
     0
100
AcDbPoint
 10
167.9499419582093
 20
29.47298203125418
 30
0.0
  0
ENDBLK
  5
B3C
330
B3A
100
AcDbEntity
  8
0
100
AcDbBlockEnd
  0
BLOCK
  5
B4A
330
B49
100
AcDbEntity
  8
0
100
AcDbBlockBegin
  2
*D57
 70
     1
 10
0.0
 20
0.0
 30
0.0
  3
*D57
  1

  0
LINE
  5
B4C
330
B49
100
AcDbEntity
  8
치수문자_일반주서
 62
     0
370
    -2
100
AcDbLine
 10
18.79850721479073
 20
-4.886891492025558
 30
0.0
 11
28.06145929050061
 21
-16.71410774415397
 31
0.0
  0
MTEXT
  5
B4D
330
B49
100
AcDbEntity
  8
치수문자_일반주서
 62
     0
100
AcDbMText
 10
28.50952366261999
 20
-13.02893633451272
 30
0.0
 40
3.5
 41
0.0
 71
     5
 72
     1
  1
\A1;R1
  7
SLDTEXTSTYLE0
 11
0.6165918166708327
 21
-0.7872830060496431
 31
0.0
 73
     1
 44
1.0
  0
SOLID
  5
B4E
330
B49
100
AcDbEntity
  8
치수문자_일반주서
 62
     0
100
AcDbTrace
 10
19.23177529578671
 20
-4.547560462251043
 30
0.0
 11
18.36523913379474
 21
-5.226222521800073
 31
0.0
 12
16.76252103614364
 22
-2.287283006049637
 32
0.0
 13
16.76252103614364
 23
-2.287283006049637
 33
0.0
  0
ARC
  5
B4F
330
B49
100
AcDbEntity
  8
치수문자_일반주서
 62
     0
370
    -2
100
AcDbCircle
 10
16.14592921947281
 20
-1.499999999999993
 30
0.0
 40
1.000000000000002
100
AcDbArc
 50
308.0676757919733
 51
311.6965780078229
  0
POINT
  5
B50
330
B49
100
AcDbEntity
  8
Defpoints
 62
     0
100
AcDbPoint
 10
16.76252103614364
 20
-2.287283006049637
 30
0.0
  0
POINT
  5
B51
330
B49
100
AcDbEntity
  8
Defpoints
 62
     0
100
AcDbPoint
 10
16.14592921947281
 20
-1.499999999999993
 30
0.0
  0
ENDBLK
  5
B4B
330
B49
100
AcDbEntity
  8
0
100
AcDbBlockEnd
  0
BLOCK
  5
C49
330
C48
100
AcDbEntity
  8
0
100
AcDbBlockBegin
  2
*D58
 70
     1
 10
0.0
 20
0.0
 30
0.0
  3
*D58
  1

  0
LINE
  5
C4B
330
C48
100
AcDbEntity
  8
치수문자_일반주서
 62
     0
370
    -2
100
AcDbLine
 10
69.58866092365798
 20
47.47180738881174
 30
0.0
 11
95.64417746898087
 21
47.47180738881184
 31
0.0
  0
LINE
  5
C4C
330
C48
100
AcDbEntity
  8
치수문자_일반주서
 62
     0
370
    -2
100
AcDbLine
 10
69.58866092365798
 20
52.47180738881175
 30
0.0
 11
95.64417746898086
 21
52.47180738881185
 31
0.0
  0
LINE
  5
C4D
330
C48
100
AcDbEntity
  8
치수문자_일반주서
 62
     0
370
    -2
100
AcDbLine
 10
95.64417746898089
 20
44.16980738881184
 30
0.0
 11
95.6441774689809
 21
40.86780738881184
 31
0.0
  0
LINE
  5
C4E
330
C48
100
AcDbEntity
  8
치수문자_일반주서
 62
     0
370
    -2
100
AcDbLine
 10
95.64417746898084
 20
55.77380738881185
 30
0.0
 11
95.64417746898083
 21
59.07580738881185
 31
0.0
  0
SOLID
  5
C4F
330
C48
100
AcDbEntity
  8
치수문자_일반주서
 62
     0
100
AcDbTrace
 10
96.19451080231421
 20
44.16980738881184
 30
0.0
 11
95.09384413564756
 21
44.16980738881184
 31
0.0
 12
95.64417746898087
 22
47.47180738881184
 32
0.0
 13
95.64417746898087
 23
47.47180738881184
 33
0.0
  0
SOLID
  5
C50
330
C48
100
AcDbEntity
  8
치수문자_일반주서
 62
     0
100
AcDbTrace
 10
95.09384413564752
 20
55.77380738881185
 30
0.0
 11
96.19451080231417
 21
55.77380738881185
 31
0.0
 12
95.64417746898086
 22
52.47180738881185
 32
0.0
 13
95.64417746898086
 23
52.47180738881185
 33
0.0
  0
MTEXT
  5
C51
330
C48
100
AcDbEntity
  8
치수문자_일반주서
 62
     0
100
AcDbMText
 10
91.26917746898087
 20
49.97180738881162
 30
0.0
 40
3.5
 41
0.0
 71
     2
 72
     1
  1
\A1;%%c5
  7
SLDTEXTSTYLE0
 11
-2.842170943040393E-15
 21
1.0
 31
0.0
 73
     1
 44
1.0
  0
POINT
  5
C52
330
C48
100
AcDbEntity
  8
Defpoints
 62
     0
100
AcDbPoint
 10
69.52616092365798
 20
47.47180738881174
 30
0.0
  0
POINT
  5
C53
330
C48
100
AcDbEntity
  8
Defpoints
 62
     0
100
AcDbPoint
 10
69.52616092365798
 20
52.47180738881175
 30
0.0
  0
POINT
  5
C54
330
C48
100
AcDbEntity
  8
Defpoints
 62
     0
100
AcDbPoint
 10
95.64417746898087
 20
52.47180738881185
 30
0.0
  0
ENDBLK
  5
C4A
330
C48
100
AcDbEntity
  8
0
100
AcDbBlockEnd
  0
BLOCK
  5
C56
330
C55
100
AcDbEntity
  8
0
100
AcDbBlockBegin
  2
*D59
 70
     1
 10
0.0
 20
0.0
 30
0.0
  3
*D59
  1

  0
LINE
  5
C58
330
C55
100
AcDbEntity
  8
치수문자_일반주서
 62
     0
370
    -2
100
AcDbLine
 10
16.56166728747382
 20
52.53430738881175
 30
0.0
 11
16.56166728747382
 21
80.97180738881175
 31
0.0
  0
LINE
  5
C59
330
C55
100
AcDbEntity
  8
치수문자_일반주서
 62
     0
370
    -2
100
AcDbLine
 10
76.56166728747382
 20
51.48667614363953
 30
0.0
 11
76.56166728747382
 21
80.97180738881175
 31
0.0
  0
LINE
  5
C5A
330
C55
100
AcDbEntity
  8
치수문자_일반주서
 62
     0
370
    -2
100
AcDbLine
 10
19.86366728747382
 20
80.97180738881175
 30
0.0
 11
73.25966728747382
 21
80.97180738881175
 31
0.0
  0
SOLID
  5
C5B
330
C55
100
AcDbEntity
  8
치수문자_일반주서
 62
     0
100
AcDbTrace
 10
19.86366728747382
 20
81.52214072214508
 30
0.0
 11
19.86366728747382
 21
80.42147405547843
 31
0.0
 12
16.56166728747382
 22
80.97180738881175
 32
0.0
 13
16.56166728747382
 23
80.97180738881175
 33
0.0
  0
SOLID
  5
C5C
330
C55
100
AcDbEntity
  8
치수문자_일반주서
 62
     0
100
AcDbTrace
 10
73.25966728747382
 20
80.42147405547843
 30
0.0
 11
73.25966728747382
 21
81.52214072214508
 31
0.0
 12
76.56166728747382
 22
80.97180738881175
 32
0.0
 13
76.56166728747382
 23
80.97180738881175
 33
0.0
  0
MTEXT
  5
C5D
330
C55
100
AcDbEntity
  8
치수문자_일반주서
 62
     0
100
AcDbMText
 10
46.56166728747383
 20
85.34680738881175
 30
0.0
 40
3.5
 41
0.0
 71
     2
 72
     1
  1
\A1;60
  7
SLDTEXTSTYLE0
 73
     1
 44
1.0
  0
POINT
  5
C5E
330
C55
100
AcDbEntity
  8
Defpoints
 62
     0
100
AcDbPoint
 10
16.56166728747382
 20
52.47180738881175
 30
0.0
  0
POINT
  5
C5F
330
C55
100
AcDbEntity
  8
Defpoints
 62
     0
100
AcDbPoint
 10
76.56166728747382
 20
51.42417614363953
 30
0.0
  0
POINT
  5
C60
330
C55
100
AcDbEntity
  8
Defpoints
 62
     0
100
AcDbPoint
 10
76.56166728747382
 20
80.97180738881175
 30
0.0
  0
ENDBLK
  5
C57
330
C55
100
AcDbEntity
  8
0
100
AcDbBlockEnd
  0
BLOCK
  5
C62
330
C61
100
AcDbEntity
  8
0
100
AcDbBlockBegin
  2
*D60
 70
     1
 10
0.0
 20
0.0
 30
0.0
  3
*D60
  1

  0
LINE
  5
C64
330
C61
100
AcDbEntity
  8
치수문자_일반주서
 62
     0
370
    -2
100
AcDbLine
 10
16.99916728747382
 20
52.97180738881175
 30
0.0
 11
4.565209265861736
 21
52.9718073888117
 31
0.0
  0
LINE
  5
C65
330
C61
100
AcDbEntity
  8
치수문자_일반주서
 62
     0
370
    -2
100
AcDbLine
 10
16.99916728747382
 20
46.97180738881175
 30
0.0
 11
4.565209265861757
 21
46.9718073888117
 31
0.0
  0
LINE
  5
C66
330
C61
100
AcDbEntity
  8
치수문자_일반주서
 62
     0
370
    -2
100
AcDbLine
 10
4.565209265861724
 20
56.2738073888117
 30
0.0
 11
4.565209265861712
 21
59.5758073888117
 31
0.0
  0
LINE
  5
C67
330
C61
100
AcDbEntity
  8
치수문자_일반주서
 62
     0
370
    -2
100
AcDbLine
 10
4.565209265861768
 20
43.66980738881171
 30
0.0
 11
4.56520926586178
 21
40.36780738881171
 31
0.0
  0
SOLID
  5
C68
330
C61
100
AcDbEntity
  8
치수문자_일반주서
 62
     0
100
AcDbTrace
 10
4.01487593252839
 20
56.2738073888117
 30
0.0
 11
5.115542599195058
 21
56.2738073888117
 31
0.0
 12
4.565209265861736
 22
52.9718073888117
 32
0.0
 13
4.565209265861736
 23
52.9718073888117
 33
0.0
  0
SOLID
  5
C69
330
C61
100
AcDbEntity
  8
치수문자_일반주서
 62
     0
100
AcDbTrace
 10
5.115542599195102
 20
43.66980738881171
 30
0.0
 11
4.014875932528435
 21
43.66980738881171
 31
0.0
 12
4.565209265861757
 22
46.9718073888117
 32
0.0
 13
4.565209265861757
 23
46.9718073888117
 33
0.0
  0
MTEXT
  5
C6A
330
C61
100
AcDbEntity
  8
치수문자_일반주서
 62
     0
100
AcDbMText
 10
0.1902092658617462
 20
49.97180738881173
 30
0.0
 40
3.5
 41
0.0
 71
     2
 72
     1
  1
\A1;%%c6
  7
SLDTEXTSTYLE0
 11
-3.552713678800505E-15
 21
1.0
 31
0.0
 73
     1
 44
1.0
  0
POINT
  5
C6B
330
C61
100
AcDbEntity
  8
Defpoints
 62
     0
100
AcDbPoint
 10
17.06166728747382
 20
52.97180738881175
 30
0.0
  0
POINT
  5
C6C
330
C61
100
AcDbEntity
  8
Defpoints
 62
     0
100
AcDbPoint
 10
17.06166728747382
 20
46.97180738881175
 30
0.0
  0
POINT
  5
C6D
330
C61
100
AcDbEntity
  8
Defpoints
 62
     0
100
AcDbPoint
 10
4.565209265861746
 20
46.9718073888117
 30
0.0
  0
ENDBLK
  5
C63
330
C61
100
AcDbEntity
  8
0
100
AcDbBlockEnd
  0
BLOCK
  5
C6F
330
C6E
100
AcDbEntity
  8
0
100
AcDbBlockBegin
  2
*D61
 70
     1
 10
0.0
 20
0.0
 30
0.0
  3
*D61
  1

  0
LINE
  5
C71
330
C6E
100
AcDbEntity
  8
치수문자_일반주서
 62
     0
370
    -2
100
AcDbLine
 10
68.56166728747382
 20
51.99734233563491
 30
0.0
 11
68.56166728747382
 21
66.75725493390667
 31
0.0
  0
LINE
  5
C72
330
C6E
100
AcDbEntity
  8
치수문자_일반주서
 62
     0
370
    -2
100
AcDbLine
 10
76.56166728747382
 20
51.48667614363953
 30
0.0
 11
76.56166728747382
 21
66.75725493390667
 31
0.0
  0
LINE
  5
C73
330
C6E
100
AcDbEntity
  8
치수문자_일반주서
 62
     0
370
    -2
100
AcDbLine
 10
65.25966728747382
 20
66.75725493390667
 30
0.0
 11
61.95766728747382
 21
66.75725493390667
 31
0.0
  0
LINE
  5
C74
330
C6E
100
AcDbEntity
  8
치수문자_일반주서
 62
     0
370
    -2
100
AcDbLine
 10
79.86366728747383
 20
66.75725493390667
 30
0.0
 11
83.16566728747384
 21
66.75725493390667
 31
0.0
  0
SOLID
  5
C75
330
C6E
100
AcDbEntity
  8
치수문자_일반주서
 62
     0
100
AcDbTrace
 10
65.25966728747382
 20
66.20692160057334
 30
0.0
 11
65.25966728747382
 21
67.30758826723999
 31
0.0
 12
68.56166728747382
 22
66.75725493390667
 32
0.0
 13
68.56166728747382
 23
66.75725493390667
 33
0.0
  0
SOLID
  5
C76
330
C6E
100
AcDbEntity
  8
치수문자_일반주서
 62
     0
100
AcDbTrace
 10
79.86366728747383
 20
67.30758826723999
 30
0.0
 11
79.86366728747383
 21
66.20692160057334
 31
0.0
 12
76.56166728747382
 22
66.75725493390667
 32
0.0
 13
76.56166728747382
 23
66.75725493390667
 33
0.0
  0
MTEXT
  5
C77
330
C6E
100
AcDbEntity
  8
치수문자_일반주서
 62
     0
100
AcDbMText
 10
72.56166728747378
 20
71.13225493390667
 30
0.0
 40
3.5
 41
0.0
 71
     2
 72
     1
  1
\A1;8
  7
SLDTEXTSTYLE0
 73
     1
 44
1.0
  0
POINT
  5
C78
330
C6E
100
AcDbEntity
  8
Defpoints
 62
     0
100
AcDbPoint
 10
68.56166728747382
 20
51.93484233563491
 30
0.0
  0
POINT
  5
C79
330
C6E
100
AcDbEntity
  8
Defpoints
 62
     0
100
AcDbPoint
 10
76.56166728747382
 20
51.42417614363953
 30
0.0
  0
POINT
  5
C7A
330
C6E
100
AcDbEntity
  8
Defpoints
 62
     0
100
AcDbPoint
 10
76.56166728747382
 20
66.75725493390668
 30
0.0
  0
ENDBLK
  5
C70
330
C6E
100
AcDbEntity
  8
0
100
AcDbBlockEnd
  0
BLOCK
  5
C7C
330
C7B
100
AcDbEntity
  8
0
100
AcDbBlockBegin
  2
*D62
 70
     1
 10
0.0
 20
0.0
 30
0.0
  3
*D62
  1

  0
LINE
  5
C7E
330
C7B
100
AcDbEntity
  8
치수문자_일반주서
 62
     0
370
    -2
100
AcDbLine
 10
76.56166728747382
 20
51.48667614363953
 30
0.0
 11
76.56166728747382
 21
74.87585141333341
 31
0.0
  0
LINE
  5
C7F
330
C7B
100
AcDbEntity
  8
치수문자_일반주서
 62
     0
370
    -2
100
AcDbLine
 10
61.56166715091897
 20
52.45930738881175
 30
0.0
 11
61.56166715091897
 21
74.87585141333341
 31
0.0
  0
LINE
  5
C80
330
C7B
100
AcDbEntity
  8
치수문자_일반주서
 62
     0
370
    -2
100
AcDbLine
 10
73.25966728747382
 20
74.87585141333341
 30
0.0
 11
64.86366715091897
 21
74.87585141333341
 31
0.0
  0
SOLID
  5
C81
330
C7B
100
AcDbEntity
  8
치수문자_일반주서
 62
     0
100
AcDbTrace
 10
73.25966728747382
 20
74.32551808000008
 30
0.0
 11
73.25966728747382
 21
75.42618474666673
 31
0.0
 12
76.56166728747382
 22
74.87585141333341
 32
0.0
 13
76.56166728747382
 23
74.87585141333341
 33
0.0
  0
SOLID
  5
C82
330
C7B
100
AcDbEntity
  8
치수문자_일반주서
 62
     0
100
AcDbTrace
 10
64.86366715091897
 20
75.42618474666673
 30
0.0
 11
64.86366715091897
 21
74.32551808000008
 31
0.0
 12
61.56166715091897
 22
74.87585141333341
 32
0.0
 13
61.56166715091897
 23
74.87585141333341
 33
0.0
  0
MTEXT
  5
C83
330
C7B
100
AcDbEntity
  8
치수문자_일반주서
 62
     0
100
AcDbMText
 10
69.0616672191964
 20
79.25085141333341
 30
0.0
 40
3.5
 41
0.0
 71
     2
 72
     1
  1
\A1;15
  7
SLDTEXTSTYLE0
 73
     1
 44
1.0
  0
POINT
  5
C84
330
C7B
100
AcDbEntity
  8
Defpoints
 62
     0
100
AcDbPoint
 10
76.56166728747382
 20
51.42417614363953
 30
0.0
  0
POINT
  5
C85
330
C7B
100
AcDbEntity
  8
Defpoints
 62
     0
100
AcDbPoint
 10
61.56166715091897
 20
52.39680738881175
 30
0.0
  0
POINT
  5
C86
330
C7B
100
AcDbEntity
  8
Defpoints
 62
     0
100
AcDbPoint
 10
61.56166715091897
 20
74.87585141333341
 30
0.0
  0
ENDBLK
  5
C7D
330
C7B
100
AcDbEntity
  8
0
100
AcDbBlockEnd
  0
BLOCK
  5
CBA
330
CB9
100
AcDbEntity
  8
0
100
AcDbBlockBegin
  2
*D63
 70
     1
 10
0.0
 20
0.0
 30
0.0
  3
*D63
  1

  0
LINE
  5
CBC
330
CB9
100
AcDbEntity
  8
치수문자_일반주서
 62
     0
370
    -2
100
AcDbLine
 10
125.2282791491428
 20
-1.093876370069573
 30
0.0
 11
151.2837956944657
 21
-1.093876370069475
 31
0.0
  0
LINE
  5
CBD
330
CB9
100
AcDbEntity
  8
치수문자_일반주서
 62
     0
370
    -2
100
AcDbLine
 10
125.2282791491428
 20
3.906123629930442
 30
0.0
 11
151.2837956944657
 21
3.906123629930539
 31
0.0
  0
LINE
  5
CBE
330
CB9
100
AcDbEntity
  8
치수문자_일반주서
 62
     0
370
    -2
100
AcDbLine
 10
151.2837956944657
 20
-4.395876370069475
 30
0.0
 11
151.2837956944657
 21
-7.697876370069475
 31
0.0
  0
LINE
  5
CBF
330
CB9
100
AcDbEntity
  8
치수문자_일반주서
 62
     0
370
    -2
100
AcDbLine
 10
151.2837956944656
 20
7.208123629930538
 30
0.0
 11
151.2837956944656
 21
10.51012362993054
 31
0.0
  0
SOLID
  5
CC0
330
CB9
100
AcDbEntity
  8
치수문자_일반주서
 62
     0
100
AcDbTrace
 10
151.834129027799
 20
-4.395876370069471
 30
0.0
 11
150.7334623611324
 21
-4.395876370069479
 31
0.0
 12
151.2837956944657
 22
-1.093876370069475
 32
0.0
 13
151.2837956944657
 23
-1.093876370069475
 33
0.0
  0
SOLID
  5
CC1
330
CB9
100
AcDbEntity
  8
치수문자_일반주서
 62
     0
100
AcDbTrace
 10
150.7334623611323
 20
7.208123629930535
 30
0.0
 11
151.834129027799
 21
7.208123629930542
 31
0.0
 12
151.2837956944657
 22
3.906123629930539
 32
0.0
 13
151.2837956944657
 23
3.906123629930539
 33
0.0
  0
MTEXT
  5
CC2
330
CB9
100
AcDbEntity
  8
치수문자_일반주서
 62
     0
100
AcDbMText
 10
146.9087956944657
 20
1.406123629930295
 30
0.0
 40
3.5
 41
0.0
 71
     2
 72
     1
  1
\A1;%%c5
  7
SLDTEXTSTYLE0
 11
-5.684341886080785E-15
 21
1.0
 31
0.0
 73
     1
 44
1.0
  0
POINT
  5
CC3
330
CB9
100
AcDbEntity
  8
Defpoints
 62
     0
100
AcDbPoint
 10
125.1657791491428
 20
-1.093876370069573
 30
0.0
  0
POINT
  5
CC4
330
CB9
100
AcDbEntity
  8
Defpoints
 62
     0
100
AcDbPoint
 10
125.1657791491428
 20
3.906123629930441
 30
0.0
  0
POINT
  5
CC5
330
CB9
100
AcDbEntity
  8
Defpoints
 62
     0
100
AcDbPoint
 10
151.2837956944657
 20
3.906123629930539
 30
0.0
  0
ENDBLK
  5
CBB
330
CB9
100
AcDbEntity
  8
0
100
AcDbBlockEnd
  0
BLOCK
  5
CC7
330
CC6
100
AcDbEntity
  8
0
100
AcDbBlockBegin
  2
*D64
 70
     1
 10
0.0
 20
0.0
 30
0.0
  3
*D64
  1

  0
LINE
  5
CC9
330
CC6
100
AcDbEntity
  8
치수문자_일반주서
 62
     0
370
    -2
100
AcDbLine
 10
72.20128551295863
 20
3.968623629930434
 30
0.0
 11
72.20128551295863
 21
32.40612362993044
 31
0.0
  0
LINE
  5
CCA
330
CC6
100
AcDbEntity
  8
치수문자_일반주서
 62
     0
370
    -2
100
AcDbLine
 10
132.2012855129586
 20
2.920992384758215
 30
0.0
 11
132.2012855129586
 21
32.40612362993044
 31
0.0
  0
LINE
  5
CCB
330
CC6
100
AcDbEntity
  8
치수문자_일반주서
 62
     0
370
    -2
100
AcDbLine
 10
75.50328551295864
 20
32.40612362993044
 30
0.0
 11
128.8992855129586
 21
32.40612362993044
 31
0.0
  0
SOLID
  5
CCC
330
CC6
100
AcDbEntity
  8
치수문자_일반주서
 62
     0
100
AcDbTrace
 10
75.50328551295864
 20
32.95645696326378
 30
0.0
 11
75.50328551295864
 21
31.85579029659711
 31
0.0
 12
72.20128551295863
 22
32.40612362993044
 32
0.0
 13
72.20128551295863
 23
32.40612362993044
 33
0.0
  0
SOLID
  5
CCD
330
CC6
100
AcDbEntity
  8
치수문자_일반주서
 62
     0
100
AcDbTrace
 10
128.8992855129586
 20
31.85579029659711
 30
0.0
 11
128.8992855129586
 21
32.95645696326378
 31
0.0
 12
132.2012855129586
 22
32.40612362993044
 32
0.0
 13
132.2012855129586
 23
32.40612362993044
 33
0.0
  0
MTEXT
  5
CCE
330
CC6
100
AcDbEntity
  8
치수문자_일반주서
 62
     0
100
AcDbMText
 10
102.2012855129586
 20
36.78112362993044
 30
0.0
 40
3.5
 41
0.0
 71
     2
 72
     1
  1
\A1;60
  7
SLDTEXTSTYLE0
 73
     1
 44
1.0
  0
POINT
  5
CCF
330
CC6
100
AcDbEntity
  8
Defpoints
 62
     0
100
AcDbPoint
 10
72.20128551295863
 20
3.906123629930434
 30
0.0
  0
POINT
  5
CD0
330
CC6
100
AcDbEntity
  8
Defpoints
 62
     0
100
AcDbPoint
 10
132.2012855129586
 20
2.858492384758215
 30
0.0
  0
POINT
  5
CD1
330
CC6
100
AcDbEntity
  8
Defpoints
 62
     0
100
AcDbPoint
 10
132.2012855129586
 20
32.40612362993044
 30
0.0
  0
ENDBLK
  5
CC8
330
CC6
100
AcDbEntity
  8
0
100
AcDbBlockEnd
  0
BLOCK
  5
CD3
330
CD2
100
AcDbEntity
  8
0
100
AcDbBlockBegin
  2
*D65
 70
     1
 10
0.0
 20
0.0
 30
0.0
  3
*D65
  1

  0
LINE
  5
CD5
330
CD2
100
AcDbEntity
  8
치수문자_일반주서
 62
     0
370
    -2
100
AcDbLine
 10
72.63878551295862
 20
4.406123629930434
 30
0.0
 11
60.20482749134654
 21
4.406123629930386
 31
0.0
  0
LINE
  5
CD6
330
CD2
100
AcDbEntity
  8
치수문자_일반주서
 62
     0
370
    -2
100
AcDbLine
 10
72.63878551295862
 20
-1.593876370069559
 30
0.0
 11
60.20482749134656
 21
-1.593876370069607
 31
0.0
  0
LINE
  5
CD7
330
CD2
100
AcDbEntity
  8
치수문자_일반주서
 62
     0
370
    -2
100
AcDbLine
 10
60.20482749134653
 20
7.708123629930386
 30
0.0
 11
60.20482749134651
 21
11.01012362993039
 31
0.0
  0
LINE
  5
CD8
330
CD2
100
AcDbEntity
  8
치수문자_일반주서
 62
     0
370
    -2
100
AcDbLine
 10
60.20482749134658
 20
-4.895876370069606
 30
0.0
 11
60.20482749134659
 21
-8.197876370069606
 31
0.0
  0
SOLID
  5
CD9
330
CD2
100
AcDbEntity
  8
치수문자_일반주서
 62
     0
100
AcDbTrace
 10
59.65449415801319
 20
7.708123629930384
 30
0.0
 11
60.75516082467986
 21
7.708123629930387
 31
0.0
 12
60.20482749134654
 22
4.406123629930386
 32
0.0
 13
60.20482749134654
 23
4.406123629930386
 33
0.0
  0
SOLID
  5
CDA
330
CD2
100
AcDbEntity
  8
치수문자_일반주서
 62
     0
100
AcDbTrace
 10
60.75516082467991
 20
-4.895876370069605
 30
0.0
 11
59.65449415801324
 21
-4.895876370069608
 31
0.0
 12
60.20482749134656
 22
-1.593876370069607
 32
0.0
 13
60.20482749134656
 23
-1.593876370069607
 33
0.0
  0
MTEXT
  5
CDB
330
CD2
100
AcDbEntity
  8
치수문자_일반주서
 62
     0
100
AcDbMText
 10
55.82982749134655
 20
1.406123629930419
 30
0.0
 40
3.5
 41
0.0
 71
     2
 72
     1
  1
\A1;%%c6
  7
SLDTEXTSTYLE0
 11
-3.552713678800506E-15
 21
1.0
 31
0.0
 73
     1
 44
1.0
  0
POINT
  5
CDC
330
CD2
100
AcDbEntity
  8
Defpoints
 62
     0
100
AcDbPoint
 10
72.70128551295862
 20
4.406123629930434
 30
0.0
  0
POINT
  5
CDD
330
CD2
100
AcDbEntity
  8
Defpoints
 62
     0
100
AcDbPoint
 10
72.70128551295862
 20
-1.593876370069559
 30
0.0
  0
POINT
  5
CDE
330
CD2
100
AcDbEntity
  8
Defpoints
 62
     0
100
AcDbPoint
 10
60.20482749134656
 20
-1.593876370069605
 30
0.0
  0
ENDBLK
  5
CD4
330
CD2
100
AcDbEntity
  8
0
100
AcDbBlockEnd
  0
BLOCK
  5
CE0
330
CDF
100
AcDbEntity
  8
0
100
AcDbBlockBegin
  2
*D66
 70
     1
 10
0.0
 20
0.0
 30
0.0
  3
*D66
  1

  0
LINE
  5
CE2
330
CDF
100
AcDbEntity
  8
치수문자_일반주서
 62
     0
370
    -2
100
AcDbLine
 10
124.2012855129586
 20
3.431658576753598
 30
0.0
 11
124.2012855129586
 21
18.19157117502535
 31
0.0
  0
LINE
  5
CE3
330
CDF
100
AcDbEntity
  8
치수문자_일반주서
 62
     0
370
    -2
100
AcDbLine
 10
132.2012855129586
 20
2.920992384758215
 30
0.0
 11
132.2012855129586
 21
18.19157117502535
 31
0.0
  0
LINE
  5
CE4
330
CDF
100
AcDbEntity
  8
치수문자_일반주서
 62
     0
370
    -2
100
AcDbLine
 10
120.8992855129586
 20
18.19157117502535
 30
0.0
 11
117.5972855129586
 21
18.19157117502535
 31
0.0
  0
LINE
  5
CE5
330
CDF
100
AcDbEntity
  8
치수문자_일반주서
 62
     0
370
    -2
100
AcDbLine
 10
135.5032855129586
 20
18.19157117502535
 30
0.0
 11
138.8052855129586
 21
18.19157117502535
 31
0.0
  0
SOLID
  5
CE6
330
CDF
100
AcDbEntity
  8
치수문자_일반주서
 62
     0
100
AcDbTrace
 10
120.8992855129586
 20
17.64123784169202
 30
0.0
 11
120.8992855129586
 21
18.74190450835869
 31
0.0
 12
124.2012855129586
 22
18.19157117502535
 32
0.0
 13
124.2012855129586
 23
18.19157117502535
 33
0.0
  0
SOLID
  5
CE7
330
CDF
100
AcDbEntity
  8
치수문자_일반주서
 62
     0
100
AcDbTrace
 10
135.5032855129586
 20
18.74190450835869
 30
0.0
 11
135.5032855129586
 21
17.64123784169202
 31
0.0
 12
132.2012855129586
 22
18.19157117502535
 32
0.0
 13
132.2012855129586
 23
18.19157117502535
 33
0.0
  0
MTEXT
  5
CE8
330
CDF
100
AcDbEntity
  8
치수문자_일반주서
 62
     0
100
AcDbMText
 10
128.2012855129586
 20
22.56657117502535
 30
0.0
 40
3.5
 41
0.0
 71
     2
 72
     1
  1
\A1;8
  7
SLDTEXTSTYLE0
 73
     1
 44
1.0
  0
POINT
  5
CE9
330
CDF
100
AcDbEntity
  8
Defpoints
 62
     0
100
AcDbPoint
 10
124.2012855129586
 20
3.369158576753598
 30
0.0
  0
POINT
  5
CEA
330
CDF
100
AcDbEntity
  8
Defpoints
 62
     0
100
AcDbPoint
 10
132.2012855129586
 20
2.858492384758215
 30
0.0
  0
POINT
  5
CEB
330
CDF
100
AcDbEntity
  8
Defpoints
 62
     0
100
AcDbPoint
 10
132.2012855129586
 20
18.19157117502535
 30
0.0
  0
ENDBLK
  5
CE1
330
CDF
100
AcDbEntity
  8
0
100
AcDbBlockEnd
  0
BLOCK
  5
CED
330
CEC
100
AcDbEntity
  8
0
100
AcDbBlockBegin
  2
*D67
 70
     1
 10
0.0
 20
0.0
 30
0.0
  3
*D67
  1

  0
LINE
  5
CEF
330
CEC
100
AcDbEntity
  8
치수문자_일반주서
 62
     0
370
    -2
100
AcDbLine
 10
132.2012855129586
 20
2.920992384758215
 30
0.0
 11
132.2012855129586
 21
26.31016765445209
 31
0.0
  0
LINE
  5
CF0
330
CEC
100
AcDbEntity
  8
치수문자_일반주서
 62
     0
370
    -2
100
AcDbLine
 10
117.2012853764038
 20
3.893623629930438
 30
0.0
 11
117.2012853764038
 21
26.31016765445209
 31
0.0
  0
LINE
  5
CF1
330
CEC
100
AcDbEntity
  8
치수문자_일반주서
 62
     0
370
    -2
100
AcDbLine
 10
128.8992855129586
 20
26.31016765445209
 30
0.0
 11
120.5032853764038
 21
26.31016765445209
 31
0.0
  0
SOLID
  5
CF2
330
CEC
100
AcDbEntity
  8
치수문자_일반주서
 62
     0
100
AcDbTrace
 10
128.8992855129586
 20
25.75983432111876
 30
0.0
 11
128.8992855129586
 21
26.86050098778543
 31
0.0
 12
132.2012855129586
 22
26.31016765445209
 32
0.0
 13
132.2012855129586
 23
26.31016765445209
 33
0.0
  0
SOLID
  5
CF3
330
CEC
100
AcDbEntity
  8
치수문자_일반주서
 62
     0
100
AcDbTrace
 10
120.5032853764038
 20
26.86050098778543
 30
0.0
 11
120.5032853764038
 21
25.75983432111876
 31
0.0
 12
117.2012853764038
 22
26.31016765445209
 32
0.0
 13
117.2012853764038
 23
26.31016765445209
 33
0.0
  0
MTEXT
  5
CF4
330
CEC
100
AcDbEntity
  8
치수문자_일반주서
 62
     0
100
AcDbMText
 10
124.7012854446812
 20
30.68516765445209
 30
0.0
 40
3.5
 41
0.0
 71
     2
 72
     1
  1
\A1;15
  7
SLDTEXTSTYLE0
 73
     1
 44
1.0
  0
POINT
  5
CF5
330
CEC
100
AcDbEntity
  8
Defpoints
 62
     0
100
AcDbPoint
 10
132.2012855129586
 20
2.858492384758215
 30
0.0
  0
POINT
  5
CF6
330
CEC
100
AcDbEntity
  8
Defpoints
 62
     0
100
AcDbPoint
 10
117.2012853764038
 20
3.831123629930438
 30
0.0
  0
POINT
  5
CF7
330
CEC
100
AcDbEntity
  8
Defpoints
 62
     0
100
AcDbPoint
 10
117.2012853764038
 20
26.31016765445209
 30
0.0
  0
ENDBLK
  5
CEE
330
CEC
100
AcDbEntity
  8
0
100
AcDbBlockEnd
  0
BLOCK
  5
D09
330
D08
100
AcDbEntity
  8
0
100
AcDbBlockBegin
  2
*D68
 70
     1
 10
0.0
 20
0.0
 30
0.0
  3
*D68
  1

  0
LINE
  5
D0B
330
D08
100
AcDbEntity
  8
치수문자_일반주서
 62
     0
370
    -2
100
AcDbLine
 10
18.6919579321917
 20
-4.722459424807149
 30
0.0
 11
29.61024509156576
 21
-18.79659245780441
 31
0.0
  0
MTEXT
  5
D0C
330
D08
100
AcDbEntity
  8
치수문자_일반주서
 62
     0
100
AcDbMText
 10
29.00264813268371
 20
-13.73081749877225
 30
0.0
 40
3.5
 41
0.0
 71
     5
 72
     1
  1
\A1;R1.5
  7
SLDTEXTSTYLE0
 11
0.6129515855968652
 21
-0.7901204678492316
 31
0.0
 73
     1
 44
1.0
  0
SOLID
  5
D0D
330
D08
100
AcDbEntity
  8
치수문자_일반주서
 62
     0
100
AcDbTrace
 10
19.12678756299806
 20
-4.385131735533674
 30
0.0
 11
18.25712830138534
 21
-5.059787114080624
 31
0.0
 12
16.66799179655085
 22
-2.113481639968986
 32
0.0
 13
16.66799179655085
 23
-2.113481639968986
 33
0.0
  0
POINT
  5
D0E
330
D08
100
AcDbEntity
  8
Defpoints
 62
     0
100
AcDbPoint
 10
16.66799179655085
 20
-2.113481639968986
 30
0.0
  0
POINT
  5
D0F
330
D08
100
AcDbEntity
  8
Defpoints
 62
     0
100
AcDbPoint
 10
15.74856441815555
 20
-0.9283009381951388
 30
0.0
  0
ENDBLK
  5
D0A
330
D08
100
AcDbEntity
  8
0
100
AcDbBlockEnd
  0
BLOCK
  5
DF1
330
DF0
100
AcDbEntity
  8
0
100
AcDbBlockBegin
  2
*D70
 70
     1
 10
0.0
 20
0.0
 30
0.0
  3
*D70
  1

  0
LINE
  5
DF3
330
DF0
100
AcDbEntity
  8
치수문자_일반주서
 62
     0
370
    -2
100
AcDbLine
 10
69.58866092365798
 20
47.47180738881174
 30
0.0
 11
95.64417746898087
 21
47.47180738881184
 31
0.0
  0
LINE
  5
DF4
330
DF0
100
AcDbEntity
  8
치수문자_일반주서
 62
     0
370
    -2
100
AcDbLine
 10
69.58866092365798
 20
52.47180738881175
 30
0.0
 11
95.64417746898086
 21
52.47180738881185
 31
0.0
  0
LINE
  5
DF5
330
DF0
100
AcDbEntity
  8
치수문자_일반주서
 62
     0
370
    -2
100
AcDbLine
 10
95.64417746898089
 20
44.16980738881184
 30
0.0
 11
95.6441774689809
 21
40.86780738881184
 31
0.0
  0
LINE
  5
DF6
330
DF0
100
AcDbEntity
  8
치수문자_일반주서
 62
     0
370
    -2
100
AcDbLine
 10
95.64417746898084
 20
55.77380738881185
 30
0.0
 11
95.64417746898083
 21
59.07580738881185
 31
0.0
  0
SOLID
  5
DF7
330
DF0
100
AcDbEntity
  8
치수문자_일반주서
 62
     0
100
AcDbTrace
 10
96.19451080231421
 20
44.16980738881184
 30
0.0
 11
95.09384413564756
 21
44.16980738881184
 31
0.0
 12
95.64417746898087
 22
47.47180738881184
 32
0.0
 13
95.64417746898087
 23
47.47180738881184
 33
0.0
  0
SOLID
  5
DF8
330
DF0
100
AcDbEntity
  8
치수문자_일반주서
 62
     0
100
AcDbTrace
 10
95.09384413564752
 20
55.77380738881185
 30
0.0
 11
96.19451080231417
 21
55.77380738881185
 31
0.0
 12
95.64417746898086
 22
52.47180738881185
 32
0.0
 13
95.64417746898086
 23
52.47180738881185
 33
0.0
  0
MTEXT
  5
DF9
330
DF0
100
AcDbEntity
  8
치수문자_일반주서
 62
     0
100
AcDbMText
 10
91.26917746898087
 20
49.97180738881162
 30
0.0
 40
3.5
 41
0.0
 71
     2
 72
     1
  1
\A1;%%c5
  7
SLDTEXTSTYLE0
 11
-2.842170943040393E-15
 21
1.0
 31
0.0
 73
     1
 44
1.0
  0
POINT
  5
DFA
330
DF0
100
AcDbEntity
  8
Defpoints
 62
     0
100
AcDbPoint
 10
69.52616092365798
 20
47.47180738881174
 30
0.0
  0
POINT
  5
DFB
330
DF0
100
AcDbEntity
  8
Defpoints
 62
     0
100
AcDbPoint
 10
69.52616092365798
 20
52.47180738881175
 30
0.0
  0
POINT
  5
DFC
330
DF0
100
AcDbEntity
  8
Defpoints
 62
     0
100
AcDbPoint
 10
95.64417746898087
 20
52.47180738881185
 30
0.0
  0
ENDBLK
  5
DF2
330
DF0
100
AcDbEntity
  8
0
100
AcDbBlockEnd
  0
BLOCK
  5
DFE
330
DFD
100
AcDbEntity
  8
0
100
AcDbBlockBegin
  2
*D71
 70
     1
 10
0.0
 20
0.0
 30
0.0
  3
*D71
  1

  0
LINE
  5
E00
330
DFD
100
AcDbEntity
  8
치수문자_일반주서
 62
     0
370
    -2
100
AcDbLine
 10
16.56166728747382
 20
52.53430738881175
 30
0.0
 11
16.56166728747382
 21
80.97180738881175
 31
0.0
  0
LINE
  5
E01
330
DFD
100
AcDbEntity
  8
치수문자_일반주서
 62
     0
370
    -2
100
AcDbLine
 10
76.56166728747382
 20
51.48667614363953
 30
0.0
 11
76.56166728747382
 21
80.97180738881175
 31
0.0
  0
LINE
  5
E02
330
DFD
100
AcDbEntity
  8
치수문자_일반주서
 62
     0
370
    -2
100
AcDbLine
 10
19.86366728747382
 20
80.97180738881175
 30
0.0
 11
73.25966728747382
 21
80.97180738881175
 31
0.0
  0
SOLID
  5
E03
330
DFD
100
AcDbEntity
  8
치수문자_일반주서
 62
     0
100
AcDbTrace
 10
19.86366728747382
 20
81.52214072214508
 30
0.0
 11
19.86366728747382
 21
80.42147405547843
 31
0.0
 12
16.56166728747382
 22
80.97180738881175
 32
0.0
 13
16.56166728747382
 23
80.97180738881175
 33
0.0
  0
SOLID
  5
E04
330
DFD
100
AcDbEntity
  8
치수문자_일반주서
 62
     0
100
AcDbTrace
 10
73.25966728747382
 20
80.42147405547843
 30
0.0
 11
73.25966728747382
 21
81.52214072214508
 31
0.0
 12
76.56166728747382
 22
80.97180738881175
 32
0.0
 13
76.56166728747382
 23
80.97180738881175
 33
0.0
  0
MTEXT
  5
E05
330
DFD
100
AcDbEntity
  8
치수문자_일반주서
 62
     0
100
AcDbMText
 10
46.56166728747383
 20
85.34680738881175
 30
0.0
 40
3.5
 41
0.0
 71
     2
 72
     1
  1
\A1;60
  7
SLDTEXTSTYLE0
 73
     1
 44
1.0
  0
POINT
  5
E06
330
DFD
100
AcDbEntity
  8
Defpoints
 62
     0
100
AcDbPoint
 10
16.56166728747382
 20
52.47180738881175
 30
0.0
  0
POINT
  5
E07
330
DFD
100
AcDbEntity
  8
Defpoints
 62
     0
100
AcDbPoint
 10
76.56166728747382
 20
51.42417614363953
 30
0.0
  0
POINT
  5
E08
330
DFD
100
AcDbEntity
  8
Defpoints
 62
     0
100
AcDbPoint
 10
76.56166728747382
 20
80.97180738881175
 30
0.0
  0
ENDBLK
  5
DFF
330
DFD
100
AcDbEntity
  8
0
100
AcDbBlockEnd
  0
BLOCK
  5
E0A
330
E09
100
AcDbEntity
  8
0
100
AcDbBlockBegin
  2
*D72
 70
     1
 10
0.0
 20
0.0
 30
0.0
  3
*D72
  1

  0
LINE
  5
E0C
330
E09
100
AcDbEntity
  8
치수문자_일반주서
 62
     0
370
    -2
100
AcDbLine
 10
16.99916728747382
 20
52.97180738881175
 30
0.0
 11
4.565209265861736
 21
52.9718073888117
 31
0.0
  0
LINE
  5
E0D
330
E09
100
AcDbEntity
  8
치수문자_일반주서
 62
     0
370
    -2
100
AcDbLine
 10
16.99916728747382
 20
46.97180738881175
 30
0.0
 11
4.565209265861757
 21
46.9718073888117
 31
0.0
  0
LINE
  5
E0E
330
E09
100
AcDbEntity
  8
치수문자_일반주서
 62
     0
370
    -2
100
AcDbLine
 10
4.565209265861724
 20
56.2738073888117
 30
0.0
 11
4.565209265861712
 21
59.5758073888117
 31
0.0
  0
LINE
  5
E0F
330
E09
100
AcDbEntity
  8
치수문자_일반주서
 62
     0
370
    -2
100
AcDbLine
 10
4.565209265861768
 20
43.66980738881171
 30
0.0
 11
4.56520926586178
 21
40.36780738881171
 31
0.0
  0
SOLID
  5
E10
330
E09
100
AcDbEntity
  8
치수문자_일반주서
 62
     0
100
AcDbTrace
 10
4.01487593252839
 20
56.2738073888117
 30
0.0
 11
5.115542599195058
 21
56.2738073888117
 31
0.0
 12
4.565209265861736
 22
52.9718073888117
 32
0.0
 13
4.565209265861736
 23
52.9718073888117
 33
0.0
  0
SOLID
  5
E11
330
E09
100
AcDbEntity
  8
치수문자_일반주서
 62
     0
100
AcDbTrace
 10
5.115542599195102
 20
43.66980738881171
 30
0.0
 11
4.014875932528435
 21
43.66980738881171
 31
0.0
 12
4.565209265861757
 22
46.9718073888117
 32
0.0
 13
4.565209265861757
 23
46.9718073888117
 33
0.0
  0
MTEXT
  5
E12
330
E09
100
AcDbEntity
  8
치수문자_일반주서
 62
     0
100
AcDbMText
 10
0.1902092658617462
 20
49.97180738881173
 30
0.0
 40
3.5
 41
0.0
 71
     2
 72
     1
  1
\A1;%%c6
  7
SLDTEXTSTYLE0
 11
-3.552713678800505E-15
 21
1.0
 31
0.0
 73
     1
 44
1.0
  0
POINT
  5
E13
330
E09
100
AcDbEntity
  8
Defpoints
 62
     0
100
AcDbPoint
 10
17.06166728747382
 20
52.97180738881175
 30
0.0
  0
POINT
  5
E14
330
E09
100
AcDbEntity
  8
Defpoints
 62
     0
100
AcDbPoint
 10
17.06166728747382
 20
46.97180738881175
 30
0.0
  0
POINT
  5
E15
330
E09
100
AcDbEntity
  8
Defpoints
 62
     0
100
AcDbPoint
 10
4.565209265861746
 20
46.9718073888117
 30
0.0
  0
ENDBLK
  5
E0B
330
E09
100
AcDbEntity
  8
0
100
AcDbBlockEnd
  0
BLOCK
  5
E17
330
E16
100
AcDbEntity
  8
0
100
AcDbBlockBegin
  2
*D73
 70
     1
 10
0.0
 20
0.0
 30
0.0
  3
*D73
  1

  0
LINE
  5
E19
330
E16
100
AcDbEntity
  8
치수문자_일반주서
 62
     0
370
    -2
100
AcDbLine
 10
68.56166728747382
 20
51.99734233563491
 30
0.0
 11
68.56166728747382
 21
66.75725493390667
 31
0.0
  0
LINE
  5
E1A
330
E16
100
AcDbEntity
  8
치수문자_일반주서
 62
     0
370
    -2
100
AcDbLine
 10
76.56166728747382
 20
51.48667614363953
 30
0.0
 11
76.56166728747382
 21
66.75725493390667
 31
0.0
  0
LINE
  5
E1B
330
E16
100
AcDbEntity
  8
치수문자_일반주서
 62
     0
370
    -2
100
AcDbLine
 10
65.25966728747382
 20
66.75725493390667
 30
0.0
 11
61.95766728747382
 21
66.75725493390667
 31
0.0
  0
LINE
  5
E1C
330
E16
100
AcDbEntity
  8
치수문자_일반주서
 62
     0
370
    -2
100
AcDbLine
 10
79.86366728747383
 20
66.75725493390667
 30
0.0
 11
83.16566728747384
 21
66.75725493390667
 31
0.0
  0
SOLID
  5
E1D
330
E16
100
AcDbEntity
  8
치수문자_일반주서
 62
     0
100
AcDbTrace
 10
65.25966728747382
 20
66.20692160057334
 30
0.0
 11
65.25966728747382
 21
67.30758826723999
 31
0.0
 12
68.56166728747382
 22
66.75725493390667
 32
0.0
 13
68.56166728747382
 23
66.75725493390667
 33
0.0
  0
SOLID
  5
E1E
330
E16
100
AcDbEntity
  8
치수문자_일반주서
 62
     0
100
AcDbTrace
 10
79.86366728747383
 20
67.30758826723999
 30
0.0
 11
79.86366728747383
 21
66.20692160057334
 31
0.0
 12
76.56166728747382
 22
66.75725493390667
 32
0.0
 13
76.56166728747382
 23
66.75725493390667
 33
0.0
  0
MTEXT
  5
E1F
330
E16
100
AcDbEntity
  8
치수문자_일반주서
 62
     0
100
AcDbMText
 10
72.56166728747378
 20
71.13225493390667
 30
0.0
 40
3.5
 41
0.0
 71
     2
 72
     1
  1
\A1;8
  7
SLDTEXTSTYLE0
 73
     1
 44
1.0
  0
POINT
  5
E20
330
E16
100
AcDbEntity
  8
Defpoints
 62
     0
100
AcDbPoint
 10
68.56166728747382
 20
51.93484233563491
 30
0.0
  0
POINT
  5
E21
330
E16
100
AcDbEntity
  8
Defpoints
 62
     0
100
AcDbPoint
 10
76.56166728747382
 20
51.42417614363953
 30
0.0
  0
POINT
  5
E22
330
E16
100
AcDbEntity
  8
Defpoints
 62
     0
100
AcDbPoint
 10
76.56166728747382
 20
66.75725493390668
 30
0.0
  0
ENDBLK
  5
E18
330
E16
100
AcDbEntity
  8
0
100
AcDbBlockEnd
  0
BLOCK
  5
E24
330
E23
100
AcDbEntity
  8
0
100
AcDbBlockBegin
  2
*D74
 70
     1
 10
0.0
 20
0.0
 30
0.0
  3
*D74
  1

  0
LINE
  5
E26
330
E23
100
AcDbEntity
  8
치수문자_일반주서
 62
     0
370
    -2
100
AcDbLine
 10
76.56166728747382
 20
51.48667614363953
 30
0.0
 11
76.56166728747382
 21
74.87585141333341
 31
0.0
  0
LINE
  5
E27
330
E23
100
AcDbEntity
  8
치수문자_일반주서
 62
     0
370
    -2
100
AcDbLine
 10
61.56166715091897
 20
52.45930738881175
 30
0.0
 11
61.56166715091897
 21
74.87585141333341
 31
0.0
  0
LINE
  5
E28
330
E23
100
AcDbEntity
  8
치수문자_일반주서
 62
     0
370
    -2
100
AcDbLine
 10
73.25966728747382
 20
74.87585141333341
 30
0.0
 11
64.86366715091897
 21
74.87585141333341
 31
0.0
  0
SOLID
  5
E29
330
E23
100
AcDbEntity
  8
치수문자_일반주서
 62
     0
100
AcDbTrace
 10
73.25966728747382
 20
74.32551808000008
 30
0.0
 11
73.25966728747382
 21
75.42618474666673
 31
0.0
 12
76.56166728747382
 22
74.87585141333341
 32
0.0
 13
76.56166728747382
 23
74.87585141333341
 33
0.0
  0
SOLID
  5
E2A
330
E23
100
AcDbEntity
  8
치수문자_일반주서
 62
     0
100
AcDbTrace
 10
64.86366715091897
 20
75.42618474666673
 30
0.0
 11
64.86366715091897
 21
74.32551808000008
 31
0.0
 12
61.56166715091897
 22
74.87585141333341
 32
0.0
 13
61.56166715091897
 23
74.87585141333341
 33
0.0
  0
MTEXT
  5
E2B
330
E23
100
AcDbEntity
  8
치수문자_일반주서
 62
     0
100
AcDbMText
 10
69.0616672191964
 20
79.25085141333341
 30
0.0
 40
3.5
 41
0.0
 71
     2
 72
     1
  1
\A1;15
  7
SLDTEXTSTYLE0
 73
     1
 44
1.0
  0
POINT
  5
E2C
330
E23
100
AcDbEntity
  8
Defpoints
 62
     0
100
AcDbPoint
 10
76.56166728747382
 20
51.42417614363953
 30
0.0
  0
POINT
  5
E2D
330
E23
100
AcDbEntity
  8
Defpoints
 62
     0
100
AcDbPoint
 10
61.56166715091897
 20
52.39680738881175
 30
0.0
  0
POINT
  5
E2E
330
E23
100
AcDbEntity
  8
Defpoints
 62
     0
100
AcDbPoint
 10
61.56166715091897
 20
74.87585141333341
 30
0.0
  0
ENDBLK
  5
E25
330
E23
100
AcDbEntity
  8
0
100
AcDbBlockEnd
  0
BLOCK
  5
E62
330
E61
100
AcDbEntity
  8
0
100
AcDbBlockBegin
  2
*D75
 70
     1
 10
0.0
 20
0.0
 30
0.0
  3
*D75
  1

  0
LINE
  5
E64
330
E61
100
AcDbEntity
  8
치수문자_일반주서
 62
     0
370
    -2
100
AcDbLine
 10
133.6229319008477
 20
3.853618371574854
 30
0.0
 11
159.6784484461705
 21
3.853618371574951
 31
0.0
  0
LINE
  5
E65
330
E61
100
AcDbEntity
  8
치수문자_일반주서
 62
     0
370
    -2
100
AcDbLine
 10
133.6229319008477
 20
8.853618371574868
 30
0.0
 11
159.6784484461705
 21
8.853618371574965
 31
0.0
  0
LINE
  5
E66
330
E61
100
AcDbEntity
  8
치수문자_일반주서
 62
     0
370
    -2
100
AcDbLine
 10
159.6784484461706
 20
0.5516183715749512
 30
0.0
 11
159.6784484461706
 21
-2.750381628425049
 31
0.0
  0
LINE
  5
E67
330
E61
100
AcDbEntity
  8
치수문자_일반주서
 62
     0
370
    -2
100
AcDbLine
 10
159.6784484461705
 20
12.15561837157497
 30
0.0
 11
159.6784484461704
 21
15.45761837157496
 31
0.0
  0
SOLID
  5
E68
330
E61
100
AcDbEntity
  8
치수문자_일반주서
 62
     0
100
AcDbTrace
 10
160.2287817795039
 20
0.5516183715749543
 30
0.0
 11
159.1281151128372
 21
0.5516183715749481
 31
0.0
 12
159.6784484461705
 22
3.853618371574951
 32
0.0
 13
159.6784484461705
 23
3.853618371574951
 33
0.0
  0
SOLID
  5
E69
330
E61
100
AcDbEntity
  8
치수문자_일반주서
 62
     0
100
AcDbTrace
 10
159.1281151128372
 20
12.15561837157496
 30
0.0
 11
160.2287817795038
 21
12.15561837157497
 31
0.0
 12
159.6784484461705
 22
8.853618371574965
 32
0.0
 13
159.6784484461705
 23
8.853618371574965
 33
0.0
  0
MTEXT
  5
E6A
330
E61
100
AcDbEntity
  8
치수문자_일반주서
 62
     0
100
AcDbMText
 10
155.3034484461705
 20
6.353618371574722
 30
0.0
 40
3.5
 41
0.0
 71
     2
 72
     1
  1
\A1;%%c5
  7
SLDTEXTSTYLE0
 11
-5.684341886080785E-15
 21
1.0
 31
0.0
 73
     1
 44
1.0
  0
POINT
  5
E6B
330
E61
100
AcDbEntity
  8
Defpoints
 62
     0
100
AcDbPoint
 10
133.5604319008477
 20
3.853618371574854
 30
0.0
  0
POINT
  5
E6C
330
E61
100
AcDbEntity
  8
Defpoints
 62
     0
100
AcDbPoint
 10
133.5604319008477
 20
8.853618371574868
 30
0.0
  0
POINT
  5
E6D
330
E61
100
AcDbEntity
  8
Defpoints
 62
     0
100
AcDbPoint
 10
159.6784484461705
 20
8.853618371574965
 30
0.0
  0
ENDBLK
  5
E63
330
E61
100
AcDbEntity
  8
0
100
AcDbBlockEnd
  0
BLOCK
  5
E6F
330
E6E
100
AcDbEntity
  8
0
100
AcDbBlockBegin
  2
*D76
 70
     1
 10
0.0
 20
0.0
 30
0.0
  3
*D76
  1

  0
LINE
  5
E71
330
E6E
100
AcDbEntity
  8
치수문자_일반주서
 62
     0
370
    -2
100
AcDbLine
 10
80.5959382646635
 20
8.91611837157486
 30
0.0
 11
80.5959382646635
 21
37.35361837157487
 31
0.0
  0
LINE
  5
E72
330
E6E
100
AcDbEntity
  8
치수문자_일반주서
 62
     0
370
    -2
100
AcDbLine
 10
140.5959382646635
 20
7.868487126402641
 30
0.0
 11
140.5959382646635
 21
37.35361837157487
 31
0.0
  0
LINE
  5
E73
330
E6E
100
AcDbEntity
  8
치수문자_일반주서
 62
     0
370
    -2
100
AcDbLine
 10
83.89793826466351
 20
37.35361837157487
 30
0.0
 11
137.2939382646635
 21
37.35361837157487
 31
0.0
  0
SOLID
  5
E74
330
E6E
100
AcDbEntity
  8
치수문자_일반주서
 62
     0
100
AcDbTrace
 10
83.89793826466351
 20
37.9039517049082
 30
0.0
 11
83.89793826466351
 21
36.80328503824153
 31
0.0
 12
80.5959382646635
 22
37.35361837157487
 32
0.0
 13
80.5959382646635
 23
37.35361837157487
 33
0.0
  0
SOLID
  5
E75
330
E6E
100
AcDbEntity
  8
치수문자_일반주서
 62
     0
100
AcDbTrace
 10
137.2939382646635
 20
36.80328503824153
 30
0.0
 11
137.2939382646635
 21
37.9039517049082
 31
0.0
 12
140.5959382646635
 22
37.35361837157487
 32
0.0
 13
140.5959382646635
 23
37.35361837157487
 33
0.0
  0
MTEXT
  5
E76
330
E6E
100
AcDbEntity
  8
치수문자_일반주서
 62
     0
100
AcDbMText
 10
110.5959382646635
 20
41.72861837157487
 30
0.0
 40
3.5
 41
0.0
 71
     2
 72
     1
  1
\A1;60
  7
SLDTEXTSTYLE0
 73
     1
 44
1.0
  0
POINT
  5
E77
330
E6E
100
AcDbEntity
  8
Defpoints
 62
     0
100
AcDbPoint
 10
80.5959382646635
 20
8.85361837157486
 30
0.0
  0
POINT
  5
E78
330
E6E
100
AcDbEntity
  8
Defpoints
 62
     0
100
AcDbPoint
 10
140.5959382646635
 20
7.805987126402641
 30
0.0
  0
POINT
  5
E79
330
E6E
100
AcDbEntity
  8
Defpoints
 62
     0
100
AcDbPoint
 10
140.5959382646635
 20
37.35361837157487
 30
0.0
  0
ENDBLK
  5
E70
330
E6E
100
AcDbEntity
  8
0
100
AcDbBlockEnd
  0
BLOCK
  5
E7B
330
E7A
100
AcDbEntity
  8
0
100
AcDbBlockBegin
  2
*D77
 70
     1
 10
0.0
 20
0.0
 30
0.0
  3
*D77
  1

  0
LINE
  5
E7D
330
E7A
100
AcDbEntity
  8
치수문자_일반주서
 62
     0
370
    -2
100
AcDbLine
 10
81.03343826466349
 20
9.35361837157486
 30
0.0
 11
68.59948024305143
 21
9.353618371574813
 31
0.0
  0
LINE
  5
E7E
330
E7A
100
AcDbEntity
  8
치수문자_일반주서
 62
     0
370
    -2
100
AcDbLine
 10
81.03343826466349
 20
3.353618371574867
 30
0.0
 11
68.59948024305145
 21
3.35361837157482
 31
0.0
  0
LINE
  5
E7F
330
E7A
100
AcDbEntity
  8
치수문자_일반주서
 62
     0
370
    -2
100
AcDbLine
 10
68.59948024305142
 20
12.65561837157481
 30
0.0
 11
68.5994802430514
 21
15.95761837157481
 31
0.0
  0
LINE
  5
E80
330
E7A
100
AcDbEntity
  8
치수문자_일반주서
 62
     0
370
    -2
100
AcDbLine
 10
68.59948024305146
 20
0.0516183715748197
 30
0.0
 11
68.59948024305147
 21
-3.25038162842518
 31
0.0
  0
SOLID
  5
E81
330
E7A
100
AcDbEntity
  8
치수문자_일반주서
 62
     0
100
AcDbTrace
 10
68.04914690971809
 20
12.65561837157481
 30
0.0
 11
69.14981357638474
 21
12.65561837157481
 31
0.0
 12
68.59948024305143
 22
9.353618371574813
 32
0.0
 13
68.59948024305143
 23
9.353618371574813
 33
0.0
  0
SOLID
  5
E82
330
E7A
100
AcDbEntity
  8
치수문자_일반주서
 62
     0
100
AcDbTrace
 10
69.14981357638479
 20
0.051618371574821
 30
0.0
 11
68.04914690971813
 21
0.0516183715748184
 31
0.0
 12
68.59948024305145
 22
3.35361837157482
 32
0.0
 13
68.59948024305145
 23
3.35361837157482
 33
0.0
  0
MTEXT
  5
E83
330
E7A
100
AcDbEntity
  8
치수문자_일반주서
 62
     0
100
AcDbMText
 10
64.22448024305143
 20
6.35361837157485
 30
0.0
 40
3.5
 41
0.0
 71
     2
 72
     1
  1
\A1;%%c6
  7
SLDTEXTSTYLE0
 11
-2.368475785867004E-15
 21
1.0
 31
0.0
 73
     1
 44
1.0
  0
POINT
  5
E84
330
E7A
100
AcDbEntity
  8
Defpoints
 62
     0
100
AcDbPoint
 10
81.09593826466349
 20
9.35361837157486
 30
0.0
  0
POINT
  5
E85
330
E7A
100
AcDbEntity
  8
Defpoints
 62
     0
100
AcDbPoint
 10
81.09593826466349
 20
3.353618371574868
 30
0.0
  0
POINT
  5
E86
330
E7A
100
AcDbEntity
  8
Defpoints
 62
     0
100
AcDbPoint
 10
68.59948024305143
 20
3.353618371574821
 30
0.0
  0
ENDBLK
  5
E7C
330
E7A
100
AcDbEntity
  8
0
100
AcDbBlockEnd
  0
BLOCK
  5
E88
330
E87
100
AcDbEntity
  8
0
100
AcDbBlockBegin
  2
*D78
 70
     1
 10
0.0
 20
0.0
 30
0.0
  3
*D78
  1

  0
LINE
  5
E8A
330
E87
100
AcDbEntity
  8
치수문자_일반주서
 62
     0
370
    -2
100
AcDbLine
 10
132.5959382646635
 20
8.379153318398025
 30
0.0
 11
132.5959382646635
 21
23.13906591666978
 31
0.0
  0
LINE
  5
E8B
330
E87
100
AcDbEntity
  8
치수문자_일반주서
 62
     0
370
    -2
100
AcDbLine
 10
140.5959382646635
 20
7.868487126402641
 30
0.0
 11
140.5959382646635
 21
23.13906591666978
 31
0.0
  0
LINE
  5
E8C
330
E87
100
AcDbEntity
  8
치수문자_일반주서
 62
     0
370
    -2
100
AcDbLine
 10
129.2939382646635
 20
23.13906591666978
 30
0.0
 11
125.9919382646635
 21
23.13906591666978
 31
0.0
  0
LINE
  5
E8D
330
E87
100
AcDbEntity
  8
치수문자_일반주서
 62
     0
370
    -2
100
AcDbLine
 10
143.8979382646635
 20
23.13906591666978
 30
0.0
 11
147.1999382646635
 21
23.13906591666978
 31
0.0
  0
SOLID
  5
E8E
330
E87
100
AcDbEntity
  8
치수문자_일반주서
 62
     0
100
AcDbTrace
 10
129.2939382646635
 20
22.58873258333644
 30
0.0
 11
129.2939382646635
 21
23.68939925000311
 31
0.0
 12
132.5959382646635
 22
23.13906591666978
 32
0.0
 13
132.5959382646635
 23
23.13906591666978
 33
0.0
  0
SOLID
  5
E8F
330
E87
100
AcDbEntity
  8
치수문자_일반주서
 62
     0
100
AcDbTrace
 10
143.8979382646635
 20
23.68939925000311
 30
0.0
 11
143.8979382646635
 21
22.58873258333644
 31
0.0
 12
140.5959382646635
 22
23.13906591666978
 32
0.0
 13
140.5959382646635
 23
23.13906591666978
 33
0.0
  0
MTEXT
  5
E90
330
E87
100
AcDbEntity
  8
치수문자_일반주서
 62
     0
100
AcDbMText
 10
136.5959382646635
 20
27.51406591666978
 30
0.0
 40
3.5
 41
0.0
 71
     2
 72
     1
  1
\A1;8
  7
SLDTEXTSTYLE0
 73
     1
 44
1.0
  0
POINT
  5
E91
330
E87
100
AcDbEntity
  8
Defpoints
 62
     0
100
AcDbPoint
 10
132.5959382646635
 20
8.316653318398025
 30
0.0
  0
POINT
  5
E92
330
E87
100
AcDbEntity
  8
Defpoints
 62
     0
100
AcDbPoint
 10
140.5959382646635
 20
7.805987126402641
 30
0.0
  0
POINT
  5
E93
330
E87
100
AcDbEntity
  8
Defpoints
 62
     0
100
AcDbPoint
 10
140.5959382646635
 20
23.13906591666978
 30
0.0
  0
ENDBLK
  5
E89
330
E87
100
AcDbEntity
  8
0
100
AcDbBlockEnd
  0
BLOCK
  5
E95
330
E94
100
AcDbEntity
  8
0
100
AcDbBlockBegin
  2
*D79
 70
     1
 10
0.0
 20
0.0
 30
0.0
  3
*D79
  1

  0
LINE
  5
E97
330
E94
100
AcDbEntity
  8
치수문자_일반주서
 62
     0
370
    -2
100
AcDbLine
 10
140.5959382646635
 20
7.868487126402641
 30
0.0
 11
140.5959382646635
 21
31.25766239609652
 31
0.0
  0
LINE
  5
E98
330
E94
100
AcDbEntity
  8
치수문자_일반주서
 62
     0
370
    -2
100
AcDbLine
 10
125.5959381281087
 20
8.841118371574865
 30
0.0
 11
125.5959381281087
 21
31.25766239609652
 31
0.0
  0
LINE
  5
E99
330
E94
100
AcDbEntity
  8
치수문자_일반주서
 62
     0
370
    -2
100
AcDbLine
 10
137.2939382646635
 20
31.25766239609652
 30
0.0
 11
128.8979381281086
 21
31.25766239609652
 31
0.0
  0
SOLID
  5
E9A
330
E94
100
AcDbEntity
  8
치수문자_일반주서
 62
     0
100
AcDbTrace
 10
137.2939382646635
 20
30.70732906276319
 30
0.0
 11
137.2939382646635
 21
31.80799572942986
 31
0.0
 12
140.5959382646635
 22
31.25766239609652
 32
0.0
 13
140.5959382646635
 23
31.25766239609652
 33
0.0
  0
SOLID
  5
E9B
330
E94
100
AcDbEntity
  8
치수문자_일반주서
 62
     0
100
AcDbTrace
 10
128.8979381281086
 20
31.80799572942986
 30
0.0
 11
128.8979381281086
 21
30.70732906276319
 31
0.0
 12
125.5959381281087
 22
31.25766239609652
 32
0.0
 13
125.5959381281087
 23
31.25766239609652
 33
0.0
  0
MTEXT
  5
E9C
330
E94
100
AcDbEntity
  8
치수문자_일반주서
 62
     0
100
AcDbMText
 10
133.0959381963861
 20
35.63266239609652
 30
0.0
 40
3.5
 41
0.0
 71
     2
 72
     1
  1
\A1;15
  7
SLDTEXTSTYLE0
 73
     1
 44
1.0
  0
POINT
  5
E9D
330
E94
100
AcDbEntity
  8
Defpoints
 62
     0
100
AcDbPoint
 10
140.5959382646635
 20
7.805987126402641
 30
0.0
  0
POINT
  5
E9E
330
E94
100
AcDbEntity
  8
Defpoints
 62
     0
100
AcDbPoint
 10
125.5959381281087
 20
8.778618371574865
 30
0.0
  0
POINT
  5
E9F
330
E94
100
AcDbEntity
  8
Defpoints
 62
     0
100
AcDbPoint
 10
125.5959381281087
 20
31.25766239609652
 30
0.0
  0
ENDBLK
  5
E96
330
E94
100
AcDbEntity
  8
0
100
AcDbBlockEnd
  0
BLOCK
  5
EA4
330
EA3
100
AcDbEntity
  8
0
100
AcDbBlockBegin
  2
*D80
 70
     1
 10
0.0
 20
0.0
 30
0.0
  3
*D80
  1

  0
LINE
  5
EA6
330
EA3
100
AcDbEntity
  8
치수문자_일반주서
 62
     0
370
    -2
100
AcDbLine
 10
18.25673861273707
 20
-5.030245440670212
 30
0.0
 11
27.26724025945496
 21
-18.93954623969663
 31
0.0
  0
MTEXT
  5
EA7
330
EA3
100
AcDbEntity
  8
치수문자_일반주서
 62
     0
100
AcDbMText
 10
27.091709894238
 20
-13.84048366988178
 30
0.0
 40
3.5
 41
0.0
 71
     5
 72
     1
  1
\A1;R1.5
  7
SLDTEXTSTYLE0
 11
0.5436920852278764
 21
-0.8392847648209538
 31
0.0
 73
     1
 44
1.0
  0
SOLID
  5
EA8
330
EA3
100
AcDbEntity
  8
치수문자_일반주서
 62
     0
100
AcDbTrace
 10
18.71862499497687
 20
-4.731033563099804
 30
0.0
 11
17.79485223049727
 21
-5.32945731824062
 31
0.0
 12
16.46146734731462
 22
-2.258927147231423
 32
0.0
 13
16.46146734731462
 23
-2.258927147231423
 33
0.0
  0
ARC
  5
EA9
330
EA3
100
AcDbEntity
  8
치수문자_일반주서
 62
     0
370
    -2
100
AcDbCircle
 10
15.64592921947281
 20
-0.9999999999999931
 30
0.0
 40
1.499999999999998
100
AcDbArc
 50
302.9353305545206
 51
305.0710246591954
  0
POINT
  5
EAA
330
EA3
100
AcDbEntity
  8
Defpoints
 62
     0
100
AcDbPoint
 10
16.46146734731462
 20
-2.258927147231423
 30
0.0
  0
POINT
  5
EAD
330
EA3
100
AcDbEntity
  8
Defpoints
 62
     0
100
AcDbPoint
 10
15.64592921947281
 20
-0.9999999999999931
 30
0.0
  0
ENDBLK
  5
EA5
330
EA3
100
AcDbEntity
  8
0
100
AcDbBlockEnd
  0
ENDSEC
  0
SECTION
  2
ENTITIES
  0
LINE
  5
372
330
1F
100
AcDbEntity
  8
0
  6
Continuous
 62
     4
370
    25
100
AcDbLine
 10
0.0
 20
-3.000000000000014
 30
0.0
 11
2.145929214352066
 21
-2.425000000000018
 31
0.0
  0
LINE
  5
373
330
1F
100
AcDbEntity
  8
0
  6
Continuous
 62
     4
370
    25
100
AcDbLine
 10
2.145929214352066
 20
2.425000000000011
 30
0.0
 11
0.0
 21
3.000000000000014
 31
0.0
  0
LINE
  5
374
330
1F
100
AcDbEntity
  8
0
  6
Continuous
 62
     4
370
    25
100
AcDbLine
 10
0.0
 20
3.0
 30
0.0
 11
-42.35407078052719
 21
3.000000000000014
 31
0.0
  0
LINE
  5
375
330
1F
100
AcDbEntity
  8
0
  6
Continuous
 62
     4
370
    25
100
AcDbLine
 10
-42.35407078052719
 20
-2.999999999999993
 30
0.0
 11
0.0
 21
-3.000000000000007
 31
0.0
  0
LINE
  5
376
330
1F
100
AcDbEntity
  8
0
  6
Continuous
 62
     4
370
    25
100
AcDbLine
 10
-42.35407078052719
 20
3.000000000000007
 30
0.0
 11
-42.85407078052719
 21
2.500000000000007
 31
0.0
  0
LINE
  5
377
330
1F
100
AcDbEntity
  8
0
  6
Continuous
 62
     4
370
    25
100
AcDbLine
 10
-42.85407078052719
 20
-2.499999999999986
 30
0.0
 11
-42.35407078052719
 21
-2.999999999999986
 31
0.0
  0
LINE
  5
378
330
1F
100
AcDbEntity
  8
0
  6
Continuous
 62
     4
370
    25
100
AcDbLine
 10
8.255880020668997
 20
2.425000000000011
 30
0.0
 11
2.145929214352066
 21
2.425000000000011
 31
0.0
  0
LINE
  5
379
330
1F
100
AcDbEntity
  8
0
  6
Continuous
 62
     4
370
    25
100
AcDbLine
 10
2.145929214352066
 20
-2.425000000000018
 30
0.0
 11
8.255880020668997
 21
-2.425000000000018
 31
0.0
  0
LINE
  5
380
330
1F
100
AcDbEntity
  8
0
  6
Continuous
 62
     4
370
    25
100
AcDbLine
 10
2.145929214352066
 20
2.425000000000011
 30
0.0
 11
2.145929214352066
 21
-2.425000000000018
 31
0.0
  0
LINE
  5
381
330
1F
100
AcDbEntity
  8
0
  6
Continuous
 62
     4
370
    25
100
AcDbLine
 10
0.0
 20
3.000000000000014
 30
0.0
 11
0.0
 21
-3.000000000000014
 31
0.0
  0
LINE
  5
382
330
1F
100
AcDbEntity
  8
0
  6
Continuous
 62
     4
370
    25
100
AcDbLine
 10
-42.35407078052719
 20
3.000000000000007
 30
0.0
 11
-42.35407078052719
 21
-2.999999999999986
 31
0.0
  0
LINE
  5
383
330
1F
100
AcDbEntity
  8
0
  6
Continuous
 62
     4
370
    25
100
AcDbLine
 10
-42.85407078052719
 20
2.500000000000007
 30
0.0
 11
-42.85407078052719
 21
-2.499999999999986
 31
0.0
  0
LINE
  5
3B2
330
1F
100
AcDbEntity
  8
중심선
100
AcDbLine
 10
-45.85407078052719
 20
0.0
 30
0.0
 11
20.14592921947281
 21
0.0
 31
0.0
  0
CIRCLE
  5
3B3
330
1F
100
AcDbEntity
  8
외형선
100
AcDbCircle
 10
0.0
 20
0.0
 30
0.0
 40
3.000000000000005
  0
INSERT
  5
3B4
330
1F
100
AcDbEntity
  8
0
  6
Continuous
 62
     7
100
AcDbBlockReference
 66
     1
  2
블럭10
 10
-13.95369611764934
 20
-52.04717430164393
 30
0.0
  0
ATTRIB
  5
3B5
330
3B4
100
AcDbEntity
  8
FORMAT
 62
     2
100
AcDbText
 10
-30.07295715708491
 20
-49.97180738881174
 30
0.0
 40
4.233333333333333
  1
SEME6405015E [ 4 FLUTE ]
 41
0.75
  7
SLDTEXTSTYLE0
 11
-30.07295715708491
 21
-52.08847405547841
 31
0.0
100
AcDbAttribute
  2
AUTOATTR0
 70
     0
 74
     1
  0
SEQEND
  5
3B6
330
3B4
100
AcDbEntity
  8
0
  6
Continuous
 62
     7
  0
HATCH
  5
3B7
330
1F
100
AcDbEntity
  8
중심선
100
AcDbHatch
 10
0.0
 20
0.0
 30
0.0
210
0.0
220
0.0
230
1.0
  2
SOLID
 70
     1
 71
     0
 91
        1
 92
        0
 93
        4
 72
     1
 10
-8.238786813268518
 20
-35.79999999999999
 11
-11.6850620571058
 21
-35.79999999999999
 72
     1
 10
-11.68506205710577
 20
-35.79999999999999
 11
-13.81329191630979
 21
-38.33632558057259
 72
     1
 10
-13.81329191630979
 20
-38.33632558057259
 11
-10.36698358735936
 21
-38.3362861512701
 72
     1
 10
-10.36698358735936
 20
-38.3362861512701
 11
-8.23878681326849
 21
-35.79999999999999
 97
        0
 75
     0
 76
     1
 98
        1
 10
8.98574757041655
 20
-0.001074928723888
  0
HATCH
  5
3B8
330
1F
100
AcDbEntity
  8
중심선
100
AcDbHatch
 10
0.0
 20
0.0
 30
0.0
210
0.0
220
0.0
230
1.0
  2
SOLID
 70
     1
 71
     0
 91
        1
 92
        0
 93
        4
 72
     1
 10
-3.226022822232551
 20
-35.79999999999999
 11
-6.672298066069835
 21
-35.79999999999999
 72
     1
 10
-6.672298066069828
 20
-35.79999999999999
 11
-11.20343607442722
 21
-41.20000000000001
 72
     1
 10
-11.2034360744272
 20
-41.20000000000001
 11
-7.757160830589918
 21
-41.20000000000001
 72
     1
 10
-7.757160830589953
 20
-41.20000000000001
 11
-3.226022822232565
 21
-35.79999999999999
 97
        0
 75
     0
 76
     1
 98
        1
 10
8.98574757041655
 20
-0.001074928723888
  0
HATCH
  5
3B9
330
1F
100
AcDbEntity
  8
중심선
100
AcDbHatch
 10
0.0
 20
0.0
 30
0.0
210
0.0
220
0.0
230
1.0
  2
SOLID
 70
     1
 71
     0
 91
        1
 92
        0
 93
        4
 72
     1
 10
1.78674116880336
 20
-35.80000000000002
 11
-1.659534075033754
 21
-35.79999999999999
 72
     1
 10
-1.659534075033775
 20
-35.79999999999999
 11
-8.70797097692303
 21
-44.20000000000001
 72
     1
 10
-8.707970976923036
 20
-44.20000000000001
 11
-5.261695733085752
 21
-44.20000000000001
 72
     1
 10
-5.26169573308573
 20
-44.20000000000001
 11
1.786741168803353
 21
-35.80000000000002
 97
        0
 75
     0
 76
     1
 98
        1
 10
8.98574757041655
 20
-0.001074928723888
  0
HATCH
  5
3BA
330
1F
100
AcDbEntity
  8
중심선
100
AcDbHatch
 10
0.0
 20
0.0
 30
0.0
210
0.0
220
0.0
230
1.0
  2
SOLID
 70
     1
 71
     0
 91
        1
 92
        0
 93
        6
 72
     3
 10
6.586631599815547
 20
-40.00000000005127
 11
3.960054785062283
 21
1.540882976769353E-10
 40
0.3939339440162628
 50
17.09539180608459
 51
320.0019657685078
 73
     0
 72
     1
 10
8.269631255516146
 20
-38.58789400463829
 11
10.57493312921719
 21
-36.65356729459037
 72
     3
 10
6.586631599762711
 20
-40.00000000000014
 11
6.600054785286829
 21
-1.278976924368180E-13
 40
0.636358354079598
 50
39.99873849337402
 51
368.4976242363724
 73
     1
 72
     1
 10
13.01196409166332
 20
-39.03999999993002
 11
5.266698906598627
 21
-39.03999999992999
 72
     1
 10
5.266698906598606
 20
-39.03999999992999
 11
5.266673862152672
 21
-40.95999999992991
 72
     1
 10
5.266673862152686
 20
-40.95999999992991
 11
9.708053631624722
 21
-40.95999999992988
 97
        0
 75
     0
 76
     1
 98
        1
 10
8.98574757041655
 20
-0.001074928723888
  0
DIMENSION
  5
3BB
330
1F
100
AcDbEntity
  8
치수문자_일반주서
100
AcDbDimension
  2
*D8
 10
27.14592921947279
 20
2.500000000000044
 30
0.0
 11
27.14592921947275
 21
13.42711822363192
 31
0.0
 70
   160
  1
%%c<>
 71
     2
 42
5.000000000000001
 52
-270.0
  3
SLDDIMSTYLE2
100
AcDbAlignedDimension
 13
17.14592921947281
 23
-2.499999999999994
 33
0.0
 14
17.14592921947281
 24
2.500000000000007
 34
0.0
 50
90.0000000000002
100
AcDbRotatedDimension
1001
PE_URL
1000

  0
DIMENSION
  5
3BC
330
1F
100
AcDbEntity
  8
치수문자_일반주서
100
AcDbDimension
  2
*D9
 10
17.14592921947281
 20
31.00000000000003
 30
0.0
 11
-12.85407078052719
 21
31.00000000000003
 31
0.0
 70
   160
  1
<>
 71
     2
 42
60.0
  3
SLDDIMSTYLE2
100
AcDbAlignedDimension
 13
-42.85407078052719
 23
2.500000000000007
 33
0.0
 14
17.14592921947281
 24
2.500000000000007
 34
0.0
 50
-0.0000000000000068
100
AcDbRotatedDimension
1001
PE_URL
1000

  0
DIMENSION
  5
3BD
330
1F
100
AcDbEntity
  8
치수문자_일반주서
100
AcDbDimension
  2
*D10
 10
-52.85407078052719
 20
-3.000000000000025
 30
0.0
 11
-52.85407078052725
 21
12.66649999999997
 31
0.0
 70
   160
  1
%%c<>
 71
     2
 42
5.999999999999993
 52
-270.0
  3
SLDDIMSTYLE2
100
AcDbAlignedDimension
 13
-42.35407078052719
 23
3.000000000000007
 33
0.0
 14
-42.35407078052719
 24
-2.999999999999986
 34
0.0
 50
90.0000000000002
100
AcDbRotatedDimension
1001
PE_URL
1000

  0
DIMENSION
  5
3BE
330
1F
100
AcDbEntity
  8
치수문자_일반주서
100
AcDbDimension
  2
*D11
 10
17.14592921947281
 20
16.78544754509491
 30
0.0
 11
13.14592921947281
 21
16.78544754509491
 31
0.0
 70
   160
  1
<>
 71
     2
 42
8.000000000000004
  3
SLDDIMSTYLE2
100
AcDbAlignedDimension
 13
9.145929219472805
 23
1.963034946823164
 33
0.0
 14
17.14592921947281
 24
2.500000000000007
 34
0.0
100
AcDbRotatedDimension
1001
PE_URL
1000

  0
DIMENSION
  5
3BF
330
1F
100
AcDbEntity
  8
치수문자_일반주서
100
AcDbDimension
  2
*D12
 10
2.145929214352066
 20
25.84600157995483
 30
0.0
 11
9.645929216912435
 21
25.84600157995483
 31
0.0
 70
   160
  1
<>
 71
     2
 42
15.00000000512074
  3
SLDDIMSTYLE2
100
AcDbAlignedDimension
 13
17.14592921947281
 23
2.500000000000007
 33
0.0
 14
2.145929214352066
 24
2.425000000000011
 34
0.0
 50
-0.0000000000000271
100
AcDbRotatedDimension
1001
PE_URL
1000

  0
INSERT
  5
3C0
330
1F
100
AcDbEntity
  8
외형선
100
AcDbBlockReference
  2
SW_DOWELSYMBOL_0
 10
0.0
 20
0.0
 30
0.0
  0
LINE
  5
AC6
330
1F
100
AcDbEntity
  8
0
  6
Continuous
 62
     1
370
    25
100
AcDbLine
 10
12.14213240129712
 20
2.500000000000007
 30
0.0
 11
11.72648575445277
 21
2.500000000000007
 31
0.0
1001
PE_URL
1000

  0
LINE
  5
AC7
330
1F
100
AcDbEntity
  8
0
  6
Continuous
 62
     1
370
    25
100
AcDbLine
 10
11.72648575445277
 20
-2.499999999999993
 30
0.0
 11
12.14213240129712
 21
-2.499999999999993
 31
0.0
1001
PE_URL
1000

  0
SPLINE
  5
ACF
330
1F
100
AcDbEntity
  8
0
  6
Continuous
 62
     4
370
    25
100
AcDbSpline
210
0.0
220
0.0
230
1.0
 70
    24
 71
     3
 72
    10
 73
     6
 74
     0
 42
0.000000001
 43
0.00000001
 40
0.0
 40
0.0
 40
0.0
 40
0.0
 40
0.5
 40
0.5
 40
1.0
 40
1.0
 40
1.0
 40
1.0
 10
9.145929219472805
 20
1.629945479279627
 30
0.0
 10
9.145929219472805
 20
1.470645258934809
 30
0.0
 10
9.145929219472805
 20
1.295863649057871
 30
0.0
 10
9.145929219472805
 20
0.9119655619021927
 30
0.0
 10
9.145929219472805
 20
0.7051900478124935
 30
0.0
 10
9.145929219472805
 20
0.4915134047697123
 30
0.0
  0
SPLINE
  5
AD0
330
1F
100
AcDbEntity
  8
0
  6
Continuous
 62
     4
370
    25
100
AcDbSpline
210
0.0
220
0.0
230
1.0
 70
     8
 71
     3
 72
    10
 73
     6
 74
     0
 42
0.000000001
 43
0.00000001
 40
0.0
 40
0.0
 40
0.0
 40
0.0
 40
0.4999999999999998
 40
0.4999999999999998
 40
1.0
 40
1.0
 40
1.0
 40
1.0
 10
8.567168443573394
 20
-1.138019187897527
 30
0.0
 10
8.46556522866581
 20
-1.072475048013899
 30
0.0
 10
8.38502674173219
 20
-0.9829231061981218
 30
0.0
 10
8.280006243391597
 20
-0.773346510649084
 30
0.0
 10
8.255880020665302
 20
-0.6536412600356982
 30
0.0
 10
8.255880020665131
 20
-0.5311125982339533
 30
0.0
  0
SPLINE
  5
AD1
330
1F
100
AcDbEntity
  8
0
  6
Continuous
 62
     4
370
    25
100
AcDbSpline
210
0.0
220
0.0
230
1.0
 70
     8
 71
     3
 72
    14
 73
    10
 74
     0
 42
0.000000001
 43
0.00000001
 40
0.0
 40
0.0
 40
0.0
 40
0.0
 40
0.25
 40
0.25
 40
0.5
 40
0.5
 40
0.75
 40
0.75
 40
1.0
 40
1.0
 40
1.0
 40
1.0
 10
8.255880020669025
 20
0.9797911451019061
 30
0.0
 10
8.255880020669025
 20
1.084086144451121
 30
0.0
 10
8.275465251000583
 20
1.184164852862729
 30
0.0
 10
8.361656636161797
 20
1.361663274269297
 30
0.0
 10
8.428583664901964
 20
1.438727944264755
 30
0.0
 10
8.597107600158154
 20
1.55629799546746
 30
0.0
 10
8.699175687941619
 20
1.597783310298347
 30
0.0
 10
8.918431342638712
 20
1.642462406475545
 30
0.0
 10
9.033690209777546
 20
1.64582014107701
 30
0.0
 10
9.145929219472805
 20
1.629945479279556
 30
0.0
  0
LINE
  5
AD2
330
1F
100
AcDbEntity
  8
0
  6
Continuous
 62
     4
370
    25
100
AcDbLine
 10
8.255880020669025
 20
2.425000000000011
 30
0.0
 11
8.255880020669025
 21
2.366124343308776
 31
0.0
  0
SPLINE
  5
AD3
330
1F
100
AcDbEntity
  8
0
  6
Continuous
 62
     4
370
    25
100
AcDbSpline
210
0.0
220
0.0
230
1.0
 70
     8
 71
     3
 72
    10
 73
     6
 74
     0
 42
0.000000001
 43
0.00000001
 40
0.0
 40
0.0
 40
0.0
 40
0.0
 40
0.5
 40
0.5
 40
1.0
 40
1.0
 40
1.0
 40
1.0
 10
8.567168443573394
 20
2.14138677682876
 30
0.0
 10
8.46556522866581
 20
2.176219572869591
 30
0.0
 10
8.385026741732162
 20
2.219712804119645
 30
0.0
 10
8.280006243391597
 20
2.301129709498746
 30
0.0
 10
8.255880020665302
 20
2.338620921473705
 30
0.0
 10
8.255880020665131
 20
2.366124343308528
 30
0.0
  0
SPLINE
  5
AD4
330
1F
100
AcDbEntity
  8
0
  6
Continuous
 62
     4
370
    25
100
AcDbSpline
210
0.0
220
0.0
230
1.0
 70
     8
 71
     3
 72
     8
 73
     4
 74
     0
 42
0.000000001
 43
0.00000001
 40
0.0
 40
0.0
 40
0.0
 40
0.0
 40
1.0
 40
1.0
 40
1.0
 40
1.0
 10
9.145929219472805
 20
1.910695226677227
 30
0.0
 10
8.951510823774186
 20
1.997976421402505
 30
0.0
 10
8.760991964721853
 20
2.074937942643558
 30
0.0
 10
8.567168443573394
 20
2.14138677682876
 30
0.0
  0
LINE
  5
AD5
330
1F
100
AcDbEntity
  8
0
  6
Continuous
 62
     4
370
    25
100
AcDbLine
 10
9.145929219472805
 20
1.760464362030277
 30
0.0
 11
9.145929219472805
 21
1.62994547927962
 31
0.0
  0
SPLINE
  5
AD6
330
1F
100
AcDbEntity
  8
0
  6
Continuous
 62
     4
370
    25
100
AcDbSpline
210
0.0
220
0.0
230
1.0
 70
     8
 71
     3
 72
     8
 73
     4
 74
     0
 42
0.000000001
 43
0.00000001
 40
0.0
 40
0.0
 40
0.0
 40
0.0
 40
1.0
 40
1.0
 40
1.0
 40
1.0
 10
9.145929219472805
 20
-1.493274506161832
 30
0.0
 10
8.951510823774186
 20
-1.38159526604079
 30
0.0
 10
8.760991964721853
 20
-1.263054561969518
 30
0.0
 10
8.567168443573394
 20
-1.138019187897527
 30
0.0
  0
LINE
  5
AD7
330
1F
100
AcDbEntity
  8
0
  6
Continuous
 62
     4
370
    25
100
AcDbLine
 10
9.145929219472805
 20
-1.493274506172163
 30
0.0
 11
9.145929219472805
 21
-1.551541585505511
 31
0.0
  0
LINE
  5
AD8
330
1F
100
AcDbEntity
  8
0
  6
Continuous
 62
     4
370
    25
100
AcDbLine
 10
9.145929219472805
 20
-1.781298826516071
 30
0.0
 11
9.145929219472805
 21
-1.795522969659807
 31
0.0
  0
SPLINE
  5
AD9
330
1F
100
AcDbEntity
  8
0
  6
Continuous
 62
     4
370
    25
100
AcDbSpline
210
0.0
220
0.0
230
1.0
 70
     8
 71
     3
 72
    14
 73
    10
 74
     0
 42
0.000000001
 43
0.00000001
 40
0.0
 40
0.0
 40
0.0
 40
0.0
 40
0.25
 40
0.25
 40
0.5
 40
0.5
 40
0.75
 40
0.75
 40
1.0
 40
1.0
 40
1.0
 40
1.0
 10
8.255880020669025
 20
-2.218250281636386
 30
0.0
 10
8.255880020669025
 20
-2.172183650793727
 30
0.0
 10
8.275465251000583
 20
-2.11878517907661
 30
0.0
 10
8.361656636161797
 20
-2.009320820908485
 30
0.0
 10
8.428583664901964
 20
-1.953528267855887
 30
0.0
 10
8.597107600158154
 20
-1.861222001864448
 30
0.0
 10
8.699175687941619
 20
-1.824449198966754
 30
0.0
 10
8.918431342638712
 20
-1.784332824781565
 30
0.0
 10
9.033690209777546
 20
-1.781112219327476
 30
0.0
 10
9.145929219472805
 20
-1.795522969659871
 30
0.0
  0
LINE
  5
ADA
330
1F
100
AcDbEntity
  8
0
  6
Continuous
 62
     4
370
    25
100
AcDbLine
 10
8.255880020669025
 20
-2.218250281636386
 30
0.0
 11
8.255880020669025
 21
-2.42499999999999
 31
0.0
  0
SPLINE
  5
ADB
330
1F
100
AcDbEntity
  8
0
  6
Continuous
 62
     4
370
    25
100
AcDbSpline
210
0.0
220
0.0
230
1.0
 70
     8
 71
     3
 72
    10
 73
     6
 74
     0
 42
0.000000001
 43
0.00000001
 40
0.0
 40
0.0
 40
0.0
 40
0.0
 40
0.5
 40
0.5
 40
1.0
 40
1.0
 40
1.0
 40
1.0
 10
8.567168443573394
 20
-2.141386776828732
 30
0.0
 10
8.46556522866581
 20
-2.17621957286957
 30
0.0
 10
8.38502674173219
 20
-2.219712804119617
 30
0.0
 10
8.280006243391597
 20
-2.301129709498717
 30
0.0
 10
8.255880020665302
 20
-2.338620921473677
 30
0.0
 10
8.255880020665131
 20
-2.366124343308506
 30
0.0
  0
SPLINE
  5
ADC
330
1F
100
AcDbEntity
  8
0
  6
Continuous
 62
     4
370
    25
100
AcDbSpline
210
0.0
220
0.0
230
1.0
 70
     8
 71
     3
 72
     8
 73
     4
 74
     0
 42
0.000000001
 43
0.00000001
 40
0.0
 40
0.0
 40
0.0
 40
0.0
 40
1.0
 40
1.0
 40
1.0
 40
1.0
 10
9.145929219472805
 20
-1.910695226677198
 30
0.0
 10
8.951510823774186
 20
-1.997976421402484
 30
0.0
 10
8.760991964721853
 20
-2.07493794264353
 30
0.0
 10
8.567168443573394
 20
-2.141386776828732
 30
0.0
  0
LINE
  5
ADD
330
1F
100
AcDbEntity
  8
0
  6
Continuous
 62
     4
370
    25
100
AcDbLine
 10
8.255880020669025
 20
0.9797911451019061
 30
0.0
 11
8.255880020669025
 21
-0.5311125982328377
 31
0.0
  0
SPLINE
  5
ADE
330
1F
100
AcDbEntity
  8
0
  6
Continuous
 62
     4
370
    25
100
AcDbSpline
210
0.0
220
0.0
230
1.0
 70
    24
 71
     3
 72
    10
 73
     6
 74
     0
 42
0.000000001
 43
0.00000001
 40
0.0
 40
0.0
 40
0.0
 40
0.0
 40
0.5
 40
0.5
 40
1.0
 40
1.0
 40
1.0
 40
1.0
 10
9.145929219472805
 20
0.491513404769691
 30
0.0
 10
9.145929219472805
 20
0.1840360751126653
 30
0.0
 10
9.145929219472805
 20
-0.162561686797865
 30
0.0
 10
9.145929219472805
 20
-0.8589272048634271
 30
0.0
 10
9.145929219472805
 20
-1.206140735299286
 30
0.0
 10
9.145929219472805
 20
-1.493274506172177
 30
0.0
  0
SPLINE
  5
ADF
330
1F
100
AcDbEntity
  8
0
  6
Continuous
 62
     4
370
    25
100
AcDbSpline
210
0.0
220
0.0
230
1.0
 70
    24
 71
     3
 72
     9
 73
     5
 74
     0
 42
0.000000001
 43
0.00000001
 40
0.0
 40
0.0
 40
0.0
 40
0.0
 40
0.5
 40
1.0
 40
1.0
 40
1.0
 40
1.0
 10
9.145929219472805
 20
-1.83692141639866
 30
0.0
 10
9.145929219472805
 20
-1.848889998137004
 30
0.0
 10
9.145929219472805
 20
-1.873159357031703
 30
0.0
 10
9.145929219472805
 20
-1.898077811702734
 30
0.0
 10
9.145929219472805
 20
-1.910695226686805
 30
0.0
  0
SPLINE
  5
AE1
330
1F
100
AcDbEntity
  8
0
  6
Continuous
 62
     1
370
    25
100
AcDbSpline
210
0.0
220
0.0
230
1.0
 70
     8
 71
     3
 72
    30
 73
    26
 74
     0
 42
0.000000001
 43
0.00000001
 40
0.0684383424813853
 40
0.0684383424813853
 40
0.0684383424813853
 40
0.0684383424813853
 40
0.1249999999999998
 40
0.1249999999999998
 40
0.1874999999999999
 40
0.1874999999999999
 40
0.25
 40
0.25
 40
0.3750000000000001
 40
0.3750000000000001
 40
0.4375
 40
0.4375
 40
0.5
 40
0.5
 40
0.5624999999999999
 40
0.5624999999999999
 40
0.6249999999999998
 40
0.6249999999999998
 40
0.7499999999999999
 40
0.7499999999999999
 40
0.8749999999999999
 40
0.8749999999999999
 40
0.9375
 40
0.9375
 40
1.0
 40
1.0
 40
1.0
 40
1.0
 10
15.66732675255365
 20
-2.183820120344148
 30
0.0
 10
15.53481277302553
 20
-2.135358885479412
 30
0.0
 10
15.40212965173662
 20
-2.081714042548377
 30
0.0
 10
15.12446333500344
 20
-1.958779948782016
 30
0.0
 10
14.98109263145636
 20
-1.888772033305735
 30
0.0
 10
14.68936785280329
 20
-1.737447938423621
 30
0.0
 10
14.54222018565611
 20
-1.656286374306575
 30
0.0
 10
14.10266534168215
 20
-1.399407027189831
 30
0.0
 10
13.81517562562209
 20
-1.21102519193748
 30
0.0
 10
13.37501556142661
 20
-0.9088267484765993
 30
0.0
 10
13.2281968485438
 20
-0.8051234362726802
 30
0.0
 10
12.93816313937327
 20
-0.5945276385109608
 30
0.0
 10
12.79403879513549
 20
-0.4874292533243292
 30
0.0
 10
12.50131823532831
 20
-0.2699279389801532
 30
0.0
 10
12.35412140188663
 20
-0.1598668771616687
 30
0.0
 10
12.06188818067073
 20
0.0600073876060137
 30
0.0
 10
11.91833200693708
 20
0.1694458678120014
 30
0.0
 10
11.48200110556334
 20
0.4967656733538348
 30
0.0
 10
11.18487764951698
 20
0.713204357095421
 30
0.0
 10
10.60858934417988
 20
1.120482095857227
 30
0.0
 10
10.31167618296161
 20
1.315423477914614
 30
0.0
 10
9.875159120743376
 20
1.579778079709747
 30
0.0
 10
9.731658256503806
 20
1.663200645568679
 30
0.0
 10
9.439513492390148
 20
1.820919300046221
 30
0.0
 10
9.292322431304115
 20
1.894902690690024
 30
0.0
 10
9.145929219472805
 20
1.963034946823164
 30
0.0
  0
SPLINE
  5
AE2
330
1F
100
AcDbEntity
  8
0
  6
Continuous
 62
     1
370
    25
100
AcDbSpline
210
0.0
220
0.0
230
1.0
 70
     8
 71
     3
 72
    16
 73
    12
 74
     0
 42
0.000000001
 43
0.00000001
 40
0.0
 40
0.0
 40
0.0
 40
0.0
 40
0.0881335303780355
 40
0.2033575956034676
 40
0.3182853073360311
 40
0.4331261795592244
 40
0.5481431214326125
 40
0.6613246998506028
 40
0.7741888756209441
 40
0.8869780716449952
 40
1.0
 40
1.0
 40
1.0
 40
1.0
 10
9.32926951620641
 20
1.865744297762511
 30
0.0
 10
9.529506130769391
 20
1.96348318958831
 30
0.0
 10
9.991528204713802
 20
2.189004009568933
 30
0.0
 10
10.71552885140318
 20
2.404607939598058
 30
0.0
 10
11.4990706444955
 20
2.517996031425469
 30
0.0
 10
12.28206848871696
 20
2.487866306992125
 30
0.0
 10
13.06146677367286
 20
2.32121185455123
 30
0.0
 10
13.83725592706088
 20
2.029794353691869
 30
0.0
 10
14.6067650693218
 20
1.63009244366976
 30
0.0
 10
15.37577124161479
 20
1.145134118973637
 30
0.0
 10
15.88903356217747
 20
0.7758470296883004
 30
0.0
 10
16.14592921947281
 20
0.5910131820981661
 30
0.0
  0
SPLINE
  5
AE3
330
1F
100
AcDbEntity
  8
0
  6
Continuous
 62
     1
370
    25
100
AcDbSpline
210
0.0
220
0.0
230
1.0
 70
     8
 71
     3
 72
    16
 73
    12
 74
     0
 42
0.000000001
 43
0.00000001
 40
0.0
 40
0.0
 40
0.0
 40
0.0
 40
0.2499999999999987
 40
0.2499999999999987
 40
0.3749999999999989
 40
0.3749999999999989
 40
0.4999999999999992
 40
0.4999999999999992
 40
0.7499999999999997
 40
0.7499999999999997
 40
1.0
 40
1.0
 40
1.0
 40
1.0
 10
16.14592921947281
 20
0.5910131820981661
 30
0.0
 10
16.27678585410757
 20
0.4945928321306283
 30
0.0
 10
16.40434949093159
 20
0.3915114433030524
 30
0.0
 10
16.58667280310814
 20
0.2387354313561474
 30
0.0
 10
16.64475755965503
 20
0.1889977901100153
 30
0.0
 10
16.75546121364641
 20
0.0918859715179892
 30
0.0
 10
16.80849148702998
 20
0.0441106079507065
 30
0.0
 10
16.9513080535958
 20
-0.0906484814489943
 30
0.0
 10
17.02797899527894
 20
-0.1717148452783306
 30
0.0
 10
17.12544181419759
 20
-0.3224401166728796
 30
0.0
 10
17.14592921947281
 20
-0.3938262297871233
 30
0.0
 10
17.14592921947281
 20
-0.474396550914733
 30
0.0
1001
PE_URL
1000

  0
LINE
  5
AE4
330
1F
100
AcDbEntity
  8
0
  6
Continuous
 62
     1
370
    25
100
AcDbLine
 10
17.14592921947281
 20
-0.814786267076413
 30
0.0
 11
17.14592921947281
 21
-0.474396550914733
 31
0.0
1001
PE_URL
1000

  0
SPLINE
  5
AE5
330
1F
100
AcDbEntity
  8
0
  6
Continuous
 62
     1
370
    25
100
AcDbSpline
210
0.0
220
0.0
230
1.0
 70
     8
 71
     3
 72
    14
 73
    10
 74
     0
 42
0.000000001
 43
0.00000001
 40
0.0
 40
0.0
 40
0.0
 40
0.0
 40
0.1382885812778695
 40
0.2838089551897774
 40
0.4292099818039549
 40
0.5717147681580208
 40
0.7142814115067091
 40
0.8572524500260205
 40
1.0
 40
1.0
 40
1.0
 40
1.0
 10
14.5417252586283
 20
-1.871881304939414
 30
0.0
 10
14.29314029843138
 20
-1.987836719323298
 30
0.0
 10
13.78297064322595
 20
-2.225811429171259
 30
0.0
 10
13.01040252392818
 20
-2.436019927930097
 30
0.0
 10
12.23062911960517
 20
-2.522348326482778
 30
0.0
 10
11.45690439383418
 20
-2.469023985033715
 30
0.0
 10
10.68751976965541
 20
-2.282368704643027
 30
0.0
 10
9.916443180303816
 20
-1.979814474959241
 30
0.0
 10
9.402633239358352
 20
-1.691903959233976
 30
0.0
 10
9.145929219472833
 20
-1.548061302904692
 30
0.0
1001
PE_URL
1000

  0
SPLINE
  5
AE6
330
1F
100
AcDbEntity
  8
0
  6
Continuous
 62
     4
370
    25
100
AcDbSpline
210
0.0
220
0.0
230
1.0
 70
    24
 71
     3
 72
    14
 73
    10
 74
     0
 42
0.000000001
 43
0.00000001
 40
0.0
 40
0.0
 40
0.0
 40
0.0
 40
0.25
 40
0.25
 40
0.5
 40
0.5
 40
0.75
 40
0.75
 40
1.0
 40
1.0
 40
1.0
 40
1.0
 10
9.145929219472805
 20
1.754130693720548
 30
0.0
 10
9.145929219472805
 20
1.596313758149968
 30
0.0
 10
9.145929219472805
 20
1.405087120663616
 30
0.0
 10
9.145929219472805
 20
0.9422736613460572
 30
0.0
 10
9.145929219472805
 20
0.6696039059491952
 30
0.0
 10
9.145929219472805
 20
0.0584710618478681
 30
0.0
 10
9.145929219472805
 20
-0.2804642819408514
 30
0.0
 10
9.145929219472805
 20
-0.9503242884389991
 30
0.0
 10
9.145929219472805
 20
-1.278792051228692
 30
0.0
 10
9.145929219472805
 20
-1.548061302904685
 30
0.0
  0
SPLINE
  5
AE7
330
1F
100
AcDbEntity
  8
0
  6
Continuous
 62
     1
370
    25
100
AcDbSpline
210
0.0
220
0.0
230
1.0
 70
     8
 71
     3
 72
    30
 73
    26
 74
     0
 42
0.000000001
 43
0.00000001
 40
0.1100019637627769
 40
0.1100019637627769
 40
0.1100019637627769
 40
0.1100019637627769
 40
0.1250000000000002
 40
0.1250000000000002
 40
0.1875000000000003
 40
0.1875000000000003
 40
0.2500000000000004
 40
0.2500000000000004
 40
0.3750000000000003
 40
0.3750000000000003
 40
0.4375000000000002
 40
0.4375000000000002
 40
0.5000000000000001
 40
0.5000000000000001
 40
0.5625000000000001
 40
0.5625000000000001
 40
0.6250000000000001
 40
0.6250000000000001
 40
0.75
 40
0.75
 40
0.875
 40
0.875
 40
0.9375
 40
0.9375
 40
1.0
 40
1.0
 40
1.0
 40
1.0
 10
15.37529847807489
 20
-2.227986661745147
 30
0.0
 10
15.34022991639307
 20
-2.216023787661018
 30
0.0
 10
15.30519821409481
 20
-2.2036908099042
 30
0.0
 10
15.12446333500344
 20
-2.138082001997077
 30
0.0
 10
14.98109263145636
 20
-2.079149021060097
 30
0.0
 10
14.68936785280329
 20
-1.948937031832536
 30
0.0
 10
14.54222018565611
 20
-1.877777453949484
 30
0.0
 10
14.10266534168215
 20
-1.648842824460012
 30
0.0
 10
13.81517562562209
 20
-1.476297024002612
 30
0.0
 10
13.37501556142661
 20
-1.193143214304726
 30
0.0
 10
13.2281968485438
 20
-1.094977057177545
 30
0.0
 10
12.93816313937327
 20
-0.8937089121373631
 30
0.0
 10
12.79403879513549
 20
-0.7904173675870467
 30
0.0
 10
12.50131823532831
 20
-0.5787881982998115
 30
0.0
 10
12.35412140188663
 20
-0.4707761578391825
 30
0.0
 10
12.06188818067073
 20
-0.2531754465380374
 30
0.0
 10
11.91833200693708
 20
-0.1439664118755388
 30
0.0
 10
11.48200110556334
 20
0.1853734909564579
 30
0.0
 10
11.18487764951698
 20
0.4068496935616963
 30
0.0
 10
10.60858934417988
 20
0.8310018419591501
 30
0.0
 10
10.31167618296161
 20
1.037948478301445
 30
0.0
 10
9.875159120743376
 20
1.324798618013844
 30
0.0
 10
9.731658256503806
 20
1.416440756870308
 30
0.0
 10
9.439513492390148
 20
1.592075980613565
 30
0.0
 10
9.292322431304115
 20
1.675733341063946
 30
0.0
 10
9.145929219472805
 20
1.754130693720548
 30
0.0
  0
LINE
  5
AE9
330
1F
100
AcDbEntity
  8
0
  6
Continuous
 62
     4
370
    25
100
AcDbLine
 10
9.145929219472805
 20
1.754130693720548
 30
0.0
 11
9.145929219472805
 21
1.963034946823171
 31
0.0
  0
LINE
  5
AEB
330
1F
100
AcDbEntity
  8
0
  6
Continuous
 62
     1
370
    25
100
AcDbLine
 10
17.14592921947281
 20
-0.474396550914733
 30
0.0
 11
17.14592921947281
 21
0.4743965509147472
 31
0.0
1001
PE_URL
1000

  0
SPLINE
  5
AEC
330
1F
100
AcDbEntity
  8
0
  6
Continuous
 62
     1
370
    25
100
AcDbSpline
210
0.0
220
0.0
230
1.0
 70
     8
 71
     3
 72
    13
 73
     9
 74
     0
 42
0.000000001
 43
0.00000001
 40
0.0
 40
0.0
 40
0.0
 40
0.0
 40
0.1959296511743287
 40
0.3914785899062214
 40
0.5870938665564626
 40
0.7832055629732988
 40
0.9791564200492817
 40
1.0
 40
1.0
 40
1.0
 40
1.0
 10
16.14592921947281
 20
0.890019757073162
 30
0.0
 10
15.88435557232037
 20
1.069283537274309
 30
0.0
 10
15.36171654382153
 20
1.427462768818806
 30
0.0
 10
14.57866902360237
 20
1.871981665777668
 30
0.0
 10
13.79530970341554
 20
2.219624842821496
 30
0.0
 10
13.01043407145266
 20
2.428636756452796
 30
0.0
 10
12.45911397915722
 20
2.517542119832683
 30
0.0
 10
12.16993532165924
 20
2.495622121025583
 30
0.0
 10
12.14213240129712
 20
2.493514634994483
 30
0.0
1001
PE_URL
1000

  0
SPLINE
  5
AED
330
1F
100
AcDbEntity
  8
0
  6
Continuous
 62
     1
370
    25
100
AcDbSpline
210
0.0
220
0.0
230
1.0
 70
     8
 71
     3
 72
    10
 73
     6
 74
     0
 42
0.000000001
 43
0.00000001
 40
0.0
 40
0.0
 40
0.0
 40
0.0
 40
0.0406394604967053
 40
0.5198253475752281
 40
0.751214649438982
 40
0.751214649438982
 40
0.751214649438982
 40
0.751214649438982
 10
14.5417252586283
 20
1.871881304939436
 30
0.0
 10
14.56345451694389
 20
1.88391044020149
 30
0.0
 10
14.84139667263187
 20
2.037776887792148
 30
0.0
 10
15.24280271540003
 20
2.196228390571763
 30
0.0
 10
15.62285340933248
 20
2.301063340197114
 30
0.0
 10
15.74663161349149
 20
2.332726669565066
 30
0.0
1001
PE_URL
1000

  0
SPLINE
  5
AEF
330
1F
100
AcDbEntity
  8
0
  6
Continuous
 62
     1
370
    25
100
AcDbSpline
210
0.0
220
0.0
230
1.0
 70
     8
 71
     3
 72
    14
 73
    10
 74
     0
 42
0.000000001
 43
0.00000001
 40
0.1190952100669518
 40
0.1190952100669518
 40
0.1190952100669518
 40
0.1190952100669518
 40
0.2499999999999999
 40
0.2499999999999999
 40
0.4999999999999999
 40
0.4999999999999999
 40
0.7499999999999999
 40
0.7499999999999999
 40
1.0
 40
1.0
 40
1.0
 40
1.0
 10
17.07421022767315
 20
1.463973166053672
 30
0.0
 10
17.04946339843224
 20
1.417859325984236
 30
0.0
 10
17.02239098982015
 20
1.37373631714075
 30
0.0
 10
16.93631454975781
 20
1.25159840292514
 30
0.0
 10
16.87067626957241
 20
1.180096842413597
 30
0.0
 10
16.72800965436409
 20
1.062749320360048
 30
0.0
 10
16.64889416920801
 20
1.015192929636584
 30
0.0
 10
16.48509717497649
 20
0.9467332653172207
 30
0.0
 10
16.3998508058574
 20
0.9251495942610788
 30
0.0
 10
16.31314766652002
 20
0.9153149298173489
 30
0.0
1001
PE_URL
1000

  0
SPLINE
  5
AF0
330
1F
100
AcDbEntity
  8
0
  6
Continuous
 62
     1
370
    25
100
AcDbSpline
210
0.0
220
0.0
230
1.0
 70
     8
 71
     3
 72
     8
 73
     4
 74
     0
 42
0.000000001
 43
0.00000001
 40
0.0702514806324205
 40
0.0702514806324205
 40
0.0702514806324205
 40
0.0702514806324205
 40
1.0
 40
1.0
 40
1.0
 40
1.0
 10
17.08569166912043
 20
0.5169655029668685
 30
0.0
 10
16.82052818131196
 20
0.6686834229448787
 30
0.0
 10
16.56298936996389
 20
0.8015263336299356
 30
0.0
 10
16.31314766651994
 20
0.9153149298172423
 30
0.0
1001
PE_URL
1000

  0
LINE
  5
AF1
330
1F
100
AcDbEntity
  8
0
  6
Continuous
 62
     1
370
    25
100
AcDbLine
 10
17.14592921947281
 20
0.4743965509147472
 30
0.0
 11
17.14592921947281
 21
0.4822510305231731
 31
0.0
1001
PE_URL
1000

  0
SPLINE
  5
AF2
330
1F
100
AcDbEntity
  8
0
  6
Continuous
 62
     1
370
    25
100
AcDbSpline
210
0.0
220
0.0
230
1.0
 70
     8
 71
     3
 72
    11
 73
     7
 74
     0
 42
0.000000001
 43
0.00000001
 40
0.0
 40
0.0
 40
0.0
 40
0.0
 40
0.3038807612323642
 40
0.6082801100766538
 40
0.9118965512004038
 40
1.0
 40
1.0
 40
1.0
 40
1.0
 10
9.145929219472805
 20
-1.781298826516085
 30
0.0
 10
9.40726187446461
 20
-1.910423019527684
 30
0.0
 10
9.93037316160354
 20
-2.168891762399497
 30
0.0
 10
10.71552776271531
 20
-2.399019793936823
 30
0.0
 10
11.31397636641103
 20
-2.508344812192483
 30
0.0
 10
11.65074225301029
 20
-2.489825942481353
 30
0.0
 10
11.72648575445277
 20
-2.485660781785178
 30
0.0
1001
PE_URL
1000

  0
LINE
  5
AF3
330
1F
100
AcDbEntity
  8
0
  6
Continuous
 62
     4
370
    25
100
AcDbLine
 10
9.145929219472805
 20
-1.781298826516071
 30
0.0
 11
9.145929219472805
 21
-1.548061302904685
 31
0.0
  0
LINE
  5
AF4
330
1F
100
AcDbEntity
  8
0
  6
Continuous
 62
     1
370
    25
100
AcDbLine
 10
9.145929219472805
 20
-1.953678571441124
 30
0.0
 11
9.319366560565868
 21
-1.86118305415868
 31
0.0
1001
PE_URL
1000

  0
LINE
  5
AF5
330
1F
100
AcDbEntity
  8
0
  6
Continuous
 62
     4
370
    25
100
AcDbLine
 10
9.145929219472805
 20
-1.836924560517048
 30
0.0
 11
9.145929219472805
 21
-1.953678571441124
 31
0.0
  0
LINE
  5
AF7
330
1F
100
AcDbEntity
  8
0
  6
Continuous
 62
     1
370
    25
100
AcDbLine
 10
17.14592921947281
 20
0.4822510305231731
 30
0.0
 11
17.14592921947281
 21
0.9673098926753734
 31
0.0
1001
PE_URL
1000

  0
SPLINE
  5
CF9
330
1F
100
AcDbEntity
  8
0
  6
Continuous
 62
     1
370
    25
100
AcDbSpline
210
0.0
220
0.0
230
1.0
 70
     8
 71
     3
 72
     9
 73
     5
 74
     0
 42
0.000000001
 43
0.00000001
 40
0.0
 40
0.0
 40
0.0
 40
0.0
 40
0.3541175000616395
 40
1.0
 40
1.0
 40
1.0
 40
1.0
 10
14.53980225709935
 20
1.863961961361849
 30
0.0
 10
14.67047563618206
 20
1.931141189827873
 30
0.0
 10
15.03948699275148
 20
2.120850053282307
 30
0.0
 10
15.40794730104483
 20
2.237416103712693
 30
0.0
 10
15.64592936609338
 20
2.312704075772618
 30
0.0
1001
PE_URL
1000

  0
SPLINE
  5
CFC
330
1F
100
AcDbEntity
  8
0
  6
Continuous
 62
     1
370
    25
100
AcDbSpline
210
0.0
220
0.0
230
1.0
 70
     8
 71
     3
 72
    10
 73
     6
 74
     0
 42
0.000000001
 43
0.00000001
 40
0.0
 40
0.0
 40
0.0
 40
0.0
 40
0.0406394604967053
 40
0.5198253475752281
 40
0.751214649438982
 40
0.751214649438982
 40
0.751214649438982
 40
0.751214649438982
 10
14.5417252586283
 20
-1.871881304939421
 30
0.0
 10
14.56345451694389
 20
-1.883910440201475
 30
0.0
 10
14.84139667263187
 20
-2.037776887792133
 30
0.0
 10
15.24280271540003
 20
-2.196228390571748
 30
0.0
 10
15.62285340933248
 20
-2.301063340197099
 30
0.0
 10
15.74663161349149
 20
-2.332726669565051
 30
0.0
1001
PE_URL
1000

  0
SPLINE
  5
CFD
330
1F
100
AcDbEntity
  8
0
  6
Continuous
 62
     1
370
    25
100
AcDbSpline
210
0.0
220
0.0
230
1.0
 70
     8
 71
     3
 72
    12
 73
     8
 74
     0
 42
0.000000001
 43
0.00000001
 40
0.0
 40
0.0
 40
0.0
 40
0.0
 40
0.0625000000000004
 40
0.0625000000000004
 40
0.1250000000000005
 40
0.1250000000000005
 40
0.192423700569013
 40
0.192423700569013
 40
0.192423700569013
 40
0.192423700569013
 10
15.66808215957764
 20
-2.31278990503891
 30
0.0
 10
15.76499987567914
 20
-2.340416509735005
 30
0.0
 10
15.85983927934138
 20
-2.356406611199949
 30
0.0
 10
16.04743576740527
 20
-2.364845059257062
 30
0.0
 10
16.14075393173213
 20
-2.356999054805966
 30
0.0
 10
16.32628191182599
 20
-2.314945005313629
 30
0.0
 10
16.41996242921883
 20
-2.278002482964051
 30
0.0
 10
16.50781636127403
 20
-2.227660602445851
 30
0.0
  0
SPLINE
  5
CFE
330
1F
100
AcDbEntity
  8
0
  6
Continuous
 62
     1
370
    25
100
AcDbSpline
210
0.0
220
0.0
230
1.0
 70
     8
 71
     3
 72
    22
 73
    18
 74
     0
 42
0.000000001
 43
0.00000001
 40
0.0
 40
0.0
 40
0.0
 40
0.0
 40
0.0625000000000004
 40
0.0625000000000004
 40
0.1250000000000005
 40
0.1250000000000005
 40
0.2500000000000006
 40
0.2500000000000006
 40
0.3125000000000006
 40
0.3125000000000006
 40
0.3750000000000006
 40
0.3750000000000006
 40
0.4375000000000006
 40
0.4375000000000006
 40
0.5000000000000007
 40
0.5000000000000007
 40
0.5463552629980611
 40
0.5463552629980611
 40
0.5463552629980611
 40
0.5463552629980611
 10
15.66732675255365
 20
-2.183820120344146
 30
0.0
 10
15.76424446865515
 20
-2.211446725040241
 30
0.0
 10
15.85908387231738
 20
-2.227436826505185
 30
0.0
 10
16.04668036038127
 20
-2.235875274562298
 30
0.0
 10
16.13999852470813
 20
-2.228029270111202
 30
0.0
 10
16.4077441024222
 20
-2.167338770646674
 30
0.0
 10
16.57730829328516
 20
-2.074913840777386
 30
0.0
 10
16.78740425015731
 20
-1.87476306507766
 30
0.0
 10
16.85111535924865
 20
-1.796969434417962
 30
0.0
 10
16.9592382125481
 20
-1.627865256271997
 30
0.0
 10
17.00366887020333
 20
-1.536922264231039
 30
0.0
 10
17.07335893539171
 20
-1.347499308680179
 30
0.0
 10
17.09827614745338
 20
-1.249197803883819
 30
0.0
 10
17.13123778499788
 20
-1.05805105201256
 30
0.0
 10
17.13979847193126
 20
-0.9645205078605077
 30
0.0
 10
17.14669796480023
 20
-0.8095872382471105
 30
0.0
 10
17.14729241858681
 20
-0.7457214771534941
 30
0.0
 10
17.14517381244881
 20
-0.685816482381649
 30
0.0
  0
LINE
  5
D17
330
1F
100
AcDbEntity
  8
0
  6
Continuous
 62
     1
370
    25
100
AcDbLine
 10
17.14592921947281
 20
-0.814786267076413
 30
0.0
 11
17.14592921947281
 21
-0.9999999999999927
 31
0.0
1001
PE_URL
1000

  0
ARC
  5
D1B
102
{ACAD_REACTORS
102
}
330
1F
100
AcDbEntity
  8
0
  6
Continuous
 62
     1
370
    25
100
AcDbCircle
 10
15.64592921947281
 20
-0.9999999999999931
 30
0.0
 40
1.5
100
AcDbArc
 50
305.0710246591955
 51
0.0000000000000509
1001
PE_URL
1000

  0
DIMENSION
  5
EA0
102
{ACAD_REACTORS
102
}
102
{ACAD_XDICTIONARY
360
EA1
102
}
330
1F
100
AcDbEntity
  8
치수문자_일반주서
100
AcDbDimension
  2
*D80
 10
15.64592921947281
 20
-0.9999999999999931
 30
0.0
 11
24.888587386583
 21
-15.26767539360496
 31
0.0
 70
   164
 71
     5
 42
1.499999999999998
  3
SLDDIMSTYLE1
100
AcDbRadialDimension
 15
16.46146734731462
 25
-2.258927147231423
 35
0.0
 40
0.0
1001
ACAD_DSTYLE_DIMRADIAL_EXTENSION
1070
   387
1070
     1
1070
   388
1040
5.324493832735772
1070
   390
1040
0.0000000000000009
1001
PE_URL
1000

  0
SPLINE
  5
EAE
330
1F
100
AcDbEntity
  8
0
  6
Continuous
 62
     1
370
    25
100
AcDbSpline
210
0.0
220
0.0
230
1.0
 70
     8
 71
     3
 72
    34
 73
    30
 74
     0
 42
0.000000001
 43
0.00000001
 40
0.0
 40
0.0
 40
0.0
 40
0.0
 40
0.0625000000000004
 40
0.0625000000000004
 40
0.1250000000000005
 40
0.1250000000000005
 40
0.2500000000000006
 40
0.2500000000000006
 40
0.3125000000000006
 40
0.3125000000000006
 40
0.3750000000000006
 40
0.3750000000000006
 40
0.4375000000000006
 40
0.4375000000000006
 40
0.5000000000000007
 40
0.5000000000000007
 40
0.5625000000000007
 40
0.5625000000000007
 40
0.6250000000000006
 40
0.6250000000000006
 40
0.6875000000000006
 40
0.6875000000000006
 40
0.7500000000000006
 40
0.7500000000000006
 40
0.8125000000000007
 40
0.8125000000000007
 40
0.8750000000000007
 40
0.8750000000000007
 40
0.89921039063366
 40
0.89921039063366
 40
0.89921039063366
 40
0.89921039063366
 10
15.66803090406071
 20
2.314443796127943
 30
0.0
 10
15.76494862016218
 20
2.342070400824039
 30
0.0
 10
15.85978802382445
 20
2.358060502288982
 30
0.0
 10
16.04738451188834
 20
2.366498950346095
 30
0.0
 10
16.14070267621517
 20
2.358652945894999
 30
0.0
 10
16.40844825392926
 20
2.297962446430471
 30
0.0
 10
16.57801244479222
 20
2.205537516561183
 30
0.0
 10
16.78810840166434
 20
2.005386740861457
 30
0.0
 10
16.85181951075569
 20
1.927593110201759
 30
0.0
 10
16.95994236405513
 20
1.758488932055794
 30
0.0
 10
17.00437302171039
 20
1.667545940014836
 30
0.0
 10
17.07406308689874
 20
1.478122984463976
 30
0.0
 10
17.09898029896044
 20
1.379821479667616
 30
0.0
 10
17.13194193650494
 20
1.188674727796357
 30
0.0
 10
17.14050262343832
 20
1.095144183644305
 30
0.0
 10
17.14842540626818
 20
0.9172321730691275
 30
0.0
 10
17.14812635959671
 20
0.8321145983250171
 30
0.0
 10
17.13719653289555
 20
0.6786213890845583
 30
0.0
 10
17.1262781062162
 20
0.6089421334752496
 30
0.0
 10
17.08061443614704
 20
0.4989789473776762
 30
0.0
 10
17.04456400453605
 20
0.4586306080910669
 30
0.0
 10
16.93876227267949
 20
0.4279241868444255
 30
0.0
 10
16.86904202877684
 20
0.4379006168821855
 30
0.0
 10
16.70771452601897
 20
0.5014842915004858
 30
0.0
 10
16.61862940710162
 20
0.5530888064692727
 30
0.0
 10
16.43570689151366
 20
0.6735577489011499
 30
0.0
 10
16.34052894746617
 20
0.743242304163463
 30
0.0
 10
16.20839628015523
 20
0.8421993908101832
 30
0.0
 10
16.17140228655208
 20
0.8700710632542604
 30
0.0
 10
16.13432359531614
 20
0.8979733680746161
 30
0.0
  0
SPLINE
  5
EAF
330
1F
100
AcDbEntity
  8
0
  6
Continuous
 62
     1
370
    25
100
AcDbSpline
210
0.0
220
0.0
230
1.0
 70
     8
 71
     3
 72
     9
 73
     5
 74
     0
 42
0.000000001
 43
0.00000001
 40
0.0
 40
0.0
 40
0.0
 40
0.0
 40
0.3541175000616395
 40
1.0
 40
1.0
 40
1.0
 40
1.0
 10
14.53980225709937
 20
1.863961961361849
 30
0.0
 10
14.67047563618208
 20
1.931141189827873
 30
0.0
 10
15.03948699275149
 20
2.120850053282307
 30
0.0
 10
15.40794730104484
 20
2.237416103712693
 30
0.0
 10
15.64592936609337
 20
2.312704075772618
 30
0.0
  0
ENDSEC
  0
SECTION
  2
OBJECTS
  0
DICTIONARY
  5
C
330
0
100
AcDbDictionary
281
     1
  3
ACAD_DETAILVIEWSTYLE
350
207
  3
ACAD_GROUP
350
D
  3
ACAD_IMAGE_VARS
350
1FD
  3
ACAD_LAYOUT
350
1A
  3
ACAD_MLINESTYLE
350
17
  3
ACAD_PLOTSETTINGS
350
19
  3
ACAD_PLOTSTYLENAME
350
E
  3
ACAD_SCALELIST
350
47
  3
ACAD_SECTIONVIEWSTYLE
350
208
  3
AcDbVariableDictionary
350
202
  3
APPDATA
350
13F
  3
DWGPROPS
350
EB0
  0
DICTIONARY
  5
1C4
330
2
100
AcDbDictionary
280
     1
281
     1
  3
ACAD_LAYERSTATES
360
1C5
  0
DICTIONARY
  5
EA1
330
EA0
100
AcDbDictionary
280
     1
281
     1
  0
DICTIONARY
  5
207
102
{ACAD_REACTORS
330
C
102
}
330
C
100
AcDbDictionary
281
     1
  0
DICTIONARY
  5
D
102
{ACAD_REACTORS
330
C
102
}
330
C
100
AcDbDictionary
281
     1
  0
RASTERVARIABLES
  5
1FD
102
{ACAD_REACTORS
330
C
102
}
330
C
100
AcDbRasterVariables
 90
        0
 70
     1
 71
     1
 72
     1
  0
DICTIONARY
  5
1A
102
{ACAD_REACTORS
330
C
102
}
330
C
100
AcDbDictionary
281
     1
  3
Layout1
350
1E
  3
Layout2
350
26
  3
Model
350
22
  0
DICTIONARY
  5
17
102
{ACAD_REACTORS
330
C
102
}
330
C
100
AcDbDictionary
281
     1
  3
Standard
350
18
  0
DICTIONARY
  5
19
102
{ACAD_REACTORS
330
C
102
}
330
C
100
AcDbDictionary
281
     1
  0
ACDBDICTIONARYWDFLT
  5
E
102
{ACAD_REACTORS
330
C
102
}
330
C
100
AcDbDictionary
281
     1
  3
Normal
350
F
100
AcDbDictionaryWithDefault
340
F
  0
DICTIONARY
  5
47
102
{ACAD_REACTORS
330
C
102
}
330
C
100
AcDbDictionary
281
     1
  3
A0
350
48
  3
A1
350
49
  3
A2
350
4A
  3
A3
350
4B
  3
A4
350
4C
  3
A5
350
4D
  3
A6
350
4E
  3
A7
350
4F
  3
A8
350
50
  3
A9
350
51
  3
B0
350
52
  3
B1
350
53
  3
B2
350
54
  3
B3
350
55
  3
B4
350
56
  3
B5
350
57
  3
B6
350
58
  3
B7
350
59
  3
B8
350
5A
  3
B9
350
5B
  3
C0
350
5C
  3
C1
350
5D
  3
C2
350
5E
  3
C3
350
5F
  3
C4
350
60
  3
C5
350
61
  3
C6
350
62
  3
C7
350
63
  3
C8
350
64
  3
C9
350
65
  3
D0
350
66
  3
D1
350
67
  3
D2
350
68
  0
DICTIONARY
  5
208
102
{ACAD_REACTORS
330
C
102
}
330
C
100
AcDbDictionary
281
     1
  0
DICTIONARY
  5
202
102
{ACAD_REACTORS
330
C
102
}
330
C
100
AcDbDictionary
281
     1
  0
DICTIONARY
  5
13F
102
{ACAD_REACTORS
330
C
102
}
330
C
100
AcDbDictionary
281
     1
  0
XRECORD
  5
EB0
102
{ACAD_REACTORS
330
C
102
}
330
C
100
AcDbXrecord
280
     1
  1
DWGPROPS COOKIE
  2

  3

  4

  6

  7

  8
12015018
  9

300
=
301
=
302
=
303
=
304
=
305
=
306
=
307
=
308
=
309
=
 40
0.0
 41
2458213.091881366
 42
2458268.202900845
  1

 90
        0
  0
DICTIONARY
  5
1C5
102
{ACAD_REACTORS
330
1C4
102
}
330
1C4
100
AcDbDictionary
281
     1
  0
LAYOUT
  5
1E
102
{ACAD_REACTORS
330
1A
102
}
330
1A
100
AcDbPlotSettings
  1

  2
none_device
  4

  6

 40
0.0
 41
0.0
 42
0.0
 43
0.0
 44
0.0
 45
0.0
 46
0.0
 47
0.0
 48
0.0
 49
0.0
140
0.0
141
0.0
142
1.0
143
1.0
 70
   688
 72
     1
 73
     0
 74
     5
  7

 75
    16
147
1.0
148
0.0
149
0.0
100
AcDbLayout
  1
Layout1
 70
     1
 71
     1
 10
0.0
 20
0.0
 11
420.0
 21
297.0
 12
0.0
 22
0.0
 32
0.0
 14
1.000000000000000E+20
 24
1.000000000000000E+20
 34
1.000000000000000E+20
 15
-1.000000000000000E+20
 25
-1.000000000000000E+20
 35
-1.000000000000000E+20
146
0.0
 13
0.0
 23
0.0
 33
0.0
 16
1.0
 26
0.0
 36
0.0
 17
0.0
 27
1.0
 37
0.0
 76
     0
330
1B
  0
LAYOUT
  5
26
102
{ACAD_REACTORS
330
1A
102
}
330
1A
100
AcDbPlotSettings
  1

  2
none_device
  4

  6

 40
0.0
 41
0.0
 42
0.0
 43
0.0
 44
0.0
 45
0.0
 46
0.0
 47
0.0
 48
0.0
 49
0.0
140
0.0
141
0.0
142
1.0
143
1.0
 70
   688
 72
     1
 73
     0
 74
     5
  7

 75
    16
147
1.0
148
0.0
149
0.0
100
AcDbLayout
  1
Layout2
 70
     1
 71
     2
 10
0.0
 20
0.0
 11
0.0
 21
0.0
 12
0.0
 22
0.0
 32
0.0
 14
0.0
 24
0.0
 34
0.0
 15
0.0
 25
0.0
 35
0.0
146
0.0
 13
0.0
 23
0.0
 33
0.0
 16
1.0
 26
0.0
 36
0.0
 17
0.0
 27
1.0
 37
0.0
 76
     0
330
23
  0
LAYOUT
  5
22
102
{ACAD_REACTORS
330
1A
102
}
330
1A
100
AcDbPlotSettings
  1

  2
none_device
  4
ANSI_A_(11.00_x_8.50_Inches)
  6

 40
6.35
 41
19.05
 42
6.35000508
 43
19.05000254
 44
279.4
 45
215.9
 46
146.9802854435656
 47
93.79062655845452
 48
0.0
 49
0.0
140
0.0
141
0.0
142
0.0868510734123721
143
1.0
 70
  1696
 72
     0
 73
     0
 74
     0
  7

 75
     0
147
0.0235690232323232
148
0.0
149
0.0
100
AcDbLayout
  1
Model
 70
     1
 71
     0
 10
0.0
 20
0.0
 11
420.0
 21
297.0
 12
0.0
 22
0.0
 32
0.0
 14
-57.22907078052725
 24
-49.97180738881174
 34
0.0
 15
40.8353761762484
 25
35.37500000000003
 35
0.0
146
0.0
 13
0.0
 23
0.0
 33
0.0
 16
1.0
 26
0.0
 36
0.0
 17
0.0
 27
1.0
 37
0.0
 76
     0
330
1F
331
29
  0
MLINESTYLE
  5
18
102
{ACAD_REACTORS
330
17
102
}
330
17
100
AcDbMlineStyle
  2
Standard
 70
     0
  3

 62
   256
 51
90.0
 52
90.0
 71
     2
 49
0.5
 62
   256
  6
BYLAYER
 49
-0.5
 62
   256
  6
BYLAYER
  0
ACDBPLACEHOLDER
  5
F
102
{ACAD_REACTORS
330
E
102
}
330
E
  0
SCALE
  5
48
102
{ACAD_REACTORS
330
47
102
}
330
47
100
AcDbScale
 70
     0
300
1:1
140
1.0
141
1.0
290
     1
  0
SCALE
  5
49
102
{ACAD_REACTORS
330
47
102
}
330
47
100
AcDbScale
 70
     0
300
1:2
140
1.0
141
2.0
290
     0
  0
SCALE
  5
4A
102
{ACAD_REACTORS
330
47
102
}
330
47
100
AcDbScale
 70
     0
300
1:4
140
1.0
141
4.0
290
     0
  0
SCALE
  5
4B
102
{ACAD_REACTORS
330
47
102
}
330
47
100
AcDbScale
 70
     0
300
1:5
140
1.0
141
5.0
290
     0
  0
SCALE
  5
4C
102
{ACAD_REACTORS
330
47
102
}
330
47
100
AcDbScale
 70
     0
300
1:8
140
1.0
141
8.0
290
     0
  0
SCALE
  5
4D
102
{ACAD_REACTORS
330
47
102
}
330
47
100
AcDbScale
 70
     0
300
1:10
140
1.0
141
10.0
290
     0
  0
SCALE
  5
4E
102
{ACAD_REACTORS
330
47
102
}
330
47
100
AcDbScale
 70
     0
300
1:16
140
1.0
141
16.0
290
     0
  0
SCALE
  5
4F
102
{ACAD_REACTORS
330
47
102
}
330
47
100
AcDbScale
 70
     0
300
1:20
140
1.0
141
20.0
290
     0
  0
SCALE
  5
50
102
{ACAD_REACTORS
330
47
102
}
330
47
100
AcDbScale
 70
     0
300
1:30
140
1.0
141
30.0
290
     0
  0
SCALE
  5
51
102
{ACAD_REACTORS
330
47
102
}
330
47
100
AcDbScale
 70
     0
300
1:40
140
1.0
141
40.0
290
     0
  0
SCALE
  5
52
102
{ACAD_REACTORS
330
47
102
}
330
47
100
AcDbScale
 70
     0
300
1:50
140
1.0
141
50.0
290
     0
  0
SCALE
  5
53
102
{ACAD_REACTORS
330
47
102
}
330
47
100
AcDbScale
 70
     0
300
1:100
140
1.0
141
100.0
290
     0
  0
SCALE
  5
54
102
{ACAD_REACTORS
330
47
102
}
330
47
100
AcDbScale
 70
     0
300
2:1
140
2.0
141
1.0
290
     0
  0
SCALE
  5
55
102
{ACAD_REACTORS
330
47
102
}
330
47
100
AcDbScale
 70
     0
300
4:1
140
4.0
141
1.0
290
     0
  0
SCALE
  5
56
102
{ACAD_REACTORS
330
47
102
}
330
47
100
AcDbScale
 70
     0
300
8:1
140
8.0
141
1.0
290
     0
  0
SCALE
  5
57
102
{ACAD_REACTORS
330
47
102
}
330
47
100
AcDbScale
 70
     0
300
10:1
140
10.0
141
1.0
290
     0
  0
SCALE
  5
58
102
{ACAD_REACTORS
330
47
102
}
330
47
100
AcDbScale
 70
     0
300
100:1
140
100.0
141
1.0
290
     0
  0
SCALE
  5
59
102
{ACAD_REACTORS
330
47
102
}
330
47
100
AcDbScale
 70
     0
300
1/128" = 1'-0"
140
0.0078125
141
12.0
290
     0
  0
SCALE
  5
5A
102
{ACAD_REACTORS
330
47
102
}
330
47
100
AcDbScale
 70
     0
300
1/64" = 1'-0"
140
0.015625
141
12.0
290
     0
  0
SCALE
  5
5B
102
{ACAD_REACTORS
330
47
102
}
330
47
100
AcDbScale
 70
     0
300
1/32" = 1'-0"
140
0.03125
141
12.0
290
     0
  0
SCALE
  5
5C
102
{ACAD_REACTORS
330
47
102
}
330
47
100
AcDbScale
 70
     0
300
1/16" = 1'-0"
140
0.0625
141
12.0
290
     0
  0
SCALE
  5
5D
102
{ACAD_REACTORS
330
47
102
}
330
47
100
AcDbScale
 70
     0
300
3/32" = 1'-0"
140
0.09375
141
12.0
290
     0
  0
SCALE
  5
5E
102
{ACAD_REACTORS
330
47
102
}
330
47
100
AcDbScale
 70
     0
300
1/8" = 1'-0"
140
0.125
141
12.0
290
     0
  0
SCALE
  5
5F
102
{ACAD_REACTORS
330
47
102
}
330
47
100
AcDbScale
 70
     0
300
3/16" = 1'-0"
140
0.1875
141
12.0
290
     0
  0
SCALE
  5
60
102
{ACAD_REACTORS
330
47
102
}
330
47
100
AcDbScale
 70
     0
300
1/4" = 1'-0"
140
0.25
141
12.0
290
     0
  0
SCALE
  5
61
102
{ACAD_REACTORS
330
47
102
}
330
47
100
AcDbScale
 70
     0
300
3/8" = 1'-0"
140
0.375
141
12.0
290
     0
  0
SCALE
  5
62
102
{ACAD_REACTORS
330
47
102
}
330
47
100
AcDbScale
 70
     0
300
1/2" = 1'-0"
140
0.5
141
12.0
290
     0
  0
SCALE
  5
63
102
{ACAD_REACTORS
330
47
102
}
330
47
100
AcDbScale
 70
     0
300
3/4" = 1'-0"
140
0.75
141
12.0
290
     0
  0
SCALE
  5
64
102
{ACAD_REACTORS
330
47
102
}
330
47
100
AcDbScale
 70
     0
300
1" = 1'-0"
140
1.0
141
12.0
290
     0
  0
SCALE
  5
65
102
{ACAD_REACTORS
330
47
102
}
330
47
100
AcDbScale
 70
     0
300
1-1/2" = 1'-0"
140
1.5
141
12.0
290
     0
  0
SCALE
  5
66
102
{ACAD_REACTORS
330
47
102
}
330
47
100
AcDbScale
 70
     0
300
3" = 1'-0"
140
3.0
141
12.0
290
     0
  0
SCALE
  5
67
102
{ACAD_REACTORS
330
47
102
}
330
47
100
AcDbScale
 70
     0
300
6" = 1'-0"
140
6.0
141
12.0
290
     0
  0
SCALE
  5
68
102
{ACAD_REACTORS
330
47
102
}
330
47
100
AcDbScale
 70
     0
300
1'-0" = 1'-0"
140
12.0
141
12.0
290
     0
  0
ENDSEC
  0
EOF
