  0
SECTION
  2
HEADER
  9
$ACADVER
  1
AC1015
  9
$ACADMAINTVER
 70
     6
  9
$DWGCODEPAGE
  3
ANSI_949
  9
$INSBASE
 10
0.0
 20
0.0
 30
0.0
  9
$EXTMIN
 10
-78.41346843616482
 20
-49.97180738881175
 30
0.0
  9
$EXTMAX
 10
60.66348381534559
 20
32.39560782696464
 30
0.0
  9
$LIMMIN
 10
0.0
 20
0.0
  9
$LIMMAX
 10
420.0
 20
297.0
  9
$ORTHOMODE
 70
     0
  9
$REGENMODE
 70
     1
  9
$FILLMODE
 70
     1
  9
$QTEXTMODE
 70
     0
  9
$MIRRTEXT
 70
     1
  9
$LTSCALE
 40
1.0
  9
$ATTMODE
 70
     1
  9
$TEXTSIZE
 40
3.5
  9
$TRACEWID
 40
1.0
  9
$TEXTSTYLE
  7
Standard
  9
$CLAYER
  8
0
  9
$CELTYPE
  6
ByLayer
  9
$CECOLOR
 62
   256
  9
$CELTSCALE
 40
1.0
  9
$DISPSILH
 70
     0
  9
$DIMSCALE
 40
1.0
  9
$DIMASZ
 40
3.302
  9
$DIMEXO
 40
1.0
  9
$DIMDLI
 40
3.75
  9
$DIMRND
 40
0.0
  9
$DIMDLE
 40
0.0
  9
$DIMEXE
 40
1.0
  9
$DIMTP
 40
0.0
  9
$DIMTM
 40
0.0
  9
$DIMTXT
 40
3.5
  9
$DIMCEN
 40
2.5
  9
$DIMTSZ
 40
0.0
  9
$DIMTOL
 70
     0
  9
$DIMLIM
 70
     0
  9
$DIMTIH
 70
     1
  9
$DIMTOH
 70
     1
  9
$DIMSE1
 70
     0
  9
$DIMSE2
 70
     0
  9
$DIMTAD
 70
     1
  9
$DIMZIN
 70
     0
  9
$DIMBLK
  1

  9
$DIMASO
 70
     1
  9
$DIMSHO
 70
     1
  9
$DIMPOST
  1

  9
$DIMAPOST
  1

  9
$DIMALT
 70
     0
  9
$DIMALTD
 70
     3
  9
$DIMALTF
 40
0.0393700787401575
  9
$DIMLFAC
 40
1.0
  9
$DIMTOFL
 70
     1
  9
$DIMTVP
 40
0.0
  9
$DIMTIX
 70
     0
  9
$DIMSOXD
 70
     0
  9
$DIMSAH
 70
     0
  9
$DIMBLK1
  1

  9
$DIMBLK2
  1

  9
$DIMSTYLE
  2
ISO-25
  9
$DIMCLRD
 70
     0
  9
$DIMCLRE
 70
     0
  9
$DIMCLRT
 70
     0
  9
$DIMTFAC
 40
1.0
  9
$DIMGAP
 40
1.524
  9
$DIMJUST
 70
     0
  9
$DIMSD1
 70
     0
  9
$DIMSD2
 70
     0
  9
$DIMTOLJ
 70
     0
  9
$DIMTZIN
 70
     0
  9
$DIMALTZ
 70
     0
  9
$DIMALTTZ
 70
     0
  9
$DIMUPT
 70
     0
  9
$DIMDEC
 70
     2
  9
$DIMTDEC
 70
     2
  9
$DIMALTU
 70
     2
  9
$DIMALTTD
 70
     3
  9
$DIMTXSTY
  7
Standard
  9
$DIMAUNIT
 70
     0
  9
$DIMADEC
 70
     2
  9
$DIMALTRND
 40
0.0
  9
$DIMAZIN
 70
     0
  9
$DIMDSEP
 70
    44
  9
$DIMATFIT
 70
     3
  9
$DIMFRAC
 70
     0
  9
$DIMLDRBLK
  1

  9
$DIMLUNIT
 70
     2
  9
$DIMLWD
 70
    -2
  9
$DIMLWE
 70
    -2
  9
$DIMTMOVE
 70
     0
  9
$LUNITS
 70
     2
  9
$LUPREC
 70
     2
  9
$SKETCHINC
 40
1.0
  9
$FILLETRAD
 40
10.0
  9
$AUNITS
 70
     0
  9
$AUPREC
 70
     2
  9
$MENU
  1
.
  9
$ELEVATION
 40
0.0
  9
$PELEVATION
 40
0.0
  9
$THICKNESS
 40
0.0
  9
$LIMCHECK
 70
     0
  9
$CHAMFERA
 40
0.0
  9
$CHAMFERB
 40
0.0
  9
$CHAMFERC
 40
0.0
  9
$CHAMFERD
 40
0.0
  9
$SKPOLY
 70
     0
  9
$TDCREATE
 40
2458274.7096939
  9
$TDUCREATE
 40
2458274.3346939
  9
$TDUPDATE
 40
2458275.446711956
  9
$TDUUPDATE
 40
2458275.071711956
  9
$TDINDWG
 40
0.0007146991
  9
$TDUSRTIMER
 40
0.0007146875
  9
$USRTIMER
 70
     1
  9
$ANGBASE
 50
0.0
  9
$ANGDIR
 70
     0
  9
$PDMODE
 70
     0
  9
$PDSIZE
 40
-1.0
  9
$PLINEWID
 40
0.0
  9
$SPLFRAME
 70
     0
  9
$SPLINETYPE
 70
     6
  9
$SPLINESEGS
 70
     8
  9
$HANDSEED
  5
15E
  9
$SURFTAB1
 70
     6
  9
$SURFTAB2
 70
     6
  9
$SURFTYPE
 70
     6
  9
$SURFU
 70
     6
  9
$SURFV
 70
     6
  9
$UCSBASE
  2

  9
$UCSNAME
  2

  9
$UCSORG
 10
0.0
 20
0.0
 30
0.0
  9
$UCSXDIR
 10
1.0
 20
0.0
 30
0.0
  9
$UCSYDIR
 10
0.0
 20
1.0
 30
0.0
  9
$UCSORTHOREF
  2

  9
$UCSORTHOVIEW
 70
     0
  9
$UCSORGTOP
 10
0.0
 20
0.0
 30
0.0
  9
$UCSORGBOTTOM
 10
0.0
 20
0.0
 30
0.0
  9
$UCSORGLEFT
 10
0.0
 20
0.0
 30
0.0
  9
$UCSORGRIGHT
 10
0.0
 20
0.0
 30
0.0
  9
$UCSORGFRONT
 10
0.0
 20
0.0
 30
0.0
  9
$UCSORGBACK
 10
0.0
 20
0.0
 30
0.0
  9
$PUCSBASE
  2

  9
$PUCSNAME
  2

  9
$PUCSORG
 10
0.0
 20
0.0
 30
0.0
  9
$PUCSXDIR
 10
1.0
 20
0.0
 30
0.0
  9
$PUCSYDIR
 10
0.0
 20
1.0
 30
0.0
  9
$PUCSORTHOREF
  2

  9
$PUCSORTHOVIEW
 70
     0
  9
$PUCSORGTOP
 10
0.0
 20
0.0
 30
0.0
  9
$PUCSORGBOTTOM
 10
0.0
 20
0.0
 30
0.0
  9
$PUCSORGLEFT
 10
0.0
 20
0.0
 30
0.0
  9
$PUCSORGRIGHT
 10
0.0
 20
0.0
 30
0.0
  9
$PUCSORGFRONT
 10
0.0
 20
0.0
 30
0.0
  9
$PUCSORGBACK
 10
0.0
 20
0.0
 30
0.0
  9
$USERI1
 70
     0
  9
$USERI2
 70
     0
  9
$USERI3
 70
     0
  9
$USERI4
 70
     0
  9
$USERI5
 70
     0
  9
$USERR1
 40
0.0
  9
$USERR2
 40
0.0
  9
$USERR3
 40
0.0
  9
$USERR4
 40
0.0
  9
$USERR5
 40
0.0
  9
$WORLDVIEW
 70
     1
  9
$SHADEDGE
 70
     3
  9
$SHADEDIF
 70
    70
  9
$TILEMODE
 70
     1
  9
$MAXACTVP
 70
    64
  9
$PINSBASE
 10
0.0
 20
0.0
 30
0.0
  9
$PLIMCHECK
 70
     0
  9
$PEXTMIN
 10
1.000000000000000E+20
 20
1.000000000000000E+20
 30
1.000000000000000E+20
  9
$PEXTMAX
 10
-1.000000000000000E+20
 20
-1.000000000000000E+20
 30
-1.000000000000000E+20
  9
$PLIMMIN
 10
0.0
 20
0.0
  9
$PLIMMAX
 10
0.0
 20
0.0
  9
$UNITMODE
 70
     0
  9
$VISRETAIN
 70
     1
  9
$PLINEGEN
 70
     0
  9
$PSLTSCALE
 70
     1
  9
$TREEDEPTH
 70
  3020
  9
$CMLSTYLE
  2
Standard
  9
$CMLJUST
 70
     0
  9
$CMLSCALE
 40
20.0
  9
$PROXYGRAPHICS
 70
     1
  9
$MEASUREMENT
 70
     1
  9
$CELWEIGHT
370
    -1
  9
$ENDCAPS
280
     0
  9
$JOINSTYLE
280
     0
  9
$LWDISPLAY
290
     1
  9
$INSUNITS
 70
     4
  9
$HYPERLINKBASE
  1

  9
$STYLESHEET
  1

  9
$XEDIT
290
     1
  9
$CEPSNTYPE
380
     0
  9
$PSTYLEMODE
290
     1
  9
$FINGERPRINTGUID
  2
{58AF68E4-64DE-44F9-BBAC-E689F88316B2}
  9
$VERSIONGUID
  2
{FAEB1C32-E019-11D5-929B-00C0DF256EC4}
  9
$EXTNAMES
290
     1
  9
$PSVPSCALE
 40
0.0
  9
$OLESTARTUP
290
     0
  0
ENDSEC
  0
SECTION
  2
CLASSES
  0
CLASS
  1
ACDBDICTIONARYWDFLT
  2
AcDbDictionaryWithDefault
  3
ObjectDBX Classes
 90
        0
280
     0
281
     0
  0
CLASS
  1
VISUALSTYLE
  2
AcDbVisualStyle
  3
ObjectDBX Classes
 90
     4095
280
     0
281
     0
  0
CLASS
  1
MATERIAL
  2
AcDbMaterial
  3
ObjectDBX Classes
 90
     1153
280
     0
281
     0
  0
CLASS
  1
SCALE
  2
AcDbScale
  3
ObjectDBX Classes
 90
     1153
280
     0
281
     0
  0
CLASS
  1
SUN
  2
AcDbSun
  3
SCENEOE
 90
     1153
280
     0
281
     0
  0
CLASS
  1
ACDBPLACEHOLDER
  2
AcDbPlaceHolder
  3
ObjectDBX Classes
 90
        0
280
     0
281
     0
  0
CLASS
  1
LAYOUT
  2
AcDbLayout
  3
ObjectDBX Classes
 90
        0
280
     0
281
     0
  0
CLASS
  1
TABLESTYLE
  2
AcDbTableStyle
  3
ObjectDBX Classes
 90
     4095
280
     0
281
     0
  0
CLASS
  1
MLEADERSTYLE
  2
AcDbMLeaderStyle
  3
ACDB_MLEADERSTYLE_CLASS
 90
     4095
280
     0
281
     0
  0
CLASS
  1
DIMASSOC
  2
AcDbDimAssoc
  3
"AcDbDimAssoc|Product Desc:     AcDim ARX App For Dimension|Company:          Autodesk, Inc.|WEB Address:      www.autodesk.com"
 90
        0
280
     0
281
     0
  0
ENDSEC
  0
SECTION
  2
TABLES
  0
TABLE
  2
VPORT
  5
8
330
0
100
AcDbSymbolTable
 70
     1
  0
VPORT
  5
29
330
8
100
AcDbSymbolTableRecord
100
AcDbViewportTableRecord
  2
*Active
 70
     0
 10
0.0
 20
0.0
 11
1.0
 21
1.0
 12
-8.874992310409624
 22
-8.788099780923552
 13
0.0
 23
0.0
 14
10.0
 24
10.0
 15
10.0
 25
10.0
 16
0.0
 26
0.0
 36
1.0
 17
0.0
 27
0.0
 37
0.0
 40
84.01476352009192
 41
2.400311526479751
 42
50.0
 43
0.0
 44
0.0
 50
0.0
 51
0.0
 71
    16
 72
  2000
 73
     1
 74
     3
 75
     0
 76
     0
 77
     0
 78
     0
281
     0
 65
     1
110
0.0
120
0.0
130
0.0
111
1.0
121
0.0
131
0.0
112
0.0
122
1.0
132
0.0
 79
     0
146
0.0
  0
ENDTAB
  0
TABLE
  2
LTYPE
  5
5
330
0
100
AcDbSymbolTable
 70
     6
  0
LTYPE
  5
14
330
5
100
AcDbSymbolTableRecord
100
AcDbLinetypeTableRecord
  2
ByBlock
 70
     0
  3

 72
    65
 73
     0
 40
0.0
  0
LTYPE
  5
15
330
5
100
AcDbSymbolTableRecord
100
AcDbLinetypeTableRecord
  2
ByLayer
 70
     0
  3

 72
    65
 73
     0
 40
0.0
  0
LTYPE
  5
16
330
5
100
AcDbSymbolTableRecord
100
AcDbLinetypeTableRecord
  2
Continuous
 70
     0
  3
Solid line
 72
    65
 73
     0
 40
0.0
  0
LTYPE
  5
6A
330
5
100
AcDbSymbolTableRecord
100
AcDbLinetypeTableRecord
  2
HIDDEN
 70
     0
  3
Hidden __ __ __ __ __ __ __ __ __ __ __ __ __ __
 72
    65
 73
     2
 40
1.905
 49
1.27
 74
     0
 49
-0.635
 74
     0
  0
LTYPE
  5
6B
330
5
100
AcDbSymbolTableRecord
100
AcDbLinetypeTableRecord
  2
PHANTOM
 70
     0
  3
Phantom ______  __  __  ______  __  __  ______
 72
    65
 73
     6
 40
12.7
 49
6.35
 74
     0
 49
-1.27
 74
     0
 49
1.27
 74
     0
 49
-1.27
 74
     0
 49
1.27
 74
     0
 49
-1.27
 74
     0
  0
LTYPE
  5
6C
330
5
100
AcDbSymbolTableRecord
100
AcDbLinetypeTableRecord
  2
CENTER
 70
     0
  3
Center ____ _ ____ _ ____ _ ____ _ ____ _ ____
 72
    65
 73
     4
 40
10.16
 49
6.35
 74
     0
 49
-1.27
 74
     0
 49
1.27
 74
     0
 49
-1.27
 74
     0
  0
LTYPE
  5
6D
330
5
100
AcDbSymbolTableRecord
100
AcDbLinetypeTableRecord
  2
CENTERX2
 70
     0
  3
Center (2x) ________  __  ________  __  _____
 72
    65
 73
     4
 40
20.32
 49
12.7
 74
     0
 49
-2.54
 74
     0
 49
2.54
 74
     0
 49
-2.54
 74
     0
  0
LTYPE
  5
6E
330
5
100
AcDbSymbolTableRecord
100
AcDbLinetypeTableRecord
  2
DOT2
 70
     0
  3
Dot (.5x) ........................................
 72
    65
 73
     2
 40
0.635
 49
0.0
 74
     0
 49
-0.635
 74
     0
  0
ENDTAB
  0
TABLE
  2
LAYER
  5
2
330
0
100
AcDbSymbolTable
 70
    18
  0
LAYER
  5
10
330
2
100
AcDbSymbolTableRecord
100
AcDbLayerTableRecord
  2
0
 70
     0
 62
     7
  6
Continuous
370
    -3
390
F
  0
LAYER
  5
6F
330
2
100
AcDbSymbolTableRecord
100
AcDbLayerTableRecord
  2
FORMAT
 70
     0
 62
     2
  6
Continuous
370
    -3
390
F
  0
LAYER
  5
70
330
2
100
AcDbSymbolTableRecord
100
AcDbLayerTableRecord
  2
외형선
 70
     0
 62
     4
  6
Continuous
370
    30
390
F
  0
LAYER
  5
71
330
2
100
AcDbSymbolTableRecord
100
AcDbLayerTableRecord
  2
숨은선
 70
     0
 62
     2
  6
HIDDEN
370
    15
390
F
  0
LAYER
  5
72
330
2
100
AcDbSymbolTableRecord
100
AcDbLayerTableRecord
  2
중심선
 70
     0
 62
     1
  6
CENTERX2
370
    -3
390
F
  0
LAYER
  5
73
330
2
100
AcDbSymbolTableRecord
100
AcDbLayerTableRecord
  2
파단선
 70
     0
 62
     4
  6
Continuous
370
    -3
390
F
  0
LAYER
  5
74
330
2
100
AcDbSymbolTableRecord
100
AcDbLayerTableRecord
  2
해칭선
 70
     0
 62
   100
  6
Continuous
370
    -3
390
F
  0
LAYER
  5
75
330
2
100
AcDbSymbolTableRecord
100
AcDbLayerTableRecord
  2
가는실선
 70
     0
 62
     4
  6
Continuous
370
    -3
390
F
  0
LAYER
  5
76
330
2
100
AcDbSymbolTableRecord
100
AcDbLayerTableRecord
  2
치수_보조선
 70
     0
 62
     4
  6
Continuous
370
    -3
390
F
  0
LAYER
  5
77
330
2
100
AcDbSymbolTableRecord
100
AcDbLayerTableRecord
  2
치수문자_일반주서
 70
     0
 62
     7
  6
Continuous
370
    15
390
F
  0
LAYER
  5
78
330
2
100
AcDbSymbolTableRecord
100
AcDbLayerTableRecord
  2
개별주서
 70
     0
 62
   100
  6
Continuous
370
    30
390
F
  0
LAYER
  5
79
330
2
100
AcDbSymbolTableRecord
100
AcDbLayerTableRecord
  2
중간선
 70
     0
 62
     2
  6
Continuous
370
    15
390
F
  0
LAYER
  5
7A
330
2
100
AcDbSymbolTableRecord
100
AcDbLayerTableRecord
  2
윤곽선
 70
     0
 62
     3
  6
Continuous
370
    40
390
F
  0
LAYER
  5
7B
330
2
100
AcDbSymbolTableRecord
100
AcDbLayerTableRecord
  2
중심마크
 70
     0
 62
   100
  6
Continuous
370
    30
390
F
  0
LAYER
  5
7C
330
2
100
AcDbSymbolTableRecord
100
AcDbLayerTableRecord
  2
가상선
 70
     0
 62
     4
  6
PHANTOM
370
    -3
390
F
  0
LAYER
  5
7D
330
2
100
AcDbSymbolTableRecord
100
AcDbLayerTableRecord
  2
특수지정선
 70
     0
 62
     5
  6
CENTERX2
370
    60
390
F
  0
LAYER
  5
7E
330
2
100
AcDbSymbolTableRecord
100
AcDbLayerTableRecord
  2
참조1
 70
     0
 62
    -4
  6
Continuous
370
    -3
390
F
  0
LAYER
  5
13C
330
2
100
AcDbSymbolTableRecord
100
AcDbLayerTableRecord
  2
Defpoints
 70
     0
 62
     7
  6
Continuous
290
     0
370
    -3
390
F
  0
ENDTAB
  0
TABLE
  2
STYLE
  5
3
330
0
100
AcDbSymbolTable
 70
     2
  0
STYLE
  5
11
330
3
100
AcDbSymbolTableRecord
100
AcDbTextStyleTableRecord
  2
Standard
 70
     0
 40
0.0
 41
1.0
 50
0.0
 71
     0
 42
3.5
  3
txt
  4

  0
STYLE
  5
94
330
3
100
AcDbSymbolTableRecord
100
AcDbTextStyleTableRecord
  2
SLDTEXTSTYLE0
 70
     0
 40
0.0
 41
0.75
 50
0.0
 71
     0
 42
3.5
  3
TXT
  4

  0
ENDTAB
  0
TABLE
  2
VIEW
  5
6
330
0
100
AcDbSymbolTable
 70
     0
  0
ENDTAB
  0
TABLE
  2
UCS
  5
7
330
0
100
AcDbSymbolTable
 70
     0
  0
ENDTAB
  0
TABLE
  2
APPID
  5
9
330
0
100
AcDbSymbolTable
 70
     5
  0
APPID
  5
12
330
9
100
AcDbSymbolTableRecord
100
AcDbRegAppTableRecord
  2
ACAD
 70
     0
  0
APPID
  5
14B
330
9
100
AcDbSymbolTableRecord
100
AcDbRegAppTableRecord
  2
PE_URL
 70
     0
  0
APPID
  5
14D
330
9
100
AcDbSymbolTableRecord
100
AcDbRegAppTableRecord
  2
ACAD_DSTYLE_DIMRADIAL_EXTENSION
 70
     0
  0
APPID
  5
15C
330
9
100
AcDbSymbolTableRecord
100
AcDbRegAppTableRecord
  2
ACAD_DSTYLE_DIMFLIPARROW_SYMBOL
 70
     0
  0
APPID
  5
15D
330
9
100
AcDbSymbolTableRecord
100
AcDbRegAppTableRecord
  2
ACAD_DSTYLE_DIMFLIPARROW_WHICH_SYMBOL
 70
     0
  0
ENDTAB
  0
TABLE
  2
DIMSTYLE
  5
A
330
0
100
AcDbSymbolTable
 70
     3
100
AcDbDimStyleTable
  0
DIMSTYLE
105
27
102
{ACAD_REACTORS
330
14E
102
}
330
A
100
AcDbSymbolTableRecord
100
AcDbDimStyleTableRecord
  2
ISO-25
 70
     0
 41
2.5
 42
0.625
 43
3.75
 44
1.25
 73
     0
 74
     0
 77
     1
 78
     8
140
2.5
141
2.5
143
0.03937007874016
147
0.625
171
     3
172
     1
178
     0
271
     2
272
     2
274
     3
278
    44
283
     0
284
     8
340
11
  0
DIMSTYLE
105
D2
330
A
100
AcDbSymbolTableRecord
100
AcDbDimStyleTableRecord
  2
SLDDIMSTYLE0
 70
     0
 41
3.302
 44
0.0
 45
0.000000001
 73
     0
 74
     0
 77
     1
 78
    12
 79
     3
140
3.5
147
0.875
173
     1
178
     0
271
     2
272
     2
276
     2
284
    12
340
94
  0
DIMSTYLE
105
DF
102
{ACAD_REACTORS
330
DE
330
EC
330
D1
330
F6
330
100
102
}
330
A
100
AcDbSymbolTableRecord
100
AcDbDimStyleTableRecord
  2
SLDDIMSTYLE1
 70
     0
 41
3.302
 44
0.0
 45
0.000000001
 73
     0
 74
     0
 77
     1
 78
    12
 79
     3
140
3.5
147
0.875
172
     1
173
     1
178
     0
271
     2
272
     2
276
     2
284
    12
289
     0
340
94
  0
ENDTAB
  0
TABLE
  2
BLOCK_RECORD
  5
1
330
0
100
AcDbSymbolTable
 70
     9
  0
BLOCK_RECORD
  5
1F
330
1
100
AcDbSymbolTableRecord
100
AcDbBlockTableRecord
  2
*Model_Space
340
22
  0
BLOCK_RECORD
  5
1B
330
1
100
AcDbSymbolTableRecord
100
AcDbBlockTableRecord
  2
*Paper_Space
340
1E
  0
BLOCK_RECORD
  5
23
330
1
100
AcDbSymbolTableRecord
100
AcDbBlockTableRecord
  2
*Paper_Space0
340
26
  0
BLOCK_RECORD
  5
7F
330
1
100
AcDbSymbolTableRecord
100
AcDbBlockTableRecord
  2
블럭10
340
0
102
{BLKREFS
331
CA
102
}
  0
BLOCK_RECORD
  5
D3
330
1
100
AcDbSymbolTableRecord
100
AcDbBlockTableRecord
  2
_D
340
0
  0
BLOCK_RECORD
  5
E0
330
1
100
AcDbSymbolTableRecord
100
AcDbBlockTableRecord
  2
_D_1
340
0
  0
BLOCK_RECORD
  5
ED
330
1
100
AcDbSymbolTableRecord
100
AcDbBlockTableRecord
  2
_D_2
340
0
  0
BLOCK_RECORD
  5
F7
330
1
100
AcDbSymbolTableRecord
100
AcDbBlockTableRecord
  2
_D_3
340
0
  0
BLOCK_RECORD
  5
101
330
1
100
AcDbSymbolTableRecord
100
AcDbBlockTableRecord
  2
_D_4
340
0
  0
BLOCK_RECORD
  5
111
330
1
100
AcDbSymbolTableRecord
100
AcDbBlockTableRecord
  2
SW_DOWELSYMBOL_0
340
0
102
{BLKREFS
331
117
102
}
  0
BLOCK_RECORD
  5
151
330
1
100
AcDbSymbolTableRecord
100
AcDbBlockTableRecord
  2
*D8
340
0
  0
ENDTAB
  0
ENDSEC
  0
SECTION
  2
BLOCKS
  0
BLOCK
  5
20
330
1F
100
AcDbEntity
  8
0
100
AcDbBlockBegin
  2
*Model_Space
 70
     0
 10
0.0
 20
0.0
 30
0.0
  3
*Model_Space
  1

  0
ENDBLK
  5
21
330
1F
100
AcDbEntity
  8
0
100
AcDbBlockEnd
  0
BLOCK
  5
1C
330
1B
100
AcDbEntity
 67
     1
  8
0
100
AcDbBlockBegin
  2
*Paper_Space
 70
     0
 10
0.0
 20
0.0
 30
0.0
  3
*Paper_Space
  1

  0
ENDBLK
  5
1D
330
1B
100
AcDbEntity
 67
     1
  8
0
100
AcDbBlockEnd
  0
BLOCK
  5
24
330
23
100
AcDbEntity
  8
0
100
AcDbBlockBegin
  2
*Paper_Space0
 70
     0
 10
0.0
 20
0.0
 30
0.0
  3
*Paper_Space0
  1

  0
ENDBLK
  5
25
330
23
100
AcDbEntity
  8
0
100
AcDbBlockEnd
  0
BLOCK
  5
80
330
7F
100
AcDbEntity
  8
0
100
AcDbBlockBegin
  2
블럭10
 70
     2
 10
0.0
 20
0.0
 30
0.0
  3
블럭10
  1

  0
ELLIPSE
  5
82
330
7F
100
AcDbEntity
  8
중심선
100
AcDbEllipse
 10
20.54032771741204
 20
12.0471743016438
 30
0.0
 11
6.600054785286829
 21
-1.261213355974178E-13
 31
0.0
210
0.0
220
0.0
230
1.0
 40
0.636358354079598
 41
0.9219305317359503
 42
6.513795318482858
  0
ELLIPSE
  5
83
330
7F
100
AcDbEntity
  8
중심선
100
AcDbEllipse
 10
20.54032771746488
 20
12.04717430159265
 30
0.0
 11
3.960054785062283
 21
1.540847449632565E-10
 31
0.0
210
0.0
220
0.0
230
1.0
 40
0.3939339440162632
 41
1.131841032648279
 42
5.62031148352944
  0
LINE
  5
84
330
7F
100
AcDbEntity
  8
중심선
100
AcDbLine
 10
2.268634060543552
 20
16.24717430164393
 30
0.0
 11
5.714909304380834
 21
16.24717430164393
 31
0.0
  0
LINE
  5
85
330
7F
100
AcDbEntity
  8
중심선
100
AcDbLine
 10
5.245725140726316
 20
7.84717430164391
 30
0.0
 11
8.692000384563599
 21
7.84717430164391
 31
0.0
  0
LINE
  5
86
330
7F
100
AcDbEntity
  8
중심선
100
AcDbLine
 10
15.74043728645272
 20
16.24717430164393
 30
0.0
 11
8.692000384563599
 21
7.84717430164391
 31
0.0
  0
LINE
  5
87
330
7F
100
AcDbEntity
  8
중심선
100
AcDbLine
 10
0.1404042013395286
 20
13.71084872107135
 30
0.0
 11
3.58671253028996
 21
13.71088815037384
 31
0.0
  0
LINE
  5
88
330
7F
100
AcDbEntity
  8
중심선
100
AcDbLine
 10
2.750260043222114
 20
10.84717430164391
 30
0.0
 11
6.196535287059397
 21
10.84717430164391
 31
0.0
  0
LINE
  5
89
330
7F
100
AcDbEntity
  8
중심선
100
AcDbLine
 10
12.29416204261559
 20
16.24717430164393
 30
0.0
 11
5.245725140726316
 21
7.84717430164391
 31
0.0
  0
LINE
  5
8A
330
7F
100
AcDbEntity
  8
중심선
100
AcDbLine
 10
10.72767329541681
 20
16.24717430164393
 30
0.0
 11
6.196535287059397
 21
10.84717430164391
 31
0.0
  0
LINE
  5
8B
330
7F
100
AcDbEntity
  8
중심선
100
AcDbLine
 10
7.28139805157953
 20
16.24717430164393
 30
0.0
 11
2.750260043222114
 21
10.84717430164391
 31
0.0
  0
LINE
  5
8C
330
7F
100
AcDbEntity
  8
중심선
100
AcDbLine
 10
5.714909304380834
 20
16.24717430164393
 30
0.0
 11
3.58671253028996
 21
13.71088815037384
 31
0.0
  0
LINE
  5
8D
330
7F
100
AcDbEntity
  8
중심선
100
AcDbLine
 10
2.268634060543552
 20
16.24717430164393
 30
0.0
 11
0.1404042013395286
 21
13.71084872107135
 31
0.0
  0
LINE
  5
8E
330
7F
100
AcDbEntity
  8
중심선
100
AcDbLine
 10
7.28139805157953
 20
16.24717430164393
 30
0.0
 11
10.72767329541681
 21
16.24717430164393
 31
0.0
  0
LINE
  5
8F
330
7F
100
AcDbEntity
  8
중심선
100
AcDbLine
 10
12.29416204261559
 20
16.24717430164393
 30
0.0
 11
15.74043728645272
 21
16.24717430164393
 31
0.0
  0
LINE
  5
90
330
7F
100
AcDbEntity
  8
중심선
100
AcDbLine
 10
19.22036997980202
 20
11.08717430171403
 30
0.0
 11
23.66174974927406
 21
11.08717430171406
 31
0.0
  0
LINE
  5
91
330
7F
100
AcDbEntity
  8
중심선
100
AcDbLine
 10
19.22039502424796
 20
13.00717430171391
 30
0.0
 11
19.22036997980202
 21
11.08717430171403
 31
0.0
  0
LINE
  5
92
330
7F
100
AcDbEntity
  8
중심선
100
AcDbLine
 10
19.22039502424796
 20
13.00717430171391
 30
0.0
 11
26.96566020931264
 21
13.00717430171391
 31
0.0
  0
LINE
  5
93
330
7F
100
AcDbEntity
  8
중심선
100
AcDbLine
 10
22.22332737316547
 20
13.45928029700563
 30
0.0
 11
24.52862924686651
 21
15.39360700705356
 31
0.0
  0
ATTDEF
  5
95
330
7F
100
AcDbEntity
  8
FORMAT
 62
     2
100
AcDbText
 10
-7.268459303319146
 20
2.075366912832191
 30
0.0
 40
4.233333333333333
  1
SEME6408005100E
 41
0.75
  7
SLDTEXTSTYLE0
 11
-7.268459303319146
 21
-0.0412997538344756
 31
0.0
100
AcDbAttributeDefinition
  3

  2
AUTOATTR0
 70
     0
 74
     1
  0
ENDBLK
  5
81
330
7F
100
AcDbEntity
  8
0
100
AcDbBlockEnd
  0
BLOCK
  5
D4
330
D3
100
AcDbEntity
  8
0
100
AcDbBlockBegin
  2
_D
 70
     0
 10
0.0
 20
0.0
 30
0.0
  3
_D
  1

  0
LINE
  5
D6
330
D3
100
AcDbEntity
  8
치수문자_일반주서
 62
     0
370
    -2
100
AcDbLine
 10
27.3622965637886
 20
4.000000000000003
 30
0.0
 11
58.1863635077657
 21
4.000000000000117
 31
0.0
  0
LINE
  5
D7
330
D3
100
AcDbEntity
  8
치수문자_일반주서
 62
     0
370
    -2
100
AcDbLine
 10
27.3622965637886
 20
-3.999999999999993
 30
0.0
 11
58.18636350776573
 21
-3.999999999999881
 31
0.0
  0
LINE
  5
D8
330
D3
100
AcDbEntity
  8
치수문자_일반주서
 62
     0
370
    -2
100
AcDbLine
 10
58.1863635077657
 20
4.000000000000117
 30
0.0
 11
58.18636350776565
 21
16.72900000000012
 31
0.0
  0
LINE
  5
D9
330
D3
100
AcDbEntity
  8
치수문자_일반주서
 62
     0
370
    -2
100
AcDbLine
 10
58.1863635077657
 20
4.000000000000117
 30
0.0
 11
58.18636350776573
 21
-3.999999999999881
 31
0.0
  0
LINE
  5
DA
330
D3
100
AcDbEntity
  8
치수문자_일반주서
 62
     0
370
    -2
100
AcDbLine
 10
58.18636350776568
 20
7.302000000000117
 30
0.0
 11
58.18636350776567
 21
10.60400000000012
 31
0.0
  0
LINE
  5
DB
330
D3
100
AcDbEntity
  8
치수문자_일반주서
 62
     0
370
    -2
100
AcDbLine
 10
58.18636350776574
 20
-7.301999999999881
 30
0.0
 11
58.18636350776575
 21
-10.60399999999988
 31
0.0
  0
SOLID
  5
DC
330
D3
100
AcDbEntity
  8
치수문자_일반주서
 62
     0
100
AcDbTrace
 10
57.63603017443235
 20
7.302000000000115
 30
0.0
 11
58.73669684109902
 21
7.302000000000119
 31
0.0
 12
58.1863635077657
 22
4.000000000000117
 32
0.0
 13
58.1863635077657
 23
4.000000000000117
 33
0.0
  0
SOLID
  5
DD
330
D3
100
AcDbEntity
  8
치수문자_일반주서
 62
     0
100
AcDbTrace
 10
58.73669684109908
 20
-7.301999999999879
 30
0.0
 11
57.63603017443241
 21
-7.301999999999882
 31
0.0
 12
58.18636350776573
 22
-3.999999999999881
 32
0.0
 13
58.18636350776573
 23
-3.999999999999881
 33
0.0
  0
MTEXT
  5
13D
330
D3
100
AcDbEntity
  8
치수문자_일반주서
 62
     0
100
AcDbMText
 10
53.81136350776566
 20
13.6665000000001
 30
0.0
 40
3.5
 41
0.0
 71
     2
 72
     1
  1
\A1;%%c8
  7
SLDTEXTSTYLE0
 11
-3.552713678800503E-15
 21
1.0
 31
0.0
 73
     1
 44
1.0
  0
POINT
  5
13E
330
D3
100
AcDbEntity
  8
Defpoints
 62
     0
100
AcDbPoint
 10
27.2997965637886
 20
4.000000000000003
 30
0.0
  0
POINT
  5
13F
330
D3
100
AcDbEntity
  8
Defpoints
 62
     0
100
AcDbPoint
 10
27.2997965637886
 20
-3.999999999999994
 30
0.0
  0
POINT
  5
14C
330
D3
100
AcDbEntity
  8
Defpoints
 62
     0
100
AcDbPoint
 10
58.18636350776573
 20
-3.999999999999878
 30
0.0
  0
ENDBLK
  5
D5
330
D3
100
AcDbEntity
  8
0
100
AcDbBlockEnd
  0
BLOCK
  5
E1
330
E0
100
AcDbEntity
  8
0
100
AcDbBlockBegin
  2
_D_1
 70
     0
 10
0.0
 20
0.0
 30
0.0
  3
_D_1
  1

  0
LINE
  5
E3
330
E0
100
AcDbEntity
  8
치수문자_일반주서
 62
     0
370
    -2
100
AcDbLine
 10
-64.11250000000001
 20
4.000000000000004
 30
0.0
 11
-74.03846843616483
 21
3.999999999999966
 31
0.0
  0
LINE
  5
E4
330
E0
100
AcDbEntity
  8
치수문자_일반주서
 62
     0
370
    -2
100
AcDbLine
 10
-64.11250000000001
 20
-4.000000000000004
 30
0.0
 11
-74.0384684361648
 21
-4.000000000000041
 31
0.0
  0
LINE
  5
E5
330
E0
100
AcDbEntity
  8
치수문자_일반주서
 62
     0
370
    -2
100
AcDbLine
 10
-74.03846843616483
 20
3.999999999999966
 30
0.0
 11
-74.0384684361648
 21
-4.000000000000041
 31
0.0
  0
LINE
  5
E6
330
E0
100
AcDbEntity
  8
치수문자_일반주서
 62
     0
370
    -2
100
AcDbLine
 10
-74.03846843616485
 20
7.301999999999966
 30
0.0
 11
-74.03846843616486
 21
10.60399999999997
 31
0.0
  0
LINE
  5
E7
330
E0
100
AcDbEntity
  8
치수문자_일반주서
 62
     0
370
    -2
100
AcDbLine
 10
-74.03846843616479
 20
-7.30200000000004
 30
0.0
 11
-74.03846843616478
 21
-10.60400000000004
 31
0.0
  0
SOLID
  5
E8
330
E0
100
AcDbEntity
  8
치수문자_일반주서
 62
     0
100
AcDbTrace
 10
-74.58880176949818
 20
7.301999999999964
 30
0.0
 11
-73.48813510283152
 21
7.301999999999968
 31
0.0
 12
-74.03846843616483
 22
3.999999999999966
 32
0.0
 13
-74.03846843616483
 23
3.999999999999966
 33
0.0
  0
SOLID
  5
E9
330
E0
100
AcDbEntity
  8
치수문자_일반주서
 62
     0
100
AcDbTrace
 10
-73.48813510283146
 20
-7.302000000000039
 30
0.0
 11
-74.58880176949812
 21
-7.302000000000042
 31
0.0
 12
-74.0384684361648
 22
-4.000000000000041
 32
0.0
 13
-74.0384684361648
 23
-4.000000000000041
 33
0.0
  0
MTEXT
  5
EA
330
E0
100
AcDbEntity
  8
치수문자_일반주서
 62
     0
100
AcDbMText
 10
-78.41346843616482
 20
-0.0000000000000126
 30
0.0
 40
3.5
 41
0.0
 71
     2
 72
     1
  1
\A1;%%c8
  7
SLDTEXTSTYLE0
 11
-3.552713678800498E-15
 21
1.0
 31
0.0
 73
     1
 44
1.0
  0
POINT
  5
EB
330
E0
100
AcDbEntity
  8
Defpoints
 62
     0
100
AcDbPoint
 10
-64.05000000000001
 20
4.000000000000004
 30
0.0
  0
POINT
  5
149
330
E0
100
AcDbEntity
  8
Defpoints
 62
     0
100
AcDbPoint
 10
-64.05000000000001
 20
-4.000000000000004
 30
0.0
  0
POINT
  5
14A
330
E0
100
AcDbEntity
  8
Defpoints
 62
     0
100
AcDbPoint
 10
-74.0384684361648
 20
-4.000000000000041
 30
0.0
  0
ENDBLK
  5
E2
330
E0
100
AcDbEntity
  8
0
100
AcDbBlockEnd
  0
BLOCK
  5
EE
330
ED
100
AcDbEntity
  8
0
100
AcDbBlockBegin
  2
_D_2
 70
     0
 10
0.0
 20
0.0
 30
0.0
  3
_D_2
  1

  0
LINE
  5
F0
330
ED
100
AcDbEntity
  8
치수문자_일반주서
 62
     0
370
    -2
100
AcDbLine
 10
35.15
 20
3.539571761759744
 30
0.0
 11
35.15
 21
13.61311052580275
 31
0.0
  0
LINE
  5
F1
330
ED
100
AcDbEntity
  8
치수문자_일반주서
 62
     0
370
    -2
100
AcDbLine
 10
15.14999999999998
 20
3.995769360369872
 30
0.0
 11
15.14999999999998
 21
13.61311052580275
 31
0.0
  0
LINE
  5
F2
330
ED
100
AcDbEntity
  8
치수문자_일반주서
 62
     0
370
    -2
100
AcDbLine
 10
31.848
 20
13.61311052580275
 30
0.0
 11
18.45199999999998
 21
13.61311052580275
 31
0.0
  0
SOLID
  5
F3
330
ED
100
AcDbEntity
  8
치수문자_일반주서
 62
     0
100
AcDbTrace
 10
31.848
 20
13.06277719246941
 30
0.0
 11
31.848
 21
14.16344385913608
 31
0.0
 12
35.15
 22
13.61311052580275
 32
0.0
 13
35.15
 23
13.61311052580275
 33
0.0
  0
SOLID
  5
F4
330
ED
100
AcDbEntity
  8
치수문자_일반주서
 62
     0
100
AcDbTrace
 10
18.45199999999998
 20
14.16344385913608
 30
0.0
 11
18.45199999999998
 21
13.06277719246941
 31
0.0
 12
15.14999999999998
 22
13.61311052580275
 32
0.0
 13
15.14999999999998
 23
13.61311052580275
 33
0.0
  0
MTEXT
  5
F5
330
ED
100
AcDbEntity
  8
치수문자_일반주서
 62
     0
100
AcDbMText
 10
25.14999999999999
 20
17.98811052580275
 30
0.0
 40
3.5
 41
0.0
 71
     2
 72
     1
  1
\A1;20
  7
SLDTEXTSTYLE0
 73
     1
 44
1.0
  0
POINT
  5
140
330
ED
100
AcDbEntity
  8
Defpoints
 62
     0
100
AcDbPoint
 10
35.15
 20
3.477071761759744
 30
0.0
  0
POINT
  5
141
330
ED
100
AcDbEntity
  8
Defpoints
 62
     0
100
AcDbPoint
 10
15.14999999999998
 20
3.933269360369872
 30
0.0
  0
POINT
  5
142
330
ED
100
AcDbEntity
  8
Defpoints
 62
     0
100
AcDbPoint
 10
15.14999999999998
 20
13.61311052580275
 30
0.0
  0
ENDBLK
  5
EF
330
ED
100
AcDbEntity
  8
0
100
AcDbBlockEnd
  0
BLOCK
  5
F8
330
F7
100
AcDbEntity
  8
0
100
AcDbBlockBegin
  2
_D_3
 70
     0
 10
0.0
 20
0.0
 30
0.0
  3
_D_3
  1

  0
LINE
  5
FA
330
F7
100
AcDbEntity
  8
치수문자_일반주서
 62
     0
370
    -2
100
AcDbLine
 10
35.15
 20
3.539571761759744
 30
0.0
 11
35.14999999999999
 21
19.61311052580272
 31
0.0
  0
LINE
  5
FB
330
F7
100
AcDbEntity
  8
치수문자_일반주서
 62
     0
370
    -2
100
AcDbLine
 10
0.149999999999995
 20
3.912500000000001
 30
0.0
 11
0.1499999999999879
 21
19.61311052580272
 31
0.0
  0
LINE
  5
FC
330
F7
100
AcDbEntity
  8
치수문자_일반주서
 62
     0
370
    -2
100
AcDbLine
 10
31.84799999999999
 20
19.61311052580272
 30
0.0
 11
3.451999999999988
 21
19.61311052580272
 31
0.0
  0
SOLID
  5
FD
330
F7
100
AcDbEntity
  8
치수문자_일반주서
 62
     0
100
AcDbTrace
 10
31.84799999999999
 20
19.06277719246939
 30
0.0
 11
31.84799999999999
 21
20.16344385913606
 31
0.0
 12
35.14999999999999
 22
19.61311052580272
 32
0.0
 13
35.14999999999999
 23
19.61311052580272
 33
0.0
  0
SOLID
  5
FE
330
F7
100
AcDbEntity
  8
치수문자_일반주서
 62
     0
100
AcDbTrace
 10
3.451999999999988
 20
20.16344385913606
 30
0.0
 11
3.451999999999988
 21
19.06277719246939
 31
0.0
 12
0.1499999999999879
 22
19.61311052580272
 32
0.0
 13
0.1499999999999879
 23
19.61311052580272
 33
0.0
  0
MTEXT
  5
FF
330
F7
100
AcDbEntity
  8
치수문자_일반주서
 62
     0
100
AcDbMText
 10
17.65000000000001
 20
23.98811052580272
 30
0.0
 40
3.5
 41
0.0
 71
     2
 72
     1
  1
\A1;35
  7
SLDTEXTSTYLE0
 73
     1
 44
1.0
  0
POINT
  5
143
330
F7
100
AcDbEntity
  8
Defpoints
 62
     0
100
AcDbPoint
 10
35.15
 20
3.477071761759744
 30
0.0
  0
POINT
  5
144
330
F7
100
AcDbEntity
  8
Defpoints
 62
     0
100
AcDbPoint
 10
0.149999999999995
 20
3.850000000000001
 30
0.0
  0
POINT
  5
145
330
F7
100
AcDbEntity
  8
Defpoints
 62
     0
100
AcDbPoint
 10
0.149999999999995
 20
19.61311052580272
 30
0.0
  0
ENDBLK
  5
F9
330
F7
100
AcDbEntity
  8
0
100
AcDbBlockEnd
  0
BLOCK
  5
102
330
101
100
AcDbEntity
  8
0
100
AcDbBlockBegin
  2
_D_4
 70
     0
 10
0.0
 20
0.0
 30
0.0
  3
_D_4
  1

  0
LINE
  5
104
330
101
100
AcDbEntity
  8
치수문자_일반주서
 62
     0
370
    -2
100
AcDbLine
 10
35.15
 20
3.539571761759744
 30
0.0
 11
35.14999999999999
 21
28.02060782696464
 31
0.0
  0
LINE
  5
105
330
101
100
AcDbEntity
  8
치수문자_일반주서
 62
     0
370
    -2
100
AcDbLine
 10
-64.85000000000001
 20
3.262500000000008
 30
0.0
 11
-64.85000000000002
 21
28.02060782696464
 31
0.0
  0
LINE
  5
106
330
101
100
AcDbEntity
  8
치수문자_일반주서
 62
     0
370
    -2
100
AcDbLine
 10
31.84799999999999
 20
28.02060782696464
 30
0.0
 11
-61.54800000000002
 21
28.02060782696464
 31
0.0
  0
SOLID
  5
107
330
101
100
AcDbEntity
  8
치수문자_일반주서
 62
     0
100
AcDbTrace
 10
31.84799999999999
 20
27.4702744936313
 30
0.0
 11
31.84799999999999
 21
28.57094116029797
 31
0.0
 12
35.14999999999999
 22
28.02060782696464
 32
0.0
 13
35.14999999999999
 23
28.02060782696464
 33
0.0
  0
SOLID
  5
108
330
101
100
AcDbEntity
  8
치수문자_일반주서
 62
     0
100
AcDbTrace
 10
-61.54800000000002
 20
28.57094116029797
 30
0.0
 11
-61.54800000000002
 21
27.4702744936313
 31
0.0
 12
-64.85000000000002
 22
28.02060782696464
 32
0.0
 13
-64.85000000000002
 23
28.02060782696464
 33
0.0
  0
MTEXT
  5
109
330
101
100
AcDbEntity
  8
치수문자_일반주서
 62
     0
100
AcDbMText
 10
-14.85
 20
32.39560782696464
 30
0.0
 40
3.5
 41
0.0
 71
     2
 72
     1
  1
\A1;100
  7
SLDTEXTSTYLE0
 73
     1
 44
1.0
  0
POINT
  5
146
330
101
100
AcDbEntity
  8
Defpoints
 62
     0
100
AcDbPoint
 10
35.15
 20
3.477071761759744
 30
0.0
  0
POINT
  5
147
330
101
100
AcDbEntity
  8
Defpoints
 62
     0
100
AcDbPoint
 10
-64.85000000000001
 20
3.200000000000008
 30
0.0
  0
POINT
  5
148
330
101
100
AcDbEntity
  8
Defpoints
 62
     0
100
AcDbPoint
 10
-64.85000000000001
 20
28.02060782696464
 30
0.0
  0
ENDBLK
  5
103
330
101
100
AcDbEntity
  8
0
100
AcDbBlockEnd
  0
BLOCK
  5
112
330
111
100
AcDbEntity
  8
0
100
AcDbBlockBegin
  2
SW_DOWELSYMBOL_0
 70
     0
 10
0.0
 20
0.0
 30
0.0
  3
SW_DOWELSYMBOL_0
  1

  0
CIRCLE
  5
114
330
111
100
AcDbEntity
  8
해칭선
 62
     0
100
AcDbCircle
 10
0.0
 20
0.0
 30
0.0
 40
3.000000000000001
  0
HATCH
  5
115
330
111
100
AcDbEntity
  8
0
  6
Continuous
 62
     0
370
     0
100
AcDbHatch
 10
0.0
 20
0.0
 30
0.0
210
0.0
220
0.0
230
1.0
  2
SOLID
 70
     1
 71
     0
 91
        1
 92
        0
 93
        3
 72
     2
 10
0.0
 20
0.0
 40
3.000000000000001
 50
0.0
 51
90.0
 73
     1
 72
     1
 10
0.0
 20
3.000000000000001
 11
0.0
 21
0.0
 72
     1
 10
0.0
 20
0.0
 11
3.000000000000003
 21
0.0
 97
        0
 75
     0
 76
     1
 98
        1
 10
0.0
 20
0.0
  0
HATCH
  5
116
330
111
100
AcDbEntity
  8
0
  6
Continuous
 62
     0
370
     0
100
AcDbHatch
 10
0.0
 20
0.0
 30
0.0
210
0.0
220
0.0
230
1.0
  2
SOLID
 70
     1
 71
     0
 91
        1
 92
        0
 93
        3
 72
     2
 10
0.0
 20
0.0
 40
3.000000000000001
 50
180.0
 51
270.0000000000008
 73
     1
 72
     1
 10
0.0
 20
-3.000000000000001
 11
0.0
 21
0.0
 72
     1
 10
0.0
 20
0.0
 11
-3.000000000000003
 21
0.0
 97
        0
 75
     0
 76
     1
 98
        1
 10
0.0
 20
0.0
  0
ENDBLK
  5
113
330
111
100
AcDbEntity
  8
0
100
AcDbBlockEnd
  0
BLOCK
  5
152
330
151
100
AcDbEntity
  8
0
100
AcDbBlockBegin
  2
*D8
 70
     1
 10
0.0
 20
0.0
 30
0.0
  3
*D8
  1

  0
LINE
  5
154
330
151
100
AcDbEntity
  8
0
 62
     0
370
    -2
100
AcDbLine
 10
56.19540453996678
 20
-11.51371668471532
 30
0.0
 11
41.25473787330011
 21
-11.51371668471532
 31
0.0
  0
LINE
  5
155
330
151
100
AcDbEntity
  8
0
 62
     0
370
    -2
100
AcDbLine
 10
41.25473787330011
 20
-11.51371668471532
 30
0.0
 11
37.06397934999584
 21
-6.414401790509253
 31
0.0
  0
MTEXT
  5
156
330
151
100
AcDbEntity
  8
0
 62
     0
100
AcDbMText
 10
49.48707120663344
 20
-7.948050018048655
 30
0.0
 40
3.5
 41
0.0
 71
     5
 72
     1
  1
R0,50
 73
     1
 44
1.0
  0
LINE
  5
157
330
151
100
AcDbEntity
  8
0
 62
     0
370
    -2
100
AcDbLine
 10
34.65000000000001
 20
-3.477071761759726
 30
0.0
 11
34.96746177669593
 21
-3.86335924581411
 31
0.0
  0
SOLID
  5
158
330
151
100
AcDbEntity
  8
0
 62
     0
100
AcDbTrace
 10
37.48915310744503
 20
-6.064982194959268
 30
0.0
 11
36.63880559254665
 21
-6.763821386059237
 31
0.0
 12
34.96746177669593
 22
-3.86335924581411
 32
0.0
 13
34.96746177669593
 23
-3.86335924581411
 33
0.0
  0
POINT
  5
159
330
151
100
AcDbEntity
  8
Defpoints
 62
     0
100
AcDbPoint
 10
34.96746177669593
 20
-3.86335924581411
 30
0.0
  0
POINT
  5
15A
330
151
100
AcDbEntity
  8
Defpoints
 62
     0
100
AcDbPoint
 10
34.65000000000001
 20
-3.477071761759726
 30
0.0
  0
ENDBLK
  5
153
330
151
100
AcDbEntity
  8
0
100
AcDbBlockEnd
  0
ENDSEC
  0
SECTION
  2
ENTITIES
  0
LINE
  5
96
330
1F
100
AcDbEntity
  8
외형선
  6
Continuous
 62
     1
370
    15
100
AcDbLine
 10
24.86140671030451
 20
-3.999999999999994
 30
0.0
 11
27.29972478179607
 21
-3.999999999999994
 31
0.0
  0
LINE
  5
97
330
1F
100
AcDbEntity
  8
외형선
  6
Continuous
370
    15
100
AcDbLine
 10
16.41799969634704
 20
4.000000000000002
 30
0.0
 11
15.15000000000001
 21
4.000000000000001
 31
0.0
  0
LINE
  5
98
330
1F
100
AcDbEntity
  8
외형선
  6
Continuous
 62
     1
370
    15
100
AcDbLine
 10
27.29972478179607
 20
4.000000000000003
 30
0.0
 11
24.86140671030454
 21
4.000000000000003
 31
0.0
  0
LINE
  5
99
330
1F
100
AcDbEntity
  8
외형선
  6
Continuous
370
    15
100
AcDbLine
 10
15.15000000000001
 20
-3.999999999999996
 30
0.0
 11
16.417999696347
 21
-3.999999999999995
 31
0.0
  0
LINE
  5
9A
330
1F
100
AcDbEntity
  8
외형선
  6
Continuous
370
    15
100
AcDbLine
 10
-64.05000000000001
 20
-4.0
 30
0.0
 11
0.0
 21
-4.0
 31
0.0
  0
LINE
  5
9B
330
1F
100
AcDbEntity
  8
외형선
  6
Continuous
370
    15
100
AcDbLine
 10
0.0
 20
4.0
 30
0.0
 11
-64.05000000000001
 21
4.0
 31
0.0
  0
LINE
  5
9C
330
1F
100
AcDbEntity
  8
외형선
  6
Continuous
370
    15
100
AcDbLine
 10
-64.05000000000001
 20
4.0
 30
0.0
 11
-64.85000000000001
 21
3.200000000000008
 31
0.0
  0
LINE
  5
9D
330
1F
100
AcDbEntity
  8
외형선
  6
Continuous
370
    15
100
AcDbLine
 10
-64.85000000000001
 20
-3.200000000000008
 30
0.0
 11
-64.05000000000001
 21
-4.0
 31
0.0
  0
LINE
  5
9E
330
1F
100
AcDbEntity
  8
외형선
  6
Continuous
370
    15
100
AcDbLine
 10
0.0
 20
-4.0
 30
0.0
 11
0.149999999999995
 21
-3.850000000000001
 31
0.0
  0
LINE
  5
9F
330
1F
100
AcDbEntity
  8
외형선
  6
Continuous
370
    15
100
AcDbLine
 10
0.149999999999995
 20
3.850000000000001
 30
0.0
 11
0.0
 21
4.0
 31
0.0
  0
LINE
  5
A0
330
1F
100
AcDbEntity
  8
외형선
  6
Continuous
370
    15
100
AcDbLine
 10
0.149999999999995
 20
-3.850000000000001
 30
0.0
 11
15.15000000000001
 21
-3.850000000000001
 31
0.0
  0
LINE
  5
A1
330
1F
100
AcDbEntity
  8
외형선
  6
Continuous
370
    15
100
AcDbLine
 10
15.15000000000001
 20
3.850000000000001
 30
0.0
 11
0.149999999999995
 21
3.850000000000001
 31
0.0
  0
SPLINE
  5
A2
330
1F
100
AcDbEntity
  8
외형선
  6
Continuous
 62
     1
370
    15
100
AcDbSpline
210
0.0
220
0.0
230
1.0
 70
     8
 71
     3
 72
    12
 73
     8
 74
     0
 42
0.000000001
 43
0.00000001
 40
0.0
 40
0.0
 40
0.0
 40
0.0
 40
0.2500000000000003
 40
0.2500000000000003
 40
0.5000000000000006
 40
0.5000000000000006
 40
1.0
 40
1.0
 40
1.0
 40
1.0
 10
34.65000000000003
 20
0.6295892379862849
 30
0.0
 10
34.70968330647541
 20
0.5956032494250918
 30
0.0
 10
34.76982002684275
 20
0.5629548228585256
 30
0.0
 10
34.88768881810702
 20
0.5034717500218965
 30
0.0
 10
34.94366472045142
 20
0.4776072475309057
 30
0.0
 10
35.08950201792234
 20
0.4160139623463072
 30
0.0
 10
35.15000000000003
 20
0.3992182067633397
 30
0.0
 10
35.15000000000003
 20
0.3999649529309278
 30
0.0
  0
LINE
  5
A3
330
1F
100
AcDbEntity
  8
외형선
  6
Continuous
 62
     1
370
    15
100
AcDbLine
 10
35.15000000000001
 20
-3.211214952930888
 30
0.0
 11
35.15000000000001
 21
0.3924530630659085
 31
0.0
  0
SPLINE
  5
A4
330
1F
100
AcDbEntity
  8
외형선
  6
Continuous
 62
     1
370
    15
100
AcDbSpline
210
0.0
220
0.0
230
1.0
 70
     8
 71
     3
 72
    10
 73
     6
 74
     0
 42
0.000000001
 43
0.00000001
 40
0.0
 40
0.0
 40
0.0
 40
0.0
 40
0.5
 40
0.5
 40
1.0
 40
1.0
 40
1.0
 40
1.0
 10
35.15000000000001
 20
-3.211214952930887
 30
0.0
 10
35.15000000000001
 20
-3.339851178295024
 30
0.0
 10
35.08400873472749
 20
-3.433715812714193
 30
0.0
 10
34.89774396176217
 20
-3.52469574471524
 30
0.0
 10
34.77866819680457
 20
-3.527046038088281
 30
0.0
 10
34.65000000000003
 20
-3.490821284622015
 30
0.0
  0
SPLINE
  5
A5
330
1F
100
AcDbEntity
  8
외형선
  6
Continuous
 62
     1
370
    15
100
AcDbSpline
210
0.0
220
0.0
230
1.0
 70
     8
 71
     3
 72
    19
 73
    15
 74
     0
 42
0.000000001
 43
0.00000001
 40
0.0
 40
0.0
 40
0.0
 40
0.0
 40
0.0855556470690339
 40
0.1711197383271932
 40
0.2566943977427106
 40
0.3422817355956705
 40
0.4278778534844583
 40
0.5134619434063444
 40
0.5990338621123047
 40
0.6931393138662773
 40
0.7872433351320451
 40
0.8813458244381531
 40
0.9754466805774418
 40
1.0
 40
1.0
 40
1.0
 40
1.0
 10
34.65000000000006
 20
-3.490821284622028
 30
0.0
 10
34.13009086155702
 20
-3.327155721836624
 30
0.0
 10
33.09022127057015
 20
-2.999808442767913
 30
0.0
 10
31.53028996609365
 20
-2.310149092796931
 30
0.0
 10
29.97012960383782
 20
-1.516481601077196
 30
0.0
 10
28.4097266278885
 20
-0.6428354993564365
 30
0.0
 10
26.8492179587961
 20
0.2623194434546025
 30
0.0
 10
25.28885297970121
 20
1.154459320191412
 30
0.0
 10
23.67688856989132
 20
2.016249054879204
 30
0.0
 10
22.01289470780051
 20
2.792174336128233
 30
0.0
 10
20.29713370835613
 20
3.426945134365962
 30
0.0
 10
18.5813865634801
 20
3.833500037063517
 30
0.0
 10
17.28834701558735
 20
4.017358698140852
 30
0.0
 10
16.56722314125267
 20
3.983418641318396
 30
0.0
 10
16.41799969634707
 20
3.976395365041471
 30
0.0
  0
SPLINE
  5
A6
330
1F
100
AcDbEntity
  8
외형선
  6
Continuous
 62
     1
370
    15
100
AcDbSpline
210
0.0
220
0.0
230
1.0
 70
     8
 71
     3
 72
    16
 73
    12
 74
     0
 42
0.000000001
 43
0.00000001
 40
0.0
 40
0.0
 40
0.0
 40
0.0
 40
0.0531412216972174
 40
0.1645389012058201
 40
0.2759278573663735
 40
0.3873108789175728
 40
0.5098500696105754
 40
0.6323887112931507
 40
0.7549266696758119
 40
0.8774638105877363
 40
1.0
 40
1.0
 40
1.0
 40
1.0
 10
20.64714408518728
 20
3.261556795029025
 30
0.0
 10
20.89517367723792
 20
3.347687314099592
 30
0.0
 10
21.66313713835417
 20
3.614369571592744
 30
0.0
 10
22.95095090870485
 20
3.875767912197142
 30
0.0
 10
24.51060598185916
 20
4.030242001332417
 30
0.0
 10
26.12212264930647
 20
3.970443988808203
 30
0.0
 10
27.78614664229719
 20
3.686566490014703
 30
0.0
 10
29.50210502717725
 20
3.168252511953768
 30
0.0
 10
31.2180886644365
 20
2.456058122419088
 30
0.0
 10
32.93404897328144
 20
1.596684901059519
 30
0.0
 10
34.07801780491731
 20
0.9519536246188214
 30
0.0
 10
34.65000000000001
 20
0.6295892379862934
 30
0.0
  0
SPLINE
  5
A8
330
1F
100
AcDbEntity
  8
외형선
  6
Continuous
 62
     1
370
    15
100
AcDbSpline
210
0.0
220
0.0
230
1.0
 70
     8
 71
     3
 72
    18
 73
    14
 74
     0
 42
0.000000001
 43
0.00000001
 40
0.0
 40
0.0
 40
0.0
 40
0.0
 40
0.0009688312975127
 40
0.0961260795170356
 40
0.1912974258963088
 40
0.2864785354935005
 40
0.381646270240714
 40
0.476800470847995
 40
0.5814437833954876
 40
0.6860855052697334
 40
0.7907255236365818
 40
0.8953637259557622
 40
1.0
 40
1.0
 40
1.0
 40
1.0
 10
31.54623218051304
 20
-3.271565062479383
 30
0.0
 10
31.54093749128233
 20
-3.273585800423644
 30
0.0
 10
31.01560586820464
 20
-3.47408057883531
 30
0.0
 10
29.97012681948518
 20
-3.726373057445849
 30
0.0
 10
28.40972737401811
 20
-3.985560263303317
 30
0.0
 10
26.84921775915837
 20
-4.024551453666268
 30
0.0
 10
25.28885303219211
 20
-3.865430139399306
 30
0.0
 10
23.67688855743268
 20
-3.498015947979418
 30
0.0
 10
22.01289469796566
 20
-2.920587788621812
 30
0.0
 10
20.29713376023447
 20
-2.146605963127038
 30
0.0
 10
18.5813863658064
 20
-1.242522730878744
 30
0.0
 10
16.86567957034116
 20
-0.2594318093062776
 30
0.0
 10
15.72188967711836
 20
0.398587010112926
 30
0.0
 10
15.15000000000144
 20
0.7275933882985135
 30
0.0
  0
SPLINE
  5
A9
330
1F
100
AcDbEntity
  8
외형선
  6
Continuous
370
    15
100
AcDbSpline
210
0.0
220
0.0
230
1.0
 70
    24
 71
     3
 72
    16
 73
    12
 74
     0
 42
0.000000001
 43
0.00000001
 40
0.0
 40
0.0
 40
0.0
 40
0.0
 40
0.0826688367532385
 40
0.1964899235244273
 40
0.3071032172831369
 40
0.4209243040543266
 40
0.5315375978130419
 40
0.6453586845842239
 40
0.7559719783429342
 40
0.8697930651141252
 40
1.0
 40
1.0
 40
1.0
 40
1.0
 10
15.15
 20
0.7962895637988014
 30
0.0
 10
15.15000000000003
 20
0.8484806390028329
 30
0.0
 10
15.15000000000008
 20
0.9725300484085604
 30
0.0
 10
15.15
 20
1.230748355618708
 30
0.0
 10
15.14999999999993
 20
1.55390748679689
 30
0.0
 10
15.15000000000001
 20
1.912625199552086
 30
0.0
 10
15.15000000000002
 20
2.300714841286398
 30
0.0
 10
15.14999999999998
 20
2.701068252278038
 30
0.0
 10
15.14999999999996
 20
3.108595058574698
 30
0.0
 10
15.15000000000006
 20
3.530735680681878
 30
0.0
 10
15.15000000000001
 20
3.799522733020281
 30
0.0
 10
15.15
 20
3.942940435562555
 30
0.0
  0
SPLINE
  5
AA
330
1F
100
AcDbEntity
  8
외형선
  6
Continuous
 62
     1
370
    15
100
AcDbSpline
210
0.0
220
0.0
230
1.0
 70
     8
 71
     3
 72
    50
 73
    46
 74
     0
 42
0.000000001
 43
0.00000001
 40
0.0
 40
0.0
 40
0.0
 40
0.0
 40
0.0624999999999996
 40
0.0624999999999996
 40
0.1249999999999992
 40
0.1249999999999992
 40
0.1562499999999998
 40
0.1562499999999998
 40
0.1875000000000004
 40
0.1875000000000004
 40
0.218750000000001
 40
0.218750000000001
 40
0.2500000000000016
 40
0.2500000000000016
 40
0.3125000000000028
 40
0.3125000000000028
 40
0.375000000000004
 40
0.375000000000004
 40
0.4375000000000052
 40
0.4375000000000052
 40
0.4687500000000051
 40
0.4687500000000051
 40
0.5000000000000049
 40
0.5000000000000049
 40
0.5625000000000044
 40
0.5625000000000044
 40
0.5937500000000043
 40
0.5937500000000043
 40
0.6250000000000041
 40
0.6250000000000041
 40
0.6875000000000037
 40
0.6875000000000037
 40
0.7500000000000032
 40
0.7500000000000032
 40
0.8125000000000029
 40
0.8125000000000029
 40
0.8437500000000027
 40
0.8437500000000027
 40
0.8750000000000024
 40
0.8750000000000024
 40
0.9062500000000022
 40
0.9062500000000022
 40
0.9375000000000021
 40
0.9375000000000021
 40
1.0
 40
1.0
 40
1.0
 40
1.0
 10
34.65000000000001
 20
-3.977071761759726
 30
0.0
 10
34.24301761586383
 20
-3.913203956900024
 30
0.0
 10
33.83434534516463
 20
-3.855696234751849
 30
0.0
 10
33.02690160740683
 20
-3.702248089394151
 30
0.0
 10
32.61705477642045
 20
-3.605581408754421
 30
0.0
 10
32.0072432167844
 20
-3.433811997509573
 30
0.0
 10
31.80587594641214
 20
-3.372243762862477
 30
0.0
 10
31.40076330514659
 20
-3.240364210862313
 30
0.0
 10
31.19697195656153
 20
-3.17002771507656
 30
0.0
 10
30.78927414211599
 20
-3.021323527025408
 30
0.0
 10
30.58537072809788
 20
-2.94295693666458
 30
0.0
 10
30.17981413240183
 20
-2.779143339459674
 30
0.0
 10
29.9786493827924
 20
-2.693780960100136
 30
0.0
 10
29.36933719560285
 20
-2.426803095420333
 30
0.0
 10
28.95937553810731
 20
-2.234743224254625
 30
0.0
 10
28.1508239863441
 20
-1.831434750300936
 30
0.0
 10
27.74336831168666
 20
-1.61875747206554
 30
0.0
 10
26.92895344192988
 20
-1.178959774473466
 30
0.0
 10
26.52653846822663
 20
-0.9527181779647621
 30
0.0
 10
25.91528365102563
 20
-0.6063340686239526
 30
0.0
 10
25.71118841374015
 20
-0.4898739310144345
 30
0.0
 10
25.30467730148352
 20
-0.2563104553500459
 30
0.0
 10
25.10333584998044
 20
-0.1394156903003125
 30
0.0
 10
24.4956007626011
 20
0.2120672524158445
 30
0.0
 10
24.08554095421418
 20
0.4474395670876554
 30
0.0
 10
23.47726684607515
 20
0.7939376004450696
 30
0.0
 10
23.2760893196466
 20
0.9082666619879112
 30
0.0
 10
22.86984767660777
 20
1.135022085530378
 30
0.0
 10
22.66579744135892
 20
1.247252794190904
 30
0.0
 10
22.05440583456185
 20
1.578536294319754
 30
0.0
 10
21.65185383142527
 20
1.791481461253665
 30
0.0
 10
20.83779682061068
 20
2.19831387651771
 30
0.0
 10
20.42936637280582
 20
2.39159325789809
 30
0.0
 10
19.62170521050687
 20
2.750232766718006
 30
0.0
 10
19.21183319034738
 20
2.917131871002476
 30
0.0
 10
18.60211198113608
 20
3.142942959444214
 30
0.0
 10
18.40079497510109
 20
3.21403064439485
 30
0.0
 10
17.99559454093252
 20
3.348066816555468
 30
0.0
 10
17.79178021145516
 20
3.410987674084637
 30
0.0
 10
17.38407914939402
 20
3.527852598621172
 30
0.0
 10
17.18019546882243
 20
3.581795782963194
 30
0.0
 10
16.77472029585358
 20
3.680128582209325
 30
0.0
 10
16.57352861869672
 20
3.724509952115199
 30
0.0
 10
15.96411644343404
 20
3.843521014202164
 30
0.0
 10
15.55417336349281
 20
3.903534340392514
 30
0.0
 10
15.15000000000001
 20
3.942940435562551
 30
0.0
  0
SPLINE
  5
AB
330
1F
100
AcDbEntity
  8
외형선
  6
Continuous
 62
     1
370
    15
100
AcDbSpline
210
0.0
220
0.0
230
1.0
 70
     8
 71
     3
 72
    14
 73
    10
 74
     0
 42
0.000000001
 43
0.00000001
 40
0.0
 40
0.0
 40
0.0
 40
0.0
 40
0.1606882275225719
 40
0.3213668530717625
 40
0.4820209570141811
 40
0.6426544957569941
 40
0.8032714523319103
 40
0.963875831287424
 40
1.0
 40
1.0
 40
1.0
 40
1.0
 10
15.15000000000001
 20
-0.6732166973610871
 30
0.0
 10
15.67019878796054
 20
-0.9658565425625506
 30
0.0
 10
16.71056527924652
 20
-1.551118746183483
 30
0.0
 10
18.27100690893159
 20
-2.341861763542089
 30
0.0
 10
19.83121266702518
 20
-3.015608545392018
 30
0.0
 10
21.3911822085034
 20
-3.54093632375018
 30
0.0
 10
22.95095664963777
 20
-3.870852285173251
 30
0.0
 10
24.1076768171493
 20
-4.017166915742096
 30
0.0
 10
24.74447500236799
 20
-3.987762275774323
 30
0.0
 10
24.86140671030451
 20
-3.982362865329223
 30
0.0
  0
LINE
  5
AC
330
1F
100
AcDbEntity
  8
외형선
  6
Continuous
370
    15
100
AcDbLine
 10
15.14999999999998
 20
0.727593388294034
 30
0.0
 11
15.15
 21
-0.6732166973610844
 31
0.0
  0
SPLINE
  5
AD
330
1F
100
AcDbEntity
  8
외형선
  6
Continuous
 62
     1
370
    15
100
AcDbSpline
210
0.0
220
0.0
230
1.0
 70
     8
 71
     3
 72
    10
 73
     6
 74
     0
 42
0.000000001
 43
0.00000001
 40
0.0
 40
0.0
 40
0.0
 40
0.0
 40
0.5
 40
0.5
 40
1.0
 40
1.0
 40
1.0
 40
1.0
 10
35.15000000000001
 20
1.392156071018255
 30
0.0
 10
35.15000000000001
 20
1.467354051048103
 30
0.0
 10
35.08400873472755
 20
1.579890982392918
 30
0.0
 10
34.8977439617622
 20
1.790254384080681
 30
0.0
 10
34.77866819680457
 20
1.888240163184998
 30
0.0
 10
34.65000000000003
 20
1.952989185538324
 30
0.0
  0
LINE
  5
AE
330
1F
100
AcDbEntity
  8
외형선
  6
Continuous
 62
     1
370
    15
100
AcDbLine
 10
35.15000000000001
 20
1.392156071018254
 30
0.0
 11
35.15000000000001
 21
0.3999649529309287
 31
0.0
  0
SPLINE
  5
AF
330
1F
100
AcDbEntity
  8
외형선
  6
Continuous
 62
     1
370
    15
100
AcDbSpline
210
0.0
220
0.0
230
1.0
 70
     8
 71
     3
 72
    12
 73
     8
 74
     0
 42
0.000000001
 43
0.00000001
 40
0.0
 40
0.0
 40
0.0
 40
0.0
 40
0.2122099510048503
 40
0.4244408467517728
 40
0.6366979554750655
 40
0.8489865114573205
 40
1.0
 40
1.0
 40
1.0
 40
1.0
 10
34.65000000000006
 20
1.952989185538332
 30
0.0
 10
34.13009086848633
 20
2.205297734549398
 30
0.0
 10
33.09022129135882
 20
2.709939734973404
 30
0.0
 10
31.53028988292524
 20
3.305471808747901
 30
0.0
 10
29.97012991578095
 20
3.734080081695478
 30
0.0
 10
28.55991305716667
 20
3.973635869967951
 30
0.0
 10
27.66974165946883
 20
3.977571312848252
 30
0.0
 10
27.29972478179607
 20
3.979207155440585
 30
0.0
  0
SPLINE
  5
B0
330
1F
100
AcDbEntity
  8
외형선
  6
Continuous
 62
     1
370
    15
100
AcDbSpline
210
0.0
220
0.0
230
1.0
 70
     8
 71
     3
 72
    11
 73
     7
 74
     0
 42
0.000000001
 43
0.00000001
 40
0.0
 40
0.0
 40
0.0
 40
0.0
 40
0.0636730279720607
 40
0.3757875470374096
 40
0.6878966492951799
 40
1.0
 40
1.0
 40
1.0
 40
1.0
 10
20.64714408518724
 20
-3.261556795029027
 30
0.0
 10
20.53047004548654
 20
-3.305052615039399
 30
0.0
 10
19.84187940391521
 20
-3.5617576599958
 30
0.0
 10
18.58138755473196
 20
-3.832040509016254
 30
0.0
 10
16.86567927311831
 20
-4.046103342127769
 30
0.0
 10
15.7218895780447
 20
-3.970880456592328
 30
0.0
 10
15.15000000000144
 20
-3.933269360380021
 30
0.0
  0
SPLINE
  5
B1
330
1F
100
AcDbEntity
  8
외형선
  6
Continuous
370
    15
100
AcDbSpline
210
0.0
220
0.0
230
1.0
 70
    24
 71
     3
 72
    20
 73
    16
 74
     0
 42
0.000000001
 43
0.00000001
 40
0.0
 40
0.0
 40
0.0
 40
0.0
 40
0.0744061880152368
 40
0.1506550036408331
 40
0.2308817654050824
 40
0.3134351086954396
 40
0.3936618704597803
 40
0.4762152137502374
 40
0.5564419755145297
 40
0.6389953188049337
 40
0.7192220805692263
 40
0.8017754238596309
 40
0.8820021856239275
 40
0.9645555289143264
 40
1.0
 40
1.0
 40
1.0
 40
1.0
 10
15.14999999999998
 20
-3.933269360369877
 30
0.0
 10
15.15
 20
-3.821719306839038
 30
0.0
 10
15.15000000000001
 20
-3.595856725122285
 30
0.0
 10
15.15000000000003
 20
-3.222694512886557
 30
0.0
 10
15.15000000000003
 20
-2.827159958045283
 30
0.0
 10
15.15000000000003
 20
-2.423790158418455
 30
0.0
 10
15.14999999999993
 20
-2.027878876303971
 30
0.0
 10
15.14999999999998
 20
-1.65756349424637
 30
0.0
 10
15.15000000000005
 20
-1.316736632092181
 30
0.0
 10
15.15000000000003
 20
-1.021071203646697
 30
0.0
 10
15.1499999999999
 20
-0.773973282229272
 30
0.0
 10
15.15000000000003
 20
-0.5855604867318349
 30
0.0
 10
15.15000000000001
 20
-0.4627220458124599
 30
0.0
 10
15.14999999999997
 20
-0.4056185881224121
 30
0.0
 10
15.14999999999998
 20
-0.4145598497186033
 30
0.0
 10
15.15000000000001
 20
-0.4172456476699585
 30
0.0
  0
LINE
  5
B3
330
1F
100
AcDbEntity
  8
외형선
  6
Continuous
 62
     1
370
    15
100
AcDbLine
 10
35.15000000000001
 20
1.382168102325093
 30
0.0
 11
35.15000000000001
 21
3.477071761759744
 31
0.0
  0
SPLINE
  5
B4
330
1F
100
AcDbEntity
  8
외형선
  6
Continuous
 62
     1
370
    15
100
AcDbSpline
210
0.0
220
0.0
230
1.0
 70
     8
 71
     3
 72
     9
 73
     5
 74
     0
 42
0.000000001
 43
0.00000001
 40
0.0
 40
0.0
 40
0.0
 40
0.0
 40
0.4471403639792709
 40
1.0
 40
1.0
 40
1.0
 40
1.0
 10
31.54623218051304
 20
3.271565062479382
 30
0.0
 10
32.0088393621915
 20
3.419652069689873
 30
0.0
 10
33.04342988218291
 20
3.750838916461227
 30
0.0
 10
34.07801799340073
 20
3.879184401355198
 30
0.0
 10
34.65000000000001
 20
3.977071761759744
 30
0.0
  0
LINE
  5
B5
330
1F
100
AcDbEntity
  8
외형선
  6
Continuous
 62
     1
370
    15
100
AcDbLine
 10
35.15000000000001
 20
-3.211214952930888
 30
0.0
 11
35.15000000000001
 21
-3.477071761759744
 31
0.0
  0
LINE
  5
B6
330
1F
100
AcDbEntity
  8
외형선
  6
Continuous
370
    15
100
AcDbLine
 10
0.0
 20
0.0
 30
0.0
 11
0.0
 21
4.0
 31
0.0
  0
LINE
  5
B7
330
1F
100
AcDbEntity
  8
외형선
  6
Continuous
370
    15
100
AcDbLine
 10
0.0
 20
-4.0
 30
0.0
 11
0.0
 21
0.0
 31
0.0
  0
LINE
  5
B8
330
1F
100
AcDbEntity
  8
외형선
  6
Continuous
370
    15
100
AcDbLine
 10
-64.05000000000001
 20
0.0
 30
0.0
 11
-64.05000000000001
 21
4.0
 31
0.0
  0
LINE
  5
B9
330
1F
100
AcDbEntity
  8
외형선
  6
Continuous
370
    15
100
AcDbLine
 10
-64.05000000000001
 20
-4.0
 30
0.0
 11
-64.05000000000001
 21
0.0
 31
0.0
  0
LINE
  5
BA
330
1F
100
AcDbEntity
  8
외형선
  6
Continuous
370
    15
100
AcDbLine
 10
-64.85000000000001
 20
0.0
 30
0.0
 11
-64.85000000000001
 21
3.200000000000008
 31
0.0
  0
LINE
  5
BB
330
1F
100
AcDbEntity
  8
외형선
  6
Continuous
370
    15
100
AcDbLine
 10
-64.85000000000001
 20
-3.200000000000008
 30
0.0
 11
-64.85000000000001
 21
0.0
 31
0.0
  0
LINE
  5
BC
330
1F
100
AcDbEntity
  8
외형선
  6
Continuous
370
    15
100
AcDbLine
 10
0.149999999999995
 20
0.0
 30
0.0
 11
0.149999999999995
 21
3.850000000000001
 31
0.0
  0
LINE
  5
BD
330
1F
100
AcDbEntity
  8
외형선
  6
Continuous
370
    15
100
AcDbLine
 10
0.149999999999995
 20
-3.850000000000001
 30
0.0
 11
0.149999999999995
 21
0.0
 31
0.0
  0
SPLINE
  5
BE
330
1F
100
AcDbEntity
  8
외형선
  6
Continuous
370
    15
100
AcDbSpline
210
0.0
220
0.0
230
1.0
 70
     8
 71
     3
 72
     8
 73
     4
 74
     0
 42
0.000000001
 43
0.00000001
 40
0.0
 40
0.0
 40
0.0
 40
0.0
 40
1.0
 40
1.0
 40
1.0
 40
1.0
 10
15.15000000000001
 20
3.801912373924777
 30
0.0
 10
14.81821688565226
 20
3.831059569617521
 30
0.0
 10
14.48457721299989
 20
3.847063822221287
 30
0.0
 10
14.14992327627736
 20
3.849631307856833
 30
0.0
  0
LINE
  5
BF
330
1F
100
AcDbEntity
  8
외형선
  6
Continuous
370
    15
100
AcDbLine
 10
14.14992327627733
 20
1.197931985026702
 30
0.0
 11
14.14992327627731
 21
3.849631526455206
 31
0.0
  0
SPLINE
  5
C0
330
1F
100
AcDbEntity
  8
외형선
  6
Continuous
370
    15
100
AcDbSpline
210
0.0
220
0.0
230
1.0
 70
     8
 71
     3
 72
     8
 73
     4
 74
     0
 42
0.000000001
 43
0.00000001
 40
0.0
 40
0.0
 40
0.0
 40
0.0
 40
1.0
 40
1.0
 40
1.0
 40
1.0
 10
15.14999999999998
 20
0.6590348044494222
 30
0.0
 10
14.81821688565226
 20
0.8412975639201092
 30
0.0
 10
14.48457721299988
 20
1.021612658578414
 30
0.0
 10
14.14992327627736
 20
1.197928097852674
 30
0.0
  0
SPLINE
  5
C1
330
1F
100
AcDbEntity
  8
외형선
  6
Continuous
370
    15
100
AcDbSpline
210
0.0
220
0.0
230
1.0
 70
     8
 71
     3
 72
     8
 73
     4
 74
     0
 42
0.000000001
 43
0.00000001
 40
0.0
 40
0.0
 40
0.0
 40
0.0
 40
1.0
 40
1.0
 40
1.0
 40
1.0
 10
15.15000000000001
 20
-0.6065989622457464
 30
0.0
 10
14.81821688565226
 20
-0.4239163484160217
 30
0.0
 10
14.48457721299989
 20
-0.2387873094175076
 30
0.0
 10
14.14992327627736
 20
-0.0532803300332859
 30
0.0
  0
SPLINE
  5
C2
330
1F
100
AcDbEntity
  8
외형선
  6
Continuous
370
    15
100
AcDbSpline
210
0.0
220
0.0
230
1.0
 70
     8
 71
     3
 72
     8
 73
     4
 74
     0
 42
0.000000001
 43
0.00000001
 40
0.0
 40
0.0
 40
0.0
 40
0.0
 40
1.0
 40
1.0
 40
1.0
 40
1.0
 10
15.14999999999998
 20
-3.793174544695288
 30
0.0
 10
14.81821688565226
 20
-3.761507796795653
 30
0.0
 10
14.48457721299988
 20
-3.716614993137581
 30
0.0
 10
14.14992327627736
 20
-3.658888939606537
 30
0.0
  0
LINE
  5
C3
330
1F
100
AcDbEntity
  8
외형선
  6
Continuous
370
    15
100
AcDbLine
 10
14.14992327627733
 20
-3.658887666935124
 30
0.0
 11
14.14992327627731
 21
-0.05326453343607
 31
0.0
  0
SPLINE
  5
C4
330
1F
100
AcDbEntity
  8
외형선
  6
Continuous
370
    15
100
AcDbSpline
210
0.0
220
0.0
230
1.0
 70
    24
 71
     3
 72
    18
 73
    14
 74
     0
 42
0.000000001
 43
0.00000001
 40
0.0
 40
0.0
 40
0.0
 40
0.0
 40
0.1594581630846215
 40
0.2438934781066149
 40
0.3283287931286081
 40
0.4127641081505911
 40
0.4971994231725743
 40
0.5816347381945575
 40
0.6660700532165406
 40
0.7505053682385227
 40
0.8349406832605046
 40
0.9193759982824897
 40
1.0
 40
1.0
 40
1.0
 40
1.0
 10
15.14999999999998
 20
-3.793174544695288
 30
0.0
 10
15.14999999999997
 20
-3.55045093385392
 30
0.0
 10
15.14999999999997
 20
-3.179201795386911
 30
0.0
 10
15.15
 20
-2.650410170957728
 30
0.0
 10
15.1499999999999
 20
-2.249068585219956
 30
0.0
 10
15.14999999999998
 20
-1.863348452261953
 30
0.0
 10
15.15000000000002
 20
-1.504081747431941
 30
0.0
 10
15.15000000000001
 20
-1.182544613229615
 30
0.0
 10
15.15000000000002
 20
-0.90634026616063
 30
0.0
 10
15.14999999999998
 20
-0.6848525570934779
 30
0.0
 10
15.14999999999993
 20
-0.5239054170970444
 30
0.0
 10
15.15
 20
-0.4251121993947207
 30
0.0
 10
15.15
 20
-0.4151925091070603
 30
0.0
 10
15.15000000000001
 20
-0.4103471896026076
 30
0.0
  0
SPLINE
  5
C5
330
1F
100
AcDbEntity
  8
외형선
  6
Continuous
370
    15
100
AcDbSpline
210
0.0
220
0.0
230
1.0
 70
    24
 71
     3
 72
    20
 73
    16
 74
     0
 42
0.000000001
 43
0.00000001
 40
0.0
 40
0.0
 40
0.0
 40
0.0
 40
0.0330281343958224
 40
0.1182465855044463
 40
0.2034650366130599
 40
0.2886834877216736
 40
0.3739019388302873
 40
0.4591203899389009
 40
0.5443388410475135
 40
0.6295572921561261
 40
0.7147757432647418
 40
0.7999941943733575
 40
0.8852126454819702
 40
0.970431096590583
 40
1.0
 40
1.0
 40
1.0
 40
1.0
 10
15.14999999999997
 20
0.4561334930322056
 30
0.0
 10
15.14999999999996
 20
0.4541236348596505
 30
0.0
 10
15.14999999999996
 20
0.4469279857380667
 30
0.0
 10
15.14999999999996
 20
0.5048250775695383
 30
0.0
 10
15.15000000000002
 20
0.6293507963967172
 30
0.0
 10
15.15000000000001
 20
0.8198729950331863
 30
0.0
 10
15.15000000000001
 20
1.067993748913358
 30
0.0
 10
15.15000000000002
 20
1.365909893539518
 30
0.0
 10
15.14999999999998
 20
1.706676693091165
 30
0.0
 10
15.14999999999994
 20
2.079200211962136
 30
0.0
 10
15.14999999999997
 20
2.473964587510646
 30
0.0
 10
15.15000000000002
 20
2.879213458106654
 30
0.0
 10
15.15000000000003
 20
3.283229605460254
 30
0.0
 10
15.14999999999991
 20
3.590781296619137
 30
0.0
 10
15.15000000000005
 20
3.758665794083568
 30
0.0
 10
15.15000000000006
 20
3.801912373903338
 30
0.0
  0
LINE
  5
C6
330
1F
100
AcDbEntity
  8
중심선
 62
     1
100
AcDbLine
 10
-67.85
 20
-0.0000000000000039
 30
0.0
 11
38.15000000000002
 21
0.0000000000000091
 31
0.0
  0
LINE
  5
C7
330
1F
100
AcDbEntity
  8
참조1
100
AcDbLine
 10
-14.84999999999999
 20
-0.0000000000000039
 30
0.0
 11
-14.84999999999998
 21
-40.00000000000001
 31
0.0
  0
LINE
  5
C8
330
1F
100
AcDbEntity
  8
참조1
100
AcDbLine
 10
-14.84999999999998
 20
-40.00000000000001
 30
0.0
 11
-50.00885681430867
 21
-40.0
 31
0.0
  0
CIRCLE
  5
C9
330
1F
100
AcDbEntity
  8
해칭선
100
AcDbCircle
 10
0.0000000000000036
 20
-0.0010749287238931
 30
0.0
 40
3.000000000000004
  0
INSERT
  5
CA
330
1F
100
AcDbEntity
  8
0
  6
Continuous
 62
     7
100
AcDbBlockReference
 66
     1
  2
블럭10
 10
-28.79027293212519
 20
-52.04717430164393
 30
0.0
  0
ATTRIB
  5
CB
330
CA
100
AcDbEntity
  8
FORMAT
 62
     2
100
AcDbText
 10
-49.64852046371773
 20
-49.97180738881175
 30
0.0
 40
4.233333333333333
  1
SEME6408005100E [ 4 FLUTE ]
 41
0.75
  7
SLDTEXTSTYLE0
 11
-49.64852046371773
 21
-52.08847405547841
 31
0.0
100
AcDbAttribute
  2
AUTOATTR0
 70
     0
 74
     1
  0
SEQEND
  5
CC
330
CA
100
AcDbEntity
  8
0
  6
Continuous
 62
     7
  0
HATCH
  5
CD
330
1F
100
AcDbEntity
  8
중심선
100
AcDbHatch
 10
0.0
 20
0.0
 30
0.0
210
0.0
220
0.0
230
1.0
  2
SOLID
 70
     1
 71
     0
 91
        1
 92
        0
 93
        4
 72
     1
 10
-23.07536362774435
 20
-35.8
 11
-26.52163887158163
 21
-35.8
 72
     1
 10
-26.52163887158164
 20
-35.8
 11
-28.64986873078566
 21
-38.33632558057257
 72
     1
 10
-28.64986873078566
 20
-38.33632558057257
 11
-25.20356040183523
 21
-38.33628615127008
 72
     1
 10
-25.20356040183523
 20
-38.33628615127008
 11
-23.07536362774435
 21
-35.8
 97
        0
 75
     0
 76
     1
 98
        1
 10
-24.92500000000001
 20
-0.0010749287238931
  0
HATCH
  5
CE
330
1F
100
AcDbEntity
  8
중심선
100
AcDbHatch
 10
0.0
 20
0.0
 30
0.0
210
0.0
220
0.0
230
1.0
  2
SOLID
 70
     1
 71
     0
 91
        1
 92
        0
 93
        4
 72
     1
 10
-18.06259963670837
 20
-35.79999999999998
 11
-21.50887488054565
 21
-35.8
 72
     1
 10
-21.50887488054565
 20
-35.8
 11
-26.04001288890307
 21
-41.20000000000002
 72
     1
 10
-26.04001288890307
 20
-41.20000000000002
 11
-22.59373764506579
 21
-41.20000000000002
 72
     1
 10
-22.59373764506579
 20
-41.20000000000002
 11
-18.06259963670837
 21
-35.79999999999998
 97
        0
 75
     0
 76
     1
 98
        1
 10
-24.92500000000001
 20
-0.0010749287238931
  0
HATCH
  5
CF
330
1F
100
AcDbEntity
  8
중심선
100
AcDbHatch
 10
0.0
 20
0.0
 30
0.0
210
0.0
220
0.0
230
1.0
  2
SOLID
 70
     1
 71
     0
 91
        1
 92
        0
 93
        4
 72
     1
 10
-13.04983564567248
 20
-35.8
 11
-16.49611088950959
 21
-35.79999999999998
 72
     1
 10
-16.49611088950959
 20
-35.79999999999998
 11
-23.54454779139887
 21
-44.20000000000002
 72
     1
 10
-23.54454779139887
 20
-44.20000000000002
 11
-20.09827254756159
 21
-44.20000000000002
 72
     1
 10
-20.09827254756159
 20
-44.20000000000002
 11
-13.04983564567248
 21
-35.8
 97
        0
 75
     0
 76
     1
 98
        1
 10
-24.92500000000001
 20
-0.0010749287238931
  0
HATCH
  5
D0
330
1F
100
AcDbEntity
  8
중심선
100
AcDbHatch
 10
0.0
 20
0.0
 30
0.0
210
0.0
220
0.0
230
1.0
  2
SOLID
 70
     1
 71
     0
 91
        1
 92
        0
 93
        6
 72
     3
 10
-8.249945214660308
 20
-40.00000000005127
 11
3.960054785062283
 21
1.540882976769353E-10
 40
0.3939339440162628
 50
17.09539180608437
 51
320.0019657685086
 73
     0
 72
     1
 10
-6.566945558959713
 20
-38.58789400463833
 11
-4.261643685258647
 21
-36.65356729459038
 72
     3
 10
-8.249945214713154
 20
-40.00000000000015
 11
6.600054785286829
 21
-1.278976924368180E-13
 40
0.636358354079598
 50
39.99873849337386
 51
368.4976242363725
 73
     1
 72
     1
 10
-1.824612722812542
 20
-39.03999999993002
 11
-9.569877907877231
 21
-39.03999999993002
 72
     1
 10
-9.569877907877231
 20
-39.03999999993002
 11
-9.569902952323165
 21
-40.95999999992991
 72
     1
 10
-9.569902952323165
 20
-40.95999999992991
 11
-5.128523182851129
 21
-40.95999999992988
 97
        0
 75
     0
 76
     1
 98
        1
 10
-24.92500000000001
 20
-0.0010749287238931
  0
DIMENSION
  5
D1
330
1F
100
AcDbEntity
  8
치수문자_일반주서
100
AcDbDimension
  2
_D
 10
58.18636350776573
 20
-3.999999999999881
 30
0.0
 11
58.18636350776566
 21
13.66650000000012
 31
0.0
 70
   160
  1
%%c<>
 71
     2
 42
7.999999999999996
 52
-270.0
  3
SLDDIMSTYLE1
100
AcDbAlignedDimension
 13
27.2997965637886
 23
4.000000000000003
 33
0.0
 14
27.2997965637886
 24
-3.999999999999994
 34
0.0
 50
90.0000000000002
100
AcDbRotatedDimension
1001
PE_URL
1000

  0
DIMENSION
  5
DE
330
1F
100
AcDbEntity
  8
치수문자_일반주서
100
AcDbDimension
  2
_D_1
 10
-74.0384684361648
 20
-4.000000000000041
 30
0.0
 11
-74.03846843616482
 21
0.0000000000000029
 31
0.0
 70
   160
  1
%%c<>
 71
     2
 42
8.000000000000007
 52
-270.0
  3
SLDDIMSTYLE1
100
AcDbAlignedDimension
 13
-64.05000000000001
 23
4.000000000000004
 33
0.0
 14
-64.05000000000001
 24
-4.000000000000004
 34
0.0
 50
90.0000000000002
100
AcDbRotatedDimension
1001
ACAD_DSTYLE_DIMFLIPARROW_SYMBOL
1070
   385
1070
     0
1001
ACAD_DSTYLE_DIMFLIPARROW_WHICH_SYMBOL
1070
   386
1070
     3
  0
DIMENSION
  5
EC
330
1F
100
AcDbEntity
  8
치수문자_일반주서
100
AcDbDimension
  2
_D_2
 10
15.14999999999998
 20
13.61311052580275
 30
0.0
 11
25.14999999999999
 21
13.61311052580275
 31
0.0
 70
   160
  1
<>
 71
     2
 42
20.00000000000001
  3
SLDDIMSTYLE1
100
AcDbAlignedDimension
 13
35.15
 23
3.477071761759744
 33
0.0
 14
15.14999999999998
 24
3.933269360369872
 34
0.0
100
AcDbRotatedDimension
1001
PE_URL
1000

  0
DIMENSION
  5
F6
330
1F
100
AcDbEntity
  8
치수문자_일반주서
100
AcDbDimension
  2
_D_3
 10
0.1499999999999879
 20
19.61311052580272
 30
0.0
 11
17.65000000000001
 21
19.61311052580272
 31
0.0
 70
   160
  1
<>
 71
     2
 42
35.0
  3
SLDDIMSTYLE1
100
AcDbAlignedDimension
 13
35.15
 23
3.477071761759744
 33
0.0
 14
0.149999999999995
 24
3.850000000000001
 34
0.0
100
AcDbRotatedDimension
1001
PE_URL
1000

  0
DIMENSION
  5
100
330
1F
100
AcDbEntity
  8
치수문자_일반주서
100
AcDbDimension
  2
_D_4
 10
-64.85000000000002
 20
28.02060782696464
 30
0.0
 11
-14.85
 21
28.02060782696464
 31
0.0
 70
   160
  1
<>
 71
     2
 42
100.0
  3
SLDDIMSTYLE1
100
AcDbAlignedDimension
 13
35.15
 23
3.477071761759744
 33
0.0
 14
-64.85000000000001
 24
3.200000000000008
 34
0.0
 50
0.0000000000000041
100
AcDbRotatedDimension
1001
PE_URL
1000

  0
LINE
  5
10A
330
1F
100
AcDbEntity
  8
참조1
100
AcDbLine
 10
47.96348381534558
 20
7.440000000000002
 30
0.0
 11
47.96348381534558
 21
-7.440000000000002
 31
0.0
  0
LINE
  5
10B
330
1F
100
AcDbEntity
  8
참조1
100
AcDbLine
 10
60.66348381534559
 20
5.440000000000002
 30
0.0
 11
47.96348381534558
 21
5.440000000000002
 31
0.0
  0
SOLID
  5
10C
330
1F
100
AcDbEntity
  8
참조1
100
AcDbTrace
 10
47.96348381534558
 20
5.440000000000002
 30
0.0
 11
54.31348381534558
 21
4.424000000000002
 31
0.0
 12
54.31348381534558
 22
6.456000000000002
 32
0.0
 13
54.31348381534558
 23
6.456000000000002
 33
0.0
  0
LINE
  5
10D
330
1F
100
AcDbEntity
  8
참조1
100
AcDbLine
 10
60.66348381534559
 20
-5.440000000000002
 30
0.0
 11
47.96348381534558
 21
-5.440000000000002
 31
0.0
  0
SOLID
  5
10E
330
1F
100
AcDbEntity
  8
참조1
100
AcDbTrace
 10
47.96348381534558
 20
-5.440000000000002
 30
0.0
 11
54.31348381534558
 21
-6.456000000000002
 31
0.0
 12
54.31348381534558
 22
-4.424000000000002
 32
0.0
 13
54.31348381534558
 23
-4.424000000000002
 33
0.0
  0
MTEXT
  5
10F
330
1F
100
AcDbEntity
  8
참조1
100
AcDbMText
 10
57.36097390781586
 20
10.98821664464994
 30
0.0
 40
3.5
 41
0.0
 71
     1
 72
     1
  1
A
  7
SLDTEXTSTYLE0
 73
     1
 44
1.0
  0
MTEXT
  5
110
330
1F
100
AcDbEntity
  8
참조1
100
AcDbMText
 10
57.36097390781586
 20
0.1082166446499328
 30
0.0
 40
3.5
 41
0.0
 71
     1
 72
     1
  1
A
  7
SLDTEXTSTYLE0
 73
     1
 44
1.0
  0
INSERT
  5
117
330
1F
100
AcDbEntity
  8
해칭선
100
AcDbBlockReference
  2
SW_DOWELSYMBOL_0
 10
0.0000000000000036
 20
-0.0010749287238931
 30
0.0
  0
ARC
  5
13A
330
1F
100
AcDbEntity
  8
0
 62
     1
100
AcDbCircle
 10
34.65000000000001
 20
3.477071761759744
 30
0.0
 40
0.5
100
AcDbArc
 50
0.0
 51
90.0
  0
ARC
  5
13B
102
{ACAD_REACTORS
102
}
330
1F
100
AcDbEntity
  8
0
 62
     1
100
AcDbCircle
 10
34.65000000000001
 20
-3.477071761759726
 30
0.0
 40
0.5
100
AcDbArc
 50
270.0
 51
0.0
  0
DIMENSION
  5
14E
102
{ACAD_REACTORS
102
}
102
{ACAD_XDICTIONARY
360
14F
102
}
330
1F
100
AcDbEntity
  8
0
100
AcDbDimension
  2
*D8
 10
34.65000000000001
 20
-3.477071761759726
 30
0.0
 11
49.48707120663344
 21
-11.51371668471532
 31
0.0
 70
   164
 71
     5
 42
0.5000000000000016
  3
ISO-25
100
AcDbRadialDimension
 15
34.96746177669593
 25
-3.86335924581411
 35
0.0
 40
0.0
1001
ACAD
1000
DSTYLE
1002
{
1070
   179
1070
     2
1070
   143
1040
0.0393700787401575
1070
    41
1040
3.302
1070
    44
1040
1.0
1070
    42
1040
1.0
1070
   147
1040
1.524
1070
    73
1070
     1
1070
    74
1070
     1
1070
   140
1040
3.5
1070
   284
1070
     0
1070
    78
1070
     0
1002
}
1001
ACAD_DSTYLE_DIMRADIAL_EXTENSION
1070
   387
1070
     1
1070
   388
1040
4.71238898038469
1070
   390
1040
0.0
  0
ENDSEC
  0
SECTION
  2
OBJECTS
  0
DICTIONARY
  5
C
330
0
100
AcDbDictionary
281
     1
  3
ACAD_GROUP
350
D
  3
ACAD_LAYOUT
350
1A
  3
ACAD_MLINESTYLE
350
17
  3
ACAD_PLOTSETTINGS
350
19
  3
ACAD_PLOTSTYLENAME
350
E
  3
ACAD_SCALELIST
350
47
  3
APPDATA
350
139
  3
DWGPROPS
350
15B
  0
DICTIONARY
  5
14F
330
14E
100
AcDbDictionary
280
     1
281
     1
  0
DICTIONARY
  5
D
102
{ACAD_REACTORS
330
C
102
}
330
C
100
AcDbDictionary
281
     1
  0
DICTIONARY
  5
1A
102
{ACAD_REACTORS
330
C
102
}
330
C
100
AcDbDictionary
281
     1
  3
Layout1
350
1E
  3
Layout2
350
26
  3
Model
350
22
  0
DICTIONARY
  5
17
102
{ACAD_REACTORS
330
C
102
}
330
C
100
AcDbDictionary
281
     1
  3
Standard
350
18
  0
DICTIONARY
  5
19
102
{ACAD_REACTORS
330
C
102
}
330
C
100
AcDbDictionary
281
     1
  0
ACDBDICTIONARYWDFLT
  5
E
102
{ACAD_REACTORS
330
C
102
}
330
C
100
AcDbDictionary
281
     1
  3
Normal
350
F
100
AcDbDictionaryWithDefault
340
F
  0
DICTIONARY
  5
47
102
{ACAD_REACTORS
330
C
102
}
330
C
100
AcDbDictionary
281
     1
  3
A0
350
48
  3
A1
350
49
  3
A2
350
4A
  3
A3
350
4B
  3
A4
350
4C
  3
A5
350
4D
  3
A6
350
4E
  3
A7
350
4F
  3
A8
350
50
  3
A9
350
51
  3
B0
350
52
  3
B1
350
53
  3
B2
350
54
  3
B3
350
55
  3
B4
350
56
  3
B5
350
57
  3
B6
350
58
  3
B7
350
59
  3
B8
350
5A
  3
B9
350
5B
  3
C0
350
5C
  3
C1
350
5D
  3
C2
350
5E
  3
C3
350
5F
  3
C4
350
60
  3
C5
350
61
  3
C6
350
62
  3
C7
350
63
  3
C8
350
64
  3
C9
350
65
  3
D0
350
66
  3
D1
350
67
  3
D2
350
68
  0
DICTIONARY
  5
139
102
{ACAD_REACTORS
330
C
102
}
330
C
100
AcDbDictionary
281
     1
  0
XRECORD
  5
15B
102
{ACAD_REACTORS
330
C
102
}
330
C
100
AcDbXrecord
280
     1
  1
DWGPROPS COOKIE
  2

  3

  4

  6

  7

  8
USER
  9

300
=
301
=
302
=
303
=
304
=
305
=
306
=
307
=
308
=
309
=
 40
0.0
 41
2458274.3346939
 42
2458275.071711956
  1

 90
        0
  0
LAYOUT
  5
1E
102
{ACAD_REACTORS
330
1A
102
}
330
1A
100
AcDbPlotSettings
  1

  2
none_device
  4

  6

 40
0.0
 41
0.0
 42
0.0
 43
0.0
 44
0.0
 45
0.0
 46
0.0
 47
0.0
 48
0.0
 49
0.0
140
0.0
141
0.0
142
1.0
143
1.0
 70
   688
 72
     1
 73
     0
 74
     5
  7

 75
    16
147
1.0
148
0.0
149
0.0
100
AcDbLayout
  1
Layout1
 70
     1
 71
     1
 10
0.0
 20
0.0
 11
420.0
 21
297.0
 12
0.0
 22
0.0
 32
0.0
 14
1.000000000000000E+20
 24
1.000000000000000E+20
 34
1.000000000000000E+20
 15
-1.000000000000000E+20
 25
-1.000000000000000E+20
 35
-1.000000000000000E+20
146
0.0
 13
0.0
 23
0.0
 33
0.0
 16
1.0
 26
0.0
 36
0.0
 17
0.0
 27
1.0
 37
0.0
 76
     0
330
1B
  0
LAYOUT
  5
26
102
{ACAD_REACTORS
330
1A
102
}
330
1A
100
AcDbPlotSettings
  1

  2
none_device
  4

  6

 40
0.0
 41
0.0
 42
0.0
 43
0.0
 44
0.0
 45
0.0
 46
0.0
 47
0.0
 48
0.0
 49
0.0
140
0.0
141
0.0
142
1.0
143
1.0
 70
   688
 72
     1
 73
     0
 74
     5
  7

 75
    16
147
1.0
148
0.0
149
0.0
100
AcDbLayout
  1
Layout2
 70
     1
 71
     2
 10
0.0
 20
0.0
 11
0.0
 21
0.0
 12
0.0
 22
0.0
 32
0.0
 14
0.0
 24
0.0
 34
0.0
 15
0.0
 25
0.0
 35
0.0
146
0.0
 13
0.0
 23
0.0
 33
0.0
 16
1.0
 26
0.0
 36
0.0
 17
0.0
 27
1.0
 37
0.0
 76
     0
330
23
  0
LAYOUT
  5
22
102
{ACAD_REACTORS
330
1A
102
}
330
1A
100
AcDbPlotSettings
  1

  2
none_device
  4
ANSI_A_(11.00_x_8.50_Inches)
  6

 40
6.35
 41
19.05
 42
6.35000508
 43
19.05000254
 44
279.4
 45
215.9
 46
101.6611063617215
 47
106.9554063136612
 48
0.0
 49
0.0
140
0.0
141
0.0
142
0.0781950309128802
143
1.0
 70
  1696
 72
     0
 73
     0
 74
     0
  7

 75
     0
147
0.0235690232323232
148
0.0
149
0.0
100
AcDbLayout
  1
Model
 70
     1
 71
     0
 10
0.0
 20
0.0
 11
420.0
 21
297.0
 12
0.0
 22
0.0
 32
0.0
 14
-78.41346843616482
 24
-49.97180738881175
 34
0.0
 15
60.66348381534559
 25
32.39560782696464
 35
0.0
146
0.0
 13
0.0
 23
0.0
 33
0.0
 16
1.0
 26
0.0
 36
0.0
 17
0.0
 27
1.0
 37
0.0
 76
     0
330
1F
331
29
  0
MLINESTYLE
  5
18
102
{ACAD_REACTORS
330
17
102
}
330
17
100
AcDbMlineStyle
  2
Standard
 70
     0
  3

 62
   256
 51
90.0
 52
90.0
 71
     2
 49
0.5
 62
   256
  6
BYLAYER
 49
-0.5
 62
   256
  6
BYLAYER
  0
ACDBPLACEHOLDER
  5
F
102
{ACAD_REACTORS
330
E
102
}
330
E
  0
SCALE
  5
48
102
{ACAD_REACTORS
330
47
102
}
330
47
100
AcDbScale
 70
     0
300
1:1
140
1.0
141
1.0
290
     1
  0
SCALE
  5
49
102
{ACAD_REACTORS
330
47
102
}
330
47
100
AcDbScale
 70
     0
300
1:2
140
1.0
141
2.0
290
     0
  0
SCALE
  5
4A
102
{ACAD_REACTORS
330
47
102
}
330
47
100
AcDbScale
 70
     0
300
1:4
140
1.0
141
4.0
290
     0
  0
SCALE
  5
4B
102
{ACAD_REACTORS
330
47
102
}
330
47
100
AcDbScale
 70
     0
300
1:5
140
1.0
141
5.0
290
     0
  0
SCALE
  5
4C
102
{ACAD_REACTORS
330
47
102
}
330
47
100
AcDbScale
 70
     0
300
1:8
140
1.0
141
8.0
290
     0
  0
SCALE
  5
4D
102
{ACAD_REACTORS
330
47
102
}
330
47
100
AcDbScale
 70
     0
300
1:10
140
1.0
141
10.0
290
     0
  0
SCALE
  5
4E
102
{ACAD_REACTORS
330
47
102
}
330
47
100
AcDbScale
 70
     0
300
1:16
140
1.0
141
16.0
290
     0
  0
SCALE
  5
4F
102
{ACAD_REACTORS
330
47
102
}
330
47
100
AcDbScale
 70
     0
300
1:20
140
1.0
141
20.0
290
     0
  0
SCALE
  5
50
102
{ACAD_REACTORS
330
47
102
}
330
47
100
AcDbScale
 70
     0
300
1:30
140
1.0
141
30.0
290
     0
  0
SCALE
  5
51
102
{ACAD_REACTORS
330
47
102
}
330
47
100
AcDbScale
 70
     0
300
1:40
140
1.0
141
40.0
290
     0
  0
SCALE
  5
52
102
{ACAD_REACTORS
330
47
102
}
330
47
100
AcDbScale
 70
     0
300
1:50
140
1.0
141
50.0
290
     0
  0
SCALE
  5
53
102
{ACAD_REACTORS
330
47
102
}
330
47
100
AcDbScale
 70
     0
300
1:100
140
1.0
141
100.0
290
     0
  0
SCALE
  5
54
102
{ACAD_REACTORS
330
47
102
}
330
47
100
AcDbScale
 70
     0
300
2:1
140
2.0
141
1.0
290
     0
  0
SCALE
  5
55
102
{ACAD_REACTORS
330
47
102
}
330
47
100
AcDbScale
 70
     0
300
4:1
140
4.0
141
1.0
290
     0
  0
SCALE
  5
56
102
{ACAD_REACTORS
330
47
102
}
330
47
100
AcDbScale
 70
     0
300
8:1
140
8.0
141
1.0
290
     0
  0
SCALE
  5
57
102
{ACAD_REACTORS
330
47
102
}
330
47
100
AcDbScale
 70
     0
300
10:1
140
10.0
141
1.0
290
     0
  0
SCALE
  5
58
102
{ACAD_REACTORS
330
47
102
}
330
47
100
AcDbScale
 70
     0
300
100:1
140
100.0
141
1.0
290
     0
  0
SCALE
  5
59
102
{ACAD_REACTORS
330
47
102
}
330
47
100
AcDbScale
 70
     0
300
1/128" = 1'-0"
140
0.0078125
141
12.0
290
     0
  0
SCALE
  5
5A
102
{ACAD_REACTORS
330
47
102
}
330
47
100
AcDbScale
 70
     0
300
1/64" = 1'-0"
140
0.015625
141
12.0
290
     0
  0
SCALE
  5
5B
102
{ACAD_REACTORS
330
47
102
}
330
47
100
AcDbScale
 70
     0
300
1/32" = 1'-0"
140
0.03125
141
12.0
290
     0
  0
SCALE
  5
5C
102
{ACAD_REACTORS
330
47
102
}
330
47
100
AcDbScale
 70
     0
300
1/16" = 1'-0"
140
0.0625
141
12.0
290
     0
  0
SCALE
  5
5D
102
{ACAD_REACTORS
330
47
102
}
330
47
100
AcDbScale
 70
     0
300
3/32" = 1'-0"
140
0.09375
141
12.0
290
     0
  0
SCALE
  5
5E
102
{ACAD_REACTORS
330
47
102
}
330
47
100
AcDbScale
 70
     0
300
1/8" = 1'-0"
140
0.125
141
12.0
290
     0
  0
SCALE
  5
5F
102
{ACAD_REACTORS
330
47
102
}
330
47
100
AcDbScale
 70
     0
300
3/16" = 1'-0"
140
0.1875
141
12.0
290
     0
  0
SCALE
  5
60
102
{ACAD_REACTORS
330
47
102
}
330
47
100
AcDbScale
 70
     0
300
1/4" = 1'-0"
140
0.25
141
12.0
290
     0
  0
SCALE
  5
61
102
{ACAD_REACTORS
330
47
102
}
330
47
100
AcDbScale
 70
     0
300
3/8" = 1'-0"
140
0.375
141
12.0
290
     0
  0
SCALE
  5
62
102
{ACAD_REACTORS
330
47
102
}
330
47
100
AcDbScale
 70
     0
300
1/2" = 1'-0"
140
0.5
141
12.0
290
     0
  0
SCALE
  5
63
102
{ACAD_REACTORS
330
47
102
}
330
47
100
AcDbScale
 70
     0
300
3/4" = 1'-0"
140
0.75
141
12.0
290
     0
  0
SCALE
  5
64
102
{ACAD_REACTORS
330
47
102
}
330
47
100
AcDbScale
 70
     0
300
1" = 1'-0"
140
1.0
141
12.0
290
     0
  0
SCALE
  5
65
102
{ACAD_REACTORS
330
47
102
}
330
47
100
AcDbScale
 70
     0
300
1-1/2" = 1'-0"
140
1.5
141
12.0
290
     0
  0
SCALE
  5
66
102
{ACAD_REACTORS
330
47
102
}
330
47
100
AcDbScale
 70
     0
300
3" = 1'-0"
140
3.0
141
12.0
290
     0
  0
SCALE
  5
67
102
{ACAD_REACTORS
330
47
102
}
330
47
100
AcDbScale
 70
     0
300
6" = 1'-0"
140
6.0
141
12.0
290
     0
  0
SCALE
  5
68
102
{ACAD_REACTORS
330
47
102
}
330
47
100
AcDbScale
 70
     0
300
1'-0" = 1'-0"
140
12.0
141
12.0
290
     0
  0
ENDSEC
  0
EOF
