  0
SECTION
  2
HEADER
  9
$ACADVER
  1
AC1015
  9
$ACADMAINTVER
 70
     6
  9
$DWGCODEPAGE
  3
ANSI_949
  9
$INSBASE
 10
0.0
 20
0.0
 30
0.0
  9
$EXTMIN
 10
-78.41346843616482
 20
-49.97180738881175
 30
0.0
  9
$EXTMAX
 10
60.66348381534559
 20
31.8979841470039
 30
0.0
  9
$LIMMIN
 10
0.0
 20
0.0
  9
$LIMMAX
 10
420.0
 20
297.0
  9
$ORTHOMODE
 70
     0
  9
$REGENMODE
 70
     1
  9
$FILLMODE
 70
     1
  9
$QTEXTMODE
 70
     0
  9
$MIRRTEXT
 70
     1
  9
$LTSCALE
 40
1.0
  9
$ATTMODE
 70
     1
  9
$TEXTSIZE
 40
3.5
  9
$TRACEWID
 40
1.0
  9
$TEXTSTYLE
  7
Standard
  9
$CLAYER
  8
0
  9
$CELTYPE
  6
ByLayer
  9
$CECOLOR
 62
   256
  9
$CELTSCALE
 40
1.0
  9
$DISPSILH
 70
     0
  9
$DIMSCALE
 40
1.0
  9
$DIMASZ
 40
3.302
  9
$DIMEXO
 40
1.0
  9
$DIMDLI
 40
3.75
  9
$DIMRND
 40
0.0
  9
$DIMDLE
 40
0.0
  9
$DIMEXE
 40
1.0
  9
$DIMTP
 40
0.0
  9
$DIMTM
 40
0.0
  9
$DIMTXT
 40
3.5
  9
$DIMCEN
 40
2.5
  9
$DIMTSZ
 40
0.0
  9
$DIMTOL
 70
     0
  9
$DIMLIM
 70
     0
  9
$DIMTIH
 70
     1
  9
$DIMTOH
 70
     1
  9
$DIMSE1
 70
     0
  9
$DIMSE2
 70
     0
  9
$DIMTAD
 70
     1
  9
$DIMZIN
 70
     0
  9
$DIMBLK
  1

  9
$DIMASO
 70
     1
  9
$DIMSHO
 70
     1
  9
$DIMPOST
  1

  9
$DIMAPOST
  1

  9
$DIMALT
 70
     0
  9
$DIMALTD
 70
     3
  9
$DIMALTF
 40
0.0393700787401575
  9
$DIMLFAC
 40
1.0
  9
$DIMTOFL
 70
     1
  9
$DIMTVP
 40
0.0
  9
$DIMTIX
 70
     0
  9
$DIMSOXD
 70
     0
  9
$DIMSAH
 70
     0
  9
$DIMBLK1
  1

  9
$DIMBLK2
  1

  9
$DIMSTYLE
  2
ISO-25
  9
$DIMCLRD
 70
     0
  9
$DIMCLRE
 70
     0
  9
$DIMCLRT
 70
     0
  9
$DIMTFAC
 40
1.0
  9
$DIMGAP
 40
1.524
  9
$DIMJUST
 70
     0
  9
$DIMSD1
 70
     0
  9
$DIMSD2
 70
     0
  9
$DIMTOLJ
 70
     0
  9
$DIMTZIN
 70
     0
  9
$DIMALTZ
 70
     0
  9
$DIMALTTZ
 70
     0
  9
$DIMUPT
 70
     0
  9
$DIMDEC
 70
     2
  9
$DIMTDEC
 70
     2
  9
$DIMALTU
 70
     2
  9
$DIMALTTD
 70
     3
  9
$DIMTXSTY
  7
Standard
  9
$DIMAUNIT
 70
     0
  9
$DIMADEC
 70
     2
  9
$DIMALTRND
 40
0.0
  9
$DIMAZIN
 70
     0
  9
$DIMDSEP
 70
    44
  9
$DIMATFIT
 70
     3
  9
$DIMFRAC
 70
     0
  9
$DIMLDRBLK
  1

  9
$DIMLUNIT
 70
     2
  9
$DIMLWD
 70
    -2
  9
$DIMLWE
 70
    -2
  9
$DIMTMOVE
 70
     0
  9
$LUNITS
 70
     2
  9
$LUPREC
 70
     2
  9
$SKETCHINC
 40
1.0
  9
$FILLETRAD
 40
10.0
  9
$AUNITS
 70
     0
  9
$AUPREC
 70
     2
  9
$MENU
  1
.
  9
$ELEVATION
 40
0.0
  9
$PELEVATION
 40
0.0
  9
$THICKNESS
 40
0.0
  9
$LIMCHECK
 70
     0
  9
$CHAMFERA
 40
0.0
  9
$CHAMFERB
 40
0.0
  9
$CHAMFERC
 40
0.0
  9
$CHAMFERD
 40
0.0
  9
$SKPOLY
 70
     0
  9
$TDCREATE
 40
2458274.710072164
  9
$TDUCREATE
 40
2458274.335072164
  9
$TDUPDATE
 40
2458275.448522836
  9
$TDUUPDATE
 40
2458275.073522836
  9
$TDINDWG
 40
0.0010237963
  9
$TDUSRTIMER
 40
0.0010237847
  9
$USRTIMER
 70
     1
  9
$ANGBASE
 50
0.0
  9
$ANGDIR
 70
     0
  9
$PDMODE
 70
     0
  9
$PDSIZE
 40
-1.0
  9
$PLINEWID
 40
0.0
  9
$SPLFRAME
 70
     0
  9
$SPLINETYPE
 70
     6
  9
$SPLINESEGS
 70
     8
  9
$HANDSEED
  5
15F
  9
$SURFTAB1
 70
     6
  9
$SURFTAB2
 70
     6
  9
$SURFTYPE
 70
     6
  9
$SURFU
 70
     6
  9
$SURFV
 70
     6
  9
$UCSBASE
  2

  9
$UCSNAME
  2

  9
$UCSORG
 10
0.0
 20
0.0
 30
0.0
  9
$UCSXDIR
 10
1.0
 20
0.0
 30
0.0
  9
$UCSYDIR
 10
0.0
 20
1.0
 30
0.0
  9
$UCSORTHOREF
  2

  9
$UCSORTHOVIEW
 70
     0
  9
$UCSORGTOP
 10
0.0
 20
0.0
 30
0.0
  9
$UCSORGBOTTOM
 10
0.0
 20
0.0
 30
0.0
  9
$UCSORGLEFT
 10
0.0
 20
0.0
 30
0.0
  9
$UCSORGRIGHT
 10
0.0
 20
0.0
 30
0.0
  9
$UCSORGFRONT
 10
0.0
 20
0.0
 30
0.0
  9
$UCSORGBACK
 10
0.0
 20
0.0
 30
0.0
  9
$PUCSBASE
  2

  9
$PUCSNAME
  2

  9
$PUCSORG
 10
0.0
 20
0.0
 30
0.0
  9
$PUCSXDIR
 10
1.0
 20
0.0
 30
0.0
  9
$PUCSYDIR
 10
0.0
 20
1.0
 30
0.0
  9
$PUCSORTHOREF
  2

  9
$PUCSORTHOVIEW
 70
     0
  9
$PUCSORGTOP
 10
0.0
 20
0.0
 30
0.0
  9
$PUCSORGBOTTOM
 10
0.0
 20
0.0
 30
0.0
  9
$PUCSORGLEFT
 10
0.0
 20
0.0
 30
0.0
  9
$PUCSORGRIGHT
 10
0.0
 20
0.0
 30
0.0
  9
$PUCSORGFRONT
 10
0.0
 20
0.0
 30
0.0
  9
$PUCSORGBACK
 10
0.0
 20
0.0
 30
0.0
  9
$USERI1
 70
     0
  9
$USERI2
 70
     0
  9
$USERI3
 70
     0
  9
$USERI4
 70
     0
  9
$USERI5
 70
     0
  9
$USERR1
 40
0.0
  9
$USERR2
 40
0.0
  9
$USERR3
 40
0.0
  9
$USERR4
 40
0.0
  9
$USERR5
 40
0.0
  9
$WORLDVIEW
 70
     1
  9
$SHADEDGE
 70
     3
  9
$SHADEDIF
 70
    70
  9
$TILEMODE
 70
     1
  9
$MAXACTVP
 70
    64
  9
$PINSBASE
 10
0.0
 20
0.0
 30
0.0
  9
$PLIMCHECK
 70
     0
  9
$PEXTMIN
 10
1.000000000000000E+20
 20
1.000000000000000E+20
 30
1.000000000000000E+20
  9
$PEXTMAX
 10
-1.000000000000000E+20
 20
-1.000000000000000E+20
 30
-1.000000000000000E+20
  9
$PLIMMIN
 10
0.0
 20
0.0
  9
$PLIMMAX
 10
0.0
 20
0.0
  9
$UNITMODE
 70
     0
  9
$VISRETAIN
 70
     1
  9
$PLINEGEN
 70
     0
  9
$PSLTSCALE
 70
     1
  9
$TREEDEPTH
 70
  3020
  9
$CMLSTYLE
  2
Standard
  9
$CMLJUST
 70
     0
  9
$CMLSCALE
 40
20.0
  9
$PROXYGRAPHICS
 70
     1
  9
$MEASUREMENT
 70
     1
  9
$CELWEIGHT
370
    -1
  9
$ENDCAPS
280
     0
  9
$JOINSTYLE
280
     0
  9
$LWDISPLAY
290
     1
  9
$INSUNITS
 70
     4
  9
$HYPERLINKBASE
  1

  9
$STYLESHEET
  1

  9
$XEDIT
290
     1
  9
$CEPSNTYPE
380
     0
  9
$PSTYLEMODE
290
     1
  9
$FINGERPRINTGUID
  2
{9EE23FF7-86F2-4642-95F0-037D1FD7DD96}
  9
$VERSIONGUID
  2
{FAEB1C32-E019-11D5-929B-00C0DF256EC4}
  9
$EXTNAMES
290
     1
  9
$PSVPSCALE
 40
0.0
  9
$OLESTARTUP
290
     0
  0
ENDSEC
  0
SECTION
  2
CLASSES
  0
CLASS
  1
ACDBDICTIONARYWDFLT
  2
AcDbDictionaryWithDefault
  3
ObjectDBX Classes
 90
        0
280
     0
281
     0
  0
CLASS
  1
VISUALSTYLE
  2
AcDbVisualStyle
  3
ObjectDBX Classes
 90
     4095
280
     0
281
     0
  0
CLASS
  1
MATERIAL
  2
AcDbMaterial
  3
ObjectDBX Classes
 90
     1153
280
     0
281
     0
  0
CLASS
  1
SCALE
  2
AcDbScale
  3
ObjectDBX Classes
 90
     1153
280
     0
281
     0
  0
CLASS
  1
SUN
  2
AcDbSun
  3
SCENEOE
 90
     1153
280
     0
281
     0
  0
CLASS
  1
ACDBPLACEHOLDER
  2
AcDbPlaceHolder
  3
ObjectDBX Classes
 90
        0
280
     0
281
     0
  0
CLASS
  1
LAYOUT
  2
AcDbLayout
  3
ObjectDBX Classes
 90
        0
280
     0
281
     0
  0
CLASS
  1
TABLESTYLE
  2
AcDbTableStyle
  3
ObjectDBX Classes
 90
     4095
280
     0
281
     0
  0
CLASS
  1
MLEADERSTYLE
  2
AcDbMLeaderStyle
  3
ACDB_MLEADERSTYLE_CLASS
 90
     4095
280
     0
281
     0
  0
CLASS
  1
DIMASSOC
  2
AcDbDimAssoc
  3
"AcDbDimAssoc|Product Desc:     AcDim ARX App For Dimension|Company:          Autodesk, Inc.|WEB Address:      www.autodesk.com"
 90
        0
280
     0
281
     0
  0
ENDSEC
  0
SECTION
  2
TABLES
  0
TABLE
  2
VPORT
  5
8
330
0
100
AcDbSymbolTable
 70
     1
  0
VPORT
  5
29
330
8
100
AcDbSymbolTableRecord
100
AcDbViewportTableRecord
  2
*Active
 70
     0
 10
0.0
 20
0.0
 11
1.0
 21
1.0
 12
-8.874992310409624
 22
-9.036911620903929
 13
0.0
 23
0.0
 14
10.0
 24
10.0
 15
10.0
 25
10.0
 16
0.0
 26
0.0
 36
1.0
 17
0.0
 27
0.0
 37
0.0
 40
83.50718736653195
 41
2.400311526479751
 42
50.0
 43
0.0
 44
0.0
 50
0.0
 51
0.0
 71
    16
 72
  2000
 73
     1
 74
     3
 75
     0
 76
     0
 77
     0
 78
     0
281
     0
 65
     1
110
0.0
120
0.0
130
0.0
111
1.0
121
0.0
131
0.0
112
0.0
122
1.0
132
0.0
 79
     0
146
0.0
  0
ENDTAB
  0
TABLE
  2
LTYPE
  5
5
330
0
100
AcDbSymbolTable
 70
     6
  0
LTYPE
  5
14
330
5
100
AcDbSymbolTableRecord
100
AcDbLinetypeTableRecord
  2
ByBlock
 70
     0
  3

 72
    65
 73
     0
 40
0.0
  0
LTYPE
  5
15
330
5
100
AcDbSymbolTableRecord
100
AcDbLinetypeTableRecord
  2
ByLayer
 70
     0
  3

 72
    65
 73
     0
 40
0.0
  0
LTYPE
  5
16
330
5
100
AcDbSymbolTableRecord
100
AcDbLinetypeTableRecord
  2
Continuous
 70
     0
  3
Solid line
 72
    65
 73
     0
 40
0.0
  0
LTYPE
  5
6A
330
5
100
AcDbSymbolTableRecord
100
AcDbLinetypeTableRecord
  2
HIDDEN
 70
     0
  3
Hidden __ __ __ __ __ __ __ __ __ __ __ __ __ __
 72
    65
 73
     2
 40
1.905
 49
1.27
 74
     0
 49
-0.635
 74
     0
  0
LTYPE
  5
6B
330
5
100
AcDbSymbolTableRecord
100
AcDbLinetypeTableRecord
  2
PHANTOM
 70
     0
  3
Phantom ______  __  __  ______  __  __  ______
 72
    65
 73
     6
 40
12.7
 49
6.35
 74
     0
 49
-1.27
 74
     0
 49
1.27
 74
     0
 49
-1.27
 74
     0
 49
1.27
 74
     0
 49
-1.27
 74
     0
  0
LTYPE
  5
6C
330
5
100
AcDbSymbolTableRecord
100
AcDbLinetypeTableRecord
  2
CENTER
 70
     0
  3
Center ____ _ ____ _ ____ _ ____ _ ____ _ ____
 72
    65
 73
     4
 40
10.16
 49
6.35
 74
     0
 49
-1.27
 74
     0
 49
1.27
 74
     0
 49
-1.27
 74
     0
  0
LTYPE
  5
6D
330
5
100
AcDbSymbolTableRecord
100
AcDbLinetypeTableRecord
  2
CENTERX2
 70
     0
  3
Center (2x) ________  __  ________  __  _____
 72
    65
 73
     4
 40
20.32
 49
12.7
 74
     0
 49
-2.54
 74
     0
 49
2.54
 74
     0
 49
-2.54
 74
     0
  0
LTYPE
  5
6E
330
5
100
AcDbSymbolTableRecord
100
AcDbLinetypeTableRecord
  2
DOT2
 70
     0
  3
Dot (.5x) ........................................
 72
    65
 73
     2
 40
0.635
 49
0.0
 74
     0
 49
-0.635
 74
     0
  0
ENDTAB
  0
TABLE
  2
LAYER
  5
2
330
0
100
AcDbSymbolTable
 70
    18
  0
LAYER
  5
10
330
2
100
AcDbSymbolTableRecord
100
AcDbLayerTableRecord
  2
0
 70
     0
 62
     7
  6
Continuous
370
    -3
390
F
  0
LAYER
  5
6F
330
2
100
AcDbSymbolTableRecord
100
AcDbLayerTableRecord
  2
FORMAT
 70
     0
 62
     2
  6
Continuous
370
    -3
390
F
  0
LAYER
  5
70
330
2
100
AcDbSymbolTableRecord
100
AcDbLayerTableRecord
  2
외형선
 70
     0
 62
     4
  6
Continuous
370
    30
390
F
  0
LAYER
  5
71
330
2
100
AcDbSymbolTableRecord
100
AcDbLayerTableRecord
  2
숨은선
 70
     0
 62
     2
  6
HIDDEN
370
    15
390
F
  0
LAYER
  5
72
330
2
100
AcDbSymbolTableRecord
100
AcDbLayerTableRecord
  2
중심선
 70
     0
 62
     1
  6
CENTERX2
370
    -3
390
F
  0
LAYER
  5
73
330
2
100
AcDbSymbolTableRecord
100
AcDbLayerTableRecord
  2
파단선
 70
     0
 62
     4
  6
Continuous
370
    -3
390
F
  0
LAYER
  5
74
330
2
100
AcDbSymbolTableRecord
100
AcDbLayerTableRecord
  2
해칭선
 70
     0
 62
   100
  6
Continuous
370
    -3
390
F
  0
LAYER
  5
75
330
2
100
AcDbSymbolTableRecord
100
AcDbLayerTableRecord
  2
가는실선
 70
     0
 62
     4
  6
Continuous
370
    -3
390
F
  0
LAYER
  5
76
330
2
100
AcDbSymbolTableRecord
100
AcDbLayerTableRecord
  2
치수_보조선
 70
     0
 62
     4
  6
Continuous
370
    -3
390
F
  0
LAYER
  5
77
330
2
100
AcDbSymbolTableRecord
100
AcDbLayerTableRecord
  2
치수문자_일반주서
 70
     0
 62
     7
  6
Continuous
370
    15
390
F
  0
LAYER
  5
78
330
2
100
AcDbSymbolTableRecord
100
AcDbLayerTableRecord
  2
개별주서
 70
     0
 62
   100
  6
Continuous
370
    30
390
F
  0
LAYER
  5
79
330
2
100
AcDbSymbolTableRecord
100
AcDbLayerTableRecord
  2
중간선
 70
     0
 62
     2
  6
Continuous
370
    15
390
F
  0
LAYER
  5
7A
330
2
100
AcDbSymbolTableRecord
100
AcDbLayerTableRecord
  2
윤곽선
 70
     0
 62
     3
  6
Continuous
370
    40
390
F
  0
LAYER
  5
7B
330
2
100
AcDbSymbolTableRecord
100
AcDbLayerTableRecord
  2
중심마크
 70
     0
 62
   100
  6
Continuous
370
    30
390
F
  0
LAYER
  5
7C
330
2
100
AcDbSymbolTableRecord
100
AcDbLayerTableRecord
  2
가상선
 70
     0
 62
     4
  6
PHANTOM
370
    -3
390
F
  0
LAYER
  5
7D
330
2
100
AcDbSymbolTableRecord
100
AcDbLayerTableRecord
  2
특수지정선
 70
     0
 62
     5
  6
CENTERX2
370
    60
390
F
  0
LAYER
  5
7E
330
2
100
AcDbSymbolTableRecord
100
AcDbLayerTableRecord
  2
참조1
 70
     0
 62
    -4
  6
Continuous
370
    -3
390
F
  0
LAYER
  5
13D
330
2
100
AcDbSymbolTableRecord
100
AcDbLayerTableRecord
  2
Defpoints
 70
     0
 62
     7
  6
Continuous
290
     0
370
    -3
390
F
  0
ENDTAB
  0
TABLE
  2
STYLE
  5
3
330
0
100
AcDbSymbolTable
 70
     2
  0
STYLE
  5
11
330
3
100
AcDbSymbolTableRecord
100
AcDbTextStyleTableRecord
  2
Standard
 70
     0
 40
0.0
 41
1.0
 50
0.0
 71
     0
 42
3.5
  3
txt
  4

  0
STYLE
  5
94
330
3
100
AcDbSymbolTableRecord
100
AcDbTextStyleTableRecord
  2
SLDTEXTSTYLE0
 70
     0
 40
0.0
 41
0.75
 50
0.0
 71
     0
 42
3.5
  3
TXT
  4

  0
ENDTAB
  0
TABLE
  2
VIEW
  5
6
330
0
100
AcDbSymbolTable
 70
     0
  0
ENDTAB
  0
TABLE
  2
UCS
  5
7
330
0
100
AcDbSymbolTable
 70
     0
  0
ENDTAB
  0
TABLE
  2
APPID
  5
9
330
0
100
AcDbSymbolTable
 70
     5
  0
APPID
  5
12
330
9
100
AcDbSymbolTableRecord
100
AcDbRegAppTableRecord
  2
ACAD
 70
     0
  0
APPID
  5
14A
330
9
100
AcDbSymbolTableRecord
100
AcDbRegAppTableRecord
  2
PE_URL
 70
     0
  0
APPID
  5
14E
330
9
100
AcDbSymbolTableRecord
100
AcDbRegAppTableRecord
  2
ACAD_DSTYLE_DIMRADIAL_EXTENSION
 70
     0
  0
APPID
  5
15D
330
9
100
AcDbSymbolTableRecord
100
AcDbRegAppTableRecord
  2
ACAD_DSTYLE_DIMFLIPARROW_SYMBOL
 70
     0
  0
APPID
  5
15E
330
9
100
AcDbSymbolTableRecord
100
AcDbRegAppTableRecord
  2
ACAD_DSTYLE_DIMFLIPARROW_WHICH_SYMBOL
 70
     0
  0
ENDTAB
  0
TABLE
  2
DIMSTYLE
  5
A
330
0
100
AcDbSymbolTable
 70
     3
100
AcDbDimStyleTable
  0
DIMSTYLE
105
27
102
{ACAD_REACTORS
330
14F
102
}
330
A
100
AcDbSymbolTableRecord
100
AcDbDimStyleTableRecord
  2
ISO-25
 70
     0
 41
2.5
 42
0.625
 43
3.75
 44
1.25
 73
     0
 74
     0
 77
     1
 78
     8
140
2.5
141
2.5
143
0.03937007874016
147
0.625
171
     3
172
     1
178
     0
271
     2
272
     2
274
     3
278
    44
283
     0
284
     8
340
11
  0
DIMSTYLE
105
D2
330
A
100
AcDbSymbolTableRecord
100
AcDbDimStyleTableRecord
  2
SLDDIMSTYLE0
 70
     0
 41
3.302
 44
0.0
 45
0.000000001
 73
     0
 74
     0
 77
     1
 78
    12
 79
     3
140
3.5
147
0.875
173
     1
178
     0
271
     2
272
     2
276
     2
284
    12
340
94
  0
DIMSTYLE
105
DF
102
{ACAD_REACTORS
330
DE
330
EC
330
D1
330
F6
330
100
102
}
330
A
100
AcDbSymbolTableRecord
100
AcDbDimStyleTableRecord
  2
SLDDIMSTYLE1
 70
     0
 41
3.302
 44
0.0
 45
0.000000001
 73
     0
 74
     0
 77
     1
 78
    12
 79
     3
140
3.5
147
0.875
172
     1
173
     1
178
     0
271
     2
272
     2
276
     2
284
    12
289
     0
340
94
  0
ENDTAB
  0
TABLE
  2
BLOCK_RECORD
  5
1
330
0
100
AcDbSymbolTable
 70
     9
  0
BLOCK_RECORD
  5
1F
330
1
100
AcDbSymbolTableRecord
100
AcDbBlockTableRecord
  2
*Model_Space
340
22
  0
BLOCK_RECORD
  5
1B
330
1
100
AcDbSymbolTableRecord
100
AcDbBlockTableRecord
  2
*Paper_Space
340
1E
  0
BLOCK_RECORD
  5
23
330
1
100
AcDbSymbolTableRecord
100
AcDbBlockTableRecord
  2
*Paper_Space0
340
26
  0
BLOCK_RECORD
  5
7F
330
1
100
AcDbSymbolTableRecord
100
AcDbBlockTableRecord
  2
블럭10
340
0
102
{BLKREFS
331
CA
102
}
  0
BLOCK_RECORD
  5
D3
330
1
100
AcDbSymbolTableRecord
100
AcDbBlockTableRecord
  2
_D
340
0
  0
BLOCK_RECORD
  5
E0
330
1
100
AcDbSymbolTableRecord
100
AcDbBlockTableRecord
  2
_D_1
340
0
  0
BLOCK_RECORD
  5
ED
330
1
100
AcDbSymbolTableRecord
100
AcDbBlockTableRecord
  2
_D_2
340
0
  0
BLOCK_RECORD
  5
F7
330
1
100
AcDbSymbolTableRecord
100
AcDbBlockTableRecord
  2
_D_3
340
0
  0
BLOCK_RECORD
  5
101
330
1
100
AcDbSymbolTableRecord
100
AcDbBlockTableRecord
  2
_D_4
340
0
  0
BLOCK_RECORD
  5
111
330
1
100
AcDbSymbolTableRecord
100
AcDbBlockTableRecord
  2
SW_DOWELSYMBOL_0
340
0
102
{BLKREFS
331
117
102
}
  0
BLOCK_RECORD
  5
152
330
1
100
AcDbSymbolTableRecord
100
AcDbBlockTableRecord
  2
*D8
340
0
  0
ENDTAB
  0
ENDSEC
  0
SECTION
  2
BLOCKS
  0
BLOCK
  5
20
330
1F
100
AcDbEntity
  8
0
100
AcDbBlockBegin
  2
*Model_Space
 70
     0
 10
0.0
 20
0.0
 30
0.0
  3
*Model_Space
  1

  0
ENDBLK
  5
21
330
1F
100
AcDbEntity
  8
0
100
AcDbBlockEnd
  0
BLOCK
  5
1C
330
1B
100
AcDbEntity
 67
     1
  8
0
100
AcDbBlockBegin
  2
*Paper_Space
 70
     0
 10
0.0
 20
0.0
 30
0.0
  3
*Paper_Space
  1

  0
ENDBLK
  5
1D
330
1B
100
AcDbEntity
 67
     1
  8
0
100
AcDbBlockEnd
  0
BLOCK
  5
24
330
23
100
AcDbEntity
  8
0
100
AcDbBlockBegin
  2
*Paper_Space0
 70
     0
 10
0.0
 20
0.0
 30
0.0
  3
*Paper_Space0
  1

  0
ENDBLK
  5
25
330
23
100
AcDbEntity
  8
0
100
AcDbBlockEnd
  0
BLOCK
  5
80
330
7F
100
AcDbEntity
  8
0
100
AcDbBlockBegin
  2
블럭10
 70
     2
 10
0.0
 20
0.0
 30
0.0
  3
블럭10
  1

  0
ELLIPSE
  5
82
330
7F
100
AcDbEntity
  8
중심선
100
AcDbEllipse
 10
20.54032771741204
 20
12.0471743016438
 30
0.0
 11
6.600054785286829
 21
-1.261213355974178E-13
 31
0.0
210
0.0
220
0.0
230
1.0
 40
0.636358354079598
 41
0.9219305317359503
 42
6.513795318482858
  0
ELLIPSE
  5
83
330
7F
100
AcDbEntity
  8
중심선
100
AcDbEllipse
 10
20.54032771746488
 20
12.04717430159265
 30
0.0
 11
3.960054785062283
 21
1.540847449632565E-10
 31
0.0
210
0.0
220
0.0
230
1.0
 40
0.3939339440162632
 41
1.131841032648279
 42
5.62031148352944
  0
LINE
  5
84
330
7F
100
AcDbEntity
  8
중심선
100
AcDbLine
 10
2.268634060543552
 20
16.24717430164393
 30
0.0
 11
5.714909304380834
 21
16.24717430164393
 31
0.0
  0
LINE
  5
85
330
7F
100
AcDbEntity
  8
중심선
100
AcDbLine
 10
5.245725140726316
 20
7.84717430164391
 30
0.0
 11
8.692000384563599
 21
7.84717430164391
 31
0.0
  0
LINE
  5
86
330
7F
100
AcDbEntity
  8
중심선
100
AcDbLine
 10
15.74043728645272
 20
16.24717430164393
 30
0.0
 11
8.692000384563599
 21
7.84717430164391
 31
0.0
  0
LINE
  5
87
330
7F
100
AcDbEntity
  8
중심선
100
AcDbLine
 10
0.1404042013395286
 20
13.71084872107135
 30
0.0
 11
3.58671253028996
 21
13.71088815037384
 31
0.0
  0
LINE
  5
88
330
7F
100
AcDbEntity
  8
중심선
100
AcDbLine
 10
2.750260043222114
 20
10.84717430164391
 30
0.0
 11
6.196535287059397
 21
10.84717430164391
 31
0.0
  0
LINE
  5
89
330
7F
100
AcDbEntity
  8
중심선
100
AcDbLine
 10
12.29416204261559
 20
16.24717430164393
 30
0.0
 11
5.245725140726316
 21
7.84717430164391
 31
0.0
  0
LINE
  5
8A
330
7F
100
AcDbEntity
  8
중심선
100
AcDbLine
 10
10.72767329541681
 20
16.24717430164393
 30
0.0
 11
6.196535287059397
 21
10.84717430164391
 31
0.0
  0
LINE
  5
8B
330
7F
100
AcDbEntity
  8
중심선
100
AcDbLine
 10
7.28139805157953
 20
16.24717430164393
 30
0.0
 11
2.750260043222114
 21
10.84717430164391
 31
0.0
  0
LINE
  5
8C
330
7F
100
AcDbEntity
  8
중심선
100
AcDbLine
 10
5.714909304380834
 20
16.24717430164393
 30
0.0
 11
3.58671253028996
 21
13.71088815037384
 31
0.0
  0
LINE
  5
8D
330
7F
100
AcDbEntity
  8
중심선
100
AcDbLine
 10
2.268634060543552
 20
16.24717430164393
 30
0.0
 11
0.1404042013395286
 21
13.71084872107135
 31
0.0
  0
LINE
  5
8E
330
7F
100
AcDbEntity
  8
중심선
100
AcDbLine
 10
7.28139805157953
 20
16.24717430164393
 30
0.0
 11
10.72767329541681
 21
16.24717430164393
 31
0.0
  0
LINE
  5
8F
330
7F
100
AcDbEntity
  8
중심선
100
AcDbLine
 10
12.29416204261559
 20
16.24717430164393
 30
0.0
 11
15.74043728645272
 21
16.24717430164393
 31
0.0
  0
LINE
  5
90
330
7F
100
AcDbEntity
  8
중심선
100
AcDbLine
 10
19.22036997980202
 20
11.08717430171403
 30
0.0
 11
23.66174974927406
 21
11.08717430171406
 31
0.0
  0
LINE
  5
91
330
7F
100
AcDbEntity
  8
중심선
100
AcDbLine
 10
19.22039502424796
 20
13.00717430171391
 30
0.0
 11
19.22036997980202
 21
11.08717430171403
 31
0.0
  0
LINE
  5
92
330
7F
100
AcDbEntity
  8
중심선
100
AcDbLine
 10
19.22039502424796
 20
13.00717430171391
 30
0.0
 11
26.96566020931264
 21
13.00717430171391
 31
0.0
  0
LINE
  5
93
330
7F
100
AcDbEntity
  8
중심선
100
AcDbLine
 10
22.22332737316547
 20
13.45928029700563
 30
0.0
 11
24.52862924686651
 21
15.39360700705356
 31
0.0
  0
ATTDEF
  5
95
330
7F
100
AcDbEntity
  8
FORMAT
 62
     2
100
AcDbText
 10
-7.268459303319146
 20
2.075366912832191
 30
0.0
 40
4.233333333333333
  1
SEME6408010100E
 41
0.75
  7
SLDTEXTSTYLE0
 11
-7.268459303319146
 21
-0.0412997538344756
 31
0.0
100
AcDbAttributeDefinition
  3

  2
AUTOATTR0
 70
     0
 74
     1
  0
ENDBLK
  5
81
330
7F
100
AcDbEntity
  8
0
100
AcDbBlockEnd
  0
BLOCK
  5
D4
330
D3
100
AcDbEntity
  8
0
100
AcDbBlockBegin
  2
_D
 70
     0
 10
0.0
 20
0.0
 30
0.0
  3
_D
  1

  0
LINE
  5
D6
330
D3
100
AcDbEntity
  8
치수문자_일반주서
 62
     0
370
    -2
100
AcDbLine
 10
27.3622965637886
 20
4.000000000000003
 30
0.0
 11
58.1863635077657
 21
4.000000000000117
 31
0.0
  0
LINE
  5
D7
330
D3
100
AcDbEntity
  8
치수문자_일반주서
 62
     0
370
    -2
100
AcDbLine
 10
27.3622965637886
 20
-3.999999999999993
 30
0.0
 11
58.18636350776573
 21
-3.999999999999881
 31
0.0
  0
LINE
  5
D8
330
D3
100
AcDbEntity
  8
치수문자_일반주서
 62
     0
370
    -2
100
AcDbLine
 10
58.1863635077657
 20
4.000000000000117
 30
0.0
 11
58.18636350776565
 21
16.72900000000012
 31
0.0
  0
LINE
  5
D9
330
D3
100
AcDbEntity
  8
치수문자_일반주서
 62
     0
370
    -2
100
AcDbLine
 10
58.1863635077657
 20
4.000000000000117
 30
0.0
 11
58.18636350776573
 21
-3.999999999999881
 31
0.0
  0
LINE
  5
DA
330
D3
100
AcDbEntity
  8
치수문자_일반주서
 62
     0
370
    -2
100
AcDbLine
 10
58.18636350776568
 20
7.302000000000117
 30
0.0
 11
58.18636350776567
 21
10.60400000000012
 31
0.0
  0
LINE
  5
DB
330
D3
100
AcDbEntity
  8
치수문자_일반주서
 62
     0
370
    -2
100
AcDbLine
 10
58.18636350776574
 20
-7.301999999999881
 30
0.0
 11
58.18636350776575
 21
-10.60399999999988
 31
0.0
  0
SOLID
  5
DC
330
D3
100
AcDbEntity
  8
치수문자_일반주서
 62
     0
100
AcDbTrace
 10
57.63603017443235
 20
7.302000000000115
 30
0.0
 11
58.73669684109902
 21
7.302000000000119
 31
0.0
 12
58.1863635077657
 22
4.000000000000117
 32
0.0
 13
58.1863635077657
 23
4.000000000000117
 33
0.0
  0
SOLID
  5
DD
330
D3
100
AcDbEntity
  8
치수문자_일반주서
 62
     0
100
AcDbTrace
 10
58.73669684109908
 20
-7.301999999999879
 30
0.0
 11
57.63603017443241
 21
-7.301999999999882
 31
0.0
 12
58.18636350776573
 22
-3.999999999999881
 32
0.0
 13
58.18636350776573
 23
-3.999999999999881
 33
0.0
  0
MTEXT
  5
13E
330
D3
100
AcDbEntity
  8
치수문자_일반주서
 62
     0
100
AcDbMText
 10
53.81136350776566
 20
13.6665000000001
 30
0.0
 40
3.5
 41
0.0
 71
     2
 72
     1
  1
\A1;%%c8
  7
SLDTEXTSTYLE0
 11
-3.552713678800503E-15
 21
1.0
 31
0.0
 73
     1
 44
1.0
  0
POINT
  5
13F
330
D3
100
AcDbEntity
  8
Defpoints
 62
     0
100
AcDbPoint
 10
27.2997965637886
 20
4.000000000000003
 30
0.0
  0
POINT
  5
140
330
D3
100
AcDbEntity
  8
Defpoints
 62
     0
100
AcDbPoint
 10
27.2997965637886
 20
-3.999999999999994
 30
0.0
  0
POINT
  5
14B
330
D3
100
AcDbEntity
  8
Defpoints
 62
     0
100
AcDbPoint
 10
58.18636350776573
 20
-3.999999999999878
 30
0.0
  0
ENDBLK
  5
D5
330
D3
100
AcDbEntity
  8
0
100
AcDbBlockEnd
  0
BLOCK
  5
E1
330
E0
100
AcDbEntity
  8
0
100
AcDbBlockBegin
  2
_D_1
 70
     0
 10
0.0
 20
0.0
 30
0.0
  3
_D_1
  1

  0
LINE
  5
E3
330
E0
100
AcDbEntity
  8
치수문자_일반주서
 62
     0
370
    -2
100
AcDbLine
 10
-64.11250000000001
 20
4.000000000000004
 30
0.0
 11
-74.03846843616483
 21
3.999999999999966
 31
0.0
  0
LINE
  5
E4
330
E0
100
AcDbEntity
  8
치수문자_일반주서
 62
     0
370
    -2
100
AcDbLine
 10
-64.11250000000001
 20
-4.000000000000004
 30
0.0
 11
-74.0384684361648
 21
-4.000000000000041
 31
0.0
  0
LINE
  5
E5
330
E0
100
AcDbEntity
  8
치수문자_일반주서
 62
     0
370
    -2
100
AcDbLine
 10
-74.03846843616483
 20
3.999999999999966
 30
0.0
 11
-74.0384684361648
 21
-4.000000000000041
 31
0.0
  0
LINE
  5
E6
330
E0
100
AcDbEntity
  8
치수문자_일반주서
 62
     0
370
    -2
100
AcDbLine
 10
-74.03846843616485
 20
7.301999999999966
 30
0.0
 11
-74.03846843616486
 21
10.60399999999997
 31
0.0
  0
LINE
  5
E7
330
E0
100
AcDbEntity
  8
치수문자_일반주서
 62
     0
370
    -2
100
AcDbLine
 10
-74.03846843616479
 20
-7.30200000000004
 30
0.0
 11
-74.03846843616478
 21
-10.60400000000004
 31
0.0
  0
SOLID
  5
E8
330
E0
100
AcDbEntity
  8
치수문자_일반주서
 62
     0
100
AcDbTrace
 10
-74.58880176949818
 20
7.301999999999964
 30
0.0
 11
-73.48813510283152
 21
7.301999999999968
 31
0.0
 12
-74.03846843616483
 22
3.999999999999966
 32
0.0
 13
-74.03846843616483
 23
3.999999999999966
 33
0.0
  0
SOLID
  5
E9
330
E0
100
AcDbEntity
  8
치수문자_일반주서
 62
     0
100
AcDbTrace
 10
-73.48813510283146
 20
-7.302000000000039
 30
0.0
 11
-74.58880176949812
 21
-7.302000000000042
 31
0.0
 12
-74.0384684361648
 22
-4.000000000000041
 32
0.0
 13
-74.0384684361648
 23
-4.000000000000041
 33
0.0
  0
MTEXT
  5
EA
330
E0
100
AcDbEntity
  8
치수문자_일반주서
 62
     0
100
AcDbMText
 10
-78.41346843616482
 20
-0.0000000000000126
 30
0.0
 40
3.5
 41
0.0
 71
     2
 72
     1
  1
\A1;%%c8
  7
SLDTEXTSTYLE0
 11
-3.552713678800498E-15
 21
1.0
 31
0.0
 73
     1
 44
1.0
  0
POINT
  5
EB
330
E0
100
AcDbEntity
  8
Defpoints
 62
     0
100
AcDbPoint
 10
-64.05000000000001
 20
4.000000000000004
 30
0.0
  0
POINT
  5
14C
330
E0
100
AcDbEntity
  8
Defpoints
 62
     0
100
AcDbPoint
 10
-64.05000000000001
 20
-4.000000000000004
 30
0.0
  0
POINT
  5
14D
330
E0
100
AcDbEntity
  8
Defpoints
 62
     0
100
AcDbPoint
 10
-74.0384684361648
 20
-4.000000000000041
 30
0.0
  0
ENDBLK
  5
E2
330
E0
100
AcDbEntity
  8
0
100
AcDbBlockEnd
  0
BLOCK
  5
EE
330
ED
100
AcDbEntity
  8
0
100
AcDbBlockBegin
  2
_D_2
 70
     0
 10
0.0
 20
0.0
 30
0.0
  3
_D_2
  1

  0
LINE
  5
F0
330
ED
100
AcDbEntity
  8
치수문자_일반주서
 62
     0
370
    -2
100
AcDbLine
 10
35.15000000000003
 20
3.041948081799007
 30
0.0
 11
35.15000000000003
 21
13.11548684584201
 31
0.0
  0
LINE
  5
F1
330
ED
100
AcDbEntity
  8
치수문자_일반주서
 62
     0
370
    -2
100
AcDbLine
 10
15.15000000000001
 20
3.995769360369865
 30
0.0
 11
15.15000000000001
 21
13.11548684584201
 31
0.0
  0
LINE
  5
F2
330
ED
100
AcDbEntity
  8
치수문자_일반주서
 62
     0
370
    -2
100
AcDbLine
 10
31.84800000000003
 20
13.11548684584201
 30
0.0
 11
18.45200000000001
 21
13.11548684584201
 31
0.0
  0
SOLID
  5
F3
330
ED
100
AcDbEntity
  8
치수문자_일반주서
 62
     0
100
AcDbTrace
 10
31.84800000000003
 20
12.56515351250868
 30
0.0
 11
31.84800000000003
 21
13.66582017917534
 31
0.0
 12
35.15000000000003
 22
13.11548684584201
 32
0.0
 13
35.15000000000003
 23
13.11548684584201
 33
0.0
  0
SOLID
  5
F4
330
ED
100
AcDbEntity
  8
치수문자_일반주서
 62
     0
100
AcDbTrace
 10
18.45200000000001
 20
13.66582017917534
 30
0.0
 11
18.45200000000001
 21
12.56515351250868
 31
0.0
 12
15.15000000000001
 22
13.11548684584201
 32
0.0
 13
15.15000000000001
 23
13.11548684584201
 33
0.0
  0
MTEXT
  5
F5
330
ED
100
AcDbEntity
  8
치수문자_일반주서
 62
     0
100
AcDbMText
 10
25.15000000000002
 20
17.49048684584201
 30
0.0
 40
3.5
 41
0.0
 71
     2
 72
     1
  1
\A1;20
  7
SLDTEXTSTYLE0
 73
     1
 44
1.0
  0
POINT
  5
141
330
ED
100
AcDbEntity
  8
Defpoints
 62
     0
100
AcDbPoint
 10
35.15000000000003
 20
2.979448081799007
 30
0.0
  0
POINT
  5
142
330
ED
100
AcDbEntity
  8
Defpoints
 62
     0
100
AcDbPoint
 10
15.15000000000001
 20
3.933269360369865
 30
0.0
  0
POINT
  5
143
330
ED
100
AcDbEntity
  8
Defpoints
 62
     0
100
AcDbPoint
 10
15.15000000000001
 20
13.11548684584201
 30
0.0
  0
ENDBLK
  5
EF
330
ED
100
AcDbEntity
  8
0
100
AcDbBlockEnd
  0
BLOCK
  5
F8
330
F7
100
AcDbEntity
  8
0
100
AcDbBlockBegin
  2
_D_3
 70
     0
 10
0.0
 20
0.0
 30
0.0
  3
_D_3
  1

  0
LINE
  5
FA
330
F7
100
AcDbEntity
  8
치수문자_일반주서
 62
     0
370
    -2
100
AcDbLine
 10
35.15000000000003
 20
3.041948081799007
 30
0.0
 11
35.15000000000002
 21
19.11548684584199
 31
0.0
  0
LINE
  5
FB
330
F7
100
AcDbEntity
  8
치수문자_일반주서
 62
     0
370
    -2
100
AcDbLine
 10
0.149999999999995
 20
3.912500000000001
 30
0.0
 11
0.1499999999999879
 21
19.11548684584199
 31
0.0
  0
LINE
  5
FC
330
F7
100
AcDbEntity
  8
치수문자_일반주서
 62
     0
370
    -2
100
AcDbLine
 10
31.84800000000002
 20
19.11548684584199
 30
0.0
 11
3.451999999999988
 21
19.11548684584199
 31
0.0
  0
SOLID
  5
FD
330
F7
100
AcDbEntity
  8
치수문자_일반주서
 62
     0
100
AcDbTrace
 10
31.84800000000002
 20
18.56515351250865
 30
0.0
 11
31.84800000000002
 21
19.66582017917532
 31
0.0
 12
35.15000000000002
 22
19.11548684584199
 32
0.0
 13
35.15000000000002
 23
19.11548684584199
 33
0.0
  0
SOLID
  5
FE
330
F7
100
AcDbEntity
  8
치수문자_일반주서
 62
     0
100
AcDbTrace
 10
3.451999999999988
 20
19.66582017917532
 30
0.0
 11
3.451999999999988
 21
18.56515351250865
 31
0.0
 12
0.1499999999999879
 22
19.11548684584199
 32
0.0
 13
0.1499999999999879
 23
19.11548684584199
 33
0.0
  0
MTEXT
  5
FF
330
F7
100
AcDbEntity
  8
치수문자_일반주서
 62
     0
100
AcDbMText
 10
17.65000000000001
 20
23.49048684584199
 30
0.0
 40
3.5
 41
0.0
 71
     2
 72
     1
  1
\A1;35
  7
SLDTEXTSTYLE0
 73
     1
 44
1.0
  0
POINT
  5
144
330
F7
100
AcDbEntity
  8
Defpoints
 62
     0
100
AcDbPoint
 10
35.15000000000003
 20
2.979448081799007
 30
0.0
  0
POINT
  5
145
330
F7
100
AcDbEntity
  8
Defpoints
 62
     0
100
AcDbPoint
 10
0.149999999999995
 20
3.850000000000001
 30
0.0
  0
POINT
  5
146
330
F7
100
AcDbEntity
  8
Defpoints
 62
     0
100
AcDbPoint
 10
0.149999999999995
 20
19.11548684584199
 30
0.0
  0
ENDBLK
  5
F9
330
F7
100
AcDbEntity
  8
0
100
AcDbBlockEnd
  0
BLOCK
  5
102
330
101
100
AcDbEntity
  8
0
100
AcDbBlockBegin
  2
_D_4
 70
     0
 10
0.0
 20
0.0
 30
0.0
  3
_D_4
  1

  0
LINE
  5
104
330
101
100
AcDbEntity
  8
치수문자_일반주서
 62
     0
370
    -2
100
AcDbLine
 10
35.15000000000003
 20
3.041948081799007
 30
0.0
 11
35.15000000000002
 21
27.5229841470039
 31
0.0
  0
LINE
  5
105
330
101
100
AcDbEntity
  8
치수문자_일반주서
 62
     0
370
    -2
100
AcDbLine
 10
-64.85000000000001
 20
3.262500000000008
 30
0.0
 11
-64.85000000000001
 21
27.5229841470039
 31
0.0
  0
LINE
  5
106
330
101
100
AcDbEntity
  8
치수문자_일반주서
 62
     0
370
    -2
100
AcDbLine
 10
31.84800000000002
 20
27.5229841470039
 30
0.0
 11
-61.54800000000001
 21
27.5229841470039
 31
0.0
  0
SOLID
  5
107
330
101
100
AcDbEntity
  8
치수문자_일반주서
 62
     0
100
AcDbTrace
 10
31.84800000000002
 20
26.97265081367057
 30
0.0
 11
31.84800000000002
 21
28.07331748033723
 31
0.0
 12
35.15000000000002
 22
27.5229841470039
 32
0.0
 13
35.15000000000002
 23
27.5229841470039
 33
0.0
  0
SOLID
  5
108
330
101
100
AcDbEntity
  8
치수문자_일반주서
 62
     0
100
AcDbTrace
 10
-61.54800000000001
 20
28.07331748033723
 30
0.0
 11
-61.54800000000001
 21
26.97265081367057
 31
0.0
 12
-64.85000000000001
 22
27.5229841470039
 32
0.0
 13
-64.85000000000001
 23
27.5229841470039
 33
0.0
  0
MTEXT
  5
109
330
101
100
AcDbEntity
  8
치수문자_일반주서
 62
     0
100
AcDbMText
 10
-14.84999999999999
 20
31.8979841470039
 30
0.0
 40
3.5
 41
0.0
 71
     2
 72
     1
  1
\A1;100
  7
SLDTEXTSTYLE0
 73
     1
 44
1.0
  0
POINT
  5
147
330
101
100
AcDbEntity
  8
Defpoints
 62
     0
100
AcDbPoint
 10
35.15000000000003
 20
2.979448081799007
 30
0.0
  0
POINT
  5
148
330
101
100
AcDbEntity
  8
Defpoints
 62
     0
100
AcDbPoint
 10
-64.85000000000001
 20
3.200000000000008
 30
0.0
  0
POINT
  5
149
330
101
100
AcDbEntity
  8
Defpoints
 62
     0
100
AcDbPoint
 10
-64.85000000000001
 20
27.5229841470039
 30
0.0
  0
ENDBLK
  5
103
330
101
100
AcDbEntity
  8
0
100
AcDbBlockEnd
  0
BLOCK
  5
112
330
111
100
AcDbEntity
  8
0
100
AcDbBlockBegin
  2
SW_DOWELSYMBOL_0
 70
     0
 10
0.0
 20
0.0
 30
0.0
  3
SW_DOWELSYMBOL_0
  1

  0
CIRCLE
  5
114
330
111
100
AcDbEntity
  8
해칭선
 62
     0
100
AcDbCircle
 10
0.0
 20
0.0
 30
0.0
 40
3.000000000000001
  0
HATCH
  5
115
330
111
100
AcDbEntity
  8
0
  6
Continuous
 62
     0
370
     0
100
AcDbHatch
 10
0.0
 20
0.0
 30
0.0
210
0.0
220
0.0
230
1.0
  2
SOLID
 70
     1
 71
     0
 91
        1
 92
        0
 93
        3
 72
     2
 10
0.0
 20
0.0
 40
3.000000000000001
 50
0.0
 51
90.0
 73
     1
 72
     1
 10
0.0
 20
3.000000000000001
 11
0.0
 21
0.0
 72
     1
 10
0.0
 20
0.0
 11
3.000000000000003
 21
0.0
 97
        0
 75
     0
 76
     1
 98
        1
 10
0.0
 20
0.0
  0
HATCH
  5
116
330
111
100
AcDbEntity
  8
0
  6
Continuous
 62
     0
370
     0
100
AcDbHatch
 10
0.0
 20
0.0
 30
0.0
210
0.0
220
0.0
230
1.0
  2
SOLID
 70
     1
 71
     0
 91
        1
 92
        0
 93
        3
 72
     2
 10
0.0
 20
0.0
 40
3.000000000000001
 50
180.0
 51
270.0000000000008
 73
     1
 72
     1
 10
0.0
 20
-3.000000000000001
 11
0.0
 21
0.0
 72
     1
 10
0.0
 20
0.0
 11
-3.000000000000003
 21
0.0
 97
        0
 75
     0
 76
     1
 98
        1
 10
0.0
 20
0.0
  0
ENDBLK
  5
113
330
111
100
AcDbEntity
  8
0
100
AcDbBlockEnd
  0
BLOCK
  5
153
330
152
100
AcDbEntity
  8
0
100
AcDbBlockBegin
  2
*D8
 70
     1
 10
0.0
 20
0.0
 30
0.0
  3
*D8
  1

  0
LINE
  5
155
330
152
100
AcDbEntity
  8
0
 62
     0
370
    -2
100
AcDbLine
 10
54.70706601791456
 20
-10.9895999016737
 30
0.0
 11
40.93306601791456
 21
-10.9895999016737
 31
0.0
  0
LINE
  5
156
330
152
100
AcDbEntity
  8
0
 62
     0
370
    -2
100
AcDbLine
 10
40.93306601791456
 20
-10.9895999016737
 30
0.0
 11
36.93009613990802
 21
-6.262475564606415
 31
0.0
  0
MTEXT
  5
157
330
152
100
AcDbEntity
  8
0
 62
     0
100
AcDbMText
 10
48.58206601791456
 20
-7.423933235007035
 30
0.0
 40
3.5
 41
0.0
 71
     5
 72
     1
  1
R1,00
 73
     1
 44
1.0
  0
LINE
  5
158
330
152
100
AcDbEntity
  8
0
 62
     0
370
    -2
100
AcDbLine
 10
34.15000000000006
 20
-2.979448081798991
 30
0.0
 11
34.79623341234501
 21
-3.74258789649156
 31
0.0
  0
SOLID
  5
159
330
152
100
AcDbEntity
  8
0
 62
     0
100
AcDbTrace
 10
37.35007741792717
 20
-5.906831776679246
 30
0.0
 11
36.51011486188888
 21
-6.618119352533585
 31
0.0
 12
34.79623341234501
 22
-3.74258789649156
 32
0.0
 13
34.79623341234501
 23
-3.74258789649156
 33
0.0
  0
POINT
  5
15A
330
152
100
AcDbEntity
  8
Defpoints
 62
     0
100
AcDbPoint
 10
34.79623341234501
 20
-3.74258789649156
 30
0.0
  0
POINT
  5
15B
330
152
100
AcDbEntity
  8
Defpoints
 62
     0
100
AcDbPoint
 10
34.15000000000006
 20
-2.979448081798991
 30
0.0
  0
ENDBLK
  5
154
330
152
100
AcDbEntity
  8
0
100
AcDbBlockEnd
  0
ENDSEC
  0
SECTION
  2
ENTITIES
  0
LINE
  5
96
330
1F
100
AcDbEntity
  8
외형선
  6
Continuous
 62
     1
370
    15
100
AcDbLine
 10
24.86109448064323
 20
-3.999999999999994
 30
0.0
 11
27.30117401060753
 21
-3.999999999999994
 31
0.0
  0
LINE
  5
97
330
1F
100
AcDbEntity
  8
외형선
  6
Continuous
 62
     1
370
    15
100
AcDbLine
 10
16.41805884725907
 20
4.000000000000002
 30
0.0
 11
15.15000000000001
 21
4.000000000000001
 31
0.0
  0
LINE
  5
98
330
1F
100
AcDbEntity
  8
외형선
  6
Continuous
 62
     1
370
    15
100
AcDbLine
 10
27.30117401060754
 20
4.000000000000003
 30
0.0
 11
24.86109448064327
 21
4.000000000000003
 31
0.0
  0
LINE
  5
99
330
1F
100
AcDbEntity
  8
외형선
  6
Continuous
 62
     1
370
    15
100
AcDbLine
 10
15.15000000000001
 20
-3.999999999999996
 30
0.0
 11
16.41805884725903
 21
-3.999999999999995
 31
0.0
  0
LINE
  5
9A
330
1F
100
AcDbEntity
  8
외형선
  6
Continuous
370
    15
100
AcDbLine
 10
-64.05000000000001
 20
-4.0
 30
0.0
 11
0.0
 21
-4.0
 31
0.0
  0
LINE
  5
9B
330
1F
100
AcDbEntity
  8
외형선
  6
Continuous
370
    15
100
AcDbLine
 10
0.0
 20
4.0
 30
0.0
 11
-64.05000000000001
 21
4.0
 31
0.0
  0
LINE
  5
9C
330
1F
100
AcDbEntity
  8
외형선
  6
Continuous
370
    15
100
AcDbLine
 10
-64.05000000000001
 20
4.0
 30
0.0
 11
-64.85000000000001
 21
3.200000000000008
 31
0.0
  0
LINE
  5
9D
330
1F
100
AcDbEntity
  8
외형선
  6
Continuous
370
    15
100
AcDbLine
 10
-64.85000000000001
 20
-3.200000000000008
 30
0.0
 11
-64.05000000000001
 21
-4.0
 31
0.0
  0
LINE
  5
9E
330
1F
100
AcDbEntity
  8
외형선
  6
Continuous
370
    15
100
AcDbLine
 10
0.0
 20
-4.0
 30
0.0
 11
0.149999999999995
 21
-3.850000000000001
 31
0.0
  0
LINE
  5
9F
330
1F
100
AcDbEntity
  8
외형선
  6
Continuous
370
    15
100
AcDbLine
 10
0.149999999999995
 20
3.850000000000001
 30
0.0
 11
0.0
 21
4.0
 31
0.0
  0
LINE
  5
A0
330
1F
100
AcDbEntity
  8
외형선
  6
Continuous
370
    15
100
AcDbLine
 10
0.149999999999995
 20
-3.850000000000001
 30
0.0
 11
15.15000000000001
 21
-3.850000000000001
 31
0.0
  0
LINE
  5
A1
330
1F
100
AcDbEntity
  8
외형선
  6
Continuous
370
    15
100
AcDbLine
 10
15.15000000000001
 20
3.850000000000001
 30
0.0
 11
0.149999999999995
 21
3.850000000000001
 31
0.0
  0
SPLINE
  5
A2
330
1F
100
AcDbEntity
  8
외형선
  6
Continuous
 62
     1
370
    15
100
AcDbSpline
210
0.0
220
0.0
230
1.0
 70
     8
 71
     3
 72
    14
 73
    10
 74
     0
 42
0.000000001
 43
0.00000001
 40
0.0
 40
0.0
 40
0.0
 40
0.0
 40
0.25
 40
0.25
 40
0.5
 40
0.5
 40
0.75
 40
0.75
 40
1.0
 40
1.0
 40
1.0
 40
1.0
 10
34.15000000000003
 20
0.9121791767311821
 30
0.0
 10
34.26973313642591
 20
0.8450178867046649
 30
0.0
 10
34.39068856303636
 20
0.778790879819039
 30
0.0
 10
34.6267080788806
 20
0.6564804383511975
 30
0.0
 10
34.73924164989833
 20
0.6018939118667045
 30
0.0
 10
34.93254610403292
 20
0.5094501276907045
 30
0.0
 10
35.01278108522806
 20
0.4715164761480249
 30
0.0
 10
35.12099968328643
 20
0.4064955145437319
 30
0.0
 10
35.15000000000006
 20
0.3785086110685915
 30
0.0
 10
35.15000000000006
 20
0.3505554561895363
 30
0.0
  0
LINE
  5
A3
330
1F
100
AcDbEntity
  8
외형선
  6
Continuous
 62
     1
370
    15
100
AcDbLine
 10
35.15000000000003
 20
-2.7555554561895
 30
0.0
 11
35.15000000000003
 21
0.3505554561895369
 31
0.0
  0
SPLINE
  5
A4
330
1F
100
AcDbEntity
  8
외형선
  6
Continuous
 62
     1
370
    15
100
AcDbSpline
210
0.0
220
0.0
230
1.0
 70
     8
 71
     3
 72
    12
 73
     8
 74
     0
 42
0.000000001
 43
0.00000001
 40
0.0
 40
0.0
 40
0.0
 40
0.0
 40
0.25
 40
0.25
 40
0.5
 40
0.5
 40
1.0
 40
1.0
 40
1.0
 40
1.0
 10
35.15000000000003
 20
-2.755555456189498
 30
0.0
 10
35.15000000000001
 20
-2.894266671308319
 30
0.0
 10
35.11703965467729
 20
-3.020604519062773
 30
0.0
 10
35.00151924890945
 20
-3.218793296863411
 30
0.0
 10
34.91958419913895
 20
-3.291373456733437
 30
0.0
 10
34.63819554368393
 20
-3.428757596492901
 30
0.0
 10
34.40238037600148
 20
-3.421187190423768
 30
0.0
 10
34.15000000000003
 20
-3.341251256817732
 30
0.0
  0
SPLINE
  5
A5
330
1F
100
AcDbEntity
  8
외형선
  6
Continuous
 62
     1
370
    15
100
AcDbSpline
210
0.0
220
0.0
230
1.0
 70
     8
 71
     3
 72
    19
 73
    15
 74
     0
 42
0.000000001
 43
0.00000001
 40
0.0
 40
0.0
 40
0.0
 40
0.0
 40
0.0856991565791776
 40
0.1713980313618094
 40
0.2571020468810405
 40
0.3428166135299795
 40
0.4285471168167886
 40
0.5142989047443446
 40
0.6000693523281935
 40
0.6943571116245162
 40
0.7886448652032763
 40
0.8829326130813996
 40
0.9772203552758082
 40
1.0
 40
1.0
 40
1.0
 40
1.0
 10
34.15000000000037
 20
-3.341251256817835
 30
0.0
 10
33.64351347721919
 20
-3.16491652257685
 30
0.0
 10
32.63054209708928
 20
-2.812247633919943
 30
0.0
 10
31.11106189255918
 20
-2.10552258042939
 30
0.0
 10
29.59147095269656
 20
-1.309354599512502
 30
0.0
 10
28.07165585883352
 20
-0.4473027813193879
 30
0.0
 10
26.55150242389727
 20
0.435449147208105
 30
0.0
 10
25.03094097366048
 20
1.297544832194079
 30
0.0
 10
23.45971148398358
 20
2.124037859303458
 30
0.0
 10
21.83805059625508
 20
2.863707340427508
 30
0.0
 10
20.16603651846738
 20
3.465199163492674
 30
0.0
 10
18.4940245486133
 20
3.847134547024456
 30
0.0
 10
17.24469846306184
 20
4.018228185552732
 30
0.0
 10
16.55270994812068
 20
3.985141648044694
 30
0.0
 10
16.41805884725907
 20
3.978703479487034
 30
0.0
  0
SPLINE
  5
A6
330
1F
100
AcDbEntity
  8
외형선
  6
Continuous
 62
     1
370
    15
100
AcDbSpline
210
0.0
220
0.0
230
1.0
 70
     8
 71
     3
 72
    16
 73
    12
 74
     0
 42
0.000000001
 43
0.00000001
 40
0.0
 40
0.0
 40
0.0
 40
0.0
 40
0.0438402991021355
 40
0.1563223139221302
 40
0.2687970573798202
 40
0.3812716456140576
 40
0.5050173133700732
 40
0.6287629826638527
 40
0.7525086535182137
 40
0.8762543259559894
 40
1.0
 40
1.0
 40
1.0
 40
1.0
 10
20.63927359025323
 20
3.261119244106776
 30
0.0
 10
20.83669941446733
 20
3.331061457681104
 30
0.0
 10
21.54066499639079
 20
3.580455939258493
 30
0.0
 10
22.75108712593806
 20
3.840351863218415
 30
0.0
 10
24.27059729318663
 20
4.019189317746757
 30
0.0
 10
25.84071744851681
 20
3.99483864968991
 30
0.0
 10
27.46204939463409
 20
3.757840242583398
 30
0.0
 10
29.13401439032755
 20
3.295056444712611
 30
0.0
 10
30.80601512555266
 20
2.640501075965959
 30
0.0
 10
32.47800636236239
 20
1.836640781380168
 30
0.0
 10
33.59266878504296
 20
1.220333046280679
 30
0.0
 10
34.15000000000037
 20
0.912179176730996
 30
0.0
  0
SPLINE
  5
A8
330
1F
100
AcDbEntity
  8
외형선
  6
Continuous
 62
     1
370
    15
100
AcDbSpline
210
0.0
220
0.0
230
1.0
 70
     8
 71
     3
 72
    18
 73
    14
 74
     0
 42
0.000000001
 43
0.00000001
 40
0.0
 40
0.0
 40
0.0
 40
0.0
 40
0.0258588764622218
 40
0.1186117626244342
 40
0.2113760677117295
 40
0.3041576201724329
 40
0.3969622078648962
 40
0.489786989908411
 40
0.5918296042657206
 40
0.6938722124352174
 40
0.7959148144352188
 40
0.8979574102840387
 40
1.0
 40
1.0
 40
1.0
 40
1.0
 10
31.53472747559768
 20
-3.260536853000658
 30
0.0
 10
31.39351477598714
 20
-3.311834919438463
 30
0.0
 10
30.74578797972706
 20
-3.547133389899951
 30
0.0
 10
29.59147052466695
 20
-3.806537230189266
 30
0.0
 10
28.07165597354915
 20
-4.009283037814043
 30
0.0
 10
26.55150239316092
 20
-4.008116608263329
 30
0.0
 10
25.0309409818532
 20
-3.817866111984191
 30
0.0
 10
23.45971148162136
 20
-3.431435006326027
 30
0.0
 10
21.83805059658985
 20
-2.847523225228455
 30
0.0
 10
20.16603651957414
 20
-2.080215880093632
 30
0.0
 10
18.49402454385163
 20
-1.193153925373976
 30
0.0
 10
16.82201215968791
 20
-0.2339089785168245
 30
0.0
 10
15.70733737539814
 20
0.4070926057808711
 30
0.0
 10
15.15000000000149
 20
0.7275933882985148
 30
0.0
  0
SPLINE
  5
A9
330
1F
100
AcDbEntity
  8
외형선
  6
Continuous
370
    15
100
AcDbSpline
210
0.0
220
0.0
230
1.0
 70
    24
 71
     3
 72
    16
 73
    12
 74
     0
 42
0.000000001
 43
0.00000001
 40
0.0
 40
0.0
 40
0.0
 40
0.0
 40
0.0826688367532455
 40
0.1964899235244356
 40
0.307103217283145
 40
0.4209243040543333
 40
0.5315375978130474
 40
0.6453586845842277
 40
0.7559719783429403
 40
0.8697930651141341
 40
0.9999999999999999
 40
0.9999999999999999
 40
0.9999999999999999
 40
0.9999999999999999
 10
15.15
 20
0.796289563798807
 30
0.0
 10
15.15000000000001
 20
0.8484806390028427
 30
0.0
 10
15.15000000000005
 20
0.9725300484085757
 30
0.0
 10
15.14999999999993
 20
1.230748355618735
 30
0.0
 10
15.15000000000015
 20
1.553907486796923
 30
0.0
 10
15.15
 20
1.912625199552116
 30
0.0
 10
15.15000000000005
 20
2.300714841286425
 30
0.0
 10
15.14999999999996
 20
2.70106825227806
 30
0.0
 10
15.14999999999993
 20
3.108595058574729
 30
0.0
 10
15.15000000000002
 20
3.530735680681893
 30
0.0
 10
15.15
 20
3.799522733020291
 30
0.0
 10
15.15000000000001
 20
3.942940435562555
 30
0.0
  0
SPLINE
  5
AA
330
1F
100
AcDbEntity
  8
외형선
  6
Continuous
 62
     1
370
    15
100
AcDbSpline
210
0.0
220
0.0
230
1.0
 70
     8
 71
     3
 72
    48
 73
    44
 74
     0
 42
0.000000001
 43
0.00000001
 40
0.0
 40
0.0
 40
0.0
 40
0.0
 40
0.0624999999999999
 40
0.0624999999999999
 40
0.1249999999999998
 40
0.1249999999999998
 40
0.1874999999999997
 40
0.1874999999999997
 40
0.2499999999999996
 40
0.2499999999999996
 40
0.2812499999999995
 40
0.2812499999999995
 40
0.3124999999999994
 40
0.3124999999999994
 40
0.3749999999999977
 40
0.3749999999999977
 40
0.4062499999999977
 40
0.4062499999999977
 40
0.4374999999999976
 40
0.4374999999999976
 40
0.4999999999999976
 40
0.4999999999999976
 40
0.5624999999999974
 40
0.5624999999999974
 40
0.6249999999999973
 40
0.6249999999999973
 40
0.6874999999999972
 40
0.6874999999999972
 40
0.7187499999999981
 40
0.7187499999999981
 40
0.7499999999999989
 40
0.7499999999999989
 40
0.8124999999999988
 40
0.8124999999999988
 40
0.8437499999999987
 40
0.8437499999999987
 40
0.8749999999999987
 40
0.8749999999999987
 40
0.9062499999999986
 40
0.9062499999999986
 40
0.9374999999999986
 40
0.9374999999999986
 40
1.0
 40
1.0
 40
1.0
 40
1.0
 10
34.15000000000006
 20
-3.979448081798991
 30
0.0
 10
33.75288205431244
 20
-3.842430121085298
 30
0.0
 10
33.36070649119299
 20
-3.771417471662772
 30
0.0
 10
32.56745206670865
 20
-3.592720295959769
 30
0.0
 10
32.16896027527904
 20
-3.485067094107013
 30
0.0
 10
31.38254081789939
 20
-3.237875616958751
 30
0.0
 10
30.9833743219213
 20
-3.097152891009096
 30
0.0
 10
30.19057025999671
 20
-2.787360784690115
 30
0.0
 10
29.79817272279919
 20
-2.618600921138992
 30
0.0
 10
29.20236405424139
 20
-2.346464302634809
 30
0.0
 10
29.00355772548345
 20
-2.252725741534779
 30
0.0
 10
28.60772593923832
 20
-2.060247676433142
 30
0.0
 10
28.41167424503728
 20
-1.961679358128692
 30
0.0
 10
27.81907143576866
 20
-1.658414997622594
 30
0.0
 10
27.41960537481966
 20
-1.446331471047159
 30
0.0
 10
26.82692407597434
 20
-1.120306252079361
 30
0.0
 10
26.63088993267859
 20
-1.010412685141604
 30
0.0
 10
26.23510113158542
 20
-0.7877340022380332
 30
0.0
 10
26.03630325545153
 20
-0.6751229560974649
 30
0.0
 10
25.44048036151593
 20
-0.3353251524171281
 30
0.0
 10
25.04804386035432
 20
-0.106952847704743
 30
0.0
 10
24.25530698402588
 20
0.3501110535481349
 30
0.0
 10
23.85612118673031
 20
0.5785728867004767
 30
0.0
 10
23.06956010584647
 20
1.025398060360352
 30
0.0
 10
22.67122866303765
 20
1.245827031484239
 30
0.0
 10
21.8779174276046
 20
1.671711550358191
 30
0.0
 10
21.48576401576826
 20
1.876716930312235
 30
0.0
 10
20.89010914607038
 20
2.170235702782981
 30
0.0
 10
20.69124509426484
 20
2.265579388441626
 30
0.0
 10
20.29508199336271
 20
2.450237539576626
 30
0.0
 10
20.09879579408167
 20
2.539406870593401
 30
0.0
 10
19.50687717519049
 20
2.797760966950589
 30
0.0
 10
19.10743573684594
 20
2.957769446725938
 30
0.0
 10
18.51414146554289
 20
3.174139659175639
 30
0.0
 10
18.31816287332617
 20
3.242263538789886
 30
0.0
 10
17.92275315423297
 20
3.370822703663708
 30
0.0
 10
17.72403724775406
 20
3.431159634037517
 30
0.0
 10
17.32676778671937
 20
3.543245038092617
 30
0.0
 10
17.12821691358626
 20
3.594992772476589
 30
0.0
 10
16.73346130237266
 20
3.689384492483454
 30
0.0
 10
16.53726331440938
 20
3.732048677558213
 30
0.0
 10
15.94316303697337
 20
3.846582919337664
 30
0.0
 10
15.54384231042665
 20
3.90454159741909
 30
0.0
 10
15.14999999999997
 20
3.942940435562551
 30
0.0
  0
SPLINE
  5
AB
330
1F
100
AcDbEntity
  8
외형선
  6
Continuous
 62
     1
370
    15
100
AcDbSpline
210
0.0
220
0.0
230
1.0
 70
     8
 71
     3
 72
    14
 73
    10
 74
     0
 42
0.000000001
 43
0.00000001
 40
0.0
 40
0.0
 40
0.0
 40
0.0
 40
0.1566062712694377
 40
0.3131821412349266
 40
0.469718431105409
 40
0.6262248997469109
 40
0.7827113761930679
 40
0.9391877366231794
 40
1.0
 40
1.0
 40
1.0
 40
1.0
 10
15.14999999999998
 20
-0.6732166973610815
 30
0.0
 10
15.65699380839533
 20
-0.9584757112908431
 30
0.0
 10
16.67088300465184
 20
-1.528938363041119
 30
0.0
 10
18.19147221966505
 20
-2.302896558473119
 30
0.0
 10
19.71165407083348
 20
-2.967849339393536
 30
0.0
 10
21.23149052087592
 20
-3.493093668279509
 30
0.0
 10
22.7510941112395
 20
-3.838916411883596
 30
0.0
 10
23.96093243227985
 20
-4.003725265182867
 30
0.0
 10
24.66425623204491
 20
-3.982968229980209
 30
0.0
 10
24.86109448064323
 20
-3.977158987556234
 30
0.0
  0
LINE
  5
AC
330
1F
100
AcDbEntity
  8
외형선
  6
Continuous
370
    15
100
AcDbLine
 10
15.15000000000001
 20
0.7275933882940394
 30
0.0
 11
15.15000000000001
 21
-0.6732166973610844
 31
0.0
  0
SPLINE
  5
AD
330
1F
100
AcDbEntity
  8
외형선
  6
Continuous
 62
     1
370
    15
100
AcDbSpline
210
0.0
220
0.0
230
1.0
 70
     8
 71
     3
 72
    12
 73
     8
 74
     0
 42
0.000000001
 43
0.00000001
 40
0.0
 40
0.0
 40
0.0
 40
0.0
 40
0.2500000000000039
 40
0.2500000000000039
 40
0.5000000000000078
 40
0.5000000000000078
 40
1.0
 40
1.0
 40
1.0
 40
1.0
 10
35.15000000000003
 20
1.186134110404137
 30
0.0
 10
35.15000000000006
 20
1.232141797168728
 30
0.0
 10
35.11703965467729
 20
1.304441289685788
 30
0.0
 10
35.00151924890942
 20
1.479660910311643
 30
0.0
 10
34.9195841991389
 20
1.581816954435673
 30
0.0
 10
34.63819554368391
 20
1.882429929747774
 30
0.0
 10
34.40238037600148
 20
2.077647385059875
 30
0.0
 10
34.15000000000003
 20
2.199099824658664
 30
0.0
  0
LINE
  5
AE
330
1F
100
AcDbEntity
  8
외형선
  6
Continuous
 62
     1
370
    15
100
AcDbLine
 10
35.15000000000003
 20
1.186134110404133
 30
0.0
 11
35.15000000000003
 21
0.3505554561895369
 31
0.0
  0
SPLINE
  5
AF
330
1F
100
AcDbEntity
  8
외형선
  6
Continuous
 62
     1
370
    15
100
AcDbSpline
210
0.0
220
0.0
230
1.0
 70
     8
 71
     3
 72
    11
 73
     7
 74
     0
 42
0.000000001
 43
0.00000001
 40
0.0
 40
0.0
 40
0.0
 40
0.0
 40
0.0862111812819952
 40
0.3908074725309896
 40
0.6954037454187602
 40
1.0
 40
1.0
 40
1.0
 40
1.0
 10
20.63927359025319
 20
-3.261119244106776
 30
0.0
 10
20.48152799972954
 20
-3.31874927796729
 30
0.0
 10
19.76644493719957
 20
-3.579994368685076
 30
0.0
 10
18.49402445682595
 20
-3.847293963755034
 30
0.0
 10
16.8220121814443
 20
-4.044624650904336
 30
0.0
 10
15.70733738265026
 20
-3.970387789811175
 30
0.0
 10
15.15000000000148
 20
-3.933269360380021
 30
0.0
  0
SPLINE
  5
B0
330
1F
100
AcDbEntity
  8
외형선
  6
Continuous
370
    15
100
AcDbSpline
210
0.0
220
0.0
230
1.0
 70
    24
 71
     3
 72
    20
 73
    16
 74
     0
 42
0.000000001
 43
0.00000001
 40
0.0
 40
0.0
 40
0.0
 40
0.0
 40
0.074406188015238
 40
0.1506550036408362
 40
0.2308817654050847
 40
0.3134351086954408
 40
0.3936618704597821
 40
0.4762152137502395
 40
0.5564419755145321
 40
0.6389953188049362
 40
0.7192220805692281
 40
0.801775423859631
 40
0.8820021856239262
 40
0.9645555289143235
 40
1.0
 40
1.0
 40
1.0
 40
1.0
 10
15.15000000000001
 20
-3.93326936036987
 30
0.0
 10
15.15000000000002
 20
-3.82171930683903
 30
0.0
 10
15.15000000000001
 20
-3.595856725122268
 30
0.0
 10
15.15000000000005
 20
-3.222694512886538
 30
0.0
 10
15.15000000000003
 20
-2.82715995804526
 30
0.0
 10
15.15000000000001
 20
-2.423790158418432
 30
0.0
 10
15.14999999999997
 20
-2.027878876303946
 30
0.0
 10
15.14999999999994
 20
-1.657563494246344
 30
0.0
 10
15.15000000000015
 20
-1.316736632092154
 30
0.0
 10
15.14999999999993
 20
-1.02107120364667
 30
0.0
 10
15.15000000000011
 20
-0.7739732822292568
 30
0.0
 10
15.15000000000002
 20
-0.5855604867318243
 30
0.0
 10
15.15000000000008
 20
-0.462722045812454
 30
0.0
 10
15.14999999999994
 20
-0.4056185881224023
 30
0.0
 10
15.14999999999994
 20
-0.4145598497185953
 30
0.0
 10
15.14999999999997
 20
-0.4172456476699513
 30
0.0
  0
SPLINE
  5
B1
330
1F
100
AcDbEntity
  8
외형선
  6
Continuous
 62
     1
370
    15
100
AcDbSpline
210
0.0
220
0.0
230
1.0
 70
     8
 71
     3
 72
    12
 73
     8
 74
     0
 42
0.000000001
 43
0.00000001
 40
0.0
 40
0.0
 40
0.0
 40
0.0
 40
0.2218609050746055
 40
0.4437210806246836
 40
0.6655945646893443
 40
0.887495363879143
 40
1.0
 40
1.0
 40
1.0
 40
1.0
 10
34.15000000000037
 20
2.199099824658512
 30
0.0
 10
33.64351342921955
 20
2.433054985986031
 30
0.0
 10
32.63054195309053
 20
2.900964539348128
 30
0.0
 10
31.11106246856642
 20
3.438020668821273
 30
0.0
 10
29.59146879241244
 20
3.808026393744083
 30
0.0
 10
28.32150535833082
 20
3.993811565827656
 30
0.0
 10
27.55803107053155
 20
3.98045448197092
 30
0.0
 10
27.30117401060755
 20
3.975960733663445
 30
0.0
  0
LINE
  5
B3
330
1F
100
AcDbEntity
  8
외형선
  6
Continuous
 62
     1
370
    15
100
AcDbLine
 10
35.15000000000003
 20
1.186134110404133
 30
0.0
 11
35.15000000000003
 21
2.979448081799007
 31
0.0
  0
SPLINE
  5
B4
330
1F
100
AcDbEntity
  8
외형선
  6
Continuous
 62
     1
370
    15
100
AcDbSpline
210
0.0
220
0.0
230
1.0
 70
     8
 71
     3
 72
     9
 73
     5
 74
     0
 42
0.000000001
 43
0.00000001
 40
0.0
 40
0.0
 40
0.0
 40
0.0
 40
0.3606810647984246
 40
1.0
 40
1.0
 40
1.0
 40
1.0
 10
31.53472747559771
 20
3.260536853000658
 30
0.0
 10
31.84915390120859
 20
3.368606588048131
 30
0.0
 10
32.72091140748802
 20
3.668233448437571
 30
0.0
 10
33.59266891716177
 20
3.806320743725506
 30
0.0
 10
34.15000000000006
 20
3.979448081799008
 30
0.0
  0
LINE
  5
B5
330
1F
100
AcDbEntity
  8
외형선
  6
Continuous
 62
     1
370
    15
100
AcDbLine
 10
35.15000000000003
 20
-2.7555554561895
 30
0.0
 11
35.15000000000003
 21
-2.979448081799008
 31
0.0
  0
LINE
  5
B6
330
1F
100
AcDbEntity
  8
외형선
  6
Continuous
370
    15
100
AcDbLine
 10
0.0
 20
0.0
 30
0.0
 11
0.0
 21
4.0
 31
0.0
  0
LINE
  5
B7
330
1F
100
AcDbEntity
  8
외형선
  6
Continuous
370
    15
100
AcDbLine
 10
0.0
 20
-4.0
 30
0.0
 11
0.0
 21
0.0
 31
0.0
  0
LINE
  5
B8
330
1F
100
AcDbEntity
  8
외형선
  6
Continuous
370
    15
100
AcDbLine
 10
-64.05000000000001
 20
0.0
 30
0.0
 11
-64.05000000000001
 21
4.0
 31
0.0
  0
LINE
  5
B9
330
1F
100
AcDbEntity
  8
외형선
  6
Continuous
370
    15
100
AcDbLine
 10
-64.05000000000001
 20
-4.0
 30
0.0
 11
-64.05000000000001
 21
0.0
 31
0.0
  0
LINE
  5
BA
330
1F
100
AcDbEntity
  8
외형선
  6
Continuous
370
    15
100
AcDbLine
 10
-64.85000000000001
 20
0.0
 30
0.0
 11
-64.85000000000001
 21
3.200000000000008
 31
0.0
  0
LINE
  5
BB
330
1F
100
AcDbEntity
  8
외형선
  6
Continuous
370
    15
100
AcDbLine
 10
-64.85000000000001
 20
-3.200000000000008
 30
0.0
 11
-64.85000000000001
 21
0.0
 31
0.0
  0
LINE
  5
BC
330
1F
100
AcDbEntity
  8
외형선
  6
Continuous
370
    15
100
AcDbLine
 10
0.149999999999995
 20
0.0
 30
0.0
 11
0.149999999999995
 21
3.850000000000001
 31
0.0
  0
LINE
  5
BD
330
1F
100
AcDbEntity
  8
외형선
  6
Continuous
370
    15
100
AcDbLine
 10
0.149999999999995
 20
-3.850000000000001
 30
0.0
 11
0.149999999999995
 21
0.0
 31
0.0
  0
SPLINE
  5
BE
330
1F
100
AcDbEntity
  8
외형선
  6
Continuous
370
    15
100
AcDbSpline
210
0.0
220
0.0
230
1.0
 70
     8
 71
     3
 72
     8
 73
     4
 74
     0
 42
0.000000001
 43
0.00000001
 40
0.0
 40
0.0
 40
0.0
 40
0.0
 40
1.0
 40
1.0
 40
1.0
 40
1.0
 10
15.15000000000001
 20
3.801912373924776
 30
0.0
 10
14.81821688565221
 20
3.831059569617524
 30
0.0
 10
14.48457721299984
 20
3.847063822221289
 30
0.0
 10
14.14992327627726
 20
3.849631307856834
 30
0.0
  0
LINE
  5
BF
330
1F
100
AcDbEntity
  8
외형선
  6
Continuous
370
    15
100
AcDbLine
 10
14.14992327627724
 20
1.197931985026749
 30
0.0
 11
14.14992327627724
 21
3.849631526455207
 31
0.0
  0
SPLINE
  5
C0
330
1F
100
AcDbEntity
  8
외형선
  6
Continuous
370
    15
100
AcDbSpline
210
0.0
220
0.0
230
1.0
 70
     8
 71
     3
 72
     8
 73
     4
 74
     0
 42
0.000000001
 43
0.00000001
 40
0.0
 40
0.0
 40
0.0
 40
0.0
 40
1.0
 40
1.0
 40
1.0
 40
1.0
 10
15.15000000000001
 20
0.6590348044494009
 30
0.0
 10
14.81821688565223
 20
0.8412975639201127
 30
0.0
 10
14.48457721299982
 20
1.021612658578442
 30
0.0
 10
14.14992327627726
 20
1.197928097852725
 30
0.0
  0
SPLINE
  5
C1
330
1F
100
AcDbEntity
  8
외형선
  6
Continuous
370
    15
100
AcDbSpline
210
0.0
220
0.0
230
1.0
 70
     8
 71
     3
 72
     8
 73
     4
 74
     0
 42
0.000000001
 43
0.00000001
 40
0.0
 40
0.0
 40
0.0
 40
0.0
 40
1.0
 40
1.0
 40
1.0
 40
1.0
 10
15.15000000000001
 20
-0.6065989622457502
 30
0.0
 10
14.81821688565221
 20
-0.4239163484160066
 30
0.0
 10
14.48457721299984
 20
-0.2387873094174733
 30
0.0
 10
14.14992327627726
 20
-0.0532803300332321
 30
0.0
  0
SPLINE
  5
C2
330
1F
100
AcDbEntity
  8
외형선
  6
Continuous
370
    15
100
AcDbSpline
210
0.0
220
0.0
230
1.0
 70
     8
 71
     3
 72
     8
 73
     4
 74
     0
 42
0.000000001
 43
0.00000001
 40
0.0
 40
0.0
 40
0.0
 40
0.0
 40
1.0
 40
1.0
 40
1.0
 40
1.0
 10
15.15000000000001
 20
-3.793174544695291
 30
0.0
 10
14.81821688565223
 20
-3.761507796795652
 30
0.0
 10
14.48457721299982
 20
-3.716614993137575
 30
0.0
 10
14.14992327627726
 20
-3.65888893960652
 30
0.0
  0
LINE
  5
C3
330
1F
100
AcDbEntity
  8
외형선
  6
Continuous
370
    15
100
AcDbLine
 10
14.14992327627724
 20
-3.658887666935109
 30
0.0
 11
14.14992327627724
 21
-0.0532645334360101
 31
0.0
  0
SPLINE
  5
C4
330
1F
100
AcDbEntity
  8
외형선
  6
Continuous
370
    15
100
AcDbSpline
210
0.0
220
0.0
230
1.0
 70
    24
 71
     3
 72
    18
 73
    14
 74
     0
 42
0.000000001
 43
0.00000001
 40
0.0
 40
0.0
 40
0.0
 40
0.0
 40
0.1594581630846248
 40
0.2438934781066169
 40
0.3283287931286093
 40
0.4127641081505932
 40
0.497199423172577
 40
0.5816347381945606
 40
0.666070053216544
 40
0.7505053682385249
 40
0.8349406832605055
 40
0.9193759982824903
 40
1.0
 40
1.0
 40
1.0
 40
1.0
 10
15.14999999999998
 20
-3.793174544695286
 30
0.0
 10
15.15
 20
-3.550450933853914
 30
0.0
 10
15.15000000000003
 20
-3.179201795386902
 30
0.0
 10
15.15000000000003
 20
-2.650410170957713
 30
0.0
 10
15.15000000000001
 20
-2.249068585219945
 30
0.0
 10
15.15
 20
-1.863348452261938
 30
0.0
 10
15.14999999999993
 20
-1.504081747431923
 30
0.0
 10
15.15000000000002
 20
-1.182544613229595
 30
0.0
 10
15.15000000000009
 20
-0.906340266160612
 30
0.0
 10
15.15000000000003
 20
-0.6848525570934642
 30
0.0
 10
15.14999999999994
 20
-0.523905417097033
 30
0.0
 10
15.15000000000002
 20
-0.4251121993947165
 30
0.0
 10
15.15000000000001
 20
-0.4151925091070602
 30
0.0
 10
15.15000000000001
 20
-0.4103471896026096
 30
0.0
  0
SPLINE
  5
C5
330
1F
100
AcDbEntity
  8
외형선
  6
Continuous
370
    15
100
AcDbSpline
210
0.0
220
0.0
230
1.0
 70
    24
 71
     3
 72
    20
 73
    16
 74
     0
 42
0.000000001
 43
0.00000001
 40
0.0
 40
0.0
 40
0.0
 40
0.0
 40
0.0330281343958311
 40
0.1182465855044531
 40
0.2034650366130667
 40
0.2886834877216802
 40
0.3739019388302934
 40
0.4591203899389065
 40
0.5443388410475171
 40
0.6295572921561275
 40
0.714775743264742
 40
0.7999941943733565
 40
0.8852126454819672
 40
0.9704310965905779
 40
1.0
 40
1.0
 40
1.0
 40
1.0
 10
15.15000000000003
 20
0.4561334930322063
 30
0.0
 10
15.15000000000003
 20
0.4541236348596512
 30
0.0
 10
15.15000000000001
 20
0.4469279857380689
 30
0.0
 10
15.15000000000002
 20
0.5048250775695452
 30
0.0
 10
15.14999999999996
 20
0.6293507963967265
 30
0.0
 10
15.14999999999994
 20
0.8198729950332017
 30
0.0
 10
15.15000000000001
 20
1.067993748913378
 30
0.0
 10
15.15000000000011
 20
1.36590989353954
 30
0.0
 10
15.15000000000002
 20
1.706676693091188
 30
0.0
 10
15.14999999999998
 20
2.079200211962158
 30
0.0
 10
15.15000000000001
 20
2.473964587510669
 30
0.0
 10
15.15
 20
2.879213458106674
 30
0.0
 10
15.15000000000002
 20
3.283229605460272
 30
0.0
 10
15.15000000000003
 20
3.590781296619159
 30
0.0
 10
15.15000000000003
 20
3.758665794083599
 30
0.0
 10
15.15000000000002
 20
3.801912373903378
 30
0.0
  0
LINE
  5
C6
330
1F
100
AcDbEntity
  8
중심선
 62
     1
100
AcDbLine
 10
-67.85
 20
-0.0000000000000039
 30
0.0
 11
38.15000000000003
 21
0.0000000000000091
 31
0.0
  0
LINE
  5
C7
330
1F
100
AcDbEntity
  8
참조1
100
AcDbLine
 10
-14.84999999999998
 20
-0.0000000000000039
 30
0.0
 11
-14.84999999999998
 21
-40.00000000000001
 31
0.0
  0
LINE
  5
C8
330
1F
100
AcDbEntity
  8
참조1
100
AcDbLine
 10
-14.84999999999998
 20
-40.00000000000001
 30
0.0
 11
-50.00885681430867
 21
-40.0
 31
0.0
  0
CIRCLE
  5
C9
330
1F
100
AcDbEntity
  8
해칭선
100
AcDbCircle
 10
0.0000000000000036
 20
-0.0010749287238931
 30
0.0
 40
3.000000000000004
  0
INSERT
  5
CA
330
1F
100
AcDbEntity
  8
0
  6
Continuous
 62
     7
100
AcDbBlockReference
 66
     1
  2
블럭10
 10
-28.79027293212519
 20
-52.04717430164393
 30
0.0
  0
ATTRIB
  5
CB
330
CA
100
AcDbEntity
  8
FORMAT
 62
     2
100
AcDbText
 10
-49.64852046371772
 20
-49.97180738881175
 30
0.0
 40
4.233333333333333
  1
SEME6408010100E [ 4 FLUTE ]
 41
0.75
  7
SLDTEXTSTYLE0
 11
-49.64852046371772
 21
-52.08847405547841
 31
0.0
100
AcDbAttribute
  2
AUTOATTR0
 70
     0
 74
     1
  0
SEQEND
  5
CC
330
CA
100
AcDbEntity
  8
0
  6
Continuous
 62
     7
  0
HATCH
  5
CD
330
1F
100
AcDbEntity
  8
중심선
100
AcDbHatch
 10
0.0
 20
0.0
 30
0.0
210
0.0
220
0.0
230
1.0
  2
SOLID
 70
     1
 71
     0
 91
        1
 92
        0
 93
        4
 72
     1
 10
-23.07536362774435
 20
-35.8
 11
-26.52163887158163
 21
-35.8
 72
     1
 10
-26.52163887158164
 20
-35.8
 11
-28.64986873078566
 21
-38.33632558057257
 72
     1
 10
-28.64986873078566
 20
-38.33632558057257
 11
-25.20356040183523
 21
-38.33628615127008
 72
     1
 10
-25.20356040183523
 20
-38.33628615127008
 11
-23.07536362774435
 21
-35.8
 97
        0
 75
     0
 76
     1
 98
        1
 10
-24.92500000000001
 20
-0.0010749287238931
  0
HATCH
  5
CE
330
1F
100
AcDbEntity
  8
중심선
100
AcDbHatch
 10
0.0
 20
0.0
 30
0.0
210
0.0
220
0.0
230
1.0
  2
SOLID
 70
     1
 71
     0
 91
        1
 92
        0
 93
        4
 72
     1
 10
-18.06259963670837
 20
-35.79999999999998
 11
-21.50887488054565
 21
-35.8
 72
     1
 10
-21.50887488054565
 20
-35.8
 11
-26.04001288890307
 21
-41.20000000000002
 72
     1
 10
-26.04001288890307
 20
-41.20000000000002
 11
-22.59373764506579
 21
-41.20000000000002
 72
     1
 10
-22.59373764506579
 20
-41.20000000000002
 11
-18.06259963670837
 21
-35.79999999999998
 97
        0
 75
     0
 76
     1
 98
        1
 10
-24.92500000000001
 20
-0.0010749287238931
  0
HATCH
  5
CF
330
1F
100
AcDbEntity
  8
중심선
100
AcDbHatch
 10
0.0
 20
0.0
 30
0.0
210
0.0
220
0.0
230
1.0
  2
SOLID
 70
     1
 71
     0
 91
        1
 92
        0
 93
        4
 72
     1
 10
-13.04983564567248
 20
-35.8
 11
-16.49611088950959
 21
-35.79999999999998
 72
     1
 10
-16.49611088950959
 20
-35.79999999999998
 11
-23.54454779139887
 21
-44.20000000000002
 72
     1
 10
-23.54454779139887
 20
-44.20000000000002
 11
-20.09827254756159
 21
-44.20000000000002
 72
     1
 10
-20.09827254756159
 20
-44.20000000000002
 11
-13.04983564567248
 21
-35.8
 97
        0
 75
     0
 76
     1
 98
        1
 10
-24.92500000000001
 20
-0.0010749287238931
  0
HATCH
  5
D0
330
1F
100
AcDbEntity
  8
중심선
100
AcDbHatch
 10
0.0
 20
0.0
 30
0.0
210
0.0
220
0.0
230
1.0
  2
SOLID
 70
     1
 71
     0
 91
        1
 92
        0
 93
        6
 72
     3
 10
-8.249945214660308
 20
-40.00000000005127
 11
3.960054785062283
 21
1.540882976769353E-10
 40
0.3939339440162628
 50
17.09539180608437
 51
320.0019657685086
 73
     0
 72
     1
 10
-6.566945558959713
 20
-38.58789400463833
 11
-4.261643685258647
 21
-36.65356729459038
 72
     3
 10
-8.249945214713154
 20
-40.00000000000015
 11
6.600054785286829
 21
-1.278976924368180E-13
 40
0.636358354079598
 50
39.99873849337386
 51
368.4976242363725
 73
     1
 72
     1
 10
-1.824612722812542
 20
-39.03999999993002
 11
-9.569877907877231
 21
-39.03999999993002
 72
     1
 10
-9.569877907877231
 20
-39.03999999993002
 11
-9.569902952323165
 21
-40.95999999992991
 72
     1
 10
-9.569902952323165
 20
-40.95999999992991
 11
-5.128523182851129
 21
-40.95999999992988
 97
        0
 75
     0
 76
     1
 98
        1
 10
-24.92500000000001
 20
-0.0010749287238931
  0
DIMENSION
  5
D1
330
1F
100
AcDbEntity
  8
치수문자_일반주서
100
AcDbDimension
  2
_D
 10
58.18636350776573
 20
-3.999999999999881
 30
0.0
 11
58.18636350776566
 21
13.66650000000012
 31
0.0
 70
   160
  1
%%c<>
 71
     2
 42
7.999999999999996
 52
-270.0
  3
SLDDIMSTYLE1
100
AcDbAlignedDimension
 13
27.2997965637886
 23
4.000000000000003
 33
0.0
 14
27.2997965637886
 24
-3.999999999999994
 34
0.0
 50
90.0000000000002
100
AcDbRotatedDimension
1001
PE_URL
1000

  0
DIMENSION
  5
DE
330
1F
100
AcDbEntity
  8
치수문자_일반주서
100
AcDbDimension
  2
_D_1
 10
-74.0384684361648
 20
-4.000000000000041
 30
0.0
 11
-74.03846843616482
 21
0.0000000000000029
 31
0.0
 70
   160
  1
%%c<>
 71
     2
 42
8.000000000000007
 52
-270.0
  3
SLDDIMSTYLE1
100
AcDbAlignedDimension
 13
-64.05000000000001
 23
4.000000000000004
 33
0.0
 14
-64.05000000000001
 24
-4.000000000000004
 34
0.0
 50
90.0000000000002
100
AcDbRotatedDimension
1001
ACAD_DSTYLE_DIMFLIPARROW_SYMBOL
1070
   385
1070
     0
1001
ACAD_DSTYLE_DIMFLIPARROW_WHICH_SYMBOL
1070
   386
1070
     3
  0
DIMENSION
  5
EC
330
1F
100
AcDbEntity
  8
치수문자_일반주서
100
AcDbDimension
  2
_D_2
 10
15.15000000000001
 20
13.11548684584201
 30
0.0
 11
25.15000000000002
 21
13.11548684584201
 31
0.0
 70
   160
  1
<>
 71
     2
 42
20.00000000000002
  3
SLDDIMSTYLE1
100
AcDbAlignedDimension
 13
35.15000000000003
 23
2.979448081799007
 33
0.0
 14
15.15000000000001
 24
3.933269360369865
 34
0.0
 50
0.0000000000000051
100
AcDbRotatedDimension
1001
PE_URL
1000

  0
DIMENSION
  5
F6
330
1F
100
AcDbEntity
  8
치수문자_일반주서
100
AcDbDimension
  2
_D_3
 10
0.1499999999999879
 20
19.11548684584199
 30
0.0
 11
17.65000000000001
 21
19.11548684584199
 31
0.0
 70
   160
  1
<>
 71
     2
 42
35.00000000000003
  3
SLDDIMSTYLE1
100
AcDbAlignedDimension
 13
35.15000000000003
 23
2.979448081799007
 33
0.0
 14
0.149999999999995
 24
3.850000000000001
 34
0.0
100
AcDbRotatedDimension
1001
PE_URL
1000

  0
DIMENSION
  5
100
330
1F
100
AcDbEntity
  8
치수문자_일반주서
100
AcDbDimension
  2
_D_4
 10
-64.85000000000001
 20
27.5229841470039
 30
0.0
 11
-14.84999999999999
 21
27.5229841470039
 31
0.0
 70
   160
  1
<>
 71
     2
 42
100.0
  3
SLDDIMSTYLE1
100
AcDbAlignedDimension
 13
35.15000000000003
 23
2.979448081799007
 33
0.0
 14
-64.85000000000001
 24
3.200000000000008
 34
0.0
 50
0.0000000000000041
100
AcDbRotatedDimension
1001
PE_URL
1000

  0
LINE
  5
10A
330
1F
100
AcDbEntity
  8
참조1
100
AcDbLine
 10
47.96348381534558
 20
7.440000000000002
 30
0.0
 11
47.96348381534558
 21
-7.440000000000002
 31
0.0
  0
LINE
  5
10B
330
1F
100
AcDbEntity
  8
참조1
100
AcDbLine
 10
60.66348381534559
 20
5.440000000000002
 30
0.0
 11
47.96348381534558
 21
5.440000000000002
 31
0.0
  0
SOLID
  5
10C
330
1F
100
AcDbEntity
  8
참조1
100
AcDbTrace
 10
47.96348381534558
 20
5.440000000000002
 30
0.0
 11
54.31348381534558
 21
4.424000000000002
 31
0.0
 12
54.31348381534558
 22
6.456000000000002
 32
0.0
 13
54.31348381534558
 23
6.456000000000002
 33
0.0
  0
LINE
  5
10D
330
1F
100
AcDbEntity
  8
참조1
100
AcDbLine
 10
60.66348381534559
 20
-5.440000000000002
 30
0.0
 11
47.96348381534558
 21
-5.440000000000002
 31
0.0
  0
SOLID
  5
10E
330
1F
100
AcDbEntity
  8
참조1
100
AcDbTrace
 10
47.96348381534558
 20
-5.440000000000002
 30
0.0
 11
54.31348381534558
 21
-6.456000000000002
 31
0.0
 12
54.31348381534558
 22
-4.424000000000002
 32
0.0
 13
54.31348381534558
 23
-4.424000000000002
 33
0.0
  0
MTEXT
  5
10F
330
1F
100
AcDbEntity
  8
참조1
100
AcDbMText
 10
57.36097390781586
 20
10.98821664464994
 30
0.0
 40
3.5
 41
0.0
 71
     1
 72
     1
  1
A
  7
SLDTEXTSTYLE0
 73
     1
 44
1.0
  0
MTEXT
  5
110
330
1F
100
AcDbEntity
  8
참조1
100
AcDbMText
 10
57.36097390781586
 20
0.1082166446499328
 30
0.0
 40
3.5
 41
0.0
 71
     1
 72
     1
  1
A
  7
SLDTEXTSTYLE0
 73
     1
 44
1.0
  0
INSERT
  5
117
330
1F
100
AcDbEntity
  8
해칭선
100
AcDbBlockReference
  2
SW_DOWELSYMBOL_0
 10
0.0000000000000036
 20
-0.0010749287238931
 30
0.0
  0
ARC
  5
13B
330
1F
100
AcDbEntity
  8
0
 62
     1
100
AcDbCircle
 10
34.15000000000006
 20
2.979448081799008
 30
0.0
 40
1.0
100
AcDbArc
 50
0.0
 51
90.0
  0
ARC
  5
13C
102
{ACAD_REACTORS
102
}
330
1F
100
AcDbEntity
  8
0
 62
     1
100
AcDbCircle
 10
34.15000000000006
 20
-2.979448081798991
 30
0.0
 40
1.0
100
AcDbArc
 50
270.0
 51
0.0000000000000509
  0
DIMENSION
  5
14F
102
{ACAD_REACTORS
102
}
102
{ACAD_XDICTIONARY
360
150
102
}
330
1F
100
AcDbEntity
  8
0
100
AcDbDimension
  2
*D8
 10
34.15000000000006
 20
-2.979448081798991
 30
0.0
 11
48.58206601791456
 21
-10.9895999016737
 31
0.0
 70
   164
 71
     5
 42
1.000000000000002
  3
ISO-25
100
AcDbRadialDimension
 15
34.79623341234501
 25
-3.74258789649156
 35
0.0
 40
0.0
1001
ACAD
1000
DSTYLE
1002
{
1070
   179
1070
     2
1070
   143
1040
0.0393700787401575
1070
    41
1040
3.302
1070
    44
1040
1.0
1070
    42
1040
1.0
1070
   147
1040
1.524
1070
    73
1070
     1
1070
    74
1070
     1
1070
   140
1040
3.5
1070
   284
1070
     0
1070
    78
1070
     0
1002
}
1001
ACAD_DSTYLE_DIMRADIAL_EXTENSION
1070
   387
1070
     1
1070
   388
1040
4.71238898038469
1070
   390
1040
0.0000000000000009
  0
ENDSEC
  0
SECTION
  2
OBJECTS
  0
DICTIONARY
  5
C
330
0
100
AcDbDictionary
281
     1
  3
ACAD_GROUP
350
D
  3
ACAD_LAYOUT
350
1A
  3
ACAD_MLINESTYLE
350
17
  3
ACAD_PLOTSETTINGS
350
19
  3
ACAD_PLOTSTYLENAME
350
E
  3
ACAD_SCALELIST
350
47
  3
APPDATA
350
139
  3
DWGPROPS
350
15C
  0
DICTIONARY
  5
150
330
14F
100
AcDbDictionary
280
     1
281
     1
  0
DICTIONARY
  5
D
102
{ACAD_REACTORS
330
C
102
}
330
C
100
AcDbDictionary
281
     1
  0
DICTIONARY
  5
1A
102
{ACAD_REACTORS
330
C
102
}
330
C
100
AcDbDictionary
281
     1
  3
Layout1
350
1E
  3
Layout2
350
26
  3
Model
350
22
  0
DICTIONARY
  5
17
102
{ACAD_REACTORS
330
C
102
}
330
C
100
AcDbDictionary
281
     1
  3
Standard
350
18
  0
DICTIONARY
  5
19
102
{ACAD_REACTORS
330
C
102
}
330
C
100
AcDbDictionary
281
     1
  0
ACDBDICTIONARYWDFLT
  5
E
102
{ACAD_REACTORS
330
C
102
}
330
C
100
AcDbDictionary
281
     1
  3
Normal
350
F
100
AcDbDictionaryWithDefault
340
F
  0
DICTIONARY
  5
47
102
{ACAD_REACTORS
330
C
102
}
330
C
100
AcDbDictionary
281
     1
  3
A0
350
48
  3
A1
350
49
  3
A2
350
4A
  3
A3
350
4B
  3
A4
350
4C
  3
A5
350
4D
  3
A6
350
4E
  3
A7
350
4F
  3
A8
350
50
  3
A9
350
51
  3
B0
350
52
  3
B1
350
53
  3
B2
350
54
  3
B3
350
55
  3
B4
350
56
  3
B5
350
57
  3
B6
350
58
  3
B7
350
59
  3
B8
350
5A
  3
B9
350
5B
  3
C0
350
5C
  3
C1
350
5D
  3
C2
350
5E
  3
C3
350
5F
  3
C4
350
60
  3
C5
350
61
  3
C6
350
62
  3
C7
350
63
  3
C8
350
64
  3
C9
350
65
  3
D0
350
66
  3
D1
350
67
  3
D2
350
68
  0
DICTIONARY
  5
139
102
{ACAD_REACTORS
330
C
102
}
330
C
100
AcDbDictionary
281
     1
  0
XRECORD
  5
15C
102
{ACAD_REACTORS
330
C
102
}
330
C
100
AcDbXrecord
280
     1
  1
DWGPROPS COOKIE
  2

  3

  4

  6

  7

  8
USER
  9

300
=
301
=
302
=
303
=
304
=
305
=
306
=
307
=
308
=
309
=
 40
0.0
 41
2458274.335072164
 42
2458275.073522836
  1

 90
        0
  0
LAYOUT
  5
1E
102
{ACAD_REACTORS
330
1A
102
}
330
1A
100
AcDbPlotSettings
  1

  2
none_device
  4

  6

 40
0.0
 41
0.0
 42
0.0
 43
0.0
 44
0.0
 45
0.0
 46
0.0
 47
0.0
 48
0.0
 49
0.0
140
0.0
141
0.0
142
1.0
143
1.0
 70
   688
 72
     1
 73
     0
 74
     5
  7

 75
    16
147
1.0
148
0.0
149
0.0
100
AcDbLayout
  1
Layout1
 70
     1
 71
     1
 10
0.0
 20
0.0
 11
420.0
 21
297.0
 12
0.0
 22
0.0
 32
0.0
 14
1.000000000000000E+20
 24
1.000000000000000E+20
 34
1.000000000000000E+20
 15
-1.000000000000000E+20
 25
-1.000000000000000E+20
 35
-1.000000000000000E+20
146
0.0
 13
0.0
 23
0.0
 33
0.0
 16
1.0
 26
0.0
 36
0.0
 17
0.0
 27
1.0
 37
0.0
 76
     0
330
1B
  0
LAYOUT
  5
26
102
{ACAD_REACTORS
330
1A
102
}
330
1A
100
AcDbPlotSettings
  1

  2
none_device
  4

  6

 40
0.0
 41
0.0
 42
0.0
 43
0.0
 44
0.0
 45
0.0
 46
0.0
 47
0.0
 48
0.0
 49
0.0
140
0.0
141
0.0
142
1.0
143
1.0
 70
   688
 72
     1
 73
     0
 74
     5
  7

 75
    16
147
1.0
148
0.0
149
0.0
100
AcDbLayout
  1
Layout2
 70
     1
 71
     2
 10
0.0
 20
0.0
 11
0.0
 21
0.0
 12
0.0
 22
0.0
 32
0.0
 14
0.0
 24
0.0
 34
0.0
 15
0.0
 25
0.0
 35
0.0
146
0.0
 13
0.0
 23
0.0
 33
0.0
 16
1.0
 26
0.0
 36
0.0
 17
0.0
 27
1.0
 37
0.0
 76
     0
330
23
  0
LAYOUT
  5
22
102
{ACAD_REACTORS
330
1A
102
}
330
1A
100
AcDbPlotSettings
  1

  2
none_device
  4
ANSI_A_(11.00_x_8.50_Inches)
  6

 40
6.35
 41
19.05
 42
6.35000508
 43
19.05000254
 44
279.4
 45
215.9
 46
101.6611063617215
 47
107.4495848914376
 48
0.0
 49
0.0
140
0.0
141
0.0
142
0.0781950309128802
143
1.0
 70
  1696
 72
     0
 73
     0
 74
     0
  7

 75
     0
147
0.0235690232323232
148
0.0
149
0.0
100
AcDbLayout
  1
Model
 70
     1
 71
     0
 10
0.0
 20
0.0
 11
420.0
 21
297.0
 12
0.0
 22
0.0
 32
0.0
 14
-78.41346843616482
 24
-49.97180738881175
 34
0.0
 15
60.66348381534559
 25
31.8979841470039
 35
0.0
146
0.0
 13
0.0
 23
0.0
 33
0.0
 16
1.0
 26
0.0
 36
0.0
 17
0.0
 27
1.0
 37
0.0
 76
     0
330
1F
331
29
  0
MLINESTYLE
  5
18
102
{ACAD_REACTORS
330
17
102
}
330
17
100
AcDbMlineStyle
  2
Standard
 70
     0
  3

 62
   256
 51
90.0
 52
90.0
 71
     2
 49
0.5
 62
   256
  6
BYLAYER
 49
-0.5
 62
   256
  6
BYLAYER
  0
ACDBPLACEHOLDER
  5
F
102
{ACAD_REACTORS
330
E
102
}
330
E
  0
SCALE
  5
48
102
{ACAD_REACTORS
330
47
102
}
330
47
100
AcDbScale
 70
     0
300
1:1
140
1.0
141
1.0
290
     1
  0
SCALE
  5
49
102
{ACAD_REACTORS
330
47
102
}
330
47
100
AcDbScale
 70
     0
300
1:2
140
1.0
141
2.0
290
     0
  0
SCALE
  5
4A
102
{ACAD_REACTORS
330
47
102
}
330
47
100
AcDbScale
 70
     0
300
1:4
140
1.0
141
4.0
290
     0
  0
SCALE
  5
4B
102
{ACAD_REACTORS
330
47
102
}
330
47
100
AcDbScale
 70
     0
300
1:5
140
1.0
141
5.0
290
     0
  0
SCALE
  5
4C
102
{ACAD_REACTORS
330
47
102
}
330
47
100
AcDbScale
 70
     0
300
1:8
140
1.0
141
8.0
290
     0
  0
SCALE
  5
4D
102
{ACAD_REACTORS
330
47
102
}
330
47
100
AcDbScale
 70
     0
300
1:10
140
1.0
141
10.0
290
     0
  0
SCALE
  5
4E
102
{ACAD_REACTORS
330
47
102
}
330
47
100
AcDbScale
 70
     0
300
1:16
140
1.0
141
16.0
290
     0
  0
SCALE
  5
4F
102
{ACAD_REACTORS
330
47
102
}
330
47
100
AcDbScale
 70
     0
300
1:20
140
1.0
141
20.0
290
     0
  0
SCALE
  5
50
102
{ACAD_REACTORS
330
47
102
}
330
47
100
AcDbScale
 70
     0
300
1:30
140
1.0
141
30.0
290
     0
  0
SCALE
  5
51
102
{ACAD_REACTORS
330
47
102
}
330
47
100
AcDbScale
 70
     0
300
1:40
140
1.0
141
40.0
290
     0
  0
SCALE
  5
52
102
{ACAD_REACTORS
330
47
102
}
330
47
100
AcDbScale
 70
     0
300
1:50
140
1.0
141
50.0
290
     0
  0
SCALE
  5
53
102
{ACAD_REACTORS
330
47
102
}
330
47
100
AcDbScale
 70
     0
300
1:100
140
1.0
141
100.0
290
     0
  0
SCALE
  5
54
102
{ACAD_REACTORS
330
47
102
}
330
47
100
AcDbScale
 70
     0
300
2:1
140
2.0
141
1.0
290
     0
  0
SCALE
  5
55
102
{ACAD_REACTORS
330
47
102
}
330
47
100
AcDbScale
 70
     0
300
4:1
140
4.0
141
1.0
290
     0
  0
SCALE
  5
56
102
{ACAD_REACTORS
330
47
102
}
330
47
100
AcDbScale
 70
     0
300
8:1
140
8.0
141
1.0
290
     0
  0
SCALE
  5
57
102
{ACAD_REACTORS
330
47
102
}
330
47
100
AcDbScale
 70
     0
300
10:1
140
10.0
141
1.0
290
     0
  0
SCALE
  5
58
102
{ACAD_REACTORS
330
47
102
}
330
47
100
AcDbScale
 70
     0
300
100:1
140
100.0
141
1.0
290
     0
  0
SCALE
  5
59
102
{ACAD_REACTORS
330
47
102
}
330
47
100
AcDbScale
 70
     0
300
1/128" = 1'-0"
140
0.0078125
141
12.0
290
     0
  0
SCALE
  5
5A
102
{ACAD_REACTORS
330
47
102
}
330
47
100
AcDbScale
 70
     0
300
1/64" = 1'-0"
140
0.015625
141
12.0
290
     0
  0
SCALE
  5
5B
102
{ACAD_REACTORS
330
47
102
}
330
47
100
AcDbScale
 70
     0
300
1/32" = 1'-0"
140
0.03125
141
12.0
290
     0
  0
SCALE
  5
5C
102
{ACAD_REACTORS
330
47
102
}
330
47
100
AcDbScale
 70
     0
300
1/16" = 1'-0"
140
0.0625
141
12.0
290
     0
  0
SCALE
  5
5D
102
{ACAD_REACTORS
330
47
102
}
330
47
100
AcDbScale
 70
     0
300
3/32" = 1'-0"
140
0.09375
141
12.0
290
     0
  0
SCALE
  5
5E
102
{ACAD_REACTORS
330
47
102
}
330
47
100
AcDbScale
 70
     0
300
1/8" = 1'-0"
140
0.125
141
12.0
290
     0
  0
SCALE
  5
5F
102
{ACAD_REACTORS
330
47
102
}
330
47
100
AcDbScale
 70
     0
300
3/16" = 1'-0"
140
0.1875
141
12.0
290
     0
  0
SCALE
  5
60
102
{ACAD_REACTORS
330
47
102
}
330
47
100
AcDbScale
 70
     0
300
1/4" = 1'-0"
140
0.25
141
12.0
290
     0
  0
SCALE
  5
61
102
{ACAD_REACTORS
330
47
102
}
330
47
100
AcDbScale
 70
     0
300
3/8" = 1'-0"
140
0.375
141
12.0
290
     0
  0
SCALE
  5
62
102
{ACAD_REACTORS
330
47
102
}
330
47
100
AcDbScale
 70
     0
300
1/2" = 1'-0"
140
0.5
141
12.0
290
     0
  0
SCALE
  5
63
102
{ACAD_REACTORS
330
47
102
}
330
47
100
AcDbScale
 70
     0
300
3/4" = 1'-0"
140
0.75
141
12.0
290
     0
  0
SCALE
  5
64
102
{ACAD_REACTORS
330
47
102
}
330
47
100
AcDbScale
 70
     0
300
1" = 1'-0"
140
1.0
141
12.0
290
     0
  0
SCALE
  5
65
102
{ACAD_REACTORS
330
47
102
}
330
47
100
AcDbScale
 70
     0
300
1-1/2" = 1'-0"
140
1.5
141
12.0
290
     0
  0
SCALE
  5
66
102
{ACAD_REACTORS
330
47
102
}
330
47
100
AcDbScale
 70
     0
300
3" = 1'-0"
140
3.0
141
12.0
290
     0
  0
SCALE
  5
67
102
{ACAD_REACTORS
330
47
102
}
330
47
100
AcDbScale
 70
     0
300
6" = 1'-0"
140
6.0
141
12.0
290
     0
  0
SCALE
  5
68
102
{ACAD_REACTORS
330
47
102
}
330
47
100
AcDbScale
 70
     0
300
1'-0" = 1'-0"
140
12.0
141
12.0
290
     0
  0
ENDSEC
  0
EOF
