  0
SECTION
  2
HEADER
  9
$ACADVER
  1
AC1015
  9
$ACADMAINTVER
 70
     6
  9
$DWGCODEPAGE
  3
ANSI_949
  9
$INSBASE
 10
0.0
 20
0.0
 30
0.0
  9
$EXTMIN
 10
-73.0134684361648
 20
-49.97180738881175
 30
0.0
  9
$EXTMAX
 10
69.81293259806142
 20
33.88329963363169
 30
0.0
  9
$LIMMIN
 10
0.0
 20
0.0
  9
$LIMMAX
 10
420.0
 20
297.0
  9
$ORTHOMODE
 70
     0
  9
$REGENMODE
 70
     1
  9
$FILLMODE
 70
     1
  9
$QTEXTMODE
 70
     0
  9
$MIRRTEXT
 70
     1
  9
$LTSCALE
 40
1.0
  9
$ATTMODE
 70
     1
  9
$TEXTSIZE
 40
3.5
  9
$TRACEWID
 40
1.0
  9
$TEXTSTYLE
  7
Standard
  9
$CLAYER
  8
0
  9
$CELTYPE
  6
ByLayer
  9
$CECOLOR
 62
   256
  9
$CELTSCALE
 40
1.0
  9
$DISPSILH
 70
     0
  9
$DIMSCALE
 40
1.0
  9
$DIMASZ
 40
3.302
  9
$DIMEXO
 40
1.0
  9
$DIMDLI
 40
3.75
  9
$DIMRND
 40
0.0
  9
$DIMDLE
 40
0.0
  9
$DIMEXE
 40
1.0
  9
$DIMTP
 40
0.0
  9
$DIMTM
 40
0.0
  9
$DIMTXT
 40
3.5
  9
$DIMCEN
 40
2.5
  9
$DIMTSZ
 40
0.0
  9
$DIMTOL
 70
     0
  9
$DIMLIM
 70
     0
  9
$DIMTIH
 70
     1
  9
$DIMTOH
 70
     1
  9
$DIMSE1
 70
     0
  9
$DIMSE2
 70
     0
  9
$DIMTAD
 70
     1
  9
$DIMZIN
 70
     0
  9
$DIMBLK
  1

  9
$DIMASO
 70
     1
  9
$DIMSHO
 70
     1
  9
$DIMPOST
  1

  9
$DIMAPOST
  1

  9
$DIMALT
 70
     0
  9
$DIMALTD
 70
     3
  9
$DIMALTF
 40
0.0393700787401575
  9
$DIMLFAC
 40
1.0
  9
$DIMTOFL
 70
     1
  9
$DIMTVP
 40
0.0
  9
$DIMTIX
 70
     0
  9
$DIMSOXD
 70
     0
  9
$DIMSAH
 70
     0
  9
$DIMBLK1
  1

  9
$DIMBLK2
  1

  9
$DIMSTYLE
  2
ISO-25
  9
$DIMCLRD
 70
     0
  9
$DIMCLRE
 70
     0
  9
$DIMCLRT
 70
     0
  9
$DIMTFAC
 40
1.0
  9
$DIMGAP
 40
1.524
  9
$DIMJUST
 70
     0
  9
$DIMSD1
 70
     0
  9
$DIMSD2
 70
     0
  9
$DIMTOLJ
 70
     0
  9
$DIMTZIN
 70
     0
  9
$DIMALTZ
 70
     0
  9
$DIMALTTZ
 70
     0
  9
$DIMUPT
 70
     0
  9
$DIMDEC
 70
     2
  9
$DIMTDEC
 70
     2
  9
$DIMALTU
 70
     2
  9
$DIMALTTD
 70
     3
  9
$DIMTXSTY
  7
Standard
  9
$DIMAUNIT
 70
     0
  9
$DIMADEC
 70
     2
  9
$DIMALTRND
 40
0.0
  9
$DIMAZIN
 70
     0
  9
$DIMDSEP
 70
    44
  9
$DIMATFIT
 70
     3
  9
$DIMFRAC
 70
     0
  9
$DIMLDRBLK
  1

  9
$DIMLUNIT
 70
     2
  9
$DIMLWD
 70
    -2
  9
$DIMLWE
 70
    -2
  9
$DIMTMOVE
 70
     0
  9
$LUNITS
 70
     2
  9
$LUPREC
 70
     2
  9
$SKETCHINC
 40
1.0
  9
$FILLETRAD
 40
10.0
  9
$AUNITS
 70
     0
  9
$AUPREC
 70
     2
  9
$MENU
  1
.
  9
$ELEVATION
 40
0.0
  9
$PELEVATION
 40
0.0
  9
$THICKNESS
 40
0.0
  9
$LIMCHECK
 70
     0
  9
$CHAMFERA
 40
0.0
  9
$CHAMFERB
 40
0.0
  9
$CHAMFERC
 40
0.0
  9
$CHAMFERD
 40
0.0
  9
$SKPOLY
 70
     0
  9
$TDCREATE
 40
2458274.71366397
  9
$TDUCREATE
 40
2458274.33866397
  9
$TDUPDATE
 40
2458275.467689919
  9
$TDUUPDATE
 40
2458275.092689919
  9
$TDINDWG
 40
0.0009428819
  9
$TDUSRTIMER
 40
0.0009428704
  9
$USRTIMER
 70
     1
  9
$ANGBASE
 50
0.0
  9
$ANGDIR
 70
     0
  9
$PDMODE
 70
     0
  9
$PDSIZE
 40
-1.0
  9
$PLINEWID
 40
0.0
  9
$SPLFRAME
 70
     0
  9
$SPLINETYPE
 70
     6
  9
$SPLINESEGS
 70
     8
  9
$HANDSEED
  5
15B
  9
$SURFTAB1
 70
     6
  9
$SURFTAB2
 70
     6
  9
$SURFTYPE
 70
     6
  9
$SURFU
 70
     6
  9
$SURFV
 70
     6
  9
$UCSBASE
  2

  9
$UCSNAME
  2

  9
$UCSORG
 10
0.0
 20
0.0
 30
0.0
  9
$UCSXDIR
 10
1.0
 20
0.0
 30
0.0
  9
$UCSYDIR
 10
0.0
 20
1.0
 30
0.0
  9
$UCSORTHOREF
  2

  9
$UCSORTHOVIEW
 70
     0
  9
$UCSORGTOP
 10
0.0
 20
0.0
 30
0.0
  9
$UCSORGBOTTOM
 10
0.0
 20
0.0
 30
0.0
  9
$UCSORGLEFT
 10
0.0
 20
0.0
 30
0.0
  9
$UCSORGRIGHT
 10
0.0
 20
0.0
 30
0.0
  9
$UCSORGFRONT
 10
0.0
 20
0.0
 30
0.0
  9
$UCSORGBACK
 10
0.0
 20
0.0
 30
0.0
  9
$PUCSBASE
  2

  9
$PUCSNAME
  2

  9
$PUCSORG
 10
0.0
 20
0.0
 30
0.0
  9
$PUCSXDIR
 10
1.0
 20
0.0
 30
0.0
  9
$PUCSYDIR
 10
0.0
 20
1.0
 30
0.0
  9
$PUCSORTHOREF
  2

  9
$PUCSORTHOVIEW
 70
     0
  9
$PUCSORGTOP
 10
0.0
 20
0.0
 30
0.0
  9
$PUCSORGBOTTOM
 10
0.0
 20
0.0
 30
0.0
  9
$PUCSORGLEFT
 10
0.0
 20
0.0
 30
0.0
  9
$PUCSORGRIGHT
 10
0.0
 20
0.0
 30
0.0
  9
$PUCSORGFRONT
 10
0.0
 20
0.0
 30
0.0
  9
$PUCSORGBACK
 10
0.0
 20
0.0
 30
0.0
  9
$USERI1
 70
     0
  9
$USERI2
 70
     0
  9
$USERI3
 70
     0
  9
$USERI4
 70
     0
  9
$USERI5
 70
     0
  9
$USERR1
 40
0.0
  9
$USERR2
 40
0.0
  9
$USERR3
 40
0.0
  9
$USERR4
 40
0.0
  9
$USERR5
 40
0.0
  9
$WORLDVIEW
 70
     1
  9
$SHADEDGE
 70
     3
  9
$SHADEDIF
 70
    70
  9
$TILEMODE
 70
     1
  9
$MAXACTVP
 70
    64
  9
$PINSBASE
 10
0.0
 20
0.0
 30
0.0
  9
$PLIMCHECK
 70
     0
  9
$PEXTMIN
 10
1.000000000000000E+20
 20
1.000000000000000E+20
 30
1.000000000000000E+20
  9
$PEXTMAX
 10
-1.000000000000000E+20
 20
-1.000000000000000E+20
 30
-1.000000000000000E+20
  9
$PLIMMIN
 10
0.0
 20
0.0
  9
$PLIMMAX
 10
0.0
 20
0.0
  9
$UNITMODE
 70
     0
  9
$VISRETAIN
 70
     1
  9
$PLINEGEN
 70
     0
  9
$PSLTSCALE
 70
     1
  9
$TREEDEPTH
 70
  3020
  9
$CMLSTYLE
  2
Standard
  9
$CMLJUST
 70
     0
  9
$CMLSCALE
 40
20.0
  9
$PROXYGRAPHICS
 70
     1
  9
$MEASUREMENT
 70
     1
  9
$CELWEIGHT
370
    -1
  9
$ENDCAPS
280
     0
  9
$JOINSTYLE
280
     0
  9
$LWDISPLAY
290
     1
  9
$INSUNITS
 70
     4
  9
$HYPERLINKBASE
  1

  9
$STYLESHEET
  1

  9
$XEDIT
290
     1
  9
$CEPSNTYPE
380
     0
  9
$PSTYLEMODE
290
     1
  9
$FINGERPRINTGUID
  2
{9616CBDA-F84E-4CB0-AC5E-0DA89BCB3769}
  9
$VERSIONGUID
  2
{FAEB1C32-E019-11D5-929B-00C0DF256EC4}
  9
$EXTNAMES
290
     1
  9
$PSVPSCALE
 40
0.0
  9
$OLESTARTUP
290
     0
  0
ENDSEC
  0
SECTION
  2
CLASSES
  0
CLASS
  1
ACDBDICTIONARYWDFLT
  2
AcDbDictionaryWithDefault
  3
ObjectDBX Classes
 90
        0
280
     0
281
     0
  0
CLASS
  1
VISUALSTYLE
  2
AcDbVisualStyle
  3
ObjectDBX Classes
 90
     4095
280
     0
281
     0
  0
CLASS
  1
MATERIAL
  2
AcDbMaterial
  3
ObjectDBX Classes
 90
     1153
280
     0
281
     0
  0
CLASS
  1
SCALE
  2
AcDbScale
  3
ObjectDBX Classes
 90
     1153
280
     0
281
     0
  0
CLASS
  1
SUN
  2
AcDbSun
  3
SCENEOE
 90
     1153
280
     0
281
     0
  0
CLASS
  1
ACDBPLACEHOLDER
  2
AcDbPlaceHolder
  3
ObjectDBX Classes
 90
        0
280
     0
281
     0
  0
CLASS
  1
LAYOUT
  2
AcDbLayout
  3
ObjectDBX Classes
 90
        0
280
     0
281
     0
  0
CLASS
  1
TABLESTYLE
  2
AcDbTableStyle
  3
ObjectDBX Classes
 90
     4095
280
     0
281
     0
  0
CLASS
  1
MLEADERSTYLE
  2
AcDbMLeaderStyle
  3
ACDB_MLEADERSTYLE_CLASS
 90
     4095
280
     0
281
     0
  0
CLASS
  1
DIMASSOC
  2
AcDbDimAssoc
  3
"AcDbDimAssoc|Product Desc:     AcDim ARX App For Dimension|Company:          Autodesk, Inc.|WEB Address:      www.autodesk.com"
 90
        0
280
     0
281
     0
  0
ENDSEC
  0
SECTION
  2
TABLES
  0
TABLE
  2
VPORT
  5
8
330
0
100
AcDbSymbolTable
 70
     1
  0
VPORT
  5
29
330
8
100
AcDbSymbolTableRecord
100
AcDbViewportTableRecord
  2
*Active
 70
     0
 10
0.0
 20
0.0
 11
1.0
 21
1.0
 12
-1.600267919051674
 22
-8.044253877590023
 13
0.0
 23
0.0
 14
10.0
 24
10.0
 15
10.0
 25
10.0
 16
0.0
 26
0.0
 36
1.0
 17
0.0
 27
0.0
 37
0.0
 40
85.5322091628923
 41
2.400311526479751
 42
50.0
 43
0.0
 44
0.0
 50
0.0
 51
0.0
 71
    16
 72
  2000
 73
     1
 74
     3
 75
     0
 76
     0
 77
     0
 78
     0
281
     0
 65
     1
110
0.0
120
0.0
130
0.0
111
1.0
121
0.0
131
0.0
112
0.0
122
1.0
132
0.0
 79
     0
146
0.0
  0
ENDTAB
  0
TABLE
  2
LTYPE
  5
5
330
0
100
AcDbSymbolTable
 70
     6
  0
LTYPE
  5
14
330
5
100
AcDbSymbolTableRecord
100
AcDbLinetypeTableRecord
  2
ByBlock
 70
     0
  3

 72
    65
 73
     0
 40
0.0
  0
LTYPE
  5
15
330
5
100
AcDbSymbolTableRecord
100
AcDbLinetypeTableRecord
  2
ByLayer
 70
     0
  3

 72
    65
 73
     0
 40
0.0
  0
LTYPE
  5
16
330
5
100
AcDbSymbolTableRecord
100
AcDbLinetypeTableRecord
  2
Continuous
 70
     0
  3
Solid line
 72
    65
 73
     0
 40
0.0
  0
LTYPE
  5
6A
330
5
100
AcDbSymbolTableRecord
100
AcDbLinetypeTableRecord
  2
HIDDEN
 70
     0
  3
Hidden __ __ __ __ __ __ __ __ __ __ __ __ __ __
 72
    65
 73
     2
 40
1.905
 49
1.27
 74
     0
 49
-0.635
 74
     0
  0
LTYPE
  5
6B
330
5
100
AcDbSymbolTableRecord
100
AcDbLinetypeTableRecord
  2
PHANTOM
 70
     0
  3
Phantom ______  __  __  ______  __  __  ______
 72
    65
 73
     6
 40
12.7
 49
6.35
 74
     0
 49
-1.27
 74
     0
 49
1.27
 74
     0
 49
-1.27
 74
     0
 49
1.27
 74
     0
 49
-1.27
 74
     0
  0
LTYPE
  5
6C
330
5
100
AcDbSymbolTableRecord
100
AcDbLinetypeTableRecord
  2
CENTER
 70
     0
  3
Center ____ _ ____ _ ____ _ ____ _ ____ _ ____
 72
    65
 73
     4
 40
10.16
 49
6.35
 74
     0
 49
-1.27
 74
     0
 49
1.27
 74
     0
 49
-1.27
 74
     0
  0
LTYPE
  5
6D
330
5
100
AcDbSymbolTableRecord
100
AcDbLinetypeTableRecord
  2
CENTERX2
 70
     0
  3
Center (2x) ________  __  ________  __  _____
 72
    65
 73
     4
 40
20.32
 49
12.7
 74
     0
 49
-2.54
 74
     0
 49
2.54
 74
     0
 49
-2.54
 74
     0
  0
LTYPE
  5
6E
330
5
100
AcDbSymbolTableRecord
100
AcDbLinetypeTableRecord
  2
DOT2
 70
     0
  3
Dot (.5x) ........................................
 72
    65
 73
     2
 40
0.635
 49
0.0
 74
     0
 49
-0.635
 74
     0
  0
ENDTAB
  0
TABLE
  2
LAYER
  5
2
330
0
100
AcDbSymbolTable
 70
    18
  0
LAYER
  5
10
330
2
100
AcDbSymbolTableRecord
100
AcDbLayerTableRecord
  2
0
 70
     0
 62
     7
  6
Continuous
370
    -3
390
F
  0
LAYER
  5
6F
330
2
100
AcDbSymbolTableRecord
100
AcDbLayerTableRecord
  2
FORMAT
 70
     0
 62
     2
  6
Continuous
370
    -3
390
F
  0
LAYER
  5
70
330
2
100
AcDbSymbolTableRecord
100
AcDbLayerTableRecord
  2
외형선
 70
     0
 62
     4
  6
Continuous
370
    30
390
F
  0
LAYER
  5
71
330
2
100
AcDbSymbolTableRecord
100
AcDbLayerTableRecord
  2
숨은선
 70
     0
 62
     2
  6
HIDDEN
370
    15
390
F
  0
LAYER
  5
72
330
2
100
AcDbSymbolTableRecord
100
AcDbLayerTableRecord
  2
중심선
 70
     0
 62
     1
  6
CENTERX2
370
    -3
390
F
  0
LAYER
  5
73
330
2
100
AcDbSymbolTableRecord
100
AcDbLayerTableRecord
  2
파단선
 70
     0
 62
     4
  6
Continuous
370
    -3
390
F
  0
LAYER
  5
74
330
2
100
AcDbSymbolTableRecord
100
AcDbLayerTableRecord
  2
해칭선
 70
     0
 62
   100
  6
Continuous
370
    -3
390
F
  0
LAYER
  5
75
330
2
100
AcDbSymbolTableRecord
100
AcDbLayerTableRecord
  2
가는실선
 70
     0
 62
     4
  6
Continuous
370
    -3
390
F
  0
LAYER
  5
76
330
2
100
AcDbSymbolTableRecord
100
AcDbLayerTableRecord
  2
치수_보조선
 70
     0
 62
     4
  6
Continuous
370
    -3
390
F
  0
LAYER
  5
77
330
2
100
AcDbSymbolTableRecord
100
AcDbLayerTableRecord
  2
치수문자_일반주서
 70
     0
 62
     7
  6
Continuous
370
    15
390
F
  0
LAYER
  5
78
330
2
100
AcDbSymbolTableRecord
100
AcDbLayerTableRecord
  2
개별주서
 70
     0
 62
   100
  6
Continuous
370
    30
390
F
  0
LAYER
  5
79
330
2
100
AcDbSymbolTableRecord
100
AcDbLayerTableRecord
  2
중간선
 70
     0
 62
     2
  6
Continuous
370
    15
390
F
  0
LAYER
  5
7A
330
2
100
AcDbSymbolTableRecord
100
AcDbLayerTableRecord
  2
윤곽선
 70
     0
 62
     3
  6
Continuous
370
    40
390
F
  0
LAYER
  5
7B
330
2
100
AcDbSymbolTableRecord
100
AcDbLayerTableRecord
  2
중심마크
 70
     0
 62
   100
  6
Continuous
370
    30
390
F
  0
LAYER
  5
7C
330
2
100
AcDbSymbolTableRecord
100
AcDbLayerTableRecord
  2
가상선
 70
     0
 62
     4
  6
PHANTOM
370
    -3
390
F
  0
LAYER
  5
7D
330
2
100
AcDbSymbolTableRecord
100
AcDbLayerTableRecord
  2
특수지정선
 70
     0
 62
     5
  6
CENTERX2
370
    60
390
F
  0
LAYER
  5
7E
330
2
100
AcDbSymbolTableRecord
100
AcDbLayerTableRecord
  2
참조1
 70
     0
 62
    -4
  6
Continuous
370
    -3
390
F
  0
LAYER
  5
13B
330
2
100
AcDbSymbolTableRecord
100
AcDbLayerTableRecord
  2
Defpoints
 70
     0
 62
     7
  6
Continuous
290
     0
370
    -3
390
F
  0
ENDTAB
  0
TABLE
  2
STYLE
  5
3
330
0
100
AcDbSymbolTable
 70
     2
  0
STYLE
  5
11
330
3
100
AcDbSymbolTableRecord
100
AcDbTextStyleTableRecord
  2
Standard
 70
     0
 40
0.0
 41
1.0
 50
0.0
 71
     0
 42
3.5
  3
txt
  4

  0
STYLE
  5
94
330
3
100
AcDbSymbolTableRecord
100
AcDbTextStyleTableRecord
  2
SLDTEXTSTYLE0
 70
     0
 40
0.0
 41
0.75
 50
0.0
 71
     0
 42
3.5
  3
TXT
  4

  0
ENDTAB
  0
TABLE
  2
VIEW
  5
6
330
0
100
AcDbSymbolTable
 70
     0
  0
ENDTAB
  0
TABLE
  2
UCS
  5
7
330
0
100
AcDbSymbolTable
 70
     0
  0
ENDTAB
  0
TABLE
  2
APPID
  5
9
330
0
100
AcDbSymbolTable
 70
     3
  0
APPID
  5
12
330
9
100
AcDbSymbolTableRecord
100
AcDbRegAppTableRecord
  2
ACAD
 70
     0
  0
APPID
  5
149
330
9
100
AcDbSymbolTableRecord
100
AcDbRegAppTableRecord
  2
PE_URL
 70
     0
  0
APPID
  5
14C
330
9
100
AcDbSymbolTableRecord
100
AcDbRegAppTableRecord
  2
ACAD_DSTYLE_DIMRADIAL_EXTENSION
 70
     0
  0
ENDTAB
  0
TABLE
  2
DIMSTYLE
  5
A
330
0
100
AcDbSymbolTable
 70
     3
100
AcDbDimStyleTable
  0
DIMSTYLE
105
27
102
{ACAD_REACTORS
330
14D
102
}
330
A
100
AcDbSymbolTableRecord
100
AcDbDimStyleTableRecord
  2
ISO-25
 70
     0
 41
2.5
 42
0.625
 43
3.75
 44
1.25
 73
     0
 74
     0
 77
     1
 78
     8
140
2.5
141
2.5
143
0.03937007874016
147
0.625
171
     3
172
     1
178
     0
271
     2
272
     2
274
     3
278
    44
283
     0
284
     8
340
11
  0
DIMSTYLE
105
D3
330
A
100
AcDbSymbolTableRecord
100
AcDbDimStyleTableRecord
  2
SLDDIMSTYLE0
 70
     0
 41
3.302
 44
0.0
 45
0.000000001
 73
     0
 74
     0
 77
     1
 78
    12
 79
     3
140
3.5
147
0.875
173
     1
178
     0
271
     2
272
     2
276
     2
284
    12
340
94
  0
DIMSTYLE
105
E0
102
{ACAD_REACTORS
330
DF
330
ED
330
F7
330
101
330
D2
102
}
330
A
100
AcDbSymbolTableRecord
100
AcDbDimStyleTableRecord
  2
SLDDIMSTYLE1
 70
     0
 41
3.302
 44
0.0
 45
0.000000001
 73
     0
 74
     0
 77
     1
 78
    12
 79
     3
140
3.5
147
0.875
172
     1
173
     1
178
     0
271
     2
272
     2
276
     2
284
    12
289
     0
340
94
  0
ENDTAB
  0
TABLE
  2
BLOCK_RECORD
  5
1
330
0
100
AcDbSymbolTable
 70
     9
  0
BLOCK_RECORD
  5
1F
330
1
100
AcDbSymbolTableRecord
100
AcDbBlockTableRecord
  2
*Model_Space
340
22
  0
BLOCK_RECORD
  5
1B
330
1
100
AcDbSymbolTableRecord
100
AcDbBlockTableRecord
  2
*Paper_Space
340
1E
  0
BLOCK_RECORD
  5
23
330
1
100
AcDbSymbolTableRecord
100
AcDbBlockTableRecord
  2
*Paper_Space0
340
26
  0
BLOCK_RECORD
  5
7F
330
1
100
AcDbSymbolTableRecord
100
AcDbBlockTableRecord
  2
블럭10
340
0
102
{BLKREFS
331
CB
102
}
  0
BLOCK_RECORD
  5
D4
330
1
100
AcDbSymbolTableRecord
100
AcDbBlockTableRecord
  2
_D
340
0
  0
BLOCK_RECORD
  5
E1
330
1
100
AcDbSymbolTableRecord
100
AcDbBlockTableRecord
  2
_D_1
340
0
  0
BLOCK_RECORD
  5
EE
330
1
100
AcDbSymbolTableRecord
100
AcDbBlockTableRecord
  2
_D_2
340
0
  0
BLOCK_RECORD
  5
F8
330
1
100
AcDbSymbolTableRecord
100
AcDbBlockTableRecord
  2
_D_3
340
0
  0
BLOCK_RECORD
  5
102
330
1
100
AcDbSymbolTableRecord
100
AcDbBlockTableRecord
  2
_D_4
340
0
  0
BLOCK_RECORD
  5
112
330
1
100
AcDbSymbolTableRecord
100
AcDbBlockTableRecord
  2
SW_DOWELSYMBOL_0
340
0
102
{BLKREFS
331
118
102
}
  0
BLOCK_RECORD
  5
150
330
1
100
AcDbSymbolTableRecord
100
AcDbBlockTableRecord
  2
*D8
340
0
  0
ENDTAB
  0
ENDSEC
  0
SECTION
  2
BLOCKS
  0
BLOCK
  5
20
330
1F
100
AcDbEntity
  8
0
100
AcDbBlockBegin
  2
*Model_Space
 70
     0
 10
0.0
 20
0.0
 30
0.0
  3
*Model_Space
  1

  0
ENDBLK
  5
21
330
1F
100
AcDbEntity
  8
0
100
AcDbBlockEnd
  0
BLOCK
  5
1C
330
1B
100
AcDbEntity
 67
     1
  8
0
100
AcDbBlockBegin
  2
*Paper_Space
 70
     0
 10
0.0
 20
0.0
 30
0.0
  3
*Paper_Space
  1

  0
ENDBLK
  5
1D
330
1B
100
AcDbEntity
 67
     1
  8
0
100
AcDbBlockEnd
  0
BLOCK
  5
24
330
23
100
AcDbEntity
  8
0
100
AcDbBlockBegin
  2
*Paper_Space0
 70
     0
 10
0.0
 20
0.0
 30
0.0
  3
*Paper_Space0
  1

  0
ENDBLK
  5
25
330
23
100
AcDbEntity
  8
0
100
AcDbBlockEnd
  0
BLOCK
  5
80
330
7F
100
AcDbEntity
  8
0
100
AcDbBlockBegin
  2
블럭10
 70
     2
 10
0.0
 20
0.0
 30
0.0
  3
블럭10
  1

  0
ELLIPSE
  5
82
330
7F
100
AcDbEntity
  8
중심선
100
AcDbEllipse
 10
20.54032771741204
 20
12.0471743016438
 30
0.0
 11
6.600054785286829
 21
-1.261213355974178E-13
 31
0.0
210
0.0
220
0.0
230
1.0
 40
0.636358354079598
 41
0.9219305317359503
 42
6.513795318482858
  0
ELLIPSE
  5
83
330
7F
100
AcDbEntity
  8
중심선
100
AcDbEllipse
 10
20.54032771746488
 20
12.04717430159265
 30
0.0
 11
3.960054785062283
 21
1.540847449632565E-10
 31
0.0
210
0.0
220
0.0
230
1.0
 40
0.3939339440162632
 41
1.131841032648279
 42
5.62031148352944
  0
LINE
  5
84
330
7F
100
AcDbEntity
  8
중심선
100
AcDbLine
 10
2.268634060543552
 20
16.24717430164393
 30
0.0
 11
5.714909304380834
 21
16.24717430164393
 31
0.0
  0
LINE
  5
85
330
7F
100
AcDbEntity
  8
중심선
100
AcDbLine
 10
5.245725140726316
 20
7.84717430164391
 30
0.0
 11
8.692000384563599
 21
7.84717430164391
 31
0.0
  0
LINE
  5
86
330
7F
100
AcDbEntity
  8
중심선
100
AcDbLine
 10
15.74043728645272
 20
16.24717430164393
 30
0.0
 11
8.692000384563599
 21
7.84717430164391
 31
0.0
  0
LINE
  5
87
330
7F
100
AcDbEntity
  8
중심선
100
AcDbLine
 10
0.1404042013395286
 20
13.71084872107135
 30
0.0
 11
3.58671253028996
 21
13.71088815037384
 31
0.0
  0
LINE
  5
88
330
7F
100
AcDbEntity
  8
중심선
100
AcDbLine
 10
2.750260043222114
 20
10.84717430164391
 30
0.0
 11
6.196535287059397
 21
10.84717430164391
 31
0.0
  0
LINE
  5
89
330
7F
100
AcDbEntity
  8
중심선
100
AcDbLine
 10
12.29416204261559
 20
16.24717430164393
 30
0.0
 11
5.245725140726316
 21
7.84717430164391
 31
0.0
  0
LINE
  5
8A
330
7F
100
AcDbEntity
  8
중심선
100
AcDbLine
 10
10.72767329541681
 20
16.24717430164393
 30
0.0
 11
6.196535287059397
 21
10.84717430164391
 31
0.0
  0
LINE
  5
8B
330
7F
100
AcDbEntity
  8
중심선
100
AcDbLine
 10
7.28139805157953
 20
16.24717430164393
 30
0.0
 11
2.750260043222114
 21
10.84717430164391
 31
0.0
  0
LINE
  5
8C
330
7F
100
AcDbEntity
  8
중심선
100
AcDbLine
 10
5.714909304380834
 20
16.24717430164393
 30
0.0
 11
3.58671253028996
 21
13.71088815037384
 31
0.0
  0
LINE
  5
8D
330
7F
100
AcDbEntity
  8
중심선
100
AcDbLine
 10
2.268634060543552
 20
16.24717430164393
 30
0.0
 11
0.1404042013395286
 21
13.71084872107135
 31
0.0
  0
LINE
  5
8E
330
7F
100
AcDbEntity
  8
중심선
100
AcDbLine
 10
7.28139805157953
 20
16.24717430164393
 30
0.0
 11
10.72767329541681
 21
16.24717430164393
 31
0.0
  0
LINE
  5
8F
330
7F
100
AcDbEntity
  8
중심선
100
AcDbLine
 10
12.29416204261559
 20
16.24717430164393
 30
0.0
 11
15.74043728645272
 21
16.24717430164393
 31
0.0
  0
LINE
  5
90
330
7F
100
AcDbEntity
  8
중심선
100
AcDbLine
 10
19.22036997980202
 20
11.08717430171403
 30
0.0
 11
23.66174974927406
 21
11.08717430171406
 31
0.0
  0
LINE
  5
91
330
7F
100
AcDbEntity
  8
중심선
100
AcDbLine
 10
19.22039502424796
 20
13.00717430171391
 30
0.0
 11
19.22036997980202
 21
11.08717430171403
 31
0.0
  0
LINE
  5
92
330
7F
100
AcDbEntity
  8
중심선
100
AcDbLine
 10
19.22039502424796
 20
13.00717430171391
 30
0.0
 11
26.96566020931264
 21
13.00717430171391
 31
0.0
  0
LINE
  5
93
330
7F
100
AcDbEntity
  8
중심선
100
AcDbLine
 10
22.22332737316547
 20
13.45928029700563
 30
0.0
 11
24.52862924686651
 21
15.39360700705356
 31
0.0
  0
ATTDEF
  5
95
330
7F
100
AcDbEntity
  8
FORMAT
 62
     2
100
AcDbText
 10
-7.268459303319146
 20
2.075366912832191
 30
0.0
 40
4.233333333333333
  1
SEME6412010110E
 41
0.75
  7
SLDTEXTSTYLE0
 11
-7.268459303319146
 21
-0.0412997538344756
 31
0.0
100
AcDbAttributeDefinition
  3

  2
AUTOATTR0
 70
     0
 74
     1
  0
ENDBLK
  5
81
330
7F
100
AcDbEntity
  8
0
100
AcDbBlockEnd
  0
BLOCK
  5
D5
330
D4
100
AcDbEntity
  8
0
100
AcDbBlockBegin
  2
_D
 70
     0
 10
0.0
 20
0.0
 30
0.0
  3
_D
  1

  0
LINE
  5
D7
330
D4
100
AcDbEntity
  8
치수문자_일반주서
 62
     0
370
    -2
100
AcDbLine
 10
38.43853232075094
 20
6.000000000000004
 30
0.0
 11
69.26259926472807
 21
6.00000000000012
 31
0.0
  0
LINE
  5
D8
330
D4
100
AcDbEntity
  8
치수문자_일반주서
 62
     0
370
    -2
100
AcDbLine
 10
38.43853232075094
 20
-5.999999999999994
 30
0.0
 11
69.26259926472811
 21
-5.999999999999876
 31
0.0
  0
LINE
  5
D9
330
D4
100
AcDbEntity
  8
치수문자_일반주서
 62
     0
370
    -2
100
AcDbLine
 10
69.26259926472807
 20
6.00000000000012
 30
0.0
 11
69.26259926472801
 21
20.47900000000012
 31
0.0
  0
LINE
  5
DA
330
D4
100
AcDbEntity
  8
치수문자_일반주서
 62
     0
370
    -2
100
AcDbLine
 10
69.26259926472807
 20
6.00000000000012
 30
0.0
 11
69.26259926472811
 21
-5.999999999999876
 31
0.0
  0
LINE
  5
DB
330
D4
100
AcDbEntity
  8
치수문자_일반주서
 62
     0
370
    -2
100
AcDbLine
 10
69.26259926472805
 20
9.30200000000012
 30
0.0
 11
69.26259926472804
 21
12.60400000000012
 31
0.0
  0
LINE
  5
DC
330
D4
100
AcDbEntity
  8
치수문자_일반주서
 62
     0
370
    -2
100
AcDbLine
 10
69.26259926472812
 20
-9.301999999999875
 30
0.0
 11
69.26259926472814
 21
-12.60399999999987
 31
0.0
  0
SOLID
  5
DD
330
D4
100
AcDbEntity
  8
치수문자_일반주서
 62
     0
100
AcDbTrace
 10
68.71226593139473
 20
9.302000000000119
 30
0.0
 11
69.81293259806138
 21
9.302000000000122
 31
0.0
 12
69.26259926472807
 22
6.00000000000012
 32
0.0
 13
69.26259926472807
 23
6.00000000000012
 33
0.0
  0
SOLID
  5
DE
330
D4
100
AcDbEntity
  8
치수문자_일반주서
 62
     0
100
AcDbTrace
 10
69.81293259806145
 20
-9.301999999999873
 30
0.0
 11
68.7122659313948
 21
-9.301999999999877
 31
0.0
 12
69.26259926472811
 22
-5.999999999999876
 32
0.0
 13
69.26259926472811
 23
-5.999999999999876
 33
0.0
  0
MTEXT
  5
13C
330
D4
100
AcDbEntity
  8
치수문자_일반주서
 62
     0
100
AcDbMText
 10
64.88759926472802
 20
16.5415000000001
 30
0.0
 40
3.5
 41
0.0
 71
     2
 72
     1
  1
\A1;%%c12
  7
SLDTEXTSTYLE0
 11
-3.552713678800502E-15
 21
1.0
 31
0.0
 73
     1
 44
1.0
  0
POINT
  5
13D
330
D4
100
AcDbEntity
  8
Defpoints
 62
     0
100
AcDbPoint
 10
38.37603232075094
 20
6.000000000000004
 30
0.0
  0
POINT
  5
14A
330
D4
100
AcDbEntity
  8
Defpoints
 62
     0
100
AcDbPoint
 10
38.37603232075094
 20
-5.999999999999994
 30
0.0
  0
POINT
  5
14B
330
D4
100
AcDbEntity
  8
Defpoints
 62
     0
100
AcDbPoint
 10
69.26259926472811
 20
-5.999999999999878
 30
0.0
  0
ENDBLK
  5
D6
330
D4
100
AcDbEntity
  8
0
100
AcDbBlockEnd
  0
BLOCK
  5
E2
330
E1
100
AcDbEntity
  8
0
100
AcDbBlockBegin
  2
_D_1
 70
     0
 10
0.0
 20
0.0
 30
0.0
  3
_D_1
  1

  0
LINE
  5
E4
330
E1
100
AcDbEntity
  8
치수문자_일반주서
 62
     0
370
    -2
100
AcDbLine
 10
-58.71249999999998
 20
6.000000000000005
 30
0.0
 11
-68.6384684361648
 21
5.999999999999968
 31
0.0
  0
LINE
  5
E5
330
E1
100
AcDbEntity
  8
치수문자_일반주서
 62
     0
370
    -2
100
AcDbLine
 10
-58.71249999999998
 20
-6.000000000000005
 30
0.0
 11
-68.63846843616476
 21
-6.000000000000043
 31
0.0
  0
LINE
  5
E6
330
E1
100
AcDbEntity
  8
치수문자_일반주서
 62
     0
370
    -2
100
AcDbLine
 10
-68.63846843616479
 20
2.697999999999968
 30
0.0
 11
-68.63846843616477
 21
-2.698000000000043
 31
0.0
  0
SOLID
  5
E7
330
E1
100
AcDbEntity
  8
치수문자_일반주서
 62
     0
100
AcDbTrace
 10
-68.08813510283146
 20
2.69799999999997
 30
0.0
 11
-69.18880176949811
 21
2.697999999999967
 31
0.0
 12
-68.6384684361648
 22
5.999999999999968
 32
0.0
 13
-68.6384684361648
 23
5.999999999999968
 33
0.0
  0
SOLID
  5
E8
330
E1
100
AcDbEntity
  8
치수문자_일반주서
 62
     0
100
AcDbTrace
 10
-69.1888017694981
 20
-2.698000000000045
 30
0.0
 11
-68.08813510283144
 21
-2.698000000000041
 31
0.0
 12
-68.63846843616476
 22
-6.000000000000043
 32
0.0
 13
-68.63846843616476
 23
-6.000000000000043
 33
0.0
  0
MTEXT
  5
E9
330
E1
100
AcDbEntity
  8
치수문자_일반주서
 62
     0
100
AcDbMText
 10
-73.01346843616479
 20
-0.0000000000000108
 30
0.0
 40
3.5
 41
0.0
 71
     2
 72
     1
  1
\A1;%%c12
  7
SLDTEXTSTYLE0
 11
-3.552713678800498E-15
 21
1.0
 31
0.0
 73
     1
 44
1.0
  0
POINT
  5
EA
330
E1
100
AcDbEntity
  8
Defpoints
 62
     0
100
AcDbPoint
 10
-58.64999999999998
 20
6.000000000000005
 30
0.0
  0
POINT
  5
EB
330
E1
100
AcDbEntity
  8
Defpoints
 62
     0
100
AcDbPoint
 10
-58.64999999999998
 20
-6.000000000000005
 30
0.0
  0
POINT
  5
EC
330
E1
100
AcDbEntity
  8
Defpoints
 62
     0
100
AcDbPoint
 10
-68.63846843616479
 20
-6.000000000000043
 30
0.0
  0
ENDBLK
  5
E3
330
E1
100
AcDbEntity
  8
0
100
AcDbBlockEnd
  0
BLOCK
  5
EF
330
EE
100
AcDbEntity
  8
0
100
AcDbBlockBegin
  2
_D_2
 70
     0
 10
0.0
 20
0.0
 30
0.0
  3
_D_2
  1

  0
LINE
  5
F1
330
EE
100
AcDbEntity
  8
치수문자_일반주서
 62
     0
370
    -2
100
AcDbLine
 10
50.15000000000001
 20
5.027263568426803
 30
0.0
 11
50.15000000000001
 21
15.1008023324698
 31
0.0
  0
LINE
  5
F2
330
EE
100
AcDbEntity
  8
치수문자_일반주서
 62
     0
370
    -2
100
AcDbLine
 10
20.15000000000001
 20
5.976891029504524
 30
0.0
 11
20.15000000000001
 21
15.1008023324698
 31
0.0
  0
LINE
  5
F3
330
EE
100
AcDbEntity
  8
치수문자_일반주서
 62
     0
370
    -2
100
AcDbLine
 10
46.84800000000001
 20
15.1008023324698
 30
0.0
 11
23.45200000000001
 21
15.1008023324698
 31
0.0
  0
SOLID
  5
F4
330
EE
100
AcDbEntity
  8
치수문자_일반주서
 62
     0
100
AcDbTrace
 10
46.84800000000001
 20
14.55046899913647
 30
0.0
 11
46.84800000000001
 21
15.65113566580314
 31
0.0
 12
50.15000000000001
 22
15.1008023324698
 32
0.0
 13
50.15000000000001
 23
15.1008023324698
 33
0.0
  0
SOLID
  5
F5
330
EE
100
AcDbEntity
  8
치수문자_일반주서
 62
     0
100
AcDbTrace
 10
23.45200000000001
 20
15.65113566580314
 30
0.0
 11
23.45200000000001
 21
14.55046899913647
 31
0.0
 12
20.15000000000001
 22
15.1008023324698
 32
0.0
 13
20.15000000000001
 23
15.1008023324698
 33
0.0
  0
MTEXT
  5
F6
330
EE
100
AcDbEntity
  8
치수문자_일반주서
 62
     0
100
AcDbMText
 10
35.15
 20
19.4758023324698
 30
0.0
 40
3.5
 41
0.0
 71
     2
 72
     1
  1
\A1;30
  7
SLDTEXTSTYLE0
 73
     1
 44
1.0
  0
POINT
  5
13E
330
EE
100
AcDbEntity
  8
Defpoints
 62
     0
100
AcDbPoint
 10
50.15000000000001
 20
4.964763568426803
 30
0.0
  0
POINT
  5
13F
330
EE
100
AcDbEntity
  8
Defpoints
 62
     0
100
AcDbPoint
 10
20.15000000000001
 20
5.914391029504524
 30
0.0
  0
POINT
  5
140
330
EE
100
AcDbEntity
  8
Defpoints
 62
     0
100
AcDbPoint
 10
20.15000000000001
 20
15.1008023324698
 30
0.0
  0
ENDBLK
  5
F0
330
EE
100
AcDbEntity
  8
0
100
AcDbBlockEnd
  0
BLOCK
  5
F9
330
F8
100
AcDbEntity
  8
0
100
AcDbBlockBegin
  2
_D_3
 70
     0
 10
0.0
 20
0.0
 30
0.0
  3
_D_3
  1

  0
LINE
  5
FB
330
F8
100
AcDbEntity
  8
치수문자_일반주서
 62
     0
370
    -2
100
AcDbLine
 10
50.15000000000001
 20
5.027263568426803
 30
0.0
 11
50.15000000000001
 21
21.10080233246978
 31
0.0
  0
LINE
  5
FC
330
F8
100
AcDbEntity
  8
치수문자_일반주서
 62
     0
370
    -2
100
AcDbLine
 10
0.1500000000000057
 20
5.912499999999999
 30
0.0
 11
0.1500000000000057
 21
21.10080233246978
 31
0.0
  0
LINE
  5
FD
330
F8
100
AcDbEntity
  8
치수문자_일반주서
 62
     0
370
    -2
100
AcDbLine
 10
46.84800000000001
 20
21.10080233246978
 30
0.0
 11
3.452000000000005
 21
21.10080233246978
 31
0.0
  0
SOLID
  5
FE
330
F8
100
AcDbEntity
  8
치수문자_일반주서
 62
     0
100
AcDbTrace
 10
46.84800000000001
 20
20.55046899913645
 30
0.0
 11
46.84800000000001
 21
21.65113566580311
 31
0.0
 12
50.15000000000001
 22
21.10080233246978
 32
0.0
 13
50.15000000000001
 23
21.10080233246978
 33
0.0
  0
SOLID
  5
FF
330
F8
100
AcDbEntity
  8
치수문자_일반주서
 62
     0
100
AcDbTrace
 10
3.452000000000005
 20
21.65113566580311
 30
0.0
 11
3.452000000000005
 21
20.55046899913645
 31
0.0
 12
0.1500000000000057
 22
21.10080233246978
 32
0.0
 13
0.1500000000000057
 23
21.10080233246978
 33
0.0
  0
MTEXT
  5
100
330
F8
100
AcDbEntity
  8
치수문자_일반주서
 62
     0
100
AcDbMText
 10
25.15000000000001
 20
25.47580233246978
 30
0.0
 40
3.5
 41
0.0
 71
     2
 72
     1
  1
\A1;50
  7
SLDTEXTSTYLE0
 73
     1
 44
1.0
  0
POINT
  5
141
330
F8
100
AcDbEntity
  8
Defpoints
 62
     0
100
AcDbPoint
 10
50.15000000000001
 20
4.964763568426803
 30
0.0
  0
POINT
  5
142
330
F8
100
AcDbEntity
  8
Defpoints
 62
     0
100
AcDbPoint
 10
0.1500000000000057
 20
5.849999999999999
 30
0.0
  0
POINT
  5
143
330
F8
100
AcDbEntity
  8
Defpoints
 62
     0
100
AcDbPoint
 10
0.1500000000000057
 20
21.10080233246978
 30
0.0
  0
ENDBLK
  5
FA
330
F8
100
AcDbEntity
  8
0
100
AcDbBlockEnd
  0
BLOCK
  5
103
330
102
100
AcDbEntity
  8
0
100
AcDbBlockBegin
  2
_D_4
 70
     0
 10
0.0
 20
0.0
 30
0.0
  3
_D_4
  1

  0
LINE
  5
105
330
102
100
AcDbEntity
  8
치수문자_일반주서
 62
     0
370
    -2
100
AcDbLine
 10
50.15000000000001
 20
5.027263568426803
 30
0.0
 11
50.15000000000001
 21
29.50829963363169
 31
0.0
  0
LINE
  5
106
330
102
100
AcDbEntity
  8
치수문자_일반주서
 62
     0
370
    -2
100
AcDbLine
 10
-59.84999999999999
 20
4.862500000000012
 30
0.0
 11
-59.84999999999999
 21
29.50829963363169
 31
0.0
  0
LINE
  5
107
330
102
100
AcDbEntity
  8
치수문자_일반주서
 62
     0
370
    -2
100
AcDbLine
 10
46.84800000000001
 20
29.50829963363169
 30
0.0
 11
-56.54799999999999
 21
29.50829963363169
 31
0.0
  0
SOLID
  5
108
330
102
100
AcDbEntity
  8
치수문자_일반주서
 62
     0
100
AcDbTrace
 10
46.84800000000001
 20
28.95796630029836
 30
0.0
 11
46.84800000000001
 21
30.05863296696503
 31
0.0
 12
50.15000000000001
 22
29.50829963363169
 32
0.0
 13
50.15000000000001
 23
29.50829963363169
 33
0.0
  0
SOLID
  5
109
330
102
100
AcDbEntity
  8
치수문자_일반주서
 62
     0
100
AcDbTrace
 10
-56.54799999999999
 20
30.05863296696503
 30
0.0
 11
-56.54799999999999
 21
28.95796630029836
 31
0.0
 12
-59.84999999999999
 22
29.50829963363169
 32
0.0
 13
-59.84999999999999
 23
29.50829963363169
 33
0.0
  0
MTEXT
  5
10A
330
102
100
AcDbEntity
  8
치수문자_일반주서
 62
     0
100
AcDbMText
 10
-4.849999999999993
 20
33.88329963363169
 30
0.0
 40
3.5
 41
0.0
 71
     2
 72
     1
  1
\A1;110
  7
SLDTEXTSTYLE0
 73
     1
 44
1.0
  0
POINT
  5
144
330
102
100
AcDbEntity
  8
Defpoints
 62
     0
100
AcDbPoint
 10
50.15000000000001
 20
4.964763568426803
 30
0.0
  0
POINT
  5
145
330
102
100
AcDbEntity
  8
Defpoints
 62
     0
100
AcDbPoint
 10
-59.84999999999999
 20
4.800000000000012
 30
0.0
  0
POINT
  5
146
330
102
100
AcDbEntity
  8
Defpoints
 62
     0
100
AcDbPoint
 10
-59.84999999999999
 20
29.50829963363169
 30
0.0
  0
ENDBLK
  5
104
330
102
100
AcDbEntity
  8
0
100
AcDbBlockEnd
  0
BLOCK
  5
113
330
112
100
AcDbEntity
  8
0
100
AcDbBlockBegin
  2
SW_DOWELSYMBOL_0
 70
     0
 10
0.0
 20
0.0
 30
0.0
  3
SW_DOWELSYMBOL_0
  1

  0
CIRCLE
  5
115
330
112
100
AcDbEntity
  8
해칭선
 62
     0
100
AcDbCircle
 10
0.0
 20
0.0
 30
0.0
 40
3.000000000000001
  0
HATCH
  5
116
330
112
100
AcDbEntity
  8
0
  6
Continuous
 62
     0
370
     0
100
AcDbHatch
 10
0.0
 20
0.0
 30
0.0
210
0.0
220
0.0
230
1.0
  2
SOLID
 70
     1
 71
     0
 91
        1
 92
        0
 93
        3
 72
     2
 10
0.0
 20
0.0
 40
3.000000000000001
 50
0.0
 51
90.0
 73
     1
 72
     1
 10
0.0
 20
3.000000000000001
 11
0.0
 21
0.0
 72
     1
 10
0.0
 20
0.0
 11
3.000000000000003
 21
0.0
 97
        0
 75
     0
 76
     1
 98
        1
 10
0.0
 20
0.0
  0
HATCH
  5
117
330
112
100
AcDbEntity
  8
0
  6
Continuous
 62
     0
370
     0
100
AcDbHatch
 10
0.0
 20
0.0
 30
0.0
210
0.0
220
0.0
230
1.0
  2
SOLID
 70
     1
 71
     0
 91
        1
 92
        0
 93
        3
 72
     2
 10
0.0
 20
0.0
 40
3.000000000000001
 50
180.0
 51
270.0000000000008
 73
     1
 72
     1
 10
0.0
 20
-3.000000000000001
 11
0.0
 21
0.0
 72
     1
 10
0.0
 20
0.0
 11
-3.000000000000003
 21
0.0
 97
        0
 75
     0
 76
     1
 98
        1
 10
0.0
 20
0.0
  0
ENDBLK
  5
114
330
112
100
AcDbEntity
  8
0
100
AcDbBlockEnd
  0
BLOCK
  5
151
330
150
100
AcDbEntity
  8
0
100
AcDbBlockBegin
  2
*D8
 70
     1
 10
0.0
 20
0.0
 30
0.0
  3
*D8
  1

  0
LINE
  5
153
330
150
100
AcDbEntity
  8
0
 62
     0
370
    -2
100
AcDbLine
 10
67.18879508986541
 20
-13.74640115511618
 30
0.0
 11
53.4147950898654
 21
-13.74640115511618
 31
0.0
  0
LINE
  5
154
330
150
100
AcDbEntity
  8
0
 62
     0
370
    -2
100
AcDbLine
 10
53.4147950898654
 20
-13.74640115511618
 30
0.0
 11
51.02935699150184
 21
-8.834546675849374
 31
0.0
  0
MTEXT
  5
155
330
150
100
AcDbEntity
  8
0
 62
     0
100
AcDbMText
 10
61.0637950898654
 20
-10.18073448844951
 30
0.0
 40
3.5
 41
0.0
 71
     5
 72
     1
  1
R1,00
 73
     1
 44
1.0
  0
LINE
  5
156
330
150
100
AcDbEntity
  8
0
 62
     0
370
    -2
100
AcDbLine
 10
49.15000000000001
 20
-4.964763568426783
 30
0.0
 11
49.58685657636027
 21
-5.864294741700283
 31
0.0
  0
SOLID
  5
157
330
150
100
AcDbEntity
  8
0
 62
     0
100
AcDbTrace
 10
51.52439898052668
 20
-8.594129939992447
 30
0.0
 11
50.53431500247699
 21
-9.074963411706301
 31
0.0
 12
49.58685657636027
 22
-5.864294741700283
 32
0.0
 13
49.58685657636027
 23
-5.864294741700283
 33
0.0
  0
POINT
  5
158
330
150
100
AcDbEntity
  8
Defpoints
 62
     0
100
AcDbPoint
 10
49.58685657636027
 20
-5.864294741700283
 30
0.0
  0
POINT
  5
159
330
150
100
AcDbEntity
  8
Defpoints
 62
     0
100
AcDbPoint
 10
49.15000000000001
 20
-4.964763568426783
 30
0.0
  0
ENDBLK
  5
152
330
150
100
AcDbEntity
  8
0
100
AcDbBlockEnd
  0
ENDSEC
  0
SECTION
  2
ENTITIES
  0
LINE
  5
96
330
1F
100
AcDbEntity
  8
외형선
  6
Continuous
 62
     1
370
    15
100
AcDbLine
 10
34.71743977353557
 20
-5.999999999999995
 30
0.0
 11
38.37677437258569
 21
-5.999999999999994
 31
0.0
  0
LINE
  5
97
330
1F
100
AcDbEntity
  8
외형선
  6
Continuous
 62
     1
370
    15
100
AcDbLine
 10
22.05128233836636
 20
6.000000000000002
 30
0.0
 11
20.15000000000001
 21
6.000000000000001
 31
0.0
  0
LINE
  5
98
330
1F
100
AcDbEntity
  8
외형선
  6
Continuous
 62
     1
370
    15
100
AcDbLine
 10
38.37677437258575
 20
6.000000000000004
 30
0.0
 11
34.71743977353565
 21
6.000000000000003
 31
0.0
  0
LINE
  5
99
330
1F
100
AcDbEntity
  8
외형선
  6
Continuous
 62
     1
370
    15
100
AcDbLine
 10
20.15000000000001
 20
-5.999999999999996
 30
0.0
 11
22.05128233836626
 21
-5.999999999999996
 31
0.0
  0
LINE
  5
9A
330
1F
100
AcDbEntity
  8
외형선
  6
Continuous
370
    15
100
AcDbLine
 10
-58.64999999999998
 20
-6.0
 30
0.0
 11
0.0
 21
-6.0
 31
0.0
  0
LINE
  5
9B
330
1F
100
AcDbEntity
  8
외형선
  6
Continuous
370
    15
100
AcDbLine
 10
0.0
 20
6.0
 30
0.0
 11
-58.64999999999998
 21
6.0
 31
0.0
  0
LINE
  5
9C
330
1F
100
AcDbEntity
  8
외형선
  6
Continuous
370
    15
100
AcDbLine
 10
-58.64999999999998
 20
6.0
 30
0.0
 11
-59.84999999999999
 21
4.800000000000012
 31
0.0
  0
LINE
  5
9D
330
1F
100
AcDbEntity
  8
외형선
  6
Continuous
370
    15
100
AcDbLine
 10
-59.84999999999999
 20
-4.800000000000013
 30
0.0
 11
-58.64999999999998
 21
-6.0
 31
0.0
  0
LINE
  5
9E
330
1F
100
AcDbEntity
  8
외형선
  6
Continuous
370
    15
100
AcDbLine
 10
0.0
 20
-6.0
 30
0.0
 11
0.1500000000000057
 21
-5.85
 31
0.0
  0
LINE
  5
9F
330
1F
100
AcDbEntity
  8
외형선
  6
Continuous
370
    15
100
AcDbLine
 10
0.1500000000000057
 20
5.849999999999999
 30
0.0
 11
0.0
 21
6.0
 31
0.0
  0
LINE
  5
A0
330
1F
100
AcDbEntity
  8
외형선
  6
Continuous
370
    15
100
AcDbLine
 10
0.1500000000000057
 20
-5.85
 30
0.0
 11
20.15000000000001
 21
-5.85
 31
0.0
  0
LINE
  5
A1
330
1F
100
AcDbEntity
  8
외형선
  6
Continuous
370
    15
100
AcDbLine
 10
20.15000000000001
 20
5.849999999999999
 30
0.0
 11
0.1500000000000057
 21
5.849999999999999
 31
0.0
  0
SPLINE
  5
A2
330
1F
100
AcDbEntity
  8
외형선
  6
Continuous
 62
     1
370
    15
100
AcDbSpline
210
0.0
220
0.0
230
1.0
 70
     8
 71
     3
 72
    14
 73
    10
 74
     0
 42
0.000000001
 43
0.00000001
 40
0.0
 40
0.0
 40
0.0
 40
0.0
 40
0.25
 40
0.25
 40
0.5
 40
0.5
 40
0.75
 40
0.75
 40
1.0
 40
1.0
 40
1.0
 40
1.0
 10
49.14999999999998
 20
1.086140691291728
 30
0.0
 10
49.26940722145799
 20
1.018461288221063
 30
0.0
 10
49.38982616404048
 20
0.952897238534661
 30
0.0
 10
49.62551724834947
 20
0.8329122596003992
 30
0.0
 10
49.73762108762507
 20
0.7802843338741333
 30
0.0
 10
49.93163239290785
 20
0.6947700842168361
 30
0.0
 10
50.01217885935797
 20
0.6623269583634639
 30
0.0
 10
50.12096025444379
 20
0.6159839380591995
 30
0.0
 10
50.15000000000007
 20
0.601435899814342
 30
0.0
 10
50.15000000000007
 20
0.5925560814154854
 30
0.0
  0
LINE
  5
A3
330
1F
100
AcDbEntity
  8
외형선
  6
Continuous
 62
     1
370
    15
100
AcDbLine
 10
50.15000000000001
 20
-4.595889414748757
 30
0.0
 11
50.15000000000001
 21
0.5925560814154864
 31
0.0
  0
SPLINE
  5
A4
330
1F
100
AcDbEntity
  8
외형선
  6
Continuous
 62
     1
370
    15
100
AcDbSpline
210
0.0
220
0.0
230
1.0
 70
     8
 71
     3
 72
    14
 73
    10
 74
     0
 42
0.000000001
 43
0.00000001
 40
0.0
 40
0.0
 40
0.0
 40
0.0
 40
0.25
 40
0.25
 40
0.5
 40
0.5
 40
0.75
 40
0.75
 40
1.0
 40
1.0
 40
1.0
 40
1.0
 10
50.15000000000001
 20
-4.595889414748755
 30
0.0
 10
50.14999999999998
 20
-4.728485343634087
 30
0.0
 10
50.11671894905682
 20
-4.846306288946467
 30
0.0
 10
50.00296125399507
 20
-5.032794422371739
 30
0.0
 10
49.92315154179311
 20
-5.102049665206232
 30
0.0
 10
49.73552022187697
 20
-5.193594681946021
 30
0.0
 10
49.62931424095816
 20
-5.215784336457176
 30
0.0
 10
49.39952325439157
 20
-5.21991022587013
 30
0.0
 10
49.27772501893774
 20
-5.201976685353296
 30
0.0
 10
49.14999999999998
 20
-5.164507282358487
 30
0.0
  0
SPLINE
  5
A5
330
1F
100
AcDbEntity
  8
외형선
  6
Continuous
 62
     1
370
    15
100
AcDbSpline
210
0.0
220
0.0
230
1.0
 70
     8
 71
     3
 72
    21
 73
    17
 74
     0
 42
0.000000001
 43
0.00000001
 40
0.0
 40
0.0
 40
0.0
 40
0.0
 40
0.0748979914674282
 40
0.1497981477064046
 40
0.2247018190951705
 40
0.2996103526724193
 40
0.3745250908626886
 40
0.4494473702110874
 40
0.5243781986219986
 40
0.5993060078155595
 40
0.677783850577089
 40
0.7562607705609485
 40
0.8347368205436334
 40
0.9132120533977358
 40
0.9916865220861588
 40
1.0
 40
1.0
 40
1.0
 40
1.0
 10
49.14999999999998
 20
-5.164507282358465
 30
0.0
 10
48.47349123551096
 20
-4.946648443999813
 30
0.0
 10
47.12045415344618
 20
-4.510924470523336
 30
0.0
 10
45.09084411636953
 20
-3.633170648153463
 30
0.0
 10
43.06111999299798
 20
-2.631333742412195
 30
0.0
 10
41.03123819319402
 20
-1.525619026117923
 30
0.0
 10
39.00115297134833
 20
-0.362854226222679
 30
0.0
 10
36.97083208411873
 20
0.8140265311098621
 30
0.0
 10
34.94032068016737
 20
1.959866997625986
 30
0.0
 10
32.87773820018434
 20
3.048014084303568
 30
0.0
 10
30.78310658752984
 20
4.031991547013082
 30
0.0
 10
28.65643432369257
 20
4.860865400519431
 30
0.0
 10
26.52978859531142
 20
5.493787404662359
 30
0.0
 10
24.40317026239547
 20
5.871833382104791
 30
0.0
 10
22.91033747010542
 20
6.032346760428108
 30
0.0
 10
22.12637833089036
 20
5.991996628851475
 30
0.0
 10
22.05128233836636
 20
5.988131461615521
 30
0.0
  0
SPLINE
  5
A6
330
1F
100
AcDbEntity
  8
외형선
  6
Continuous
 62
     1
370
    15
100
AcDbSpline
210
0.0
220
0.0
230
1.0
 70
     8
 71
     3
 72
    17
 73
    13
 74
     0
 42
0.000000001
 43
0.00000001
 40
0.0
 40
0.0
 40
0.0
 40
0.0
 40
0.0928398213014626
 40
0.1905468807900267
 40
0.2882457687220765
 40
0.3859382356264922
 40
0.4882828112391934
 40
0.5906269144942251
 40
0.6929706151635122
 40
0.7953139830636665
 40
0.8976570880482455
 40
0.9999999999999999
 40
0.9999999999999999
 40
0.9999999999999999
 40
0.9999999999999999
 10
28.3726243926841
 20
4.911364027703942
 30
0.0
 10
29.0156255085528
 20
5.109711326426869
 30
0.0
 10
30.33533783948725
 20
5.516804517203894
 30
0.0
 10
32.33164817448456
 20
5.877212946915556
 30
0.0
 10
34.36155004453729
 20
6.035402097020639
 30
0.0
 10
36.42349021610961
 20
5.958792534219618
 30
0.0
 10
38.51777980802444
 20
5.642666946145711
 30
0.0
 10
40.64423128547815
 20
5.085847482688136
 30
0.0
 10
42.7706862758289
 20
4.317139021682241
 30
0.0
 10
44.89712933076601
 20
3.367401710021818
 30
0.0
 10
47.02356683494025
 20
2.2804192301935
 30
0.0
 10
48.44118939061821
 20
1.484233287306469
 30
0.0
 10
49.15000000000001
 20
1.086140691291681
 30
0.0
  0
SPLINE
  5
A8
330
1F
100
AcDbEntity
  8
외형선
  6
Continuous
 62
     1
370
    15
100
AcDbSpline
210
0.0
220
0.0
230
1.0
 70
     8
 71
     3
 72
    19
 73
    15
 74
     0
 42
0.000000001
 43
0.00000001
 40
0.0
 40
0.0
 40
0.0
 40
0.0
 40
0.0667201645237737
 40
0.1494097668566177
 40
0.2321062183020902
 40
0.3148109942379388
 40
0.397525207263872
 40
0.4802360874534762
 40
0.5668657583333406
 40
0.6534944105826843
 40
0.740122102460122
 40
0.8267488923303477
 40
0.9133748386577466
 40
0.9999999999999999
 40
0.9999999999999999
 40
0.9999999999999999
 40
0.9999999999999999
 10
44.69899047663612
 20
-4.908370697791892
 30
0.0
 10
44.15304809722351
 20
-5.082777129896745
 30
0.0
 10
42.93049230457228
 20
-5.473334085879602
 30
0.0
 10
41.03123780751553
 20
-5.838809585905701
 30
0.0
 10
39.00115307472164
 20
-6.028310338229278
 30
0.0
 10
36.97083205635463
 20
-5.982908882081918
 30
0.0
 10
34.94032068783285
 20
-5.711437819984459
 30
0.0
 10
32.87773819711982
 20
-5.214616331027753
 30
0.0
 10
30.78310659192881
 20
-4.50017465313631
 30
0.0
 10
28.6564343092757
 20
-3.587065839993019
 30
0.0
 10
26.52978864857915
 20
-2.524046494260349
 30
0.0
 10
24.40317006374413
 20
-1.356584069177614
 30
0.0
 10
22.2765759509483
 20
-0.1292505664021855
 30
0.0
 10
20.85885650912978
 20
0.6844346644188657
 30
0.0
 10
20.15000000000001
 20
1.091275436462189
 30
0.0
  0
SPLINE
  5
A9
330
1F
100
AcDbEntity
  8
외형선
  6
Continuous
370
    15
100
AcDbSpline
210
0.0
220
0.0
230
1.0
 70
    24
 71
     3
 72
    16
 73
    12
 74
     0
 42
0.000000001
 43
0.00000001
 40
0.0
 40
0.0
 40
0.0
 40
0.0
 40
0.0911526823139006
 40
0.203946535769101
 40
0.3135615464876201
 40
0.4263553999428245
 40
0.5359704106613462
 40
0.6487642641165409
 40
0.7583792748350573
 40
0.8711731282902588
 40
1.0
 40
1.0
 40
1.0
 40
1.0
 10
20.15000000000007
 20
1.167259665197394
 30
0.0
 10
20.15000000000003
 20
1.254177408855508
 30
0.0
 10
20.14999999999999
 20
1.448648622054637
 30
0.0
 10
20.14999999999996
 20
1.846666392421705
 30
0.0
 10
20.15000000000006
 20
2.331863176763057
 30
0.0
 10
20.15000000000006
 20
2.869942094453576
 30
0.0
 10
20.14999999999999
 20
3.452163200736909
 30
0.0
 10
20.15000000000002
 20
4.052715721450665
 30
0.0
 10
20.14999999999996
 20
4.664003088121252
 30
0.0
 10
20.14999999999996
 20
5.296802408259955
 30
0.0
 10
20.15000000000001
 20
5.699618384872188
 30
0.0
 10
20.15000000000001
 20
5.914391029504524
 30
0.0
  0
SPLINE
  5
AA
330
1F
100
AcDbEntity
  8
외형선
  6
Continuous
 62
     1
370
    15
100
AcDbSpline
210
0.0
220
0.0
230
1.0
 70
     8
 71
     3
 72
    54
 73
    50
 74
     0
 42
0.000000001
 43
0.00000001
 40
0.0
 40
0.0
 40
0.0
 40
0.0
 40
0.0312500000000003
 40
0.0312500000000003
 40
0.0625000000000006
 40
0.0625000000000006
 40
0.0937500000000009
 40
0.0937500000000009
 40
0.1250000000000012
 40
0.1250000000000012
 40
0.1875000000000018
 40
0.1875000000000018
 40
0.2500000000000024
 40
0.2500000000000024
 40
0.2812500000000033
 40
0.2812500000000033
 40
0.3125000000000042
 40
0.3125000000000042
 40
0.3750000000000048
 40
0.3750000000000048
 40
0.4062500000000051
 40
0.4062500000000051
 40
0.4375000000000054
 40
0.4375000000000054
 40
0.4687500000000057
 40
0.4687500000000057
 40
0.500000000000006
 40
0.500000000000006
 40
0.5625000000000056
 40
0.5625000000000056
 40
0.625000000000005
 40
0.625000000000005
 40
0.6562500000000048
 40
0.6562500000000048
 40
0.6875000000000044
 40
0.6875000000000044
 40
0.7500000000000041
 40
0.7500000000000041
 40
0.7812500000000039
 40
0.7812500000000039
 40
0.8125000000000036
 40
0.8125000000000036
 40
0.8437500000000033
 40
0.8437500000000033
 40
0.8750000000000031
 40
0.8750000000000031
 40
0.9375000000000016
 40
0.9375000000000016
 40
1.0
 40
1.0
 40
1.0
 40
1.0
 10
49.15000000000001
 20
-5.964763568426783
 30
0.0
 10
48.84905502625501
 20
-5.915761358205154
 30
0.0
 10
48.5443652914733
 20
-5.882948617536355
 30
0.0
 10
47.94108610609825
 20
-5.73743402205615
 30
0.0
 10
47.64084162125196
 20
-5.683826414500087
 30
0.0
 10
47.035905672247
 20
-5.562075432021962
 30
0.0
 10
46.73257499767126
 20
-5.493996409197228
 30
0.0
 10
46.12764604869313
 20
-5.344207525094401
 30
0.0
 10
45.82741025838755
 20
-5.262636901495476
 30
0.0
 10
44.92291679166811
 20
-4.997947180565653
 30
0.0
 10
44.31370867715574
 20
-4.794493436371
 30
0.0
 10
43.11044595083553
 20
-4.342920068408255
 30
0.0
 10
42.5030742133169
 20
-4.09319065046953
 30
0.0
 10
41.59689938120621
 20
-3.690055786233565
 30
0.0
 10
41.29709035387015
 20
-3.551177117508293
 30
0.0
 10
40.69300839260143
 20
-3.264099709289153
 30
0.0
 10
40.38975041785079
 20
-3.116042083513284
 30
0.0
 10
39.48150808666863
 20
-2.660815218511559
 30
0.0
 10
38.88130111962325
 20
-2.343187287060159
 30
0.0
 10
37.9726642542308
 20
-1.849914491318635
 30
0.0
 10
37.66960291271297
 20
-1.682895746683428
 30
0.0
 10
37.06656307306437
 20
-1.345591625839543
 30
0.0
 10
36.76635727987846
 20
-1.175270901341933
 30
0.0
 10
36.16145327207433
 20
-0.8312369791985661
 30
0.0
 10
35.85812271163409
 20
-0.6577790028614929
 30
0.0
 10
35.2531622736791
 20
-0.3099581672733312
 30
0.0
 10
34.95288639015593
 20
-0.135858079008144
 30
0.0
 10
34.04847875834222
 20
0.3869839027392885
 30
0.0
 10
33.43926452152022
 20
0.7365426793104379
 30
0.0
 10
32.23586376756628
 20
1.421841087549423
 30
0.0
 10
31.62863896138772
 20
1.760042954640678
 30
0.0
 10
30.72239831318285
 20
2.2505754312461
 30
0.0
 10
30.42258768458553
 20
2.411039038711679
 30
0.0
 10
29.81855062849969
 20
2.726241245920235
 30
0.0
 10
29.5152993250466
 20
2.880795344277217
 30
0.0
 10
28.60702928539942
 20
3.332648594929486
 30
0.0
 10
28.00683718979791
 20
3.617633435682109
 30
0.0
 10
27.09821089369947
 20
4.016793073712782
 30
0.0
 10
26.79513714610712
 20
4.144934784074922
 30
0.0
 10
26.19204110482873
 20
4.38998100686432
 30
0.0
 10
25.89187220467487
 20
4.506927037291985
 30
0.0
 10
25.28700071828732
 20
4.729685110968098
 30
0.0
 10
24.98367056490615
 20
4.835304975286647
 30
0.0
 10
24.37867921837081
 20
5.033819955658915
 30
0.0
 10
24.07836144322524
 20
5.126590710253228
 30
0.0
 10
23.17404050721748
 20
5.385467175337154
 30
0.0
 10
22.56482074207199
 20
5.532059571048723
 30
0.0
 10
21.36128310046283
 20
5.766724703601866
 30
0.0
 10
20.75420373169648
 20
5.855677844185123
 30
0.0
 10
20.15000000000001
 20
5.91439102950452
 30
0.0
  0
SPLINE
  5
AB
330
1F
100
AcDbEntity
  8
외형선
  6
Continuous
 62
     1
370
    15
100
AcDbSpline
210
0.0
220
0.0
230
1.0
 70
     8
 71
     3
 72
    15
 73
    11
 74
     0
 42
0.000000001
 43
0.00000001
 40
0.0
 40
0.0
 40
0.0
 40
0.0
 40
0.1393535148178804
 40
0.2787200529787012
 40
0.4181020931424556
 40
0.5574909785397134
 40
0.6968641889890229
 40
0.8362232586630363
 40
0.9755706732885855
 40
1.0
 40
1.0
 40
1.0
 40
1.0
 10
20.15000000000001
 20
-1.009939973521401
 30
0.0
 10
20.82665952667191
 20
-1.391312980324312
 30
0.0
 10
22.18004181752414
 20
-2.154094635309272
 30
0.0
 10
24.21026707842864
 20
-3.205927199615604
 30
0.0
 10
26.24071178522357
 20
-4.138985128288206
 30
0.0
 10
28.27122370846345
 20
-4.912356372567865
 30
0.0
 10
30.30155652506049
 20
-5.50466473956903
 30
0.0
 10
32.33164996238058
 20
-5.866784177918594
 30
0.0
 10
33.80358404765575
 20
-6.023678779811264
 30
0.0
 10
34.59882043077942
 20
-5.988699303356436
 30
0.0
 10
34.71743977353557
 20
-5.98348168178494
 30
0.0
  0
LINE
  5
AC
330
1F
100
AcDbEntity
  8
외형선
  6
Continuous
370
    15
100
AcDbLine
 10
20.15000000000001
 20
1.091275436462189
 30
0.0
 11
20.15000000000001
 21
-1.0099399735214
 31
0.0
  0
SPLINE
  5
AD
330
1F
100
AcDbEntity
  8
외형선
  6
Continuous
 62
     1
370
    15
100
AcDbSpline
210
0.0
220
0.0
230
1.0
 70
     8
 71
     3
 72
    14
 73
    10
 74
     0
 42
0.000000001
 43
0.00000001
 40
0.0
 40
0.0
 40
0.0
 40
0.0
 40
0.25
 40
0.25
 40
0.5
 40
0.5
 40
0.75
 40
0.75
 40
1.0
 40
1.0
 40
1.0
 40
1.0
 10
50.15000000000001
 20
1.969213164540637
 30
0.0
 10
50.15000000000001
 20
2.034788752556866
 30
0.0
 10
50.1167189490568
 20
2.121916484573632
 30
0.0
 10
50.00296125399505
 20
2.315480721060465
 30
0.0
 10
49.92315154179311
 20
2.421321641787603
 30
0.0
 10
49.735520221877
 20
2.629105807698695
 30
0.0
 10
49.62931424095813
 20
2.729473279820529
 30
0.0
 10
49.39952325439155
 20
2.910959544714838
 30
0.0
 10
49.27772501893774
 20
2.99079537906102
 30
0.0
 10
49.14999999999998
 20
3.054155289186556
 30
0.0
  0
LINE
  5
AE
330
1F
100
AcDbEntity
  8
외형선
  6
Continuous
 62
     1
370
    15
100
AcDbLine
 10
50.15000000000001
 20
1.969213164540634
 30
0.0
 11
50.15000000000001
 21
0.5925560814154864
 31
0.0
  0
SPLINE
  5
AF
330
1F
100
AcDbEntity
  8
외형선
  6
Continuous
 62
     1
370
    15
100
AcDbSpline
210
0.0
220
0.0
230
1.0
 70
     8
 71
     3
 72
    11
 73
     7
 74
     0
 42
0.000000001
 43
0.00000001
 40
0.0
 40
0.0
 40
0.0
 40
0.0
 40
0.2241178148187457
 40
0.482747670054643
 40
0.7413750068391532
 40
1.0
 40
1.0
 40
1.0
 40
1.0
 10
28.37262439268401
 20
-4.911364027703942
 30
0.0
 10
27.75834336667506
 20
-5.104278368252408
 30
0.0
 10
26.4351878009097
 20
-5.519814047534388
 30
0.0
 10
24.40317011968266
 20
-5.881531917785706
 30
0.0
 10
22.27657593696392
 20
-6.052510396841987
 30
0.0
 10
20.85885650446835
 20
-5.950786810070149
 30
0.0
 10
20.15000000000001
 20
-5.899925247134427
 30
0.0
  0
SPLINE
  5
B0
330
1F
100
AcDbEntity
  8
외형선
  6
Continuous
370
    15
100
AcDbSpline
210
0.0
220
0.0
230
1.0
 70
    24
 71
     3
 72
    17
 73
    13
 74
     0
 42
0.000000001
 43
0.00000001
 40
0.0
 40
0.0
 40
0.0
 40
0.0
 40
0.1000541449288318
 40
0.2025911107721205
 40
0.3103673796006771
 40
0.4212691675265448
 40
0.5290454363550965
 40
0.6399472242809583
 40
0.7477234931095071
 40
0.8586252810353668
 40
0.9664015498639196
 40
1.0
 40
1.0
 40
1.0
 40
1.0
 10
20.15000000000001
 20
-5.899925247134428
 30
0.0
 10
20.15000000000002
 20
-5.732431713769287
 30
0.0
 10
20.15000000000003
 20
-5.393288332995533
 30
0.0
 10
20.15000000000004
 20
-4.833138359195534
 30
0.0
 10
20.14999999999996
 20
-4.239618494962366
 30
0.0
 10
20.15000000000007
 20
-3.634606840329682
 30
0.0
 10
20.14999999999992
 20
-3.040686467217136
 30
0.0
 10
20.15000000000018
 20
-2.48568241430748
 30
0.0
 10
20.14999999999995
 20
-1.973122147083616
 30
0.0
 10
20.14999999999998
 20
-1.535168629263101
 30
0.0
 10
20.15000000000003
 20
-1.236315303562325
 30
0.0
 10
20.15000000000003
 20
-1.119126076463459
 30
0.0
 10
20.15000000000003
 20
-1.091275436462172
 30
0.0
  0
SPLINE
  5
B1
330
1F
100
AcDbEntity
  8
외형선
  6
Continuous
 62
     1
370
    15
100
AcDbSpline
210
0.0
220
0.0
230
1.0
 70
     8
 71
     3
 72
    13
 73
     9
 74
     0
 42
0.000000001
 43
0.00000001
 40
0.0
 40
0.0
 40
0.0
 40
0.0
 40
0.1883903673087995
 40
0.3767861796515592
 40
0.5651908336247422
 40
0.7536077174248706
 40
0.9420402076425151
 40
1.0
 40
1.0
 40
1.0
 40
1.0
 10
49.14999999999998
 20
3.054155289186537
 30
0.0
 10
48.47349124908497
 20
3.37920433693443
 30
0.0
 10
47.12045419416855
 20
4.029311827300715
 30
0.0
 10
45.09084395347133
 20
4.819022231412296
 30
0.0
 10
43.06112060391441
 20
5.438238819235889
 30
0.0
 10
41.03123591219838
 20
5.831850680861016
 30
0.0
 10
39.46977532610888
 20
6.012034801728765
 30
0.0
 10
38.58492182262941
 20
5.982578054530253
 30
0.0
 10
38.37677437258572
 20
5.975648832018454
 30
0.0
  0
LINE
  5
B3
330
1F
100
AcDbEntity
  8
외형선
  6
Continuous
 62
     1
370
    15
100
AcDbLine
 10
50.15000000000001
 20
1.954634301107785
 30
0.0
 11
50.15000000000001
 21
4.964763568426803
 31
0.0
  0
SPLINE
  5
B4
330
1F
100
AcDbEntity
  8
외형선
  6
Continuous
 62
     1
370
    15
100
AcDbSpline
210
0.0
220
0.0
230
1.0
 70
     8
 71
     3
 72
    10
 73
     6
 74
     0
 42
0.000000001
 43
0.00000001
 40
0.0
 40
0.0
 40
0.0
 40
0.0
 40
0.0445158623695829
 40
0.5222583817280336
 40
1.0
 40
1.0
 40
1.0
 40
1.0
 10
44.69899047663612
 20
4.908370697791895
 30
0.0
 10
44.76503736474856
 20
4.932931072736798
 30
0.0
 10
45.53989691070968
 20
5.221072445060828
 30
0.0
 10
47.02356672344421
 20
5.595677804826793
 30
0.0
 10
48.44118935345291
 20
5.799141119645016
 30
0.0
 10
49.15000000000001
 20
5.964763568426803
 30
0.0
  0
LINE
  5
B5
330
1F
100
AcDbEntity
  8
외형선
  6
Continuous
 62
     1
370
    15
100
AcDbLine
 10
50.15000000000001
 20
-4.595889414748757
 30
0.0
 11
50.15000000000001
 21
-4.964763568426804
 31
0.0
  0
LINE
  5
B6
330
1F
100
AcDbEntity
  8
외형선
  6
Continuous
370
    15
100
AcDbLine
 10
20.15000000000001
 20
-5.899925247134428
 30
0.0
 11
20.15000000000001
 21
-5.999999999999996
 31
0.0
  0
LINE
  5
B7
330
1F
100
AcDbEntity
  8
외형선
  6
Continuous
370
    15
100
AcDbLine
 10
0.0
 20
0.0
 30
0.0
 11
0.0
 21
6.0
 31
0.0
  0
LINE
  5
B8
330
1F
100
AcDbEntity
  8
외형선
  6
Continuous
370
    15
100
AcDbLine
 10
0.0
 20
-6.0
 30
0.0
 11
0.0
 21
0.0
 31
0.0
  0
LINE
  5
B9
330
1F
100
AcDbEntity
  8
외형선
  6
Continuous
370
    15
100
AcDbLine
 10
-58.64999999999998
 20
0.0
 30
0.0
 11
-58.64999999999998
 21
6.0
 31
0.0
  0
LINE
  5
BA
330
1F
100
AcDbEntity
  8
외형선
  6
Continuous
370
    15
100
AcDbLine
 10
-58.64999999999998
 20
-6.0
 30
0.0
 11
-58.64999999999998
 21
0.0
 31
0.0
  0
LINE
  5
BB
330
1F
100
AcDbEntity
  8
외형선
  6
Continuous
370
    15
100
AcDbLine
 10
-59.84999999999999
 20
0.0
 30
0.0
 11
-59.84999999999999
 21
4.800000000000012
 31
0.0
  0
LINE
  5
BC
330
1F
100
AcDbEntity
  8
외형선
  6
Continuous
370
    15
100
AcDbLine
 10
-59.84999999999999
 20
-4.800000000000013
 30
0.0
 11
-59.84999999999999
 21
0.0
 31
0.0
  0
LINE
  5
BD
330
1F
100
AcDbEntity
  8
외형선
  6
Continuous
370
    15
100
AcDbLine
 10
0.1500000000000057
 20
0.0
 30
0.0
 11
0.1500000000000057
 21
5.849999999999999
 31
0.0
  0
LINE
  5
BE
330
1F
100
AcDbEntity
  8
외형선
  6
Continuous
370
    15
100
AcDbLine
 10
0.1500000000000057
 20
-5.85
 30
0.0
 11
0.1500000000000057
 21
0.0
 31
0.0
  0
SPLINE
  5
BF
330
1F
100
AcDbEntity
  8
외형선
  6
Continuous
370
    15
100
AcDbSpline
210
0.0
220
0.0
230
1.0
 70
     8
 71
     3
 72
     8
 73
     4
 74
     0
 42
0.000000001
 43
0.00000001
 40
0.0
 40
0.0
 40
0.0
 40
0.0
 40
1.0
 40
1.0
 40
1.0
 40
1.0
 10
20.15000000000003
 20
5.773720209327451
 30
0.0
 10
19.81598227747748
 20
5.803982619117882
 30
0.0
 10
19.48450518325566
 20
5.825247193933133
 30
0.0
 10
19.15033464349922
 20
5.837522216829214
 30
0.0
  0
LINE
  5
C0
330
1F
100
AcDbEntity
  8
외형선
  6
Continuous
370
    15
100
AcDbLine
 10
19.15033464349925
 20
1.570356113090276
 30
0.0
 11
19.15033464349924
 21
5.837524827842988
 31
0.0
  0
SPLINE
  5
C1
330
1F
100
AcDbEntity
  8
외형선
  6
Continuous
370
    15
100
AcDbSpline
210
0.0
220
0.0
230
1.0
 70
     8
 71
     3
 72
     8
 73
     4
 74
     0
 42
0.000000001
 43
0.00000001
 40
0.0
 40
0.0
 40
0.0
 40
0.0
 40
1.0
 40
1.0
 40
1.0
 40
1.0
 10
20.15000000000002
 20
1.02102870678735
 30
0.0
 10
19.81598227747747
 20
1.206153412467498
 30
0.0
 10
19.48450518325565
 20
1.389231593191357
 30
0.0
 10
19.15033464349925
 20
1.570369056396058
 30
0.0
  0
SPLINE
  5
C2
330
1F
100
AcDbEntity
  8
외형선
  6
Continuous
370
    15
100
AcDbSpline
210
0.0
220
0.0
230
1.0
 70
     8
 71
     3
 72
     8
 73
     4
 74
     0
 42
0.000000001
 43
0.00000001
 40
0.0
 40
0.0
 40
0.0
 40
0.0
 40
1.0
 40
1.0
 40
1.0
 40
1.0
 10
20.15000000000003
 20
-0.9416235683136239
 30
0.0
 10
19.81598227747748
 20
-0.7560646115610099
 30
0.0
 10
19.48450518325566
 20
-0.5695207145291676
 30
0.0
 10
19.15033464349922
 20
-0.3818826626402856
 30
0.0
  0
LINE
  5
C3
330
1F
100
AcDbEntity
  8
외형선
  6
Continuous
370
    15
100
AcDbLine
 10
19.15033464349925
 20
-5.635288961364797
 30
0.0
 11
19.15033464349924
 21
-0.3818427481525166
 31
0.0
  0
SPLINE
  5
C4
330
1F
100
AcDbEntity
  8
외형선
  6
Continuous
370
    15
100
AcDbSpline
210
0.0
220
0.0
230
1.0
 70
     8
 71
     3
 72
     8
 73
     4
 74
     0
 42
0.000000001
 43
0.00000001
 40
0.0
 40
0.0
 40
0.0
 40
0.0
 40
1.0
 40
1.0
 40
1.0
 40
1.0
 10
20.15000000000002
 20
-5.760208362543502
 30
0.0
 10
19.81598227747747
 20
-5.7273939872747
 30
0.0
 10
19.48450518325565
 20
-5.685762419867953
 30
0.0
 10
19.15033464349925
 20
-5.635285354506342
 30
0.0
  0
SPLINE
  5
C5
330
1F
100
AcDbEntity
  8
외형선
  6
Continuous
370
    15
100
AcDbSpline
210
0.0
220
0.0
230
1.0
 70
    24
 71
     3
 72
    17
 73
    13
 74
     0
 42
0.000000001
 43
0.00000001
 40
0.0
 40
0.0
 40
0.0
 40
0.0
 40
0.1026576549998739
 40
0.2053153099997462
 40
0.3143468871437153
 40
0.4233784642876844
 40
0.5324100414316418
 40
0.6414416185755996
 40
0.7504731957195593
 40
0.859504772863519
 40
0.9685363500074778
 40
1.0
 40
1.0
 40
1.0
 40
1.0
 10
20.14999999999984
 20
-5.760208362543482
 30
0.0
 10
20.14999999999986
 20
-5.584330677534929
 30
0.0
 10
20.14999999999995
 20
-5.232575307517826
 30
0.0
 10
20.15000000000004
 20
-4.657532378082235
 30
0.0
 10
20.15000000000001
 20
-4.061119727504807
 30
0.0
 10
20.15000000000002
 20
-3.456311843633944
 30
0.0
 10
20.15000000000001
 20
-2.873520339581789
 30
0.0
 10
20.15000000000001
 20
-2.32841583420531
 30
0.0
 10
20.14999999999998
 20
-1.8360879200365
 30
0.0
 10
20.14999999999991
 20
-1.416747465607003
 30
0.0
 10
20.15000000000001
 20
-1.139021904514014
 30
0.0
 10
20.14999999999999
 20
-1.033558345337484
 30
0.0
 10
20.14999999999999
 20
-1.00993997352139
 30
0.0
  0
SPLINE
  5
C6
330
1F
100
AcDbEntity
  8
외형선
  6
Continuous
370
    15
100
AcDbSpline
210
0.0
220
0.0
230
1.0
 70
    24
 71
     3
 72
    17
 73
    13
 74
     0
 42
0.000000001
 43
0.00000001
 40
0.0
 40
0.0
 40
0.0
 40
0.0
 40
0.0442087223310247
 40
0.1551653666194872
 40
0.2661220109079497
 40
0.3770786551964113
 40
0.4880352994848728
 40
0.5989919437733342
 40
0.7099485880617958
 40
0.8209052323502128
 40
0.9318618766386297
 40
1.0
 40
1.0
 40
1.0
 40
1.0
 10
20.15000000000001
 20
1.091275436462188
 30
0.0
 10
20.15000000000002
 20
1.125780966387442
 30
0.0
 10
20.15000000000002
 20
1.246889718664009
 30
0.0
 10
20.14999999999996
 20
1.549034875934282
 30
0.0
 10
20.14999999999995
 20
1.981462880333904
 30
0.0
 10
20.14999999999999
 20
2.485919973505414
 30
0.0
 10
20.14999999999999
 20
3.038517804196779
 30
0.0
 10
20.15000000000003
 20
3.627204825849467
 30
0.0
 10
20.14999999999998
 20
4.233878856900962
 30
0.0
 10
20.15000000000004
 20
4.841020618291232
 30
0.0
 10
20.15000000000004
 20
5.358407472226244
 30
0.0
 10
20.15000000000002
 20
5.659258778238389
 30
0.0
 10
20.15000000000001
 20
5.773720209309176
 30
0.0
  0
LINE
  5
C7
330
1F
100
AcDbEntity
  8
중심선
 62
     1
100
AcDbLine
 10
-62.84999999999998
 20
-0.0000000000000039
 30
0.0
 11
53.15000000000001
 21
0.0000000000000099
 31
0.0
  0
LINE
  5
C8
330
1F
100
AcDbEntity
  8
참조1
100
AcDbLine
 10
-4.849999999999985
 20
-0.0000000000000039
 30
0.0
 11
-4.849999999999978
 21
-40.00000000000001
 31
0.0
  0
LINE
  5
C9
330
1F
100
AcDbEntity
  8
참조1
100
AcDbLine
 10
-4.849999999999978
 20
-40.00000000000001
 30
0.0
 11
-45.00885681430866
 21
-40.0
 31
0.0
  0
CIRCLE
  5
CA
330
1F
100
AcDbEntity
  8
해칭선
100
AcDbCircle
 10
0.0000000000000071
 20
-0.0010749287238931
 30
0.0
 40
3.000000000000001
  0
INSERT
  5
CB
330
1F
100
AcDbEntity
  8
0
  6
Continuous
 62
     7
100
AcDbBlockReference
 66
     1
  2
블럭10
 10
-18.79027293212519
 20
-52.04717430164393
 30
0.0
  0
ATTRIB
  5
CC
330
CB
100
AcDbEntity
  8
FORMAT
 62
     2
100
AcDbText
 10
-39.64852046371773
 20
-49.97180738881175
 30
0.0
 40
4.233333333333333
  1
SEME6412010110E [ 4 FLUTE ]
 41
0.75
  7
SLDTEXTSTYLE0
 11
-39.64852046371773
 21
-52.08847405547841
 31
0.0
100
AcDbAttribute
  2
AUTOATTR0
 70
     0
 74
     1
  0
SEQEND
  5
CD
330
CB
100
AcDbEntity
  8
0
  6
Continuous
 62
     7
  0
HATCH
  5
CE
330
1F
100
AcDbEntity
  8
중심선
100
AcDbHatch
 10
0.0
 20
0.0
 30
0.0
210
0.0
220
0.0
230
1.0
  2
SOLID
 70
     1
 71
     0
 91
        1
 92
        0
 93
        4
 72
     1
 10
-13.07536362774436
 20
-35.8
 11
-16.52163887158164
 21
-35.8
 72
     1
 10
-16.52163887158164
 20
-35.8
 11
-18.64986873078566
 21
-38.33632558057257
 72
     1
 10
-18.64986873078566
 20
-38.33632558057257
 11
-15.20356040183523
 21
-38.33628615127008
 72
     1
 10
-15.20356040183523
 20
-38.33628615127008
 11
-13.07536362774436
 21
-35.8
 97
        0
 75
     0
 76
     1
 98
        1
 10
-19.92499999999999
 20
-0.0010749287238931
  0
HATCH
  5
CF
330
1F
100
AcDbEntity
  8
중심선
100
AcDbHatch
 10
0.0
 20
0.0
 30
0.0
210
0.0
220
0.0
230
1.0
  2
SOLID
 70
     1
 71
     0
 91
        1
 92
        0
 93
        4
 72
     1
 10
-8.062599636708349
 20
-35.79999999999998
 11
-11.50887488054563
 21
-35.8
 72
     1
 10
-11.50887488054563
 20
-35.8
 11
-16.04001288890307
 21
-41.20000000000002
 72
     1
 10
-16.04001288890307
 20
-41.20000000000002
 11
-12.59373764506579
 21
-41.20000000000002
 72
     1
 10
-12.59373764506579
 20
-41.20000000000002
 11
-8.062599636708349
 21
-35.79999999999998
 97
        0
 75
     0
 76
     1
 98
        1
 10
-19.92499999999999
 20
-0.0010749287238931
  0
HATCH
  5
D0
330
1F
100
AcDbEntity
  8
중심선
100
AcDbHatch
 10
0.0
 20
0.0
 30
0.0
210
0.0
220
0.0
230
1.0
  2
SOLID
 70
     1
 71
     0
 91
        1
 92
        0
 93
        4
 72
     1
 10
-3.049835645672509
 20
-35.79999999999998
 11
-6.496110889509568
 21
-35.8
 72
     1
 10
-6.496110889509568
 20
-35.8
 11
-13.54454779139887
 21
-44.20000000000002
 72
     1
 10
-13.54454779139887
 20
-44.20000000000002
 11
-10.09827254756159
 21
-44.20000000000002
 72
     1
 10
-10.09827254756159
 20
-44.20000000000002
 11
-3.049835645672509
 21
-35.79999999999998
 97
        0
 75
     0
 76
     1
 98
        1
 10
-19.92499999999999
 20
-0.0010749287238931
  0
HATCH
  5
D1
330
1F
100
AcDbEntity
  8
중심선
100
AcDbHatch
 10
0.0
 20
0.0
 30
0.0
210
0.0
220
0.0
230
1.0
  2
SOLID
 70
     1
 71
     0
 91
        1
 92
        0
 93
        6
 72
     3
 10
1.750054785339692
 20
-40.00000000005127
 11
3.960054785062283
 21
1.540882976769353E-10
 40
0.3939339440162628
 50
17.09539180608437
 51
320.0019657685082
 73
     0
 72
     1
 10
3.433054441040259
 20
-38.58789400463833
 11
5.738356314741296
 21
-36.65356729459038
 72
     3
 10
1.750054785286846
 20
-40.00000000000015
 11
6.600054785286829
 21
-1.278976924368180E-13
 40
0.636358354079598
 50
39.99873849337429
 51
368.4976242363725
 73
     1
 72
     1
 10
8.175387277187454
 20
-39.03999999993002
 11
0.4301220921227653
 21
-39.03999999993
 72
     1
 10
0.4301220921227653
 20
-39.03999999993
 11
0.4300970476768349
 21
-40.95999999992991
 72
     1
 10
0.4300970476768349
 20
-40.95999999992991
 11
4.871476817148871
 21
-40.95999999992988
 97
        0
 75
     0
 76
     1
 98
        1
 10
-19.92499999999999
 20
-0.0010749287238931
  0
DIMENSION
  5
D2
330
1F
100
AcDbEntity
  8
치수문자_일반주서
100
AcDbDimension
  2
_D
 10
69.26259926472811
 20
-5.999999999999876
 30
0.0
 11
69.26259926472802
 21
16.54150000000012
 31
0.0
 70
   160
  1
%%c<>
 71
     2
 42
12.0
 52
-270.0
  3
SLDDIMSTYLE1
100
AcDbAlignedDimension
 13
38.37603232075094
 23
6.000000000000004
 33
0.0
 14
38.37603232075094
 24
-5.999999999999994
 34
0.0
 50
90.0000000000002
100
AcDbRotatedDimension
1001
PE_URL
1000

  0
DIMENSION
  5
DF
330
1F
100
AcDbEntity
  8
치수문자_일반주서
100
AcDbDimension
  2
_D_1
 10
-68.63846843616476
 20
-6.000000000000043
 30
0.0
 11
-68.63846843616479
 21
0.0000000000000046
 31
0.0
 70
   160
  1
%%c<>
 71
     2
 42
12.00000000000001
 52
-270.0
  3
SLDDIMSTYLE1
100
AcDbAlignedDimension
 13
-58.64999999999998
 23
6.000000000000005
 33
0.0
 14
-58.64999999999998
 24
-6.000000000000005
 34
0.0
 50
90.0000000000002
100
AcDbRotatedDimension
  0
DIMENSION
  5
ED
330
1F
100
AcDbEntity
  8
치수문자_일반주서
100
AcDbDimension
  2
_D_2
 10
20.15000000000001
 20
15.1008023324698
 30
0.0
 11
35.15
 21
15.1008023324698
 31
0.0
 70
   160
  1
<>
 71
     2
 42
30.00000000000001
  3
SLDDIMSTYLE1
100
AcDbAlignedDimension
 13
50.15000000000001
 23
4.964763568426803
 33
0.0
 14
20.15000000000001
 24
5.914391029504524
 34
0.0
 50
0.0000000000000068
100
AcDbRotatedDimension
1001
PE_URL
1000

  0
DIMENSION
  5
F7
330
1F
100
AcDbEntity
  8
치수문자_일반주서
100
AcDbDimension
  2
_D_3
 10
0.1500000000000057
 20
21.10080233246978
 30
0.0
 11
25.15000000000001
 21
21.10080233246978
 31
0.0
 70
   160
  1
<>
 71
     2
 42
50.00000000000001
  3
SLDDIMSTYLE1
100
AcDbAlignedDimension
 13
50.15000000000001
 23
4.964763568426803
 33
0.0
 14
0.1500000000000057
 24
5.849999999999999
 34
0.0
 50
0.0000000000000041
100
AcDbRotatedDimension
1001
PE_URL
1000

  0
DIMENSION
  5
101
330
1F
100
AcDbEntity
  8
치수문자_일반주서
100
AcDbDimension
  2
_D_4
 10
-59.84999999999999
 20
29.50829963363169
 30
0.0
 11
-4.849999999999993
 21
29.50829963363169
 31
0.0
 70
   160
  1
<>
 71
     2
 42
110.0
  3
SLDDIMSTYLE1
100
AcDbAlignedDimension
 13
50.15000000000001
 23
4.964763568426803
 33
0.0
 14
-59.84999999999999
 24
4.800000000000012
 34
0.0
 50
0.0000000000000037
100
AcDbRotatedDimension
1001
PE_URL
1000

  0
LINE
  5
10B
330
1F
100
AcDbEntity
  8
참조1
100
AcDbLine
 10
52.9634838153456
 20
7.440000000000002
 30
0.0
 11
52.9634838153456
 21
-7.440000000000002
 31
0.0
  0
LINE
  5
10C
330
1F
100
AcDbEntity
  8
참조1
100
AcDbLine
 10
65.66348381534561
 20
5.440000000000002
 30
0.0
 11
52.9634838153456
 21
5.440000000000002
 31
0.0
  0
SOLID
  5
10D
330
1F
100
AcDbEntity
  8
참조1
100
AcDbTrace
 10
52.9634838153456
 20
5.440000000000002
 30
0.0
 11
59.3134838153456
 21
4.424000000000002
 31
0.0
 12
59.3134838153456
 22
6.456000000000002
 32
0.0
 13
59.3134838153456
 23
6.456000000000002
 33
0.0
  0
LINE
  5
10E
330
1F
100
AcDbEntity
  8
참조1
100
AcDbLine
 10
65.66348381534561
 20
-5.440000000000002
 30
0.0
 11
52.9634838153456
 21
-5.440000000000002
 31
0.0
  0
SOLID
  5
10F
330
1F
100
AcDbEntity
  8
참조1
100
AcDbTrace
 10
52.9634838153456
 20
-5.440000000000002
 30
0.0
 11
59.3134838153456
 21
-6.456000000000002
 31
0.0
 12
59.3134838153456
 22
-4.424000000000002
 32
0.0
 13
59.3134838153456
 23
-4.424000000000002
 33
0.0
  0
MTEXT
  5
110
330
1F
100
AcDbEntity
  8
참조1
100
AcDbMText
 10
62.36097390781588
 20
10.98821664464994
 30
0.0
 40
3.5
 41
0.0
 71
     1
 72
     1
  1
A
  7
SLDTEXTSTYLE0
 73
     1
 44
1.0
  0
MTEXT
  5
111
330
1F
100
AcDbEntity
  8
참조1
100
AcDbMText
 10
62.36097390781588
 20
0.1082166446499328
 30
0.0
 40
3.5
 41
0.0
 71
     1
 72
     1
  1
A
  7
SLDTEXTSTYLE0
 73
     1
 44
1.0
  0
INSERT
  5
118
330
1F
100
AcDbEntity
  8
해칭선
100
AcDbBlockReference
  2
SW_DOWELSYMBOL_0
 10
0.0000000000000071
 20
-0.0010749287238931
 30
0.0
  0
ARC
  5
147
330
1F
100
AcDbEntity
  8
0
 62
     1
100
AcDbCircle
 10
49.15000000000001
 20
4.964763568426803
 30
0.0
 40
1.0
100
AcDbArc
 50
0.0
 51
90.0
  0
ARC
  5
148
102
{ACAD_REACTORS
102
}
330
1F
100
AcDbEntity
  8
0
 62
     1
100
AcDbCircle
 10
49.15000000000001
 20
-4.964763568426783
 30
0.0
 40
1.0
100
AcDbArc
 50
270.0
 51
0.0
  0
DIMENSION
  5
14D
102
{ACAD_REACTORS
102
}
102
{ACAD_XDICTIONARY
360
14E
102
}
330
1F
100
AcDbEntity
  8
0
100
AcDbDimension
  2
*D8
 10
49.15000000000001
 20
-4.964763568426783
 30
0.0
 11
61.0637950898654
 21
-13.74640115511618
 31
0.0
 70
   164
 71
     5
 42
1.000000000000001
  3
ISO-25
100
AcDbRadialDimension
 15
49.58685657636027
 25
-5.864294741700283
 35
0.0
 40
0.0
1001
ACAD
1000
DSTYLE
1002
{
1070
   179
1070
     2
1070
   143
1040
0.0393700787401575
1070
    41
1040
3.302
1070
    44
1040
1.0
1070
    42
1040
1.0
1070
   147
1040
1.524
1070
    73
1070
     1
1070
    74
1070
     1
1070
   140
1040
3.5
1070
   284
1070
     0
1070
    78
1070
     0
1002
}
1001
ACAD_DSTYLE_DIMRADIAL_EXTENSION
1070
   387
1070
     1
1070
   388
1040
4.71238898038469
1070
   390
1040
0.0
  0
ENDSEC
  0
SECTION
  2
OBJECTS
  0
DICTIONARY
  5
C
330
0
100
AcDbDictionary
281
     1
  3
ACAD_GROUP
350
D
  3
ACAD_LAYOUT
350
1A
  3
ACAD_MLINESTYLE
350
17
  3
ACAD_PLOTSETTINGS
350
19
  3
ACAD_PLOTSTYLENAME
350
E
  3
ACAD_SCALELIST
350
47
  3
APPDATA
350
13A
  3
DWGPROPS
350
15A
  0
DICTIONARY
  5
14E
330
14D
100
AcDbDictionary
280
     1
281
     1
  0
DICTIONARY
  5
D
102
{ACAD_REACTORS
330
C
102
}
330
C
100
AcDbDictionary
281
     1
  0
DICTIONARY
  5
1A
102
{ACAD_REACTORS
330
C
102
}
330
C
100
AcDbDictionary
281
     1
  3
Layout1
350
1E
  3
Layout2
350
26
  3
Model
350
22
  0
DICTIONARY
  5
17
102
{ACAD_REACTORS
330
C
102
}
330
C
100
AcDbDictionary
281
     1
  3
Standard
350
18
  0
DICTIONARY
  5
19
102
{ACAD_REACTORS
330
C
102
}
330
C
100
AcDbDictionary
281
     1
  0
ACDBDICTIONARYWDFLT
  5
E
102
{ACAD_REACTORS
330
C
102
}
330
C
100
AcDbDictionary
281
     1
  3
Normal
350
F
100
AcDbDictionaryWithDefault
340
F
  0
DICTIONARY
  5
47
102
{ACAD_REACTORS
330
C
102
}
330
C
100
AcDbDictionary
281
     1
  3
A0
350
48
  3
A1
350
49
  3
A2
350
4A
  3
A3
350
4B
  3
A4
350
4C
  3
A5
350
4D
  3
A6
350
4E
  3
A7
350
4F
  3
A8
350
50
  3
A9
350
51
  3
B0
350
52
  3
B1
350
53
  3
B2
350
54
  3
B3
350
55
  3
B4
350
56
  3
B5
350
57
  3
B6
350
58
  3
B7
350
59
  3
B8
350
5A
  3
B9
350
5B
  3
C0
350
5C
  3
C1
350
5D
  3
C2
350
5E
  3
C3
350
5F
  3
C4
350
60
  3
C5
350
61
  3
C6
350
62
  3
C7
350
63
  3
C8
350
64
  3
C9
350
65
  3
D0
350
66
  3
D1
350
67
  3
D2
350
68
  0
DICTIONARY
  5
13A
102
{ACAD_REACTORS
330
C
102
}
330
C
100
AcDbDictionary
281
     1
  0
XRECORD
  5
15A
102
{ACAD_REACTORS
330
C
102
}
330
C
100
AcDbXrecord
280
     1
  1
DWGPROPS COOKIE
  2

  3

  4

  6

  7

  8
USER
  9

300
=
301
=
302
=
303
=
304
=
305
=
306
=
307
=
308
=
309
=
 40
0.0
 41
2458274.33866397
 42
2458275.092689919
  1

 90
        0
  0
LAYOUT
  5
1E
102
{ACAD_REACTORS
330
1A
102
}
330
1A
100
AcDbPlotSettings
  1

  2
none_device
  4

  6

 40
0.0
 41
0.0
 42
0.0
 43
0.0
 44
0.0
 45
0.0
 46
0.0
 47
0.0
 48
0.0
 49
0.0
140
0.0
141
0.0
142
1.0
143
1.0
 70
   688
 72
     1
 73
     0
 74
     5
  7

 75
    16
147
1.0
148
0.0
149
0.0
100
AcDbLayout
  1
Layout1
 70
     1
 71
     1
 10
0.0
 20
0.0
 11
420.0
 21
297.0
 12
0.0
 22
0.0
 32
0.0
 14
1.000000000000000E+20
 24
1.000000000000000E+20
 34
1.000000000000000E+20
 15
-1.000000000000000E+20
 25
-1.000000000000000E+20
 35
-1.000000000000000E+20
146
0.0
 13
0.0
 23
0.0
 33
0.0
 16
1.0
 26
0.0
 36
0.0
 17
0.0
 27
1.0
 37
0.0
 76
     0
330
1B
  0
LAYOUT
  5
26
102
{ACAD_REACTORS
330
1A
102
}
330
1A
100
AcDbPlotSettings
  1

  2
none_device
  4

  6

 40
0.0
 41
0.0
 42
0.0
 43
0.0
 44
0.0
 45
0.0
 46
0.0
 47
0.0
 48
0.0
 49
0.0
140
0.0
141
0.0
142
1.0
143
1.0
 70
   688
 72
     1
 73
     0
 74
     5
  7

 75
    16
147
1.0
148
0.0
149
0.0
100
AcDbLayout
  1
Layout2
 70
     1
 71
     2
 10
0.0
 20
0.0
 11
0.0
 21
0.0
 12
0.0
 22
0.0
 32
0.0
 14
0.0
 24
0.0
 34
0.0
 15
0.0
 25
0.0
 35
0.0
146
0.0
 13
0.0
 23
0.0
 33
0.0
 16
1.0
 26
0.0
 36
0.0
 17
0.0
 27
1.0
 37
0.0
 76
     0
330
23
  0
LAYOUT
  5
22
102
{ACAD_REACTORS
330
1A
102
}
330
1A
100
AcDbPlotSettings
  1

  2
none_device
  4
ANSI_A_(11.00_x_8.50_Inches)
  6

 40
6.35
 41
19.05
 42
6.35000508
 43
19.05000254
 44
279.4
 45
215.9
 46
97.7694088588948
 47
104.9927919152116
 48
0.0
 49
0.0
140
0.0
141
0.0
142
0.0759063400141313
143
1.0
 70
  1696
 72
     0
 73
     0
 74
     0
  7

 75
     0
147
0.0235690232323232
148
0.0
149
0.0
100
AcDbLayout
  1
Model
 70
     1
 71
     0
 10
0.0
 20
0.0
 11
420.0
 21
297.0
 12
0.0
 22
0.0
 32
0.0
 14
-73.0134684361648
 24
-49.97180738881175
 34
0.0
 15
69.81293259806142
 25
33.88329963363169
 35
0.0
146
0.0
 13
0.0
 23
0.0
 33
0.0
 16
1.0
 26
0.0
 36
0.0
 17
0.0
 27
1.0
 37
0.0
 76
     0
330
1F
331
29
  0
MLINESTYLE
  5
18
102
{ACAD_REACTORS
330
17
102
}
330
17
100
AcDbMlineStyle
  2
Standard
 70
     0
  3

 62
   256
 51
90.0
 52
90.0
 71
     2
 49
0.5
 62
   256
  6
BYLAYER
 49
-0.5
 62
   256
  6
BYLAYER
  0
ACDBPLACEHOLDER
  5
F
102
{ACAD_REACTORS
330
E
102
}
330
E
  0
SCALE
  5
48
102
{ACAD_REACTORS
330
47
102
}
330
47
100
AcDbScale
 70
     0
300
1:1
140
1.0
141
1.0
290
     1
  0
SCALE
  5
49
102
{ACAD_REACTORS
330
47
102
}
330
47
100
AcDbScale
 70
     0
300
1:2
140
1.0
141
2.0
290
     0
  0
SCALE
  5
4A
102
{ACAD_REACTORS
330
47
102
}
330
47
100
AcDbScale
 70
     0
300
1:4
140
1.0
141
4.0
290
     0
  0
SCALE
  5
4B
102
{ACAD_REACTORS
330
47
102
}
330
47
100
AcDbScale
 70
     0
300
1:5
140
1.0
141
5.0
290
     0
  0
SCALE
  5
4C
102
{ACAD_REACTORS
330
47
102
}
330
47
100
AcDbScale
 70
     0
300
1:8
140
1.0
141
8.0
290
     0
  0
SCALE
  5
4D
102
{ACAD_REACTORS
330
47
102
}
330
47
100
AcDbScale
 70
     0
300
1:10
140
1.0
141
10.0
290
     0
  0
SCALE
  5
4E
102
{ACAD_REACTORS
330
47
102
}
330
47
100
AcDbScale
 70
     0
300
1:16
140
1.0
141
16.0
290
     0
  0
SCALE
  5
4F
102
{ACAD_REACTORS
330
47
102
}
330
47
100
AcDbScale
 70
     0
300
1:20
140
1.0
141
20.0
290
     0
  0
SCALE
  5
50
102
{ACAD_REACTORS
330
47
102
}
330
47
100
AcDbScale
 70
     0
300
1:30
140
1.0
141
30.0
290
     0
  0
SCALE
  5
51
102
{ACAD_REACTORS
330
47
102
}
330
47
100
AcDbScale
 70
     0
300
1:40
140
1.0
141
40.0
290
     0
  0
SCALE
  5
52
102
{ACAD_REACTORS
330
47
102
}
330
47
100
AcDbScale
 70
     0
300
1:50
140
1.0
141
50.0
290
     0
  0
SCALE
  5
53
102
{ACAD_REACTORS
330
47
102
}
330
47
100
AcDbScale
 70
     0
300
1:100
140
1.0
141
100.0
290
     0
  0
SCALE
  5
54
102
{ACAD_REACTORS
330
47
102
}
330
47
100
AcDbScale
 70
     0
300
2:1
140
2.0
141
1.0
290
     0
  0
SCALE
  5
55
102
{ACAD_REACTORS
330
47
102
}
330
47
100
AcDbScale
 70
     0
300
4:1
140
4.0
141
1.0
290
     0
  0
SCALE
  5
56
102
{ACAD_REACTORS
330
47
102
}
330
47
100
AcDbScale
 70
     0
300
8:1
140
8.0
141
1.0
290
     0
  0
SCALE
  5
57
102
{ACAD_REACTORS
330
47
102
}
330
47
100
AcDbScale
 70
     0
300
10:1
140
10.0
141
1.0
290
     0
  0
SCALE
  5
58
102
{ACAD_REACTORS
330
47
102
}
330
47
100
AcDbScale
 70
     0
300
100:1
140
100.0
141
1.0
290
     0
  0
SCALE
  5
59
102
{ACAD_REACTORS
330
47
102
}
330
47
100
AcDbScale
 70
     0
300
1/128" = 1'-0"
140
0.0078125
141
12.0
290
     0
  0
SCALE
  5
5A
102
{ACAD_REACTORS
330
47
102
}
330
47
100
AcDbScale
 70
     0
300
1/64" = 1'-0"
140
0.015625
141
12.0
290
     0
  0
SCALE
  5
5B
102
{ACAD_REACTORS
330
47
102
}
330
47
100
AcDbScale
 70
     0
300
1/32" = 1'-0"
140
0.03125
141
12.0
290
     0
  0
SCALE
  5
5C
102
{ACAD_REACTORS
330
47
102
}
330
47
100
AcDbScale
 70
     0
300
1/16" = 1'-0"
140
0.0625
141
12.0
290
     0
  0
SCALE
  5
5D
102
{ACAD_REACTORS
330
47
102
}
330
47
100
AcDbScale
 70
     0
300
3/32" = 1'-0"
140
0.09375
141
12.0
290
     0
  0
SCALE
  5
5E
102
{ACAD_REACTORS
330
47
102
}
330
47
100
AcDbScale
 70
     0
300
1/8" = 1'-0"
140
0.125
141
12.0
290
     0
  0
SCALE
  5
5F
102
{ACAD_REACTORS
330
47
102
}
330
47
100
AcDbScale
 70
     0
300
3/16" = 1'-0"
140
0.1875
141
12.0
290
     0
  0
SCALE
  5
60
102
{ACAD_REACTORS
330
47
102
}
330
47
100
AcDbScale
 70
     0
300
1/4" = 1'-0"
140
0.25
141
12.0
290
     0
  0
SCALE
  5
61
102
{ACAD_REACTORS
330
47
102
}
330
47
100
AcDbScale
 70
     0
300
3/8" = 1'-0"
140
0.375
141
12.0
290
     0
  0
SCALE
  5
62
102
{ACAD_REACTORS
330
47
102
}
330
47
100
AcDbScale
 70
     0
300
1/2" = 1'-0"
140
0.5
141
12.0
290
     0
  0
SCALE
  5
63
102
{ACAD_REACTORS
330
47
102
}
330
47
100
AcDbScale
 70
     0
300
3/4" = 1'-0"
140
0.75
141
12.0
290
     0
  0
SCALE
  5
64
102
{ACAD_REACTORS
330
47
102
}
330
47
100
AcDbScale
 70
     0
300
1" = 1'-0"
140
1.0
141
12.0
290
     0
  0
SCALE
  5
65
102
{ACAD_REACTORS
330
47
102
}
330
47
100
AcDbScale
 70
     0
300
1-1/2" = 1'-0"
140
1.5
141
12.0
290
     0
  0
SCALE
  5
66
102
{ACAD_REACTORS
330
47
102
}
330
47
100
AcDbScale
 70
     0
300
3" = 1'-0"
140
3.0
141
12.0
290
     0
  0
SCALE
  5
67
102
{ACAD_REACTORS
330
47
102
}
330
47
100
AcDbScale
 70
     0
300
6" = 1'-0"
140
6.0
141
12.0
290
     0
  0
SCALE
  5
68
102
{ACAD_REACTORS
330
47
102
}
330
47
100
AcDbScale
 70
     0
300
1'-0" = 1'-0"
140
12.0
141
12.0
290
     0
  0
ENDSEC
  0
EOF
