  0
SECTION
  2
HEADER
  9
$ACADVER
  1
AC1015
  9
$ACADMAINTVER
 70
     6
  9
$DWGCODEPAGE
  3
ANSI_949
  9
$INSBASE
 10
0.0
 20
0.0
 30
0.0
  9
$EXTMIN
 10
-110.2134684361648
 20
-49.97180738881175
 30
0.0
  9
$EXTMAX
 10
73.21042333427775
 20
35.87267958872438
 30
0.0
  9
$LIMMIN
 10
0.0
 20
0.0
  9
$LIMMAX
 10
420.0
 20
297.0
  9
$ORTHOMODE
 70
     0
  9
$REGENMODE
 70
     1
  9
$FILLMODE
 70
     1
  9
$QTEXTMODE
 70
     0
  9
$MIRRTEXT
 70
     1
  9
$LTSCALE
 40
1.0
  9
$ATTMODE
 70
     1
  9
$TEXTSIZE
 40
3.5
  9
$TRACEWID
 40
1.0
  9
$TEXTSTYLE
  7
Standard
  9
$CLAYER
  8
0
  9
$CELTYPE
  6
ByLayer
  9
$CECOLOR
 62
   256
  9
$CELTSCALE
 40
1.0
  9
$DISPSILH
 70
     0
  9
$DIMSCALE
 40
1.0
  9
$DIMASZ
 40
3.302
  9
$DIMEXO
 40
1.0
  9
$DIMDLI
 40
3.75
  9
$DIMRND
 40
0.0
  9
$DIMDLE
 40
0.0
  9
$DIMEXE
 40
1.0
  9
$DIMTP
 40
0.0
  9
$DIMTM
 40
0.0
  9
$DIMTXT
 40
3.5
  9
$DIMCEN
 40
2.5
  9
$DIMTSZ
 40
0.0
  9
$DIMTOL
 70
     0
  9
$DIMLIM
 70
     0
  9
$DIMTIH
 70
     1
  9
$DIMTOH
 70
     1
  9
$DIMSE1
 70
     0
  9
$DIMSE2
 70
     0
  9
$DIMTAD
 70
     1
  9
$DIMZIN
 70
     0
  9
$DIMBLK
  1

  9
$DIMASO
 70
     1
  9
$DIMSHO
 70
     1
  9
$DIMPOST
  1

  9
$DIMAPOST
  1

  9
$DIMALT
 70
     0
  9
$DIMALTD
 70
     3
  9
$DIMALTF
 40
0.0393700787401575
  9
$DIMLFAC
 40
1.0
  9
$DIMTOFL
 70
     1
  9
$DIMTVP
 40
0.0
  9
$DIMTIX
 70
     0
  9
$DIMSOXD
 70
     0
  9
$DIMSAH
 70
     0
  9
$DIMBLK1
  1

  9
$DIMBLK2
  1

  9
$DIMSTYLE
  2
ISO-25
  9
$DIMCLRD
 70
     0
  9
$DIMCLRE
 70
     0
  9
$DIMCLRT
 70
     0
  9
$DIMTFAC
 40
1.0
  9
$DIMGAP
 40
1.524
  9
$DIMJUST
 70
     0
  9
$DIMSD1
 70
     0
  9
$DIMSD2
 70
     0
  9
$DIMTOLJ
 70
     0
  9
$DIMTZIN
 70
     0
  9
$DIMALTZ
 70
     0
  9
$DIMALTTZ
 70
     0
  9
$DIMUPT
 70
     0
  9
$DIMDEC
 70
     2
  9
$DIMTDEC
 70
     2
  9
$DIMALTU
 70
     2
  9
$DIMALTTD
 70
     3
  9
$DIMTXSTY
  7
Standard
  9
$DIMAUNIT
 70
     0
  9
$DIMADEC
 70
     2
  9
$DIMALTRND
 40
0.0
  9
$DIMAZIN
 70
     0
  9
$DIMDSEP
 70
    44
  9
$DIMATFIT
 70
     3
  9
$DIMFRAC
 70
     0
  9
$DIMLDRBLK
  1

  9
$DIMLUNIT
 70
     2
  9
$DIMLWD
 70
    -2
  9
$DIMLWE
 70
    -2
  9
$DIMTMOVE
 70
     0
  9
$LUNITS
 70
     2
  9
$LUPREC
 70
     2
  9
$SKETCHINC
 40
1.0
  9
$FILLETRAD
 40
10.0
  9
$AUNITS
 70
     0
  9
$AUPREC
 70
     2
  9
$MENU
  1
.
  9
$ELEVATION
 40
0.0
  9
$PELEVATION
 40
0.0
  9
$THICKNESS
 40
0.0
  9
$LIMCHECK
 70
     0
  9
$CHAMFERA
 40
0.0
  9
$CHAMFERB
 40
0.0
  9
$CHAMFERC
 40
0.0
  9
$CHAMFERD
 40
0.0
  9
$SKPOLY
 70
     0
  9
$TDCREATE
 40
2458274.714987083
  9
$TDUCREATE
 40
2458274.339987083
  9
$TDUPDATE
 40
2458275.476667291
  9
$TDUUPDATE
 40
2458275.101667291
  9
$TDINDWG
 40
0.000045625
  9
$TDUSRTIMER
 40
0.0000456134
  9
$USRTIMER
 70
     1
  9
$ANGBASE
 50
0.0
  9
$ANGDIR
 70
     0
  9
$PDMODE
 70
     0
  9
$PDSIZE
 40
-1.0
  9
$PLINEWID
 40
0.0
  9
$SPLFRAME
 70
     0
  9
$SPLINETYPE
 70
     6
  9
$SPLINESEGS
 70
     8
  9
$HANDSEED
  5
15C
  9
$SURFTAB1
 70
     6
  9
$SURFTAB2
 70
     6
  9
$SURFTYPE
 70
     6
  9
$SURFU
 70
     6
  9
$SURFV
 70
     6
  9
$UCSBASE
  2

  9
$UCSNAME
  2

  9
$UCSORG
 10
0.0
 20
0.0
 30
0.0
  9
$UCSXDIR
 10
1.0
 20
0.0
 30
0.0
  9
$UCSYDIR
 10
0.0
 20
1.0
 30
0.0
  9
$UCSORTHOREF
  2

  9
$UCSORTHOVIEW
 70
     0
  9
$UCSORGTOP
 10
0.0
 20
0.0
 30
0.0
  9
$UCSORGBOTTOM
 10
0.0
 20
0.0
 30
0.0
  9
$UCSORGLEFT
 10
0.0
 20
0.0
 30
0.0
  9
$UCSORGRIGHT
 10
0.0
 20
0.0
 30
0.0
  9
$UCSORGFRONT
 10
0.0
 20
0.0
 30
0.0
  9
$UCSORGBACK
 10
0.0
 20
0.0
 30
0.0
  9
$PUCSBASE
  2

  9
$PUCSNAME
  2

  9
$PUCSORG
 10
0.0
 20
0.0
 30
0.0
  9
$PUCSXDIR
 10
1.0
 20
0.0
 30
0.0
  9
$PUCSYDIR
 10
0.0
 20
1.0
 30
0.0
  9
$PUCSORTHOREF
  2

  9
$PUCSORTHOVIEW
 70
     0
  9
$PUCSORGTOP
 10
0.0
 20
0.0
 30
0.0
  9
$PUCSORGBOTTOM
 10
0.0
 20
0.0
 30
0.0
  9
$PUCSORGLEFT
 10
0.0
 20
0.0
 30
0.0
  9
$PUCSORGRIGHT
 10
0.0
 20
0.0
 30
0.0
  9
$PUCSORGFRONT
 10
0.0
 20
0.0
 30
0.0
  9
$PUCSORGBACK
 10
0.0
 20
0.0
 30
0.0
  9
$USERI1
 70
     0
  9
$USERI2
 70
     0
  9
$USERI3
 70
     0
  9
$USERI4
 70
     0
  9
$USERI5
 70
     0
  9
$USERR1
 40
0.0
  9
$USERR2
 40
0.0
  9
$USERR3
 40
0.0
  9
$USERR4
 40
0.0
  9
$USERR5
 40
0.0
  9
$WORLDVIEW
 70
     1
  9
$SHADEDGE
 70
     3
  9
$SHADEDIF
 70
    70
  9
$TILEMODE
 70
     1
  9
$MAXACTVP
 70
    64
  9
$PINSBASE
 10
0.0
 20
0.0
 30
0.0
  9
$PLIMCHECK
 70
     0
  9
$PEXTMIN
 10
1.000000000000000E+20
 20
1.000000000000000E+20
 30
1.000000000000000E+20
  9
$PEXTMAX
 10
-1.000000000000000E+20
 20
-1.000000000000000E+20
 30
-1.000000000000000E+20
  9
$PLIMMIN
 10
0.0
 20
0.0
  9
$PLIMMAX
 10
0.0
 20
0.0
  9
$UNITMODE
 70
     0
  9
$VISRETAIN
 70
     1
  9
$PLINEGEN
 70
     0
  9
$PSLTSCALE
 70
     1
  9
$TREEDEPTH
 70
  3020
  9
$CMLSTYLE
  2
Standard
  9
$CMLJUST
 70
     0
  9
$CMLSCALE
 40
20.0
  9
$PROXYGRAPHICS
 70
     1
  9
$MEASUREMENT
 70
     1
  9
$CELWEIGHT
370
    -1
  9
$ENDCAPS
280
     0
  9
$JOINSTYLE
280
     0
  9
$LWDISPLAY
290
     1
  9
$INSUNITS
 70
     4
  9
$HYPERLINKBASE
  1

  9
$STYLESHEET
  1

  9
$XEDIT
290
     1
  9
$CEPSNTYPE
380
     0
  9
$PSTYLEMODE
290
     1
  9
$FINGERPRINTGUID
  2
{877DC01A-3D38-49DA-ADF1-C74AB0254803}
  9
$VERSIONGUID
  2
{FAEB1C32-E019-11D5-929B-00C0DF256EC4}
  9
$EXTNAMES
290
     1
  9
$PSVPSCALE
 40
0.0
  9
$OLESTARTUP
290
     0
  0
ENDSEC
  0
SECTION
  2
CLASSES
  0
CLASS
  1
ACDBDICTIONARYWDFLT
  2
AcDbDictionaryWithDefault
  3
ObjectDBX Classes
 90
        0
280
     0
281
     0
  0
CLASS
  1
VISUALSTYLE
  2
AcDbVisualStyle
  3
ObjectDBX Classes
 90
     4095
280
     0
281
     0
  0
CLASS
  1
MATERIAL
  2
AcDbMaterial
  3
ObjectDBX Classes
 90
     1153
280
     0
281
     0
  0
CLASS
  1
SCALE
  2
AcDbScale
  3
ObjectDBX Classes
 90
     1153
280
     0
281
     0
  0
CLASS
  1
SUN
  2
AcDbSun
  3
SCENEOE
 90
     1153
280
     0
281
     0
  0
CLASS
  1
ACDBPLACEHOLDER
  2
AcDbPlaceHolder
  3
ObjectDBX Classes
 90
        0
280
     0
281
     0
  0
CLASS
  1
LAYOUT
  2
AcDbLayout
  3
ObjectDBX Classes
 90
        0
280
     0
281
     0
  0
CLASS
  1
TABLESTYLE
  2
AcDbTableStyle
  3
ObjectDBX Classes
 90
     4095
280
     0
281
     0
  0
CLASS
  1
MLEADERSTYLE
  2
AcDbMLeaderStyle
  3
ACDB_MLEADERSTYLE_CLASS
 90
     4095
280
     0
281
     0
  0
CLASS
  1
DIMASSOC
  2
AcDbDimAssoc
  3
"AcDbDimAssoc|Product Desc:     AcDim ARX App For Dimension|Company:          Autodesk, Inc.|WEB Address:      www.autodesk.com"
 90
        0
280
     0
281
     0
  0
ENDSEC
  0
SECTION
  2
TABLES
  0
TABLE
  2
VPORT
  5
8
330
0
100
AcDbSymbolTable
 70
     1
  0
VPORT
  5
29
330
8
100
AcDbSymbolTableRecord
100
AcDbViewportTableRecord
  2
*Active
 70
     0
 10
0.0
 20
0.0
 11
1.0
 21
1.0
 12
-18.50152255094349
 22
-7.049563900043687
 13
0.0
 23
0.0
 14
10.0
 24
10.0
 15
10.0
 25
10.0
 16
0.0
 26
0.0
 36
1.0
 17
0.0
 27
0.0
 37
0.0
 40
87.56137671708686
 41
2.400311526479751
 42
50.0
 43
0.0
 44
0.0
 50
0.0
 51
0.0
 71
    16
 72
  2000
 73
     1
 74
     3
 75
     0
 76
     0
 77
     0
 78
     0
281
     0
 65
     1
110
0.0
120
0.0
130
0.0
111
1.0
121
0.0
131
0.0
112
0.0
122
1.0
132
0.0
 79
     0
146
0.0
  0
ENDTAB
  0
TABLE
  2
LTYPE
  5
5
330
0
100
AcDbSymbolTable
 70
     6
  0
LTYPE
  5
14
330
5
100
AcDbSymbolTableRecord
100
AcDbLinetypeTableRecord
  2
ByBlock
 70
     0
  3

 72
    65
 73
     0
 40
0.0
  0
LTYPE
  5
15
330
5
100
AcDbSymbolTableRecord
100
AcDbLinetypeTableRecord
  2
ByLayer
 70
     0
  3

 72
    65
 73
     0
 40
0.0
  0
LTYPE
  5
16
330
5
100
AcDbSymbolTableRecord
100
AcDbLinetypeTableRecord
  2
Continuous
 70
     0
  3
Solid line
 72
    65
 73
     0
 40
0.0
  0
LTYPE
  5
6A
330
5
100
AcDbSymbolTableRecord
100
AcDbLinetypeTableRecord
  2
HIDDEN
 70
     0
  3
Hidden __ __ __ __ __ __ __ __ __ __ __ __ __ __
 72
    65
 73
     2
 40
1.905
 49
1.27
 74
     0
 49
-0.635
 74
     0
  0
LTYPE
  5
6B
330
5
100
AcDbSymbolTableRecord
100
AcDbLinetypeTableRecord
  2
PHANTOM
 70
     0
  3
Phantom ______  __  __  ______  __  __  ______
 72
    65
 73
     6
 40
12.7
 49
6.35
 74
     0
 49
-1.27
 74
     0
 49
1.27
 74
     0
 49
-1.27
 74
     0
 49
1.27
 74
     0
 49
-1.27
 74
     0
  0
LTYPE
  5
6C
330
5
100
AcDbSymbolTableRecord
100
AcDbLinetypeTableRecord
  2
CENTER
 70
     0
  3
Center ____ _ ____ _ ____ _ ____ _ ____ _ ____
 72
    65
 73
     4
 40
10.16
 49
6.35
 74
     0
 49
-1.27
 74
     0
 49
1.27
 74
     0
 49
-1.27
 74
     0
  0
LTYPE
  5
6D
330
5
100
AcDbSymbolTableRecord
100
AcDbLinetypeTableRecord
  2
CENTERX2
 70
     0
  3
Center (2x) ________  __  ________  __  _____
 72
    65
 73
     4
 40
20.32
 49
12.7
 74
     0
 49
-2.54
 74
     0
 49
2.54
 74
     0
 49
-2.54
 74
     0
  0
LTYPE
  5
6E
330
5
100
AcDbSymbolTableRecord
100
AcDbLinetypeTableRecord
  2
DOT2
 70
     0
  3
Dot (.5x) ........................................
 72
    65
 73
     2
 40
0.635
 49
0.0
 74
     0
 49
-0.635
 74
     0
  0
ENDTAB
  0
TABLE
  2
LAYER
  5
2
330
0
100
AcDbSymbolTable
 70
    18
  0
LAYER
  5
10
330
2
100
AcDbSymbolTableRecord
100
AcDbLayerTableRecord
  2
0
 70
     0
 62
     7
  6
Continuous
370
    -3
390
F
  0
LAYER
  5
6F
330
2
100
AcDbSymbolTableRecord
100
AcDbLayerTableRecord
  2
FORMAT
 70
     0
 62
     2
  6
Continuous
370
    -3
390
F
  0
LAYER
  5
70
330
2
100
AcDbSymbolTableRecord
100
AcDbLayerTableRecord
  2
외형선
 70
     0
 62
     4
  6
Continuous
370
    30
390
F
  0
LAYER
  5
71
330
2
100
AcDbSymbolTableRecord
100
AcDbLayerTableRecord
  2
숨은선
 70
     0
 62
     2
  6
HIDDEN
370
    15
390
F
  0
LAYER
  5
72
330
2
100
AcDbSymbolTableRecord
100
AcDbLayerTableRecord
  2
중심선
 70
     0
 62
     1
  6
CENTERX2
370
    -3
390
F
  0
LAYER
  5
73
330
2
100
AcDbSymbolTableRecord
100
AcDbLayerTableRecord
  2
파단선
 70
     0
 62
     4
  6
Continuous
370
    -3
390
F
  0
LAYER
  5
74
330
2
100
AcDbSymbolTableRecord
100
AcDbLayerTableRecord
  2
해칭선
 70
     0
 62
   100
  6
Continuous
370
    -3
390
F
  0
LAYER
  5
75
330
2
100
AcDbSymbolTableRecord
100
AcDbLayerTableRecord
  2
가는실선
 70
     0
 62
     4
  6
Continuous
370
    -3
390
F
  0
LAYER
  5
76
330
2
100
AcDbSymbolTableRecord
100
AcDbLayerTableRecord
  2
치수_보조선
 70
     0
 62
     4
  6
Continuous
370
    -3
390
F
  0
LAYER
  5
77
330
2
100
AcDbSymbolTableRecord
100
AcDbLayerTableRecord
  2
치수문자_일반주서
 70
     0
 62
     7
  6
Continuous
370
    15
390
F
  0
LAYER
  5
78
330
2
100
AcDbSymbolTableRecord
100
AcDbLayerTableRecord
  2
개별주서
 70
     0
 62
   100
  6
Continuous
370
    30
390
F
  0
LAYER
  5
79
330
2
100
AcDbSymbolTableRecord
100
AcDbLayerTableRecord
  2
중간선
 70
     0
 62
     2
  6
Continuous
370
    15
390
F
  0
LAYER
  5
7A
330
2
100
AcDbSymbolTableRecord
100
AcDbLayerTableRecord
  2
윤곽선
 70
     0
 62
     3
  6
Continuous
370
    40
390
F
  0
LAYER
  5
7B
330
2
100
AcDbSymbolTableRecord
100
AcDbLayerTableRecord
  2
중심마크
 70
     0
 62
   100
  6
Continuous
370
    30
390
F
  0
LAYER
  5
7C
330
2
100
AcDbSymbolTableRecord
100
AcDbLayerTableRecord
  2
가상선
 70
     0
 62
     4
  6
PHANTOM
370
    -3
390
F
  0
LAYER
  5
7D
330
2
100
AcDbSymbolTableRecord
100
AcDbLayerTableRecord
  2
특수지정선
 70
     0
 62
     5
  6
CENTERX2
370
    60
390
F
  0
LAYER
  5
7E
330
2
100
AcDbSymbolTableRecord
100
AcDbLayerTableRecord
  2
참조1
 70
     0
 62
    -4
  6
Continuous
370
    -3
390
F
  0
LAYER
  5
13C
330
2
100
AcDbSymbolTableRecord
100
AcDbLayerTableRecord
  2
Defpoints
 70
     0
 62
     7
  6
Continuous
290
     0
370
    -3
390
F
  0
ENDTAB
  0
TABLE
  2
STYLE
  5
3
330
0
100
AcDbSymbolTable
 70
     2
  0
STYLE
  5
11
330
3
100
AcDbSymbolTableRecord
100
AcDbTextStyleTableRecord
  2
Standard
 70
     0
 40
0.0
 41
1.0
 50
0.0
 71
     0
 42
3.5
  3
txt
  4

  0
STYLE
  5
94
330
3
100
AcDbSymbolTableRecord
100
AcDbTextStyleTableRecord
  2
SLDTEXTSTYLE0
 70
     0
 40
0.0
 41
0.75
 50
0.0
 71
     0
 42
3.5
  3
TXT
  4

  0
ENDTAB
  0
TABLE
  2
VIEW
  5
6
330
0
100
AcDbSymbolTable
 70
     0
  0
ENDTAB
  0
TABLE
  2
UCS
  5
7
330
0
100
AcDbSymbolTable
 70
     0
  0
ENDTAB
  0
TABLE
  2
APPID
  5
9
330
0
100
AcDbSymbolTable
 70
     3
  0
APPID
  5
12
330
9
100
AcDbSymbolTableRecord
100
AcDbRegAppTableRecord
  2
ACAD
 70
     0
  0
APPID
  5
14A
330
9
100
AcDbSymbolTableRecord
100
AcDbRegAppTableRecord
  2
PE_URL
 70
     0
  0
APPID
  5
14D
330
9
100
AcDbSymbolTableRecord
100
AcDbRegAppTableRecord
  2
ACAD_DSTYLE_DIMRADIAL_EXTENSION
 70
     0
  0
ENDTAB
  0
TABLE
  2
DIMSTYLE
  5
A
330
0
100
AcDbSymbolTable
 70
     3
100
AcDbDimStyleTable
  0
DIMSTYLE
105
27
102
{ACAD_REACTORS
330
14E
102
}
330
A
100
AcDbSymbolTableRecord
100
AcDbDimStyleTableRecord
  2
ISO-25
 70
     0
 41
2.5
 42
0.625
 43
3.75
 44
1.25
 73
     0
 74
     0
 77
     1
 78
     8
140
2.5
141
2.5
143
0.03937007874016
147
0.625
171
     3
172
     1
178
     0
271
     2
272
     2
274
     3
278
    44
283
     0
284
     8
340
11
  0
DIMSTYLE
105
D4
330
A
100
AcDbSymbolTableRecord
100
AcDbDimStyleTableRecord
  2
SLDDIMSTYLE0
 70
     0
 41
3.302
 44
0.0
 45
0.000000001
 73
     0
 74
     0
 77
     1
 78
    12
 79
     3
140
3.5
147
0.875
173
     1
178
     0
271
     2
272
     2
276
     2
284
    12
340
94
  0
DIMSTYLE
105
E1
102
{ACAD_REACTORS
330
E0
330
EE
330
F8
330
102
330
D3
102
}
330
A
100
AcDbSymbolTableRecord
100
AcDbDimStyleTableRecord
  2
SLDDIMSTYLE1
 70
     0
 41
3.302
 44
0.0
 45
0.000000001
 73
     0
 74
     0
 77
     1
 78
    12
 79
     3
140
3.5
147
0.875
172
     1
173
     1
178
     0
271
     2
272
     2
276
     2
284
    12
289
     0
340
94
  0
ENDTAB
  0
TABLE
  2
BLOCK_RECORD
  5
1
330
0
100
AcDbSymbolTable
 70
     9
  0
BLOCK_RECORD
  5
1F
330
1
100
AcDbSymbolTableRecord
100
AcDbBlockTableRecord
  2
*Model_Space
340
22
  0
BLOCK_RECORD
  5
1B
330
1
100
AcDbSymbolTableRecord
100
AcDbBlockTableRecord
  2
*Paper_Space
340
1E
  0
BLOCK_RECORD
  5
23
330
1
100
AcDbSymbolTableRecord
100
AcDbBlockTableRecord
  2
*Paper_Space0
340
26
  0
BLOCK_RECORD
  5
7F
330
1
100
AcDbSymbolTableRecord
100
AcDbBlockTableRecord
  2
블럭10
340
0
102
{BLKREFS
331
CC
102
}
  0
BLOCK_RECORD
  5
D5
330
1
100
AcDbSymbolTableRecord
100
AcDbBlockTableRecord
  2
_D
340
0
  0
BLOCK_RECORD
  5
E2
330
1
100
AcDbSymbolTableRecord
100
AcDbBlockTableRecord
  2
_D_1
340
0
  0
BLOCK_RECORD
  5
EF
330
1
100
AcDbSymbolTableRecord
100
AcDbBlockTableRecord
  2
_D_2
340
0
  0
BLOCK_RECORD
  5
F9
330
1
100
AcDbSymbolTableRecord
100
AcDbBlockTableRecord
  2
_D_3
340
0
  0
BLOCK_RECORD
  5
103
330
1
100
AcDbSymbolTableRecord
100
AcDbBlockTableRecord
  2
_D_4
340
0
  0
BLOCK_RECORD
  5
113
330
1
100
AcDbSymbolTableRecord
100
AcDbBlockTableRecord
  2
SW_DOWELSYMBOL_0
340
0
102
{BLKREFS
331
119
102
}
  0
BLOCK_RECORD
  5
151
330
1
100
AcDbSymbolTableRecord
100
AcDbBlockTableRecord
  2
*D8
340
0
  0
ENDTAB
  0
ENDSEC
  0
SECTION
  2
BLOCKS
  0
BLOCK
  5
20
330
1F
100
AcDbEntity
  8
0
100
AcDbBlockBegin
  2
*Model_Space
 70
     0
 10
0.0
 20
0.0
 30
0.0
  3
*Model_Space
  1

  0
ENDBLK
  5
21
330
1F
100
AcDbEntity
  8
0
100
AcDbBlockEnd
  0
BLOCK
  5
1C
330
1B
100
AcDbEntity
 67
     1
  8
0
100
AcDbBlockBegin
  2
*Paper_Space
 70
     0
 10
0.0
 20
0.0
 30
0.0
  3
*Paper_Space
  1

  0
ENDBLK
  5
1D
330
1B
100
AcDbEntity
 67
     1
  8
0
100
AcDbBlockEnd
  0
BLOCK
  5
24
330
23
100
AcDbEntity
  8
0
100
AcDbBlockBegin
  2
*Paper_Space0
 70
     0
 10
0.0
 20
0.0
 30
0.0
  3
*Paper_Space0
  1

  0
ENDBLK
  5
25
330
23
100
AcDbEntity
  8
0
100
AcDbBlockEnd
  0
BLOCK
  5
80
330
7F
100
AcDbEntity
  8
0
100
AcDbBlockBegin
  2
블럭10
 70
     2
 10
0.0
 20
0.0
 30
0.0
  3
블럭10
  1

  0
ELLIPSE
  5
82
330
7F
100
AcDbEntity
  8
중심선
100
AcDbEllipse
 10
20.54032771741204
 20
12.0471743016438
 30
0.0
 11
6.600054785286829
 21
-1.261213355974178E-13
 31
0.0
210
0.0
220
0.0
230
1.0
 40
0.636358354079598
 41
0.9219305317359503
 42
6.513795318482858
  0
ELLIPSE
  5
83
330
7F
100
AcDbEntity
  8
중심선
100
AcDbEllipse
 10
20.54032771746488
 20
12.04717430159265
 30
0.0
 11
3.960054785062283
 21
1.540847449632565E-10
 31
0.0
210
0.0
220
0.0
230
1.0
 40
0.3939339440162632
 41
1.131841032648279
 42
5.62031148352944
  0
LINE
  5
84
330
7F
100
AcDbEntity
  8
중심선
100
AcDbLine
 10
2.268634060543552
 20
16.24717430164393
 30
0.0
 11
5.714909304380834
 21
16.24717430164393
 31
0.0
  0
LINE
  5
85
330
7F
100
AcDbEntity
  8
중심선
100
AcDbLine
 10
5.245725140726316
 20
7.84717430164391
 30
0.0
 11
8.692000384563599
 21
7.84717430164391
 31
0.0
  0
LINE
  5
86
330
7F
100
AcDbEntity
  8
중심선
100
AcDbLine
 10
15.74043728645272
 20
16.24717430164393
 30
0.0
 11
8.692000384563599
 21
7.84717430164391
 31
0.0
  0
LINE
  5
87
330
7F
100
AcDbEntity
  8
중심선
100
AcDbLine
 10
0.1404042013395286
 20
13.71084872107135
 30
0.0
 11
3.58671253028996
 21
13.71088815037384
 31
0.0
  0
LINE
  5
88
330
7F
100
AcDbEntity
  8
중심선
100
AcDbLine
 10
2.750260043222114
 20
10.84717430164391
 30
0.0
 11
6.196535287059397
 21
10.84717430164391
 31
0.0
  0
LINE
  5
89
330
7F
100
AcDbEntity
  8
중심선
100
AcDbLine
 10
12.29416204261559
 20
16.24717430164393
 30
0.0
 11
5.245725140726316
 21
7.84717430164391
 31
0.0
  0
LINE
  5
8A
330
7F
100
AcDbEntity
  8
중심선
100
AcDbLine
 10
10.72767329541681
 20
16.24717430164393
 30
0.0
 11
6.196535287059397
 21
10.84717430164391
 31
0.0
  0
LINE
  5
8B
330
7F
100
AcDbEntity
  8
중심선
100
AcDbLine
 10
7.28139805157953
 20
16.24717430164393
 30
0.0
 11
2.750260043222114
 21
10.84717430164391
 31
0.0
  0
LINE
  5
8C
330
7F
100
AcDbEntity
  8
중심선
100
AcDbLine
 10
5.714909304380834
 20
16.24717430164393
 30
0.0
 11
3.58671253028996
 21
13.71088815037384
 31
0.0
  0
LINE
  5
8D
330
7F
100
AcDbEntity
  8
중심선
100
AcDbLine
 10
2.268634060543552
 20
16.24717430164393
 30
0.0
 11
0.1404042013395286
 21
13.71084872107135
 31
0.0
  0
LINE
  5
8E
330
7F
100
AcDbEntity
  8
중심선
100
AcDbLine
 10
7.28139805157953
 20
16.24717430164393
 30
0.0
 11
10.72767329541681
 21
16.24717430164393
 31
0.0
  0
LINE
  5
8F
330
7F
100
AcDbEntity
  8
중심선
100
AcDbLine
 10
12.29416204261559
 20
16.24717430164393
 30
0.0
 11
15.74043728645272
 21
16.24717430164393
 31
0.0
  0
LINE
  5
90
330
7F
100
AcDbEntity
  8
중심선
100
AcDbLine
 10
19.22036997980202
 20
11.08717430171403
 30
0.0
 11
23.66174974927406
 21
11.08717430171406
 31
0.0
  0
LINE
  5
91
330
7F
100
AcDbEntity
  8
중심선
100
AcDbLine
 10
19.22039502424796
 20
13.00717430171391
 30
0.0
 11
19.22036997980202
 21
11.08717430171403
 31
0.0
  0
LINE
  5
92
330
7F
100
AcDbEntity
  8
중심선
100
AcDbLine
 10
19.22039502424796
 20
13.00717430171391
 30
0.0
 11
26.96566020931264
 21
13.00717430171391
 31
0.0
  0
LINE
  5
93
330
7F
100
AcDbEntity
  8
중심선
100
AcDbLine
 10
22.22332737316547
 20
13.45928029700563
 30
0.0
 11
24.52862924686651
 21
15.39360700705356
 31
0.0
  0
ATTDEF
  5
95
330
7F
100
AcDbEntity
  8
FORMAT
 62
     2
100
AcDbText
 10
-10.42778114789694
 20
2.075366912832191
 30
0.0
 40
4.233333333333333
  1
SEME641601015020E
 41
0.75
  7
SLDTEXTSTYLE0
 11
-10.42778114789694
 21
-0.0412997538344756
 31
0.0
100
AcDbAttributeDefinition
  3

  2
AUTOATTR0
 70
     0
 74
     1
  0
ENDBLK
  5
81
330
7F
100
AcDbEntity
  8
0
100
AcDbBlockEnd
  0
BLOCK
  5
D6
330
D5
100
AcDbEntity
  8
0
100
AcDbBlockBegin
  2
_D
 70
     0
 10
0.0
 20
0.0
 30
0.0
  3
_D
  1

  0
LINE
  5
D8
330
D5
100
AcDbEntity
  8
치수문자_일반주서
 62
     0
370
    -2
100
AcDbLine
 10
31.63532903303754
 20
8.000000000000005
 30
0.0
 11
72.6600900009444
 21
8.000000000000158
 31
0.0
  0
LINE
  5
D9
330
D5
100
AcDbEntity
  8
치수문자_일반주서
 62
     0
370
    -2
100
AcDbLine
 10
31.63532903303743
 20
-7.999999999999988
 30
0.0
 11
72.66009000094445
 21
-7.999999999999837
 31
0.0
  0
LINE
  5
DA
330
D5
100
AcDbEntity
  8
치수문자_일반주서
 62
     0
370
    -2
100
AcDbLine
 10
72.6600900009444
 20
8.000000000000158
 30
0.0
 11
72.66009000094435
 21
22.47900000000016
 31
0.0
  0
LINE
  5
DB
330
D5
100
AcDbEntity
  8
치수문자_일반주서
 62
     0
370
    -2
100
AcDbLine
 10
72.6600900009444
 20
8.000000000000158
 30
0.0
 11
72.66009000094445
 21
-7.999999999999837
 31
0.0
  0
LINE
  5
DC
330
D5
100
AcDbEntity
  8
치수문자_일반주서
 62
     0
370
    -2
100
AcDbLine
 10
72.66009000094438
 20
11.30200000000016
 30
0.0
 11
72.66009000094436
 21
14.60400000000016
 31
0.0
  0
LINE
  5
DD
330
D5
100
AcDbEntity
  8
치수문자_일반주서
 62
     0
370
    -2
100
AcDbLine
 10
72.66009000094446
 20
-11.30199999999984
 30
0.0
 11
72.66009000094448
 21
-14.60399999999984
 31
0.0
  0
SOLID
  5
DE
330
D5
100
AcDbEntity
  8
치수문자_일반주서
 62
     0
100
AcDbTrace
 10
72.10975666761105
 20
11.30200000000016
 30
0.0
 11
73.2104233342777
 21
11.30200000000016
 31
0.0
 12
72.6600900009444
 22
8.000000000000158
 32
0.0
 13
72.6600900009444
 23
8.000000000000158
 33
0.0
  0
SOLID
  5
DF
330
D5
100
AcDbEntity
  8
치수문자_일반주서
 62
     0
100
AcDbTrace
 10
73.21042333427779
 20
-11.30199999999983
 30
0.0
 11
72.10975666761114
 21
-11.30199999999984
 31
0.0
 12
72.66009000094445
 22
-7.999999999999837
 32
0.0
 13
72.66009000094445
 23
-7.999999999999837
 33
0.0
  0
MTEXT
  5
13D
330
D5
100
AcDbEntity
  8
치수문자_일반주서
 62
     0
100
AcDbMText
 10
68.28509000094436
 20
18.54150000000014
 30
0.0
 40
3.5
 41
0.0
 71
     2
 72
     1
  1
\A1;%%c16
  7
SLDTEXTSTYLE0
 11
-3.552713678800503E-15
 21
1.0
 31
0.0
 73
     1
 44
1.0
  0
POINT
  5
13E
330
D5
100
AcDbEntity
  8
Defpoints
 62
     0
100
AcDbPoint
 10
31.57282903303754
 20
8.000000000000005
 30
0.0
  0
POINT
  5
14B
330
D5
100
AcDbEntity
  8
Defpoints
 62
     0
100
AcDbPoint
 10
31.57282903303743
 20
-7.999999999999988
 30
0.0
  0
POINT
  5
14C
330
D5
100
AcDbEntity
  8
Defpoints
 62
     0
100
AcDbPoint
 10
72.66009000094445
 20
-7.999999999999835
 30
0.0
  0
ENDBLK
  5
D7
330
D5
100
AcDbEntity
  8
0
100
AcDbBlockEnd
  0
BLOCK
  5
E3
330
E2
100
AcDbEntity
  8
0
100
AcDbBlockBegin
  2
_D_1
 70
     0
 10
0.0
 20
0.0
 30
0.0
  3
_D_1
  1

  0
LINE
  5
E5
330
E2
100
AcDbEntity
  8
치수문자_일반주서
 62
     0
370
    -2
100
AcDbLine
 10
-95.91249999999997
 20
10.00000000000001
 30
0.0
 11
-105.8384684361648
 21
9.999999999999972
 31
0.0
  0
LINE
  5
E6
330
E2
100
AcDbEntity
  8
치수문자_일반주서
 62
     0
370
    -2
100
AcDbLine
 10
-95.91249999999997
 20
-10.00000000000001
 30
0.0
 11
-105.8384684361647
 21
-10.00000000000005
 31
0.0
  0
LINE
  5
E7
330
E2
100
AcDbEntity
  8
치수문자_일반주서
 62
     0
370
    -2
100
AcDbLine
 10
-105.8384684361648
 20
6.697999999999972
 30
0.0
 11
-105.8384684361647
 21
-6.698000000000047
 31
0.0
  0
SOLID
  5
E8
330
E2
100
AcDbEntity
  8
치수문자_일반주서
 62
     0
100
AcDbTrace
 10
-105.2881351028315
 20
6.697999999999974
 30
0.0
 11
-106.3888017694981
 21
6.69799999999997
 31
0.0
 12
-105.8384684361648
 22
9.999999999999972
 32
0.0
 13
-105.8384684361648
 23
9.999999999999972
 33
0.0
  0
SOLID
  5
E9
330
E2
100
AcDbEntity
  8
치수문자_일반주서
 62
     0
100
AcDbTrace
 10
-106.3888017694981
 20
-6.698000000000048
 30
0.0
 11
-105.2881351028314
 21
-6.698000000000045
 31
0.0
 12
-105.8384684361647
 22
-10.00000000000005
 32
0.0
 13
-105.8384684361647
 23
-10.00000000000005
 33
0.0
  0
MTEXT
  5
EA
330
E2
100
AcDbEntity
  8
치수문자_일반주서
 62
     0
100
AcDbMText
 10
-110.2134684361648
 20
-0.0000000000000056
 30
0.0
 40
3.5
 41
0.0
 71
     2
 72
     1
  1
\A1;%%c20
  7
SLDTEXTSTYLE0
 11
-3.552713678800498E-15
 21
1.0
 31
0.0
 73
     1
 44
1.0
  0
POINT
  5
EB
330
E2
100
AcDbEntity
  8
Defpoints
 62
     0
100
AcDbPoint
 10
-95.84999999999997
 20
10.00000000000001
 30
0.0
  0
POINT
  5
EC
330
E2
100
AcDbEntity
  8
Defpoints
 62
     0
100
AcDbPoint
 10
-95.84999999999997
 20
-10.00000000000001
 30
0.0
  0
POINT
  5
ED
330
E2
100
AcDbEntity
  8
Defpoints
 62
     0
100
AcDbPoint
 10
-105.8384684361648
 20
-10.00000000000005
 30
0.0
  0
ENDBLK
  5
E4
330
E2
100
AcDbEntity
  8
0
100
AcDbBlockEnd
  0
BLOCK
  5
F0
330
EF
100
AcDbEntity
  8
0
100
AcDbBlockBegin
  2
_D_2
 70
     0
 10
0.0
 20
0.0
 30
0.0
  3
_D_2
  1

  0
LINE
  5
F2
330
EF
100
AcDbEntity
  8
치수문자_일반주서
 62
     0
370
    -2
100
AcDbLine
 10
52.15000000000003
 20
7.016643523519489
 30
0.0
 11
52.15000000000003
 21
17.09018228756249
 31
0.0
  0
LINE
  5
F3
330
EF
100
AcDbEntity
  8
치수문자_일반주서
 62
     0
370
    -2
100
AcDbLine
 10
17.15000000000011
 20
7.936201683463059
 30
0.0
 11
17.15000000000011
 21
17.09018228756249
 31
0.0
  0
LINE
  5
F4
330
EF
100
AcDbEntity
  8
치수문자_일반주서
 62
     0
370
    -2
100
AcDbLine
 10
48.84800000000003
 20
17.09018228756249
 30
0.0
 11
20.45200000000011
 21
17.09018228756249
 31
0.0
  0
SOLID
  5
F5
330
EF
100
AcDbEntity
  8
치수문자_일반주서
 62
     0
100
AcDbTrace
 10
48.84800000000003
 20
16.53984895422916
 30
0.0
 11
48.84800000000003
 21
17.64051562089583
 31
0.0
 12
52.15000000000003
 22
17.09018228756249
 32
0.0
 13
52.15000000000003
 23
17.09018228756249
 33
0.0
  0
SOLID
  5
F6
330
EF
100
AcDbEntity
  8
치수문자_일반주서
 62
     0
100
AcDbTrace
 10
20.45200000000011
 20
17.64051562089583
 30
0.0
 11
20.45200000000011
 21
16.53984895422916
 31
0.0
 12
17.15000000000011
 22
17.09018228756249
 32
0.0
 13
17.15000000000011
 23
17.09018228756249
 33
0.0
  0
MTEXT
  5
F7
330
EF
100
AcDbEntity
  8
치수문자_일반주서
 62
     0
100
AcDbMText
 10
34.65000000000007
 20
21.46518228756249
 30
0.0
 40
3.5
 41
0.0
 71
     2
 72
     1
  1
\A1;35
  7
SLDTEXTSTYLE0
 73
     1
 44
1.0
  0
POINT
  5
13F
330
EF
100
AcDbEntity
  8
Defpoints
 62
     0
100
AcDbPoint
 10
52.15000000000003
 20
6.954143523519489
 30
0.0
  0
POINT
  5
140
330
EF
100
AcDbEntity
  8
Defpoints
 62
     0
100
AcDbPoint
 10
17.15000000000011
 20
7.873701683463059
 30
0.0
  0
POINT
  5
141
330
EF
100
AcDbEntity
  8
Defpoints
 62
     0
100
AcDbPoint
 10
17.15000000000011
 20
17.09018228756249
 30
0.0
  0
ENDBLK
  5
F1
330
EF
100
AcDbEntity
  8
0
100
AcDbBlockEnd
  0
BLOCK
  5
FA
330
F9
100
AcDbEntity
  8
0
100
AcDbBlockBegin
  2
_D_3
 70
     0
 10
0.0
 20
0.0
 30
0.0
  3
_D_3
  1

  0
LINE
  5
FC
330
F9
100
AcDbEntity
  8
치수문자_일반주서
 62
     0
370
    -2
100
AcDbLine
 10
52.15000000000003
 20
7.016643523519489
 30
0.0
 11
52.15000000000003
 21
23.09018228756247
 31
0.0
  0
LINE
  5
FD
330
F9
100
AcDbEntity
  8
치수문자_일반주서
 62
     0
370
    -2
100
AcDbLine
 10
2.150000000000006
 20
7.912499999999999
 30
0.0
 11
2.150000000000006
 21
23.09018228756247
 31
0.0
  0
LINE
  5
FE
330
F9
100
AcDbEntity
  8
치수문자_일반주서
 62
     0
370
    -2
100
AcDbLine
 10
48.84800000000003
 20
23.09018228756247
 30
0.0
 11
5.452000000000005
 21
23.09018228756247
 31
0.0
  0
SOLID
  5
FF
330
F9
100
AcDbEntity
  8
치수문자_일반주서
 62
     0
100
AcDbTrace
 10
48.84800000000003
 20
22.53984895422914
 30
0.0
 11
48.84800000000003
 21
23.6405156208958
 31
0.0
 12
52.15000000000003
 22
23.09018228756247
 32
0.0
 13
52.15000000000003
 23
23.09018228756247
 33
0.0
  0
SOLID
  5
100
330
F9
100
AcDbEntity
  8
치수문자_일반주서
 62
     0
100
AcDbTrace
 10
5.452000000000005
 20
23.6405156208958
 30
0.0
 11
5.452000000000005
 21
22.53984895422914
 31
0.0
 12
2.150000000000006
 22
23.09018228756247
 32
0.0
 13
2.150000000000006
 23
23.09018228756247
 33
0.0
  0
MTEXT
  5
101
330
F9
100
AcDbEntity
  8
치수문자_일반주서
 62
     0
100
AcDbMText
 10
27.15000000000004
 20
27.46518228756247
 30
0.0
 40
3.5
 41
0.0
 71
     2
 72
     1
  1
\A1;50
  7
SLDTEXTSTYLE0
 73
     1
 44
1.0
  0
POINT
  5
142
330
F9
100
AcDbEntity
  8
Defpoints
 62
     0
100
AcDbPoint
 10
52.15000000000003
 20
6.954143523519489
 30
0.0
  0
POINT
  5
143
330
F9
100
AcDbEntity
  8
Defpoints
 62
     0
100
AcDbPoint
 10
2.150000000000006
 20
7.849999999999999
 30
0.0
  0
POINT
  5
144
330
F9
100
AcDbEntity
  8
Defpoints
 62
     0
100
AcDbPoint
 10
2.150000000000006
 20
23.09018228756247
 30
0.0
  0
ENDBLK
  5
FB
330
F9
100
AcDbEntity
  8
0
100
AcDbBlockEnd
  0
BLOCK
  5
104
330
103
100
AcDbEntity
  8
0
100
AcDbBlockBegin
  2
_D_4
 70
     0
 10
0.0
 20
0.0
 30
0.0
  3
_D_4
  1

  0
LINE
  5
106
330
103
100
AcDbEntity
  8
치수문자_일반주서
 62
     0
370
    -2
100
AcDbLine
 10
52.15000000000003
 20
7.016643523519489
 30
0.0
 11
52.15000000000003
 21
31.49767958872438
 31
0.0
  0
LINE
  5
107
330
103
100
AcDbEntity
  8
치수문자_일반주서
 62
     0
370
    -2
100
AcDbLine
 10
-97.84999999999997
 20
8.062500000000021
 30
0.0
 11
-97.84999999999997
 21
31.49767958872438
 31
0.0
  0
LINE
  5
108
330
103
100
AcDbEntity
  8
치수문자_일반주서
 62
     0
370
    -2
100
AcDbLine
 10
48.84800000000003
 20
31.49767958872438
 30
0.0
 11
-94.54799999999997
 21
31.49767958872438
 31
0.0
  0
SOLID
  5
109
330
103
100
AcDbEntity
  8
치수문자_일반주서
 62
     0
100
AcDbTrace
 10
48.84800000000003
 20
30.94734625539105
 30
0.0
 11
48.84800000000003
 21
32.04801292205772
 31
0.0
 12
52.15000000000003
 22
31.49767958872438
 32
0.0
 13
52.15000000000003
 23
31.49767958872438
 33
0.0
  0
SOLID
  5
10A
330
103
100
AcDbEntity
  8
치수문자_일반주서
 62
     0
100
AcDbTrace
 10
-94.54799999999997
 20
32.04801292205772
 30
0.0
 11
-94.54799999999997
 21
30.94734625539105
 31
0.0
 12
-97.84999999999997
 22
31.49767958872438
 32
0.0
 13
-97.84999999999997
 23
31.49767958872438
 33
0.0
  0
MTEXT
  5
10B
330
103
100
AcDbEntity
  8
치수문자_일반주서
 62
     0
100
AcDbMText
 10
-22.84999999999997
 20
35.87267958872438
 30
0.0
 40
3.5
 41
0.0
 71
     2
 72
     1
  1
\A1;150
  7
SLDTEXTSTYLE0
 73
     1
 44
1.0
  0
POINT
  5
145
330
103
100
AcDbEntity
  8
Defpoints
 62
     0
100
AcDbPoint
 10
52.15000000000003
 20
6.954143523519489
 30
0.0
  0
POINT
  5
146
330
103
100
AcDbEntity
  8
Defpoints
 62
     0
100
AcDbPoint
 10
-97.84999999999997
 20
8.000000000000021
 30
0.0
  0
POINT
  5
147
330
103
100
AcDbEntity
  8
Defpoints
 62
     0
100
AcDbPoint
 10
-97.84999999999997
 20
31.49767958872438
 30
0.0
  0
ENDBLK
  5
105
330
103
100
AcDbEntity
  8
0
100
AcDbBlockEnd
  0
BLOCK
  5
114
330
113
100
AcDbEntity
  8
0
100
AcDbBlockBegin
  2
SW_DOWELSYMBOL_0
 70
     0
 10
0.0
 20
0.0
 30
0.0
  3
SW_DOWELSYMBOL_0
  1

  0
CIRCLE
  5
116
330
113
100
AcDbEntity
  8
해칭선
 62
     0
100
AcDbCircle
 10
0.0
 20
0.0
 30
0.0
 40
3.000000000000008
  0
HATCH
  5
117
330
113
100
AcDbEntity
  8
0
  6
Continuous
 62
     0
370
     0
100
AcDbHatch
 10
0.0
 20
0.0
 30
0.0
210
0.0
220
0.0
230
1.0
  2
SOLID
 70
     1
 71
     0
 91
        1
 92
        0
 93
        3
 72
     2
 10
0.0
 20
0.0
 40
3.000000000000008
 50
0.0
 51
90.0
 73
     1
 72
     1
 10
0.0
 20
3.000000000000008
 11
0.0
 21
0.0
 72
     1
 10
0.0
 20
0.0
 11
3.00000000000001
 21
0.0
 97
        0
 75
     0
 76
     1
 98
        1
 10
0.0
 20
0.0
  0
HATCH
  5
118
330
113
100
AcDbEntity
  8
0
  6
Continuous
 62
     0
370
     0
100
AcDbHatch
 10
0.0
 20
0.0
 30
0.0
210
0.0
220
0.0
230
1.0
  2
SOLID
 70
     1
 71
     0
 91
        1
 92
        0
 93
        3
 72
     2
 10
0.0
 20
0.0
 40
3.000000000000008
 50
180.0
 51
270.0000000000008
 73
     1
 72
     1
 10
0.0
 20
-3.000000000000008
 11
0.0
 21
0.0
 72
     1
 10
0.0
 20
0.0
 11
-3.00000000000001
 21
0.0
 97
        0
 75
     0
 76
     1
 98
        1
 10
0.0
 20
0.0
  0
ENDBLK
  5
115
330
113
100
AcDbEntity
  8
0
100
AcDbBlockEnd
  0
BLOCK
  5
152
330
151
100
AcDbEntity
  8
0
100
AcDbBlockBegin
  2
*D8
 70
     1
 10
0.0
 20
0.0
 30
0.0
  3
*D8
  1

  0
LINE
  5
154
330
151
100
AcDbEntity
  8
0
 62
     0
370
    -2
100
AcDbLine
 10
69.79999135963683
 20
-16.12513420287628
 30
0.0
 11
56.02599135963683
 21
-16.12513420287628
 31
0.0
  0
LINE
  5
155
330
151
100
AcDbEntity
  8
0
 62
     0
370
    -2
100
AcDbLine
 10
56.02599135963683
 20
-16.12513420287628
 30
0.0
 11
53.16956627921421
 21
-10.7526374413586
 31
0.0
  0
MTEXT
  5
156
330
151
100
AcDbEntity
  8
0
 62
     0
100
AcDbMText
 10
63.67499135963683
 20
-12.55946753620961
 30
0.0
 40
3.5
 41
0.0
 71
     5
 72
     1
  1
R1,00
 73
     1
 44
1.0
  0
LINE
  5
157
330
151
100
AcDbEntity
  8
0
 62
     0
370
    -2
100
AcDbLine
 10
51.15000000000003
 20
-6.954143523519457
 30
0.0
 11
51.61944822854819
 21
-7.837103523017166
 31
0.0
  0
SOLID
  5
158
330
151
100
AcDbEntity
  8
0
 62
     0
100
AcDbTrace
 10
53.65548859893778
 20
-10.49428443291426
 30
0.0
 11
52.68364395949064
 21
-11.01099044980294
 31
0.0
 12
51.61944822854819
 22
-7.837103523017166
 32
0.0
 13
51.61944822854819
 23
-7.837103523017166
 33
0.0
  0
POINT
  5
159
330
151
100
AcDbEntity
  8
Defpoints
 62
     0
100
AcDbPoint
 10
51.61944822854819
 20
-7.837103523017166
 30
0.0
  0
POINT
  5
15A
330
151
100
AcDbEntity
  8
Defpoints
 62
     0
100
AcDbPoint
 10
51.15000000000003
 20
-6.954143523519457
 30
0.0
  0
ENDBLK
  5
153
330
151
100
AcDbEntity
  8
0
100
AcDbBlockEnd
  0
ENDSEC
  0
SECTION
  2
ENTITIES
  0
LINE
  5
96
330
1F
100
AcDbEntity
  8
외형선
  6
Continuous
 62
     1
370
    15
100
AcDbLine
 10
36.45185945248731
 20
8.000000000000007
 30
0.0
 11
31.57162857599952
 21
8.000000000000005
 31
0.0
  0
LINE
  5
97
330
1F
100
AcDbEntity
  8
외형선
  6
Continuous
 62
     1
370
    15
100
AcDbLine
 10
31.57162857599941
 20
-7.999999999999988
 30
0.0
 11
36.45185945248733
 21
-7.999999999999987
 31
0.0
  0
LINE
  5
98
330
1F
100
AcDbEntity
  8
외형선
  6
Continuous
370
    15
100
AcDbLine
 10
-95.84999999999997
 20
-9.999999999999998
 30
0.0
 11
0.0
 21
-9.999999999999998
 31
0.0
  0
LINE
  5
99
330
1F
100
AcDbEntity
  8
외형선
  6
Continuous
370
    15
100
AcDbLine
 10
0.0
 20
9.999999999999998
 30
0.0
 11
-95.84999999999997
 21
9.999999999999998
 31
0.0
  0
LINE
  5
9A
330
1F
100
AcDbEntity
  8
외형선
  6
Continuous
370
    15
100
AcDbLine
 10
0.0
 20
-10.0
 30
0.0
 11
2.150000000000013
 21
-7.85
 31
0.0
  0
LINE
  5
9B
330
1F
100
AcDbEntity
  8
외형선
  6
Continuous
370
    15
100
AcDbLine
 10
2.150000000000013
 20
7.849999999999999
 30
0.0
 11
0.0
 21
10.0
 31
0.0
  0
LINE
  5
9C
330
1F
100
AcDbEntity
  8
외형선
  6
Continuous
370
    15
100
AcDbLine
 10
-95.84999999999997
 20
9.999999999999998
 30
0.0
 11
-97.84999999999997
 21
8.000000000000021
 31
0.0
  0
LINE
  5
9D
330
1F
100
AcDbEntity
  8
외형선
  6
Continuous
370
    15
100
AcDbLine
 10
-97.84999999999997
 20
-8.000000000000021
 30
0.0
 11
-95.84999999999997
 21
-9.999999999999998
 31
0.0
  0
LINE
  5
9E
330
1F
100
AcDbEntity
  8
외형선
  6
Continuous
370
    15
100
AcDbLine
 10
2.150000000000013
 20
-7.85
 30
0.0
 11
16.15037125074168
 21
-7.85
 31
0.0
  0
LINE
  5
9F
330
1F
100
AcDbEntity
  8
외형선
  6
Continuous
370
    15
100
AcDbLine
 10
16.15037125074168
 20
7.849999999999999
 30
0.0
 11
2.150000000000013
 21
7.849999999999999
 31
0.0
  0
SPLINE
  5
A1
330
1F
100
AcDbEntity
  8
외형선
  6
Continuous
 62
     1
370
    15
100
AcDbSpline
210
0.0
220
0.0
230
1.0
 70
     8
 71
     3
 72
    17
 73
    13
 74
     0
 42
0.000000001
 43
0.00000001
 40
0.0
 40
0.0
 40
0.0
 40
0.0
 40
0.0679067637218469
 40
0.166020449793056
 40
0.2641341359265585
 40
0.3622478221225011
 40
0.4603615083810306
 40
0.5682953247914655
 40
0.6762307769120225
 40
0.7841631662775488
 40
0.8920878001068803
 40
1.0
 40
1.0
 40
1.0
 40
1.0
 10
44.87293519548236
 20
-6.539997065411391
 30
0.0
 10
44.24544617148113
 20
-6.746050192286436
 30
0.0
 10
42.71134258157067
 20
-7.249814926903809
 30
0.0
 10
40.27062215881983
 20
-7.741725475715405
 30
0.0
 10
37.55078603391835
 20
-8.027795659097738
 30
0.0
 10
34.83091248988898
 20
-7.996106890815716
 30
0.0
 10
32.02043975566865
 20
-7.648672512205231
 30
0.0
 10
29.11862973305562
 20
-6.959591487625002
 30
0.0
 10
26.12622586574297
 20
-5.926256532297256
 30
0.0
 10
23.13388292937909
 20
-4.616379714419007
 30
0.0
 10
20.14180245829836
 20
-3.096896874196304
 30
0.0
 10
18.14722918494849
 20
-1.976222304678038
 30
0.0
 10
17.14999999999858
 20
-1.415917299849702
 30
0.0
  0
SPLINE
  5
A2
330
1F
100
AcDbEntity
  8
외형선
  6
Continuous
370
    15
100
AcDbSpline
210
0.0
220
0.0
230
1.0
 70
    24
 71
     3
 72
    21
 73
    17
 74
     0
 42
0.000000001
 43
0.00000001
 40
0.0
 40
0.0
 40
0.0
 40
0.0
 40
0.044629433816986
 40
0.1164611281266545
 40
0.1903759464375283
 40
0.2622076407471918
 40
0.3361224590580602
 40
0.4079541533677245
 40
0.4818689716785937
 40
0.5537006659882577
 40
0.6276154842991272
 40
0.6994471786087934
 40
0.7733619969196575
 40
0.8451936912293216
 40
0.9191085095401911
 40
1.0
 40
1.0
 40
1.0
 40
1.0
 10
17.15000000000003
 20
-1.420163023928663
 30
0.0
 10
17.15000000000003
 20
-1.405994795088296
 30
0.0
 10
17.15000000000008
 20
-1.369022604917293
 30
0.0
 10
17.15
 20
-1.161590582738734
 30
0.0
 10
17.14999999999994
 20
-0.817217329901672
 30
0.0
 10
17.15000000000008
 20
-0.3454825356832707
 30
0.0
 10
17.14999999999997
 20
0.2248513841095598
 30
0.0
 10
17.15000000000006
 20
0.8897629068166648
 30
0.0
 10
17.15
 20
1.617971350148415
 30
0.0
 10
17.14999999999997
 20
2.402091427280805
 30
0.0
 10
17.15000000000011
 20
3.205829484104452
 30
0.0
 10
17.15000000000003
 20
4.020727170348922
 30
0.0
 10
17.14999999999997
 20
4.80973514249014
 30
0.0
 10
17.15000000000003
 20
5.562158315326893
 30
0.0
 10
17.15000000000025
 20
6.281460661186975
 30
0.0
 10
17.14999999999933
 20
6.689456416554425
 30
0.0
 10
17.14999999999883
 20
6.90264788798107
 30
0.0
  0
SPLINE
  5
A3
330
1F
100
AcDbEntity
  8
외형선
  6
Continuous
 62
     1
370
    15
100
AcDbSpline
210
0.0
220
0.0
230
1.0
 70
     8
 71
     3
 72
    56
 73
    52
 74
     0
 42
0.000000001
 43
0.00000001
 40
0.0
 40
0.0
 40
0.0
 40
0.0
 40
0.0312499999999992
 40
0.0312499999999992
 40
0.0624999999999984
 40
0.0624999999999984
 40
0.1249999999999986
 40
0.1249999999999986
 40
0.1562499999999978
 40
0.1562499999999978
 40
0.187499999999997
 40
0.187499999999997
 40
0.2187499999999962
 40
0.2187499999999962
 40
0.2499999999999954
 40
0.2499999999999954
 40
0.2812499999999946
 40
0.2812499999999946
 40
0.3124999999999938
 40
0.3124999999999938
 40
0.3749999999999922
 40
0.3749999999999922
 40
0.4374999999999906
 40
0.4374999999999906
 40
0.4687499999999907
 40
0.4687499999999907
 40
0.4999999999999908
 40
0.4999999999999908
 40
0.5624999999999891
 40
0.5624999999999891
 40
0.5937499999999892
 40
0.5937499999999892
 40
0.6249999999999893
 40
0.6249999999999893
 40
0.6874999999999895
 40
0.6874999999999895
 40
0.7499999999999906
 40
0.7499999999999906
 40
0.7812499999999917
 40
0.7812499999999917
 40
0.8124999999999927
 40
0.8124999999999927
 40
0.8437499999999938
 40
0.8437499999999938
 40
0.8749999999999949
 40
0.8749999999999949
 40
0.906249999999996
 40
0.906249999999996
 40
0.937499999999997
 40
0.937499999999997
 40
1.0
 40
1.0
 40
1.0
 40
1.0
 10
51.15000000000003
 20
-7.954143523519457
 30
0.0
 10
50.7951782161462
 20
-7.86816818424279
 30
0.0
 10
50.43982639701894
 20
-7.828199143642108
 30
0.0
 10
49.73119482097557
 20
-7.733078723777326
 30
0.0
 10
49.37921678129501
 20
-7.678012768569476
 30
0.0
 10
48.31800856091875
 20
-7.490182411944091
 30
0.0
 10
47.60491340975364
 20
-7.334634131269807
 30
0.0
 10
46.54559196679583
 20
-7.059987950221375
 30
0.0
 10
46.19269111181965
 20
-6.961468346832312
 30
0.0
 10
45.48335175380164
 20
-6.750639174174021
 30
0.0
 10
45.12796136550731
 20
-6.638419004238834
 30
0.0
 10
44.41887243269286
 20
-6.401361511228997
 30
0.0
 10
44.06643897186776
 20
-6.276684128117989
 30
0.0
 10
43.35969564798071
 20
-6.015089437404998
 30
0.0
 10
43.00472930165022
 20
-5.878073459022852
 30
0.0
 10
42.29472809167881
 20
-5.592757320926062
 30
0.0
 10
41.93969629633346
 20
-5.444458390175508
 30
0.0
 10
41.2326930907797
 20
-5.1379306390143
 30
0.0
 10
40.88045029058049
 20
-4.9796787116548
 30
0.0
 10
39.81703624106964
 20
-4.489752947440231
 30
0.0
 10
39.10643581211409
 20
-4.143925953511305
 30
0.0
 10
37.69458945488515
 20
-3.424139965982745
 30
0.0
 10
36.98152652416439
 20
-3.048157259592902
 30
0.0
 10
35.91997550262585
 20
-2.469890452349358
 30
0.0
 10
35.56808255794206
 20
-2.274888029130792
 30
0.0
 10
34.85962879283094
 20
-1.879953124254869
 30
0.0
 10
34.50430087627704
 20
-1.680242495291209
 30
0.0
 10
33.43971117380639
 20
-1.077012353867018
 30
0.0
 10
32.73571037668597
 20
-0.670144997344061
 30
0.0
 10
31.67103436551616
 20
-0.0566421107815444
 30
0.0
 10
31.31572906616315
 20
0.1481944113248881
 30
0.0
 10
30.60742264671453
 20
0.5567332552318901
 30
0.0
 10
30.25557120678679
 20
0.7602156938499292
 30
0.0
 10
29.19376205670977
 20
1.369033554044287
 30
0.0
 10
28.48073219601233
 20
1.772090521547143
 30
0.0
 10
27.06935847585782
 20
2.558464485192282
 30
0.0
 10
26.35824813317023
 20
2.944150227681917
 30
0.0
 10
25.29501789615311
 20
3.502499506810952
 30
0.0
 10
24.94289959224741
 20
3.684969497569759
 30
0.0
 10
24.23569963560626
 20
4.042858132769046
 30
0.0
 10
23.88062021267043
 20
4.218264064978262
 30
0.0
 10
23.17062663680733
 20
4.560422188518793
 30
0.0
 10
22.81571555194511
 20
4.72717290921106
 30
0.0
 10
22.10918402375057
 20
5.050593867853256
 30
0.0
 10
21.75657533132381
 20
5.207427833107895
 30
0.0
 10
21.04737905448913
 20
5.511165445518397
 30
0.0
 10
20.69198623348026
 20
5.657883993019068
 30
0.0
 10
19.98274455987703
 20
5.939726321105834
 30
0.0
 10
19.63005113882415
 20
6.074710769150806
 30
0.0
 10
18.57039769898945
 20
6.46166936478926
 30
0.0
 10
17.8572849657433
 20
6.696033180104575
 30
0.0
 10
17.14999999999875
 20
6.902647887981001
 30
0.0
  0
SPLINE
  5
A4
330
1F
100
AcDbEntity
  8
외형선
  6
Continuous
 62
     1
370
    15
100
AcDbSpline
210
0.0
220
0.0
230
1.0
 70
     8
 71
     3
 72
    14
 73
    10
 74
     0
 42
0.000000001
 43
0.00000001
 40
0.0
 40
0.0
 40
0.0
 40
0.0
 40
0.2499999999999995
 40
0.2499999999999995
 40
0.499999999999999
 40
0.499999999999999
 40
0.7499999999999994
 40
0.7499999999999994
 40
1.0
 40
1.0
 40
1.0
 40
1.0
 10
51.15
 20
1.258701287043499
 30
0.0
 10
51.26935993081502
 20
1.190733467633313
 30
0.0
 10
51.38963939798985
 20
1.125455166883808
 30
0.0
 10
51.62538563636721
 20
1.006568956254867
 30
0.0
 10
51.73735180224254
 20
0.9548948981054687
 30
0.0
 10
51.93179900775919
 20
0.872901172988722
 30
0.0
 10
52.0124401677631
 20
0.8433049697429348
 30
0.0
 10
52.12122057416943
 20
0.8066970563613672
 30
0.0
 10
52.15000000000006
 20
0.7991832089660773
 30
0.0
 10
52.15000000000008
 20
0.7999299058618554
 30
0.0
  0
LINE
  5
A5
330
1F
100
AcDbEntity
  8
외형선
  6
Continuous
 62
     1
370
    15
100
AcDbLine
 10
52.15000000000003
 20
-6.422429905861775
 30
0.0
 11
52.15000000000003
 21
0.7843755619141431
 31
0.0
  0
SPLINE
  5
A6
330
1F
100
AcDbEntity
  8
외형선
  6
Continuous
 62
     1
370
    15
100
AcDbSpline
210
0.0
220
0.0
230
1.0
 70
     8
 71
     3
 72
    14
 73
    10
 74
     0
 42
0.000000001
 43
0.00000001
 40
0.0
 40
0.0
 40
0.0
 40
0.0
 40
0.25
 40
0.25
 40
0.5
 40
0.5
 40
0.75
 40
0.75
 40
1.0
 40
1.0
 40
1.0
 40
1.0
 10
52.15000000000006
 20
-6.422429905861775
 30
0.0
 10
52.15000000000008
 20
-6.551049784710441
 30
0.0
 10
52.11690582112893
 20
-6.664281378145509
 30
0.0
 10
52.00424314964757
 20
-6.84499783452143
 30
0.0
 10
51.92489822352966
 20
-6.912992766225653
 30
0.0
 10
51.73862467471016
 20
-7.004038833327485
 30
0.0
 10
51.63257327012236
 20
-7.027463638175609
 30
0.0
 10
51.4006438355161
 20
-7.034384574076614
 30
0.0
 10
51.27865224804406
 20
-7.018094298646963
 30
0.0
 10
51.15000000000006
 20
-6.981878482321853
 30
0.0
  0
SPLINE
  5
A7
330
1F
100
AcDbEntity
  8
외형선
  6
Continuous
 62
     1
370
    15
100
AcDbSpline
210
0.0
220
0.0
230
1.0
 70
     8
 71
     3
 72
    56
 73
    52
 74
     0
 42
0.000000001
 43
0.00000001
 40
0.0
 40
0.0
 40
0.0
 40
0.0
 40
0.0312499999999994
 40
0.0312499999999994
 40
0.0624999999999989
 40
0.0624999999999989
 40
0.1249999999999978
 40
0.1249999999999978
 40
0.1562499999999982
 40
0.1562499999999982
 40
0.1874999999999985
 40
0.1874999999999985
 40
0.2187499999999989
 40
0.2187499999999989
 40
0.2499999999999993
 40
0.2499999999999993
 40
0.2812499999999997
 40
0.2812499999999997
 40
0.3125000000000001
 40
0.3125000000000001
 40
0.3750000000000008
 40
0.3750000000000008
 40
0.4375000000000016
 40
0.4375000000000016
 40
0.4687500000000019
 40
0.4687500000000019
 40
0.5000000000000023
 40
0.5000000000000023
 40
0.5625000000000031
 40
0.5625000000000031
 40
0.5937500000000036
 40
0.5937500000000036
 40
0.625000000000004
 40
0.625000000000004
 40
0.6875000000000029
 40
0.6875000000000029
 40
0.7500000000000017
 40
0.7500000000000017
 40
0.7812500000000016
 40
0.7812500000000016
 40
0.8125000000000014
 40
0.8125000000000014
 40
0.8437500000000013
 40
0.8437500000000013
 40
0.8750000000000012
 40
0.8750000000000012
 40
0.9062500000000011
 40
0.9062500000000011
 40
0.937500000000001
 40
0.937500000000001
 40
1.0
 40
1.0
 40
1.0
 40
1.0
 10
51.15
 20
-6.981878482321844
 30
0.0
 10
50.79517821614615
 20
-6.88199557512379
 30
0.0
 10
50.43982639701894
 20
-6.775203224591748
 30
0.0
 10
49.73119482097554
 20
-6.548760141944566
 30
0.0
 10
49.37921678129492
 20
-6.429271473697161
 30
0.0
 10
48.31800856091875
 20
-6.051704827319513
 30
0.0
 10
47.60491340975361
 20
-5.774502418052966
 30
0.0
 10
46.54559196679572
 20
-5.327814529242549
 30
0.0
 10
46.19269111181959
 20
-5.173595317719563
 30
0.0
 10
45.48335175380155
 20
-4.854797408265934
 30
0.0
 10
45.12796136550714
 20
-4.690365559979587
 30
0.0
 10
44.4188724326928
 20
-4.352889085038254
 30
0.0
 10
44.06643897186769
 20
-4.180058633009692
 30
0.0
 10
43.35969564798059
 20
-3.826263501831257
 30
0.0
 10
43.00472930165011
 20
-3.645177583934745
 30
0.0
 10
42.29472809167873
 20
-3.276190092185626
 30
0.0
 10
41.93969629633343
 20
-3.088290110492391
 30
0.0
 10
41.2326930907796
 20
-2.707358965190772
 30
0.0
 10
40.88045029058038
 20
-2.514287672431102
 30
0.0
 10
39.81703624106949
 20
-1.927034143293323
 30
0.0
 10
39.10643581211392
 20
-1.526107350336439
 30
0.0
 10
37.69458945488515
 20
-0.7172228187958657
 30
0.0
 10
36.98152652416429
 20
-0.3070145489759623
 30
0.0
 10
35.91997550262574
 20
0.306164923956924
 30
0.0
 10
35.56808255794206
 20
0.5100822507520391
 30
0.0
 10
34.85962879283085
 20
0.9174155993989632
 30
0.0
 10
34.50430087627688
 20
1.120592516505524
 30
0.0
 10
33.43971117380628
 20
1.725962138919084
 30
0.0
 10
32.73571037668591
 20
2.123274968399838
 30
0.0
 10
31.67103436551607
 20
2.706064331123542
 30
0.0
 10
31.31572906616301
 20
2.89793420184273
 30
0.0
 10
30.60742264671435
 20
3.275207656935038
 30
0.0
 10
30.25557120678665
 20
3.460418290497609
 30
0.0
 10
29.19376205670965
 20
4.006442694782003
 30
0.0
 10
28.48073219601213
 20
4.356978381133967
 30
0.0
 10
27.06935847585773
 20
5.018896373929764
 30
0.0
 10
26.35824813317014
 20
5.332289361804492
 30
0.0
 10
25.29501789615302
 20
5.768699776802682
 30
0.0
 10
24.94289959224724
 20
5.908353920222524
 30
0.0
 10
24.23569963560615
 20
6.176228893264025
 30
0.0
 10
23.88062021267029
 20
6.304429876008276
 30
0.0
 10
23.17062663680725
 20
6.548181413512403
 30
0.0
 10
22.81571555194503
 20
6.663730926583709
 30
0.0
 10
22.10918402375042
 20
6.881223202473056
 30
0.0
 10
21.75657533132364
 20
6.983285077493244
 30
0.0
 10
21.04737905448898
 20
7.17389846687687
 30
0.0
 10
20.69198623348009
 20
7.262324189203517
 30
0.0
 10
19.98274455987681
 20
7.42463317587957
 30
0.0
 10
19.63005113882408
 20
7.498446101018601
 30
0.0
 10
18.5703976989893
 20
7.697807791564948
 30
0.0
 10
17.85728496574307
 20
7.801359035769941
 30
0.0
 10
17.14999999999858
 20
7.873701683451473
 30
0.0
  0
SPLINE
  5
A8
330
1F
100
AcDbEntity
  8
외형선
  6
Continuous
 62
     1
370
    15
100
AcDbSpline
210
0.0
220
0.0
230
1.0
 70
     8
 71
     3
 72
    17
 73
    13
 74
     0
 42
0.000000001
 43
0.00000001
 40
0.0
 40
0.0
 40
0.0
 40
0.0
 40
0.0768285149693691
 40
0.174003194406609
 40
0.2711778740121382
 40
0.3683525537860979
 40
0.4655272337286334
 40
0.5724062325341824
 40
0.6792976481296205
 40
0.7861968473045018
 40
0.8930991824156136
 40
1.0
 40
1.0
 40
1.0
 40
1.0
 10
23.1591677488344
 20
6.548658908551542
 30
0.0
 10
23.87595865825978
 20
6.778128408463624
 30
0.0
 10
25.49936512409301
 20
7.29783682687453
 30
0.0
 10
28.02938857960863
 20
7.784876934333658
 30
0.0
 10
30.74923064181431
 20
8.038649559993983
 30
0.0
 10
33.46909559869996
 20
7.975858473691677
 30
0.0
 10
36.27941179888722
 20
7.596708430951747
 30
0.0
 10
39.18073742454609
 20
6.877119303497248
 30
0.0
 10
42.17279116954317
 20
5.816186003733034
 30
0.0
 10
45.16512639738965
 20
4.483928991335612
 30
0.0
 10
48.1575638252261
 20
2.94761847726829
 30
0.0
 10
50.15252599500649
 20
1.821671019877729
 30
0.0
 10
51.15000000000008
 20
1.258701287043446
 30
0.0
  0
LINE
  5
A9
330
1F
100
AcDbEntity
  8
외형선
  6
Continuous
370
    15
100
AcDbLine
 10
17.15000000000011
 20
7.873701683463059
 30
0.0
 11
17.14999999999883
 21
6.90264788798107
 31
0.0
  0
SPLINE
  5
AA
330
1F
100
AcDbEntity
  8
외형선
  6
Continuous
 62
     1
370
    15
100
AcDbSpline
210
0.0
220
0.0
230
1.0
 70
     8
 71
     3
 72
    14
 73
    10
 74
     0
 42
0.000000001
 43
0.00000001
 40
0.0
 40
0.0
 40
0.0
 40
0.0
 40
0.25
 40
0.25
 40
0.5
 40
0.5
 40
0.75
 40
0.75
 40
1.0
 40
1.0
 40
1.0
 40
1.0
 10
52.15000000000006
 20
2.784312142036512
 30
0.0
 10
52.15000000000008
 20
2.859500566243804
 30
0.0
 10
52.11690582112893
 20
2.953567815807396
 30
0.0
 10
52.00424314964757
 20
3.1562695607756
 30
0.0
 10
51.9248982235296
 20
3.264778150125671
 30
0.0
 10
51.73862467471007
 20
3.475044675963283
 30
0.0
 10
51.63257327012236
 20
3.576220254423384
 30
0.0
 10
51.4006438355161
 20
3.760525170710373
 30
0.0
 10
51.27865224804406
 20
3.84081443919932
 30
0.0
 10
51.15000000000006
 20
3.905556664304147
 30
0.0
  0
LINE
  5
AB
330
1F
100
AcDbEntity
  8
외형선
  6
Continuous
 62
     1
370
    15
100
AcDbLine
 10
52.15000000000003
 20
2.784312142036513
 30
0.0
 11
52.15000000000003
 21
0.7999299058618556
 31
0.0
  0
SPLINE
  5
AC
330
1F
100
AcDbEntity
  8
외형선
  6
Continuous
 62
     1
370
    15
100
AcDbSpline
210
0.0
220
0.0
230
1.0
 70
     8
 71
     3
 72
    13
 73
     9
 74
     0
 42
0.000000001
 43
0.00000001
 40
0.0
 40
0.0
 40
0.0
 40
0.0
 40
0.1850468110707833
 40
0.3700936222582254
 40
0.555140433562606
 40
0.7401872449841992
 40
0.9252340565232804
 40
1.0
 40
1.0
 40
1.0
 40
1.0
 10
51.15
 20
3.905556664304164
 30
0.0
 10
50.24338532128336
 20
4.347916736458986
 30
0.0
 10
48.43015596327854
 20
5.232636881047506
 30
0.0
 10
45.71031192497654
 20
6.317301926174133
 30
0.0
 10
42.99046788464242
 20
7.175168716919491
 30
0.0
 10
40.27062384221298
 20
7.735643030542969
 30
0.0
 10
38.09108769797306
 20
8.003991943927879
 30
0.0
 10
36.81816623441819
 20
7.972100628631018
 30
0.0
 10
36.45185945248731
 20
7.962923310616984
 30
0.0
  0
SPLINE
  5
AD
330
1F
100
AcDbEntity
  8
외형선
  6
Continuous
 62
     1
370
    15
100
AcDbSpline
210
0.0
220
0.0
230
1.0
 70
     8
 71
     3
 72
    13
 73
     9
 74
     0
 42
0.000000001
 43
0.00000001
 40
0.0
 40
0.0
 40
0.0
 40
0.0
 40
0.1885949889411438
 40
0.377189978208064
 40
0.5657849678010404
 40
0.7543799577203507
 40
0.9429749479662733
 40
1.0
 40
1.0
 40
1.0
 40
1.0
 10
17.14999999999878
 20
-4.043940174452509
 30
0.0
 10
18.05661562652048
 20
-4.480614993230327
 30
0.0
 10
19.86984688112994
 20
-5.353964631540271
 30
0.0
 10
22.5896937665892
 20
-6.415252911268693
 30
0.0
 10
25.30954065760441
 20
-7.247311026466898
 30
0.0
 10
28.02938755435358
 20
-7.77554661010234
 30
0.0
 10
30.11675019434553
 20
-8.01684088546193
 30
0.0
 10
31.2974972024023
 20
-7.976820298684085
 30
0.0
 10
31.57162857599941
 20
-7.967528809185729
 30
0.0
  0
LINE
  5
AE
330
1F
100
AcDbEntity
  8
외형선
  6
Continuous
370
    15
100
AcDbLine
 10
17.15000000000011
 20
-1.415917299849054
 30
0.0
 11
17.14999999999883
 21
-4.043940174452427
 31
0.0
  0
LINE
  5
B0
330
1F
100
AcDbEntity
  8
외형선
  6
Continuous
 62
     1
370
    15
100
AcDbLine
 10
52.15000000000003
 20
2.784312142036513
 30
0.0
 11
52.15000000000003
 21
6.954143523519489
 31
0.0
  0
SPLINE
  5
B1
330
1F
100
AcDbEntity
  8
외형선
  6
Continuous
 62
     1
370
    15
100
AcDbSpline
210
0.0
220
0.0
230
1.0
 70
     8
 71
     3
 72
    10
 73
     6
 74
     0
 42
0.000000001
 43
0.00000001
 40
0.0
 40
0.0
 40
0.0
 40
0.0
 40
0.0465449378160488
 40
0.523275852612895
 40
1.0
 40
1.0
 40
1.0
 40
1.0
 10
44.87293519548236
 20
6.539997065411387
 30
0.0
 10
44.97032328096476
 20
6.576414455620145
 30
0.0
 10
46.06519709230275
 20
6.985832575088628
 30
0.0
 10
48.15756575000369
 20
7.505102099989565
 30
0.0
 10
50.15252663659594
 20
7.768607270314898
 30
0.0
 10
51.15000000000003
 20
7.954143523519489
 30
0.0
  0
SPLINE
  5
B2
330
1F
100
AcDbEntity
  8
외형선
  6
Continuous
 62
     1
370
    15
100
AcDbSpline
210
0.0
220
0.0
230
1.0
 70
     8
 71
     3
 72
    10
 73
     6
 74
     0
 42
0.000000001
 43
0.00000001
 40
0.0
 40
0.0
 40
0.0
 40
0.0
 40
0.0042182062174743
 40
0.5021377856257362
 40
0.9999999999999999
 40
0.9999999999999999
 40
0.9999999999999999
 40
0.9999999999999999
 10
23.15916774883429
 20
-6.548658908551548
 30
0.0
 10
23.1507182278744
 20
-6.551863614348186
 30
0.0
 10
22.14488220999203
 20
-6.933353705003281
 30
0.0
 10
20.14180411887295
 20
-7.442320240574543
 30
0.0
 10
18.14722973845209
 20
-7.72991339171808
 30
0.0
 10
17.14999999999858
 20
-7.873701683451463
 30
0.0
  0
SPLINE
  5
B3
330
1F
100
AcDbEntity
  8
외형선
  6
Continuous
370
    15
100
AcDbSpline
210
0.0
220
0.0
230
1.0
 70
    24
 71
     3
 72
    13
 73
     9
 74
     0
 42
0.000000001
 43
0.00000001
 40
0.0
 40
0.0
 40
0.0
 40
0.0
 40
0.1896220037829388
 40
0.3842038766797345
 40
0.5833815825529748
 40
0.7883354553897962
 40
0.9875131612630227
 40
1.0
 40
1.0
 40
1.0
 40
1.0
 10
17.15000000000011
 20
-7.873701683463048
 30
0.0
 10
17.15000000000003
 20
-7.620994913519321
 30
0.0
 10
17.14999999999991
 20
-7.108971420788307
 30
0.0
 10
17.15000000000014
 20
-6.33187471064941
 30
0.0
 10
17.14999999999988
 20
-5.558098957303706
 30
0.0
 10
17.14999999999997
 20
-4.836654456005364
 30
0.0
 10
17.15000000000003
 20
-4.359161577929799
 30
0.0
 10
17.15000000000003
 20
-4.159885289795843
 30
0.0
 10
17.15000000000003
 20
-4.148129278043309
 30
0.0
  0
LINE
  5
B4
330
1F
100
AcDbEntity
  8
외형선
  6
Continuous
 62
     1
370
    15
100
AcDbLine
 10
52.15000000000003
 20
-6.422429905861775
 30
0.0
 11
52.15000000000003
 21
-6.954143523519489
 31
0.0
  0
LINE
  5
B5
330
1F
100
AcDbEntity
  8
외형선
  6
Continuous
370
    15
100
AcDbLine
 10
0.0
 20
0.0
 30
0.0
 11
0.0
 21
9.999999999999998
 31
0.0
  0
LINE
  5
B6
330
1F
100
AcDbEntity
  8
외형선
  6
Continuous
370
    15
100
AcDbLine
 10
0.0
 20
-9.999999999999998
 30
0.0
 11
0.0
 21
0.0
 31
0.0
  0
LINE
  5
B7
330
1F
100
AcDbEntity
  8
외형선
  6
Continuous
370
    15
100
AcDbLine
 10
-95.84999999999997
 20
0.0
 30
0.0
 11
-95.84999999999997
 21
9.999999999999998
 31
0.0
  0
LINE
  5
B8
330
1F
100
AcDbEntity
  8
외형선
  6
Continuous
370
    15
100
AcDbLine
 10
-95.84999999999997
 20
-9.999999999999998
 30
0.0
 11
-95.84999999999997
 21
0.0
 31
0.0
  0
LINE
  5
B9
330
1F
100
AcDbEntity
  8
외형선
  6
Continuous
370
    15
100
AcDbLine
 10
2.150000000000013
 20
0.0
 30
0.0
 11
2.150000000000013
 21
7.849999999999999
 31
0.0
  0
LINE
  5
BA
330
1F
100
AcDbEntity
  8
외형선
  6
Continuous
370
    15
100
AcDbLine
 10
2.150000000000013
 20
-7.85
 30
0.0
 11
2.150000000000013
 21
0.0
 31
0.0
  0
LINE
  5
BB
330
1F
100
AcDbEntity
  8
외형선
  6
Continuous
370
    15
100
AcDbLine
 10
-97.84999999999997
 20
0.0
 30
0.0
 11
-97.84999999999997
 21
8.000000000000021
 31
0.0
  0
LINE
  5
BC
330
1F
100
AcDbEntity
  8
외형선
  6
Continuous
370
    15
100
AcDbLine
 10
-97.84999999999997
 20
-8.000000000000021
 30
0.0
 11
-97.84999999999997
 21
0.0
 31
0.0
  0
LINE
  5
BD
330
1F
100
AcDbEntity
  8
외형선
  6
Continuous
370
    15
100
AcDbLine
 10
17.14999999999997
 20
6.795626304603413
 30
0.0
 11
17.15000000000003
 21
6.90264788798107
 31
0.0
  0
SPLINE
  5
BE
330
1F
100
AcDbEntity
  8
외형선
  6
Continuous
370
    15
100
AcDbSpline
210
0.0
220
0.0
230
1.0
 70
     8
 71
     3
 72
     8
 73
     4
 74
     0
 42
0.000000001
 43
0.00000001
 40
0.0
 40
0.0
 40
0.0
 40
0.0
 40
1.0
 40
1.0
 40
1.0
 40
1.0
 10
17.15
 20
6.79562630460337
 30
0.0
 10
16.81647404414478
 20
6.89030297536142
 30
0.0
 10
16.48448420652138
 20
6.978929355578793
 30
0.0
 10
16.15037125074171
 20
7.0615873466461
 30
0.0
  0
SPLINE
  5
BF
330
1F
100
AcDbEntity
  8
외형선
  6
Continuous
370
    15
100
AcDbSpline
210
0.0
220
0.0
230
1.0
 70
     8
 71
     3
 72
     8
 73
     4
 74
     0
 42
0.000000001
 43
0.00000001
 40
0.0
 40
0.0
 40
0.0
 40
0.0
 40
1.0
 40
1.0
 40
1.0
 40
1.0
 10
17.15000000000003
 20
-1.433178319115024
 30
0.0
 10
16.8164740441448
 20
-1.247226661523519
 30
0.0
 10
16.48448420652141
 20
-1.060314573162295
 30
0.0
 10
16.15037125074168
 20
-0.8722451846338817
 30
0.0
  0
SPLINE
  5
C0
330
1F
100
AcDbEntity
  8
외형선
  6
Continuous
370
    15
100
AcDbSpline
210
0.0
220
0.0
230
1.0
 70
     8
 71
     3
 72
     8
 73
     4
 74
     0
 42
0.000000001
 43
0.00000001
 40
0.0
 40
0.0
 40
0.0
 40
0.0
 40
1.0
 40
1.0
 40
1.0
 40
1.0
 10
17.15
 20
-3.92962633442191
 30
0.0
 10
16.81647404414478
 20
-3.765898992562491
 30
0.0
 10
16.48448420652138
 20
-3.599007820844265
 30
0.0
 10
16.15037125074171
 20
-3.428772979607598
 30
0.0
  0
LINE
  5
C1
330
1F
100
AcDbEntity
  8
외형선
  6
Continuous
370
    15
100
AcDbLine
 10
16.15037125074168
 20
-7.85
 30
0.0
 11
16.15037125074171
 21
-3.428729577782571
 31
0.0
  0
SPLINE
  5
C2
330
1F
100
AcDbEntity
  8
외형선
  6
Continuous
370
    15
100
AcDbSpline
210
0.0
220
0.0
230
1.0
 70
     8
 71
     3
 72
     8
 73
     4
 74
     0
 42
0.000000001
 43
0.00000001
 40
0.0
 40
0.0
 40
0.0
 40
0.0
 40
1.0
 40
1.0
 40
1.0
 40
1.0
 10
17.15000000000003
 20
-7.718063222442447
 30
0.0
 10
16.8164740441448
 20
-7.752592854603105
 30
0.0
 10
16.48448420652141
 20
-7.780362796849378
 30
0.0
 10
16.15037125074168
 20
-7.801390154189382
 30
0.0
  0
LINE
  5
C3
330
1F
100
AcDbEntity
  8
외형선
  6
Continuous
370
    15
100
AcDbLine
 10
16.15037125074168
 20
7.801389559661222
 30
0.0
 11
16.15037125074168
 21
7.849999999999999
 31
0.0
  0
SPLINE
  5
C4
330
1F
100
AcDbEntity
  8
외형선
  6
Continuous
370
    15
100
AcDbSpline
210
0.0
220
0.0
230
1.0
 70
     8
 71
     3
 72
     8
 73
     4
 74
     0
 42
0.000000001
 43
0.00000001
 40
0.0
 40
0.0
 40
0.0
 40
0.0
 40
1.0
 40
1.0
 40
1.0
 40
1.0
 10
17.15000000000003
 20
7.718063222442457
 30
0.0
 10
16.8164740441448
 20
7.752592854603114
 30
0.0
 10
16.48448420652141
 20
7.780362796849385
 30
0.0
 10
16.15037125074168
 20
7.801390154189387
 30
0.0
  0
LINE
  5
C5
330
1F
100
AcDbEntity
  8
외형선
  6
Continuous
370
    15
100
AcDbLine
 10
16.15037125074168
 20
-0.8722505020973232
 30
0.0
 11
16.15037125074171
 21
7.061608420355717
 31
0.0
  0
SPLINE
  5
C6
330
1F
100
AcDbEntity
  8
외형선
  6
Continuous
370
    15
100
AcDbSpline
210
0.0
220
0.0
230
1.0
 70
    24
 71
     3
 72
    21
 73
    17
 74
     0
 42
0.000000001
 43
0.00000001
 40
0.0
 40
0.0
 40
0.0
 40
0.0
 40
0.0530698481999649
 40
0.1264068207620017
 40
0.2018705704965379
 40
0.2752075430585699
 40
0.3506712927931002
 40
0.4240082653551314
 40
0.4994720150896609
 40
0.5728089876516929
 40
0.648272737386223
 40
0.721609709948255
 40
0.7970734596827828
 40
0.8704104322447975
 40
0.9458741819793088
 40
1.0
 40
1.0
 40
1.0
 40
1.0
 10
17.15000000000006
 20
-1.415715261806712
 30
0.0
 10
17.15000000000003
 20
-1.393499105482355
 30
0.0
 10
17.15
 20
-1.340582547667225
 30
0.0
 10
17.15000000000006
 20
-1.105251148015845
 30
0.0
 10
17.15000000000008
 20
-0.7368953766704628
 30
0.0
 10
17.14999999999994
 20
-0.244256786823466
 30
0.0
 10
17.14999999999994
 20
0.3441958242387411
 30
0.0
 10
17.15000000000011
 20
1.023915689961168
 30
0.0
 10
17.14999999999994
 20
1.763026349269519
 30
0.0
 10
17.15000000000003
 20
2.554008333827063
 30
0.0
 10
17.14999999999997
 20
3.360247464473257
 30
0.0
 10
17.15000000000008
 20
4.173292641084977
 30
0.0
 10
17.15000000000017
 20
4.956051233939358
 30
0.0
 10
17.15
 20
5.698376856556234
 30
0.0
 10
17.14999999999994
 20
6.315243621198745
 30
0.0
 10
17.14999999999997
 20
6.654097027714378
 30
0.0
 10
17.14999999999997
 20
6.795626304603413
 30
0.0
  0
SPLINE
  5
C7
330
1F
100
AcDbEntity
  8
외형선
  6
Continuous
370
    15
100
AcDbSpline
210
0.0
220
0.0
230
1.0
 70
    24
 71
     3
 72
    12
 73
     8
 74
     0
 42
0.000000001
 43
0.00000001
 40
0.0
 40
0.0
 40
0.0
 40
0.0
 40
0.1968532440788864
 40
0.3988358678374453
 40
0.6059868828979473
 40
0.8191452914286117
 40
0.9999999999999999
 40
0.9999999999999999
 40
0.9999999999999999
 40
0.9999999999999999
 10
17.14999999999977
 20
-7.718063222442478
 30
0.0
 10
17.14999999999994
 20
-7.465350958770774
 30
0.0
 10
17.15000000000023
 20
-6.953341540453648
 30
0.0
 10
17.15000000000003
 20
-6.179675097713581
 30
0.0
 10
17.14999999999997
 20
-5.41768337195143
 30
0.0
 10
17.15000000000006
 20
-4.72307941787776
 30
0.0
 10
17.15000000000003
 20
-4.329003028857004
 30
0.0
 10
17.15
 20
-4.14811927804331
 30
0.0
  0
LINE
  5
C8
330
1F
100
AcDbEntity
  8
중심선
 62
     1
100
AcDbLine
 10
-100.85
 20
-0.0000000000000039
 30
0.0
 11
55.15000000000003
 21
0.0000000000000156
 31
0.0
  0
LINE
  5
C9
330
1F
100
AcDbEntity
  8
참조1
100
AcDbLine
 10
-22.84999999999997
 20
-0.0000000000000039
 30
0.0
 11
-22.84999999999997
 21
-40.00000000000001
 31
0.0
  0
LINE
  5
CA
330
1F
100
AcDbEntity
  8
참조1
100
AcDbLine
 10
-22.84999999999997
 20
-40.00000000000001
 30
0.0
 11
-83.00885681430864
 21
-40.0
 31
0.0
  0
CIRCLE
  5
CB
330
1F
100
AcDbEntity
  8
해칭선
100
AcDbCircle
 10
0.0000000000000142
 20
-0.0010749287238931
 30
0.0
 40
3.000000000000011
  0
INSERT
  5
CC
330
1F
100
AcDbEntity
  8
0
  6
Continuous
 62
     7
100
AcDbBlockReference
 66
     1
  2
블럭10
 10
-36.79027293212518
 20
-52.04717430164393
 30
0.0
  0
ATTRIB
  5
CD
330
CC
100
AcDbEntity
  8
FORMAT
 62
     2
100
AcDbText
 10
-60.80783858300521
 20
-49.97180738881175
 30
0.0
 40
4.233333333333333
  1
SEME641601015020E [ 4 FLUTE ]
 41
0.75
  7
SLDTEXTSTYLE0
 11
-60.80783858300521
 21
-52.08847405547841
 31
0.0
100
AcDbAttribute
  2
AUTOATTR0
 70
     0
 74
     1
  0
SEQEND
  5
CE
330
CC
100
AcDbEntity
  8
0
  6
Continuous
 62
     7
  0
HATCH
  5
CF
330
1F
100
AcDbEntity
  8
중심선
100
AcDbHatch
 10
0.0
 20
0.0
 30
0.0
210
0.0
220
0.0
230
1.0
  2
SOLID
 70
     1
 71
     0
 91
        1
 92
        0
 93
        4
 72
     1
 10
-31.07536362774432
 20
-35.8
 11
-34.5216388715816
 21
-35.8
 72
     1
 10
-34.5216388715816
 20
-35.8
 11
-36.64986873078563
 21
-38.3363255805726
 72
     1
 10
-36.64986873078563
 20
-38.3363255805726
 11
-33.2035604018352
 21
-38.33628615127011
 72
     1
 10
-33.2035604018352
 20
-38.33628615127011
 11
-31.07536362774432
 21
-35.8
 97
        0
 75
     0
 76
     1
 98
        1
 10
-57.92499999999998
 20
-0.0010749287238931
  0
HATCH
  5
D0
330
1F
100
AcDbEntity
  8
중심선
100
AcDbHatch
 10
0.0
 20
0.0
 30
0.0
210
0.0
220
0.0
230
1.0
  2
SOLID
 70
     1
 71
     0
 91
        1
 92
        0
 93
        4
 72
     1
 10
-26.06259963670837
 20
-35.8
 11
-29.5088748805456
 21
-35.79999999999998
 72
     1
 10
-29.5088748805456
 20
-35.79999999999998
 11
-34.04001288890304
 21
-41.20000000000002
 72
     1
 10
-34.04001288890304
 20
-41.20000000000002
 11
-30.59373764506576
 21
-41.20000000000002
 72
     1
 10
-30.59373764506576
 20
-41.20000000000002
 11
-26.06259963670837
 21
-35.8
 97
        0
 75
     0
 76
     1
 98
        1
 10
-57.92499999999998
 20
-0.0010749287238931
  0
HATCH
  5
D1
330
1F
100
AcDbEntity
  8
중심선
100
AcDbHatch
 10
0.0
 20
0.0
 30
0.0
210
0.0
220
0.0
230
1.0
  2
SOLID
 70
     1
 71
     0
 91
        1
 92
        0
 93
        4
 72
     1
 10
-21.04983564567242
 20
-35.79999999999998
 11
-24.49611088950959
 21
-35.79999999999998
 72
     1
 10
-24.49611088950959
 20
-35.79999999999998
 11
-31.54454779139884
 21
-44.20000000000002
 72
     1
 10
-31.54454779139884
 20
-44.20000000000002
 11
-28.09827254756156
 21
-44.20000000000002
 72
     1
 10
-28.09827254756156
 20
-44.20000000000002
 11
-21.04983564567242
 21
-35.79999999999998
 97
        0
 75
     0
 76
     1
 98
        1
 10
-57.92499999999998
 20
-0.0010749287238931
  0
HATCH
  5
D2
330
1F
100
AcDbEntity
  8
중심선
100
AcDbHatch
 10
0.0
 20
0.0
 30
0.0
210
0.0
220
0.0
230
1.0
  2
SOLID
 70
     1
 71
     0
 91
        1
 92
        0
 93
        6
 72
     3
 10
-16.24994521466028
 20
-40.00000000005127
 11
3.960054785062283
 21
1.540882976769353E-10
 40
0.3939339440162628
 50
17.09539180608455
 51
320.0019657685075
 73
     0
 72
     1
 10
-14.56694555895971
 20
-38.5878940046383
 11
-12.26164368525867
 21
-36.65356729459038
 72
     3
 10
-16.24994521471312
 20
-40.00000000000015
 11
6.600054785286829
 21
-1.278976924368180E-13
 40
0.636358354079598
 50
39.99873849337429
 51
368.4976242363725
 73
     1
 72
     1
 10
-9.824612722812539
 20
-39.03999999993002
 11
-17.56987790787723
 21
-39.03999999993002
 72
     1
 10
-17.56987790787723
 20
-39.03999999993002
 11
-17.56990295232313
 21
-40.95999999992991
 72
     1
 10
-17.56990295232313
 20
-40.95999999992991
 11
-13.12852318285113
 21
-40.95999999992988
 97
        0
 75
     0
 76
     1
 98
        1
 10
-57.92499999999998
 20
-0.0010749287238931
  0
DIMENSION
  5
D3
330
1F
100
AcDbEntity
  8
치수문자_일반주서
100
AcDbDimension
  2
_D
 10
72.66009000094445
 20
-7.999999999999837
 30
0.0
 11
72.66009000094436
 21
18.54150000000016
 31
0.0
 70
   160
  1
%%c<>
 71
     2
 42
15.99999999999999
 52
-270.0
  3
SLDDIMSTYLE1
100
AcDbAlignedDimension
 13
31.57282903303754
 23
8.000000000000005
 33
0.0
 14
31.57282903303743
 24
-7.999999999999988
 34
0.0
 50
90.0000000000002
100
AcDbRotatedDimension
1001
PE_URL
1000

  0
DIMENSION
  5
E0
330
1F
100
AcDbEntity
  8
치수문자_일반주서
100
AcDbDimension
  2
_D_1
 10
-105.8384684361647
 20
-10.00000000000005
 30
0.0
 11
-105.8384684361648
 21
0.0000000000000098
 31
0.0
 70
   160
  1
%%c<>
 71
     2
 42
20.00000000000002
 52
-270.0
  3
SLDDIMSTYLE1
100
AcDbAlignedDimension
 13
-95.84999999999997
 23
10.00000000000001
 33
0.0
 14
-95.84999999999997
 24
-10.00000000000001
 34
0.0
 50
90.0000000000002
100
AcDbRotatedDimension
  0
DIMENSION
  5
EE
330
1F
100
AcDbEntity
  8
치수문자_일반주서
100
AcDbDimension
  2
_D_2
 10
17.15000000000011
 20
17.09018228756249
 30
0.0
 11
34.65000000000007
 21
17.09018228756249
 31
0.0
 70
   160
  1
<>
 71
     2
 42
34.99999999999991
  3
SLDDIMSTYLE1
100
AcDbAlignedDimension
 13
52.15000000000003
 23
6.954143523519489
 33
0.0
 14
17.15000000000011
 24
7.873701683463059
 34
0.0
 50
0.0000000000000116
100
AcDbRotatedDimension
1001
PE_URL
1000

  0
DIMENSION
  5
F8
330
1F
100
AcDbEntity
  8
치수문자_일반주서
100
AcDbDimension
  2
_D_3
 10
2.150000000000006
 20
23.09018228756247
 30
0.0
 11
27.15000000000004
 21
23.09018228756247
 31
0.0
 70
   160
  1
<>
 71
     2
 42
50.00000000000002
  3
SLDDIMSTYLE1
100
AcDbAlignedDimension
 13
52.15000000000003
 23
6.954143523519489
 33
0.0
 14
2.150000000000006
 24
7.849999999999999
 34
0.0
 50
0.0000000000000041
100
AcDbRotatedDimension
1001
PE_URL
1000

  0
DIMENSION
  5
102
330
1F
100
AcDbEntity
  8
치수문자_일반주서
100
AcDbDimension
  2
_D_4
 10
-97.84999999999997
 20
31.49767958872438
 30
0.0
 11
-22.84999999999997
 21
31.49767958872438
 31
0.0
 70
   160
  1
<>
 71
     2
 42
150.0
  3
SLDDIMSTYLE1
100
AcDbAlignedDimension
 13
52.15000000000003
 23
6.954143523519489
 33
0.0
 14
-97.84999999999997
 24
8.000000000000021
 34
0.0
 50
0.0000000000000041
100
AcDbRotatedDimension
1001
PE_URL
1000

  0
LINE
  5
10C
330
1F
100
AcDbEntity
  8
참조1
100
AcDbLine
 10
14.96348381534562
 20
7.440000000000002
 30
0.0
 11
14.96348381534562
 21
-7.440000000000002
 31
0.0
  0
LINE
  5
10D
330
1F
100
AcDbEntity
  8
참조1
100
AcDbLine
 10
27.66348381534562
 20
5.440000000000002
 30
0.0
 11
14.96348381534562
 21
5.440000000000002
 31
0.0
  0
SOLID
  5
10E
330
1F
100
AcDbEntity
  8
참조1
100
AcDbTrace
 10
14.96348381534562
 20
5.440000000000002
 30
0.0
 11
21.31348381534561
 21
4.424000000000002
 31
0.0
 12
21.31348381534561
 22
6.456000000000002
 32
0.0
 13
21.31348381534561
 23
6.456000000000002
 33
0.0
  0
LINE
  5
10F
330
1F
100
AcDbEntity
  8
참조1
100
AcDbLine
 10
27.66348381534562
 20
-5.440000000000002
 30
0.0
 11
14.96348381534562
 21
-5.440000000000002
 31
0.0
  0
SOLID
  5
110
330
1F
100
AcDbEntity
  8
참조1
100
AcDbTrace
 10
14.96348381534562
 20
-5.440000000000002
 30
0.0
 11
21.31348381534561
 21
-6.456000000000002
 31
0.0
 12
21.31348381534561
 22
-4.424000000000002
 32
0.0
 13
21.31348381534561
 23
-4.424000000000002
 33
0.0
  0
MTEXT
  5
111
330
1F
100
AcDbEntity
  8
참조1
100
AcDbMText
 10
24.3609739078159
 20
10.98821664464994
 30
0.0
 40
3.5
 41
0.0
 71
     1
 72
     1
  1
A
  7
SLDTEXTSTYLE0
 73
     1
 44
1.0
  0
MTEXT
  5
112
330
1F
100
AcDbEntity
  8
참조1
100
AcDbMText
 10
24.3609739078159
 20
0.1082166446499328
 30
0.0
 40
3.5
 41
0.0
 71
     1
 72
     1
  1
A
  7
SLDTEXTSTYLE0
 73
     1
 44
1.0
  0
INSERT
  5
119
330
1F
100
AcDbEntity
  8
해칭선
100
AcDbBlockReference
  2
SW_DOWELSYMBOL_0
 10
0.0000000000000142
 20
-0.0010749287238931
 30
0.0
  0
ARC
  5
148
330
1F
100
AcDbEntity
  8
0
 62
     1
100
AcDbCircle
 10
51.15000000000003
 20
6.954143523519489
 30
0.0
 40
1.0
100
AcDbArc
 50
0.0
 51
90.0
  0
ARC
  5
149
102
{ACAD_REACTORS
102
}
330
1F
100
AcDbEntity
  8
0
 62
     1
100
AcDbCircle
 10
51.15000000000003
 20
-6.954143523519457
 30
0.0
 40
1.0
100
AcDbArc
 50
270.0
 51
0.0
  0
DIMENSION
  5
14E
102
{ACAD_REACTORS
102
}
102
{ACAD_XDICTIONARY
360
14F
102
}
330
1F
100
AcDbEntity
  8
0
100
AcDbDimension
  2
*D8
 10
51.15000000000003
 20
-6.954143523519457
 30
0.0
 11
63.67499135963683
 21
-16.12513420287628
 31
0.0
 70
   164
 71
     5
 42
0.999999999999999
  3
ISO-25
100
AcDbRadialDimension
 15
51.61944822854819
 25
-7.837103523017166
 35
0.0
 40
0.0
1001
ACAD
1000
DSTYLE
1002
{
1070
   179
1070
     2
1070
   143
1040
0.0393700787401575
1070
    41
1040
3.302
1070
    44
1040
1.0
1070
    42
1040
1.0
1070
   147
1040
1.524
1070
    73
1070
     1
1070
    74
1070
     1
1070
   140
1040
3.5
1070
   284
1070
     0
1070
    78
1070
     0
1002
}
1001
ACAD_DSTYLE_DIMRADIAL_EXTENSION
1070
   387
1070
     1
1070
   388
1040
4.71238898038469
1070
   390
1040
0.0
  0
ENDSEC
  0
SECTION
  2
OBJECTS
  0
DICTIONARY
  5
C
330
0
100
AcDbDictionary
281
     1
  3
ACAD_GROUP
350
D
  3
ACAD_LAYOUT
350
1A
  3
ACAD_MLINESTYLE
350
17
  3
ACAD_PLOTSETTINGS
350
19
  3
ACAD_PLOTSTYLENAME
350
E
  3
ACAD_SCALELIST
350
47
  3
APPDATA
350
13B
  3
DWGPROPS
350
15B
  0
DICTIONARY
  5
14F
330
14E
100
AcDbDictionary
280
     1
281
     1
  0
DICTIONARY
  5
D
102
{ACAD_REACTORS
330
C
102
}
330
C
100
AcDbDictionary
281
     1
  0
DICTIONARY
  5
1A
102
{ACAD_REACTORS
330
C
102
}
330
C
100
AcDbDictionary
281
     1
  3
Layout1
350
1E
  3
Layout2
350
26
  3
Model
350
22
  0
DICTIONARY
  5
17
102
{ACAD_REACTORS
330
C
102
}
330
C
100
AcDbDictionary
281
     1
  3
Standard
350
18
  0
DICTIONARY
  5
19
102
{ACAD_REACTORS
330
C
102
}
330
C
100
AcDbDictionary
281
     1
  0
ACDBDICTIONARYWDFLT
  5
E
102
{ACAD_REACTORS
330
C
102
}
330
C
100
AcDbDictionary
281
     1
  3
Normal
350
F
100
AcDbDictionaryWithDefault
340
F
  0
DICTIONARY
  5
47
102
{ACAD_REACTORS
330
C
102
}
330
C
100
AcDbDictionary
281
     1
  3
A0
350
48
  3
A1
350
49
  3
A2
350
4A
  3
A3
350
4B
  3
A4
350
4C
  3
A5
350
4D
  3
A6
350
4E
  3
A7
350
4F
  3
A8
350
50
  3
A9
350
51
  3
B0
350
52
  3
B1
350
53
  3
B2
350
54
  3
B3
350
55
  3
B4
350
56
  3
B5
350
57
  3
B6
350
58
  3
B7
350
59
  3
B8
350
5A
  3
B9
350
5B
  3
C0
350
5C
  3
C1
350
5D
  3
C2
350
5E
  3
C3
350
5F
  3
C4
350
60
  3
C5
350
61
  3
C6
350
62
  3
C7
350
63
  3
C8
350
64
  3
C9
350
65
  3
D0
350
66
  3
D1
350
67
  3
D2
350
68
  0
DICTIONARY
  5
13B
102
{ACAD_REACTORS
330
C
102
}
330
C
100
AcDbDictionary
281
     1
  0
XRECORD
  5
15B
102
{ACAD_REACTORS
330
C
102
}
330
C
100
AcDbXrecord
280
     1
  1
DWGPROPS COOKIE
  2

  3

  4

  6

  7

  8
USER
  9

300
=
301
=
302
=
303
=
304
=
305
=
306
=
307
=
308
=
309
=
 40
0.0
 41
2458274.339987083
 42
2458275.101667291
  1

 90
        0
  0
LAYOUT
  5
1E
102
{ACAD_REACTORS
330
1A
102
}
330
1A
100
AcDbPlotSettings
  1

  2
none_device
  4

  6

 40
0.0
 41
0.0
 42
0.0
 43
0.0
 44
0.0
 45
0.0
 46
0.0
 47
0.0
 48
0.0
 49
0.0
140
0.0
141
0.0
142
1.0
143
1.0
 70
   688
 72
     1
 73
     0
 74
     5
  7

 75
    16
147
1.0
148
0.0
149
0.0
100
AcDbLayout
  1
Layout1
 70
     1
 71
     1
 10
0.0
 20
0.0
 11
420.0
 21
297.0
 12
0.0
 22
0.0
 32
0.0
 14
1.000000000000000E+20
 24
1.000000000000000E+20
 34
1.000000000000000E+20
 15
-1.000000000000000E+20
 25
-1.000000000000000E+20
 35
-1.000000000000000E+20
146
0.0
 13
0.0
 23
0.0
 33
0.0
 16
1.0
 26
0.0
 36
0.0
 17
0.0
 27
1.0
 37
0.0
 76
     0
330
1B
  0
LAYOUT
  5
26
102
{ACAD_REACTORS
330
1A
102
}
330
1A
100
AcDbPlotSettings
  1

  2
none_device
  4

  6

 40
0.0
 41
0.0
 42
0.0
 43
0.0
 44
0.0
 45
0.0
 46
0.0
 47
0.0
 48
0.0
 49
0.0
140
0.0
141
0.0
142
1.0
143
1.0
 70
   688
 72
     1
 73
     0
 74
     5
  7

 75
    16
147
1.0
148
0.0
149
0.0
100
AcDbLayout
  1
Layout2
 70
     1
 71
     2
 10
0.0
 20
0.0
 11
0.0
 21
0.0
 12
0.0
 22
0.0
 32
0.0
 14
0.0
 24
0.0
 34
0.0
 15
0.0
 25
0.0
 35
0.0
146
0.0
 13
0.0
 23
0.0
 33
0.0
 16
1.0
 26
0.0
 36
0.0
 17
0.0
 27
1.0
 37
0.0
 76
     0
330
23
  0
LAYOUT
  5
22
102
{ACAD_REACTORS
330
1A
102
}
330
1A
100
AcDbPlotSettings
  1

  2
none_device
  4
ANSI_A_(11.00_x_8.50_Inches)
  6

 40
6.35
 41
19.05
 42
6.35000508
 43
19.05000254
 44
279.4
 45
215.9
 46
82.7280283252483
 47
101.1838448914204
 48
0.0
 49
0.0
140
0.0
141
0.0
142
0.0657792696070484
143
1.0
 70
  1696
 72
     0
 73
     0
 74
     0
  7

 75
     0
147
0.0235690232323232
148
0.0
149
0.0
100
AcDbLayout
  1
Model
 70
     1
 71
     0
 10
0.0
 20
0.0
 11
420.0
 21
297.0
 12
0.0
 22
0.0
 32
0.0
 14
-110.2134684361648
 24
-49.97180738881175
 34
0.0
 15
73.21042333427775
 25
35.87267958872438
 35
0.0
146
0.0
 13
0.0
 23
0.0
 33
0.0
 16
1.0
 26
0.0
 36
0.0
 17
0.0
 27
1.0
 37
0.0
 76
     0
330
1F
331
29
  0
MLINESTYLE
  5
18
102
{ACAD_REACTORS
330
17
102
}
330
17
100
AcDbMlineStyle
  2
Standard
 70
     0
  3

 62
   256
 51
90.0
 52
90.0
 71
     2
 49
0.5
 62
   256
  6
BYLAYER
 49
-0.5
 62
   256
  6
BYLAYER
  0
ACDBPLACEHOLDER
  5
F
102
{ACAD_REACTORS
330
E
102
}
330
E
  0
SCALE
  5
48
102
{ACAD_REACTORS
330
47
102
}
330
47
100
AcDbScale
 70
     0
300
1:1
140
1.0
141
1.0
290
     1
  0
SCALE
  5
49
102
{ACAD_REACTORS
330
47
102
}
330
47
100
AcDbScale
 70
     0
300
1:2
140
1.0
141
2.0
290
     0
  0
SCALE
  5
4A
102
{ACAD_REACTORS
330
47
102
}
330
47
100
AcDbScale
 70
     0
300
1:4
140
1.0
141
4.0
290
     0
  0
SCALE
  5
4B
102
{ACAD_REACTORS
330
47
102
}
330
47
100
AcDbScale
 70
     0
300
1:5
140
1.0
141
5.0
290
     0
  0
SCALE
  5
4C
102
{ACAD_REACTORS
330
47
102
}
330
47
100
AcDbScale
 70
     0
300
1:8
140
1.0
141
8.0
290
     0
  0
SCALE
  5
4D
102
{ACAD_REACTORS
330
47
102
}
330
47
100
AcDbScale
 70
     0
300
1:10
140
1.0
141
10.0
290
     0
  0
SCALE
  5
4E
102
{ACAD_REACTORS
330
47
102
}
330
47
100
AcDbScale
 70
     0
300
1:16
140
1.0
141
16.0
290
     0
  0
SCALE
  5
4F
102
{ACAD_REACTORS
330
47
102
}
330
47
100
AcDbScale
 70
     0
300
1:20
140
1.0
141
20.0
290
     0
  0
SCALE
  5
50
102
{ACAD_REACTORS
330
47
102
}
330
47
100
AcDbScale
 70
     0
300
1:30
140
1.0
141
30.0
290
     0
  0
SCALE
  5
51
102
{ACAD_REACTORS
330
47
102
}
330
47
100
AcDbScale
 70
     0
300
1:40
140
1.0
141
40.0
290
     0
  0
SCALE
  5
52
102
{ACAD_REACTORS
330
47
102
}
330
47
100
AcDbScale
 70
     0
300
1:50
140
1.0
141
50.0
290
     0
  0
SCALE
  5
53
102
{ACAD_REACTORS
330
47
102
}
330
47
100
AcDbScale
 70
     0
300
1:100
140
1.0
141
100.0
290
     0
  0
SCALE
  5
54
102
{ACAD_REACTORS
330
47
102
}
330
47
100
AcDbScale
 70
     0
300
2:1
140
2.0
141
1.0
290
     0
  0
SCALE
  5
55
102
{ACAD_REACTORS
330
47
102
}
330
47
100
AcDbScale
 70
     0
300
4:1
140
4.0
141
1.0
290
     0
  0
SCALE
  5
56
102
{ACAD_REACTORS
330
47
102
}
330
47
100
AcDbScale
 70
     0
300
8:1
140
8.0
141
1.0
290
     0
  0
SCALE
  5
57
102
{ACAD_REACTORS
330
47
102
}
330
47
100
AcDbScale
 70
     0
300
10:1
140
10.0
141
1.0
290
     0
  0
SCALE
  5
58
102
{ACAD_REACTORS
330
47
102
}
330
47
100
AcDbScale
 70
     0
300
100:1
140
100.0
141
1.0
290
     0
  0
SCALE
  5
59
102
{ACAD_REACTORS
330
47
102
}
330
47
100
AcDbScale
 70
     0
300
1/128" = 1'-0"
140
0.0078125
141
12.0
290
     0
  0
SCALE
  5
5A
102
{ACAD_REACTORS
330
47
102
}
330
47
100
AcDbScale
 70
     0
300
1/64" = 1'-0"
140
0.015625
141
12.0
290
     0
  0
SCALE
  5
5B
102
{ACAD_REACTORS
330
47
102
}
330
47
100
AcDbScale
 70
     0
300
1/32" = 1'-0"
140
0.03125
141
12.0
290
     0
  0
SCALE
  5
5C
102
{ACAD_REACTORS
330
47
102
}
330
47
100
AcDbScale
 70
     0
300
1/16" = 1'-0"
140
0.0625
141
12.0
290
     0
  0
SCALE
  5
5D
102
{ACAD_REACTORS
330
47
102
}
330
47
100
AcDbScale
 70
     0
300
3/32" = 1'-0"
140
0.09375
141
12.0
290
     0
  0
SCALE
  5
5E
102
{ACAD_REACTORS
330
47
102
}
330
47
100
AcDbScale
 70
     0
300
1/8" = 1'-0"
140
0.125
141
12.0
290
     0
  0
SCALE
  5
5F
102
{ACAD_REACTORS
330
47
102
}
330
47
100
AcDbScale
 70
     0
300
3/16" = 1'-0"
140
0.1875
141
12.0
290
     0
  0
SCALE
  5
60
102
{ACAD_REACTORS
330
47
102
}
330
47
100
AcDbScale
 70
     0
300
1/4" = 1'-0"
140
0.25
141
12.0
290
     0
  0
SCALE
  5
61
102
{ACAD_REACTORS
330
47
102
}
330
47
100
AcDbScale
 70
     0
300
3/8" = 1'-0"
140
0.375
141
12.0
290
     0
  0
SCALE
  5
62
102
{ACAD_REACTORS
330
47
102
}
330
47
100
AcDbScale
 70
     0
300
1/2" = 1'-0"
140
0.5
141
12.0
290
     0
  0
SCALE
  5
63
102
{ACAD_REACTORS
330
47
102
}
330
47
100
AcDbScale
 70
     0
300
3/4" = 1'-0"
140
0.75
141
12.0
290
     0
  0
SCALE
  5
64
102
{ACAD_REACTORS
330
47
102
}
330
47
100
AcDbScale
 70
     0
300
1" = 1'-0"
140
1.0
141
12.0
290
     0
  0
SCALE
  5
65
102
{ACAD_REACTORS
330
47
102
}
330
47
100
AcDbScale
 70
     0
300
1-1/2" = 1'-0"
140
1.5
141
12.0
290
     0
  0
SCALE
  5
66
102
{ACAD_REACTORS
330
47
102
}
330
47
100
AcDbScale
 70
     0
300
3" = 1'-0"
140
3.0
141
12.0
290
     0
  0
SCALE
  5
67
102
{ACAD_REACTORS
330
47
102
}
330
47
100
AcDbScale
 70
     0
300
6" = 1'-0"
140
6.0
141
12.0
290
     0
  0
SCALE
  5
68
102
{ACAD_REACTORS
330
47
102
}
330
47
100
AcDbScale
 70
     0
300
1'-0" = 1'-0"
140
12.0
141
12.0
290
     0
  0
ENDSEC
  0
EOF
