  0
SECTION
  2
HEADER
  9
$ACADVER
  1
AC1015
  9
$ACADMAINTVER
 70
     6
  9
$DWGCODEPAGE
  3
ANSI_949
  9
$INSBASE
 10
0.0
 20
0.0
 30
0.0
  9
$EXTMIN
 10
-107.2134684361648
 20
-49.97180738881175
 30
0.0
  9
$EXTMAX
 10
77.01814943065534
 20
38.3711729249071
 30
0.0
  9
$LIMMIN
 10
0.0
 20
0.0
  9
$LIMMAX
 10
420.0
 20
297.0
  9
$ORTHOMODE
 70
     1
  9
$REGENMODE
 70
     1
  9
$FILLMODE
 70
     1
  9
$QTEXTMODE
 70
     0
  9
$MIRRTEXT
 70
     1
  9
$LTSCALE
 40
1.0
  9
$ATTMODE
 70
     1
  9
$TEXTSIZE
 40
3.5
  9
$TRACEWID
 40
1.0
  9
$TEXTSTYLE
  7
Standard
  9
$CLAYER
  8
0
  9
$CELTYPE
  6
ByLayer
  9
$CECOLOR
 62
   256
  9
$CELTSCALE
 40
1.0
  9
$DISPSILH
 70
     0
  9
$DIMSCALE
 40
1.0
  9
$DIMASZ
 40
3.302
  9
$DIMEXO
 40
1.0
  9
$DIMDLI
 40
3.75
  9
$DIMRND
 40
0.0
  9
$DIMDLE
 40
0.0
  9
$DIMEXE
 40
1.0
  9
$DIMTP
 40
0.0
  9
$DIMTM
 40
0.0
  9
$DIMTXT
 40
3.5
  9
$DIMCEN
 40
2.5
  9
$DIMTSZ
 40
0.0
  9
$DIMTOL
 70
     0
  9
$DIMLIM
 70
     0
  9
$DIMTIH
 70
     1
  9
$DIMTOH
 70
     1
  9
$DIMSE1
 70
     0
  9
$DIMSE2
 70
     0
  9
$DIMTAD
 70
     1
  9
$DIMZIN
 70
     0
  9
$DIMBLK
  1

  9
$DIMASO
 70
     1
  9
$DIMSHO
 70
     1
  9
$DIMPOST
  1

  9
$DIMAPOST
  1

  9
$DIMALT
 70
     0
  9
$DIMALTD
 70
     3
  9
$DIMALTF
 40
0.0393700787401575
  9
$DIMLFAC
 40
1.0
  9
$DIMTOFL
 70
     1
  9
$DIMTVP
 40
0.0
  9
$DIMTIX
 70
     0
  9
$DIMSOXD
 70
     0
  9
$DIMSAH
 70
     0
  9
$DIMBLK1
  1

  9
$DIMBLK2
  1

  9
$DIMSTYLE
  2
ISO-25
  9
$DIMCLRD
 70
     0
  9
$DIMCLRE
 70
     0
  9
$DIMCLRT
 70
     0
  9
$DIMTFAC
 40
1.0
  9
$DIMGAP
 40
1.524
  9
$DIMJUST
 70
     0
  9
$DIMSD1
 70
     0
  9
$DIMSD2
 70
     0
  9
$DIMTOLJ
 70
     0
  9
$DIMTZIN
 70
     0
  9
$DIMALTZ
 70
     0
  9
$DIMALTTZ
 70
     0
  9
$DIMUPT
 70
     0
  9
$DIMDEC
 70
     2
  9
$DIMTDEC
 70
     2
  9
$DIMALTU
 70
     2
  9
$DIMALTTD
 70
     3
  9
$DIMTXSTY
  7
Standard
  9
$DIMAUNIT
 70
     0
  9
$DIMADEC
 70
     2
  9
$DIMALTRND
 40
0.0
  9
$DIMAZIN
 70
     0
  9
$DIMDSEP
 70
    44
  9
$DIMATFIT
 70
     3
  9
$DIMFRAC
 70
     0
  9
$DIMLDRBLK
  1

  9
$DIMLUNIT
 70
     2
  9
$DIMLWD
 70
    -2
  9
$DIMLWE
 70
    -2
  9
$DIMTMOVE
 70
     0
  9
$LUNITS
 70
     2
  9
$LUPREC
 70
     2
  9
$SKETCHINC
 40
1.0
  9
$FILLETRAD
 40
10.0
  9
$AUNITS
 70
     0
  9
$AUPREC
 70
     2
  9
$MENU
  1
.
  9
$ELEVATION
 40
0.0
  9
$PELEVATION
 40
0.0
  9
$THICKNESS
 40
0.0
  9
$LIMCHECK
 70
     0
  9
$CHAMFERA
 40
0.0
  9
$CHAMFERB
 40
0.0
  9
$CHAMFERC
 40
0.0
  9
$CHAMFERD
 40
0.0
  9
$SKPOLY
 70
     0
  9
$TDCREATE
 40
2458274.717561134
  9
$TDUCREATE
 40
2458274.342561134
  9
$TDUPDATE
 40
2458275.480554282
  9
$TDUUPDATE
 40
2458275.105554282
  9
$TDINDWG
 40
0.0013165162
  9
$TDUSRTIMER
 40
0.0013165046
  9
$USRTIMER
 70
     1
  9
$ANGBASE
 50
0.0
  9
$ANGDIR
 70
     0
  9
$PDMODE
 70
     0
  9
$PDSIZE
 40
-1.0
  9
$PLINEWID
 40
0.0
  9
$SPLFRAME
 70
     0
  9
$SPLINETYPE
 70
     6
  9
$SPLINESEGS
 70
     8
  9
$HANDSEED
  5
15B
  9
$SURFTAB1
 70
     6
  9
$SURFTAB2
 70
     6
  9
$SURFTYPE
 70
     6
  9
$SURFU
 70
     6
  9
$SURFV
 70
     6
  9
$UCSBASE
  2

  9
$UCSNAME
  2

  9
$UCSORG
 10
0.0
 20
0.0
 30
0.0
  9
$UCSXDIR
 10
1.0
 20
0.0
 30
0.0
  9
$UCSYDIR
 10
0.0
 20
1.0
 30
0.0
  9
$UCSORTHOREF
  2

  9
$UCSORTHOVIEW
 70
     0
  9
$UCSORGTOP
 10
0.0
 20
0.0
 30
0.0
  9
$UCSORGBOTTOM
 10
0.0
 20
0.0
 30
0.0
  9
$UCSORGLEFT
 10
0.0
 20
0.0
 30
0.0
  9
$UCSORGRIGHT
 10
0.0
 20
0.0
 30
0.0
  9
$UCSORGFRONT
 10
0.0
 20
0.0
 30
0.0
  9
$UCSORGBACK
 10
0.0
 20
0.0
 30
0.0
  9
$PUCSBASE
  2

  9
$PUCSNAME
  2

  9
$PUCSORG
 10
0.0
 20
0.0
 30
0.0
  9
$PUCSXDIR
 10
1.0
 20
0.0
 30
0.0
  9
$PUCSYDIR
 10
0.0
 20
1.0
 30
0.0
  9
$PUCSORTHOREF
  2

  9
$PUCSORTHOVIEW
 70
     0
  9
$PUCSORGTOP
 10
0.0
 20
0.0
 30
0.0
  9
$PUCSORGBOTTOM
 10
0.0
 20
0.0
 30
0.0
  9
$PUCSORGLEFT
 10
0.0
 20
0.0
 30
0.0
  9
$PUCSORGRIGHT
 10
0.0
 20
0.0
 30
0.0
  9
$PUCSORGFRONT
 10
0.0
 20
0.0
 30
0.0
  9
$PUCSORGBACK
 10
0.0
 20
0.0
 30
0.0
  9
$USERI1
 70
     0
  9
$USERI2
 70
     0
  9
$USERI3
 70
     0
  9
$USERI4
 70
     0
  9
$USERI5
 70
     0
  9
$USERR1
 40
0.0
  9
$USERR2
 40
0.0
  9
$USERR3
 40
0.0
  9
$USERR4
 40
0.0
  9
$USERR5
 40
0.0
  9
$WORLDVIEW
 70
     1
  9
$SHADEDGE
 70
     3
  9
$SHADEDIF
 70
    70
  9
$TILEMODE
 70
     1
  9
$MAXACTVP
 70
    64
  9
$PINSBASE
 10
0.0
 20
0.0
 30
0.0
  9
$PLIMCHECK
 70
     0
  9
$PEXTMIN
 10
1.000000000000000E+20
 20
1.000000000000000E+20
 30
1.000000000000000E+20
  9
$PEXTMAX
 10
-1.000000000000000E+20
 20
-1.000000000000000E+20
 30
-1.000000000000000E+20
  9
$PLIMMIN
 10
0.0
 20
0.0
  9
$PLIMMAX
 10
0.0
 20
0.0
  9
$UNITMODE
 70
     0
  9
$VISRETAIN
 70
     1
  9
$PLINEGEN
 70
     0
  9
$PSLTSCALE
 70
     1
  9
$TREEDEPTH
 70
  3020
  9
$CMLSTYLE
  2
Standard
  9
$CMLJUST
 70
     0
  9
$CMLSCALE
 40
20.0
  9
$PROXYGRAPHICS
 70
     1
  9
$MEASUREMENT
 70
     1
  9
$CELWEIGHT
370
    -1
  9
$ENDCAPS
280
     0
  9
$JOINSTYLE
280
     0
  9
$LWDISPLAY
290
     1
  9
$INSUNITS
 70
     4
  9
$HYPERLINKBASE
  1

  9
$STYLESHEET
  1

  9
$XEDIT
290
     1
  9
$CEPSNTYPE
380
     0
  9
$PSTYLEMODE
290
     1
  9
$FINGERPRINTGUID
  2
{5ECBAA46-40F7-4A20-A343-3F853DFB601E}
  9
$VERSIONGUID
  2
{FAEB1C32-E019-11D5-929B-00C0DF256EC4}
  9
$EXTNAMES
290
     1
  9
$PSVPSCALE
 40
0.0
  9
$OLESTARTUP
290
     0
  0
ENDSEC
  0
SECTION
  2
CLASSES
  0
CLASS
  1
ACDBDICTIONARYWDFLT
  2
AcDbDictionaryWithDefault
  3
ObjectDBX Classes
 90
        0
280
     0
281
     0
  0
CLASS
  1
VISUALSTYLE
  2
AcDbVisualStyle
  3
ObjectDBX Classes
 90
     4095
280
     0
281
     0
  0
CLASS
  1
MATERIAL
  2
AcDbMaterial
  3
ObjectDBX Classes
 90
     1153
280
     0
281
     0
  0
CLASS
  1
SCALE
  2
AcDbScale
  3
ObjectDBX Classes
 90
     1153
280
     0
281
     0
  0
CLASS
  1
SUN
  2
AcDbSun
  3
SCENEOE
 90
     1153
280
     0
281
     0
  0
CLASS
  1
ACDBPLACEHOLDER
  2
AcDbPlaceHolder
  3
ObjectDBX Classes
 90
        0
280
     0
281
     0
  0
CLASS
  1
LAYOUT
  2
AcDbLayout
  3
ObjectDBX Classes
 90
        0
280
     0
281
     0
  0
CLASS
  1
TABLESTYLE
  2
AcDbTableStyle
  3
ObjectDBX Classes
 90
     4095
280
     0
281
     0
  0
CLASS
  1
MLEADERSTYLE
  2
AcDbMLeaderStyle
  3
ACDB_MLEADERSTYLE_CLASS
 90
     4095
280
     0
281
     0
  0
CLASS
  1
DIMASSOC
  2
AcDbDimAssoc
  3
"AcDbDimAssoc|Product Desc:     AcDim ARX App For Dimension|Company:          Autodesk, Inc.|WEB Address:      www.autodesk.com"
 90
        0
280
     0
281
     0
  0
ENDSEC
  0
SECTION
  2
TABLES
  0
TABLE
  2
VPORT
  5
8
330
0
100
AcDbSymbolTable
 70
     1
  0
VPORT
  5
29
330
8
100
AcDbSymbolTableRecord
100
AcDbViewportTableRecord
  2
*Active
 70
     0
 10
0.0
 20
0.0
 11
1.0
 21
1.0
 12
-15.09765950275474
 22
-5.80031723195232
 13
0.0
 23
0.0
 14
10.0
 24
10.0
 15
10.0
 25
10.0
 16
0.0
 26
0.0
 36
1.0
 17
0.0
 27
0.0
 37
0.0
 40
90.10983991999322
 41
2.400311526479751
 42
50.0
 43
0.0
 44
0.0
 50
0.0
 51
0.0
 71
    16
 72
  2000
 73
     1
 74
     3
 75
     0
 76
     0
 77
     0
 78
     0
281
     0
 65
     1
110
0.0
120
0.0
130
0.0
111
1.0
121
0.0
131
0.0
112
0.0
122
1.0
132
0.0
 79
     0
146
0.0
  0
ENDTAB
  0
TABLE
  2
LTYPE
  5
5
330
0
100
AcDbSymbolTable
 70
     6
  0
LTYPE
  5
14
330
5
100
AcDbSymbolTableRecord
100
AcDbLinetypeTableRecord
  2
ByBlock
 70
     0
  3

 72
    65
 73
     0
 40
0.0
  0
LTYPE
  5
15
330
5
100
AcDbSymbolTableRecord
100
AcDbLinetypeTableRecord
  2
ByLayer
 70
     0
  3

 72
    65
 73
     0
 40
0.0
  0
LTYPE
  5
16
330
5
100
AcDbSymbolTableRecord
100
AcDbLinetypeTableRecord
  2
Continuous
 70
     0
  3
Solid line
 72
    65
 73
     0
 40
0.0
  0
LTYPE
  5
6A
330
5
100
AcDbSymbolTableRecord
100
AcDbLinetypeTableRecord
  2
HIDDEN
 70
     0
  3
Hidden __ __ __ __ __ __ __ __ __ __ __ __ __ __
 72
    65
 73
     2
 40
1.905
 49
1.27
 74
     0
 49
-0.635
 74
     0
  0
LTYPE
  5
6B
330
5
100
AcDbSymbolTableRecord
100
AcDbLinetypeTableRecord
  2
PHANTOM
 70
     0
  3
Phantom ______  __  __  ______  __  __  ______
 72
    65
 73
     6
 40
12.7
 49
6.35
 74
     0
 49
-1.27
 74
     0
 49
1.27
 74
     0
 49
-1.27
 74
     0
 49
1.27
 74
     0
 49
-1.27
 74
     0
  0
LTYPE
  5
6C
330
5
100
AcDbSymbolTableRecord
100
AcDbLinetypeTableRecord
  2
CENTER
 70
     0
  3
Center ____ _ ____ _ ____ _ ____ _ ____ _ ____
 72
    65
 73
     4
 40
10.16
 49
6.35
 74
     0
 49
-1.27
 74
     0
 49
1.27
 74
     0
 49
-1.27
 74
     0
  0
LTYPE
  5
6D
330
5
100
AcDbSymbolTableRecord
100
AcDbLinetypeTableRecord
  2
CENTERX2
 70
     0
  3
Center (2x) ________  __  ________  __  _____
 72
    65
 73
     4
 40
20.32
 49
12.7
 74
     0
 49
-2.54
 74
     0
 49
2.54
 74
     0
 49
-2.54
 74
     0
  0
LTYPE
  5
6E
330
5
100
AcDbSymbolTableRecord
100
AcDbLinetypeTableRecord
  2
DOT2
 70
     0
  3
Dot (.5x) ........................................
 72
    65
 73
     2
 40
0.635
 49
0.0
 74
     0
 49
-0.635
 74
     0
  0
ENDTAB
  0
TABLE
  2
LAYER
  5
2
330
0
100
AcDbSymbolTable
 70
    18
  0
LAYER
  5
10
330
2
100
AcDbSymbolTableRecord
100
AcDbLayerTableRecord
  2
0
 70
     0
 62
     7
  6
Continuous
370
    -3
390
F
  0
LAYER
  5
6F
330
2
100
AcDbSymbolTableRecord
100
AcDbLayerTableRecord
  2
FORMAT
 70
     0
 62
     2
  6
Continuous
370
    -3
390
F
  0
LAYER
  5
70
330
2
100
AcDbSymbolTableRecord
100
AcDbLayerTableRecord
  2
외형선
 70
     0
 62
     4
  6
Continuous
370
    30
390
F
  0
LAYER
  5
71
330
2
100
AcDbSymbolTableRecord
100
AcDbLayerTableRecord
  2
숨은선
 70
     0
 62
     2
  6
HIDDEN
370
    15
390
F
  0
LAYER
  5
72
330
2
100
AcDbSymbolTableRecord
100
AcDbLayerTableRecord
  2
중심선
 70
     0
 62
     1
  6
CENTERX2
370
    -3
390
F
  0
LAYER
  5
73
330
2
100
AcDbSymbolTableRecord
100
AcDbLayerTableRecord
  2
파단선
 70
     0
 62
     4
  6
Continuous
370
    -3
390
F
  0
LAYER
  5
74
330
2
100
AcDbSymbolTableRecord
100
AcDbLayerTableRecord
  2
해칭선
 70
     0
 62
   100
  6
Continuous
370
    -3
390
F
  0
LAYER
  5
75
330
2
100
AcDbSymbolTableRecord
100
AcDbLayerTableRecord
  2
가는실선
 70
     0
 62
     4
  6
Continuous
370
    -3
390
F
  0
LAYER
  5
76
330
2
100
AcDbSymbolTableRecord
100
AcDbLayerTableRecord
  2
치수_보조선
 70
     0
 62
     4
  6
Continuous
370
    -3
390
F
  0
LAYER
  5
77
330
2
100
AcDbSymbolTableRecord
100
AcDbLayerTableRecord
  2
치수문자_일반주서
 70
     0
 62
     7
  6
Continuous
370
    15
390
F
  0
LAYER
  5
78
330
2
100
AcDbSymbolTableRecord
100
AcDbLayerTableRecord
  2
개별주서
 70
     0
 62
   100
  6
Continuous
370
    30
390
F
  0
LAYER
  5
79
330
2
100
AcDbSymbolTableRecord
100
AcDbLayerTableRecord
  2
중간선
 70
     0
 62
     2
  6
Continuous
370
    15
390
F
  0
LAYER
  5
7A
330
2
100
AcDbSymbolTableRecord
100
AcDbLayerTableRecord
  2
윤곽선
 70
     0
 62
     3
  6
Continuous
370
    40
390
F
  0
LAYER
  5
7B
330
2
100
AcDbSymbolTableRecord
100
AcDbLayerTableRecord
  2
중심마크
 70
     0
 62
   100
  6
Continuous
370
    30
390
F
  0
LAYER
  5
7C
330
2
100
AcDbSymbolTableRecord
100
AcDbLayerTableRecord
  2
가상선
 70
     0
 62
     4
  6
PHANTOM
370
    -3
390
F
  0
LAYER
  5
7D
330
2
100
AcDbSymbolTableRecord
100
AcDbLayerTableRecord
  2
특수지정선
 70
     0
 62
     5
  6
CENTERX2
370
    60
390
F
  0
LAYER
  5
7E
330
2
100
AcDbSymbolTableRecord
100
AcDbLayerTableRecord
  2
참조1
 70
     0
 62
    -4
  6
Continuous
370
    -3
390
F
  0
LAYER
  5
13D
330
2
100
AcDbSymbolTableRecord
100
AcDbLayerTableRecord
  2
Defpoints
 70
     0
 62
     7
  6
Continuous
290
     0
370
    -3
390
F
  0
ENDTAB
  0
TABLE
  2
STYLE
  5
3
330
0
100
AcDbSymbolTable
 70
     2
  0
STYLE
  5
11
330
3
100
AcDbSymbolTableRecord
100
AcDbTextStyleTableRecord
  2
Standard
 70
     0
 40
0.0
 41
1.0
 50
0.0
 71
     0
 42
3.5
  3
txt
  4

  0
STYLE
  5
94
330
3
100
AcDbSymbolTableRecord
100
AcDbTextStyleTableRecord
  2
SLDTEXTSTYLE0
 70
     0
 40
0.0
 41
0.75
 50
0.0
 71
     0
 42
3.5
  3
TXT
  4

  0
ENDTAB
  0
TABLE
  2
VIEW
  5
6
330
0
100
AcDbSymbolTable
 70
     0
  0
ENDTAB
  0
TABLE
  2
UCS
  5
7
330
0
100
AcDbSymbolTable
 70
     0
  0
ENDTAB
  0
TABLE
  2
APPID
  5
9
330
0
100
AcDbSymbolTable
 70
     3
  0
APPID
  5
12
330
9
100
AcDbSymbolTableRecord
100
AcDbRegAppTableRecord
  2
ACAD
 70
     0
  0
APPID
  5
14B
330
9
100
AcDbSymbolTableRecord
100
AcDbRegAppTableRecord
  2
PE_URL
 70
     0
  0
APPID
  5
14C
330
9
100
AcDbSymbolTableRecord
100
AcDbRegAppTableRecord
  2
ACAD_DSTYLE_DIMRADIAL_EXTENSION
 70
     0
  0
ENDTAB
  0
TABLE
  2
DIMSTYLE
  5
A
330
0
100
AcDbSymbolTable
 70
     3
100
AcDbDimStyleTable
  0
DIMSTYLE
105
27
102
{ACAD_REACTORS
330
14D
102
}
330
A
100
AcDbSymbolTableRecord
100
AcDbDimStyleTableRecord
  2
ISO-25
 70
     0
 41
2.5
 42
0.625
 43
3.75
 44
1.25
 73
     0
 74
     0
 77
     1
 78
     8
140
2.5
141
2.5
143
0.03937007874016
147
0.625
171
     3
172
     1
178
     0
271
     2
272
     2
274
     3
278
    44
283
     0
284
     8
340
11
  0
DIMSTYLE
105
D4
102
{ACAD_REACTORS
330
D3
330
E1
330
EE
330
F9
330
103
102
}
330
A
100
AcDbSymbolTableRecord
100
AcDbDimStyleTableRecord
  2
SLDDIMSTYLE0
 70
     0
 41
3.302
 44
0.0
 45
0.000000001
 73
     0
 74
     0
 77
     1
 78
    12
 79
     3
140
3.5
147
0.875
172
     1
173
     1
178
     0
271
     2
272
     2
276
     2
284
    12
289
     0
340
94
  0
DIMSTYLE
105
EF
330
A
100
AcDbSymbolTableRecord
100
AcDbDimStyleTableRecord
  2
SLDDIMSTYLE1
 70
     0
 41
3.302
 44
0.0
 45
0.000000001
 73
     0
 74
     0
 77
     1
 78
    12
 79
     3
140
3.5
147
0.875
173
     1
178
     0
271
     2
272
     2
276
     2
284
    12
340
94
  0
ENDTAB
  0
TABLE
  2
BLOCK_RECORD
  5
1
330
0
100
AcDbSymbolTable
 70
     9
  0
BLOCK_RECORD
  5
1F
330
1
100
AcDbSymbolTableRecord
100
AcDbBlockTableRecord
  2
*Model_Space
340
22
  0
BLOCK_RECORD
  5
1B
330
1
100
AcDbSymbolTableRecord
100
AcDbBlockTableRecord
  2
*Paper_Space
340
1E
  0
BLOCK_RECORD
  5
23
330
1
100
AcDbSymbolTableRecord
100
AcDbBlockTableRecord
  2
*Paper_Space0
340
26
  0
BLOCK_RECORD
  5
7F
330
1
100
AcDbSymbolTableRecord
100
AcDbBlockTableRecord
  2
블럭10
340
0
102
{BLKREFS
331
CC
102
}
  0
BLOCK_RECORD
  5
D5
330
1
100
AcDbSymbolTableRecord
100
AcDbBlockTableRecord
  2
_D
340
0
  0
BLOCK_RECORD
  5
E2
330
1
100
AcDbSymbolTableRecord
100
AcDbBlockTableRecord
  2
_D_1
340
0
  0
BLOCK_RECORD
  5
F0
330
1
100
AcDbSymbolTableRecord
100
AcDbBlockTableRecord
  2
_D_2
340
0
  0
BLOCK_RECORD
  5
FA
330
1
100
AcDbSymbolTableRecord
100
AcDbBlockTableRecord
  2
_D_3
340
0
  0
BLOCK_RECORD
  5
104
330
1
100
AcDbSymbolTableRecord
100
AcDbBlockTableRecord
  2
_D_4
340
0
  0
BLOCK_RECORD
  5
114
330
1
100
AcDbSymbolTableRecord
100
AcDbBlockTableRecord
  2
SW_DOWELSYMBOL_0
340
0
102
{BLKREFS
331
11A
102
}
  0
BLOCK_RECORD
  5
150
330
1
100
AcDbSymbolTableRecord
100
AcDbBlockTableRecord
  2
*D8
340
0
  0
ENDTAB
  0
ENDSEC
  0
SECTION
  2
BLOCKS
  0
BLOCK
  5
20
330
1F
100
AcDbEntity
  8
0
100
AcDbBlockBegin
  2
*Model_Space
 70
     0
 10
0.0
 20
0.0
 30
0.0
  3
*Model_Space
  1

  0
ENDBLK
  5
21
330
1F
100
AcDbEntity
  8
0
100
AcDbBlockEnd
  0
BLOCK
  5
1C
330
1B
100
AcDbEntity
 67
     1
  8
0
100
AcDbBlockBegin
  2
*Paper_Space
 70
     0
 10
0.0
 20
0.0
 30
0.0
  3
*Paper_Space
  1

  0
ENDBLK
  5
1D
330
1B
100
AcDbEntity
 67
     1
  8
0
100
AcDbBlockEnd
  0
BLOCK
  5
24
330
23
100
AcDbEntity
  8
0
100
AcDbBlockBegin
  2
*Paper_Space0
 70
     0
 10
0.0
 20
0.0
 30
0.0
  3
*Paper_Space0
  1

  0
ENDBLK
  5
25
330
23
100
AcDbEntity
  8
0
100
AcDbBlockEnd
  0
BLOCK
  5
80
330
7F
100
AcDbEntity
  8
0
100
AcDbBlockBegin
  2
블럭10
 70
     2
 10
0.0
 20
0.0
 30
0.0
  3
블럭10
  1

  0
ELLIPSE
  5
82
330
7F
100
AcDbEntity
  8
중심선
100
AcDbEllipse
 10
20.54032771741204
 20
12.0471743016438
 30
0.0
 11
6.600054785286829
 21
-1.261213355974178E-13
 31
0.0
210
0.0
220
0.0
230
1.0
 40
0.636358354079598
 41
0.9219305317359503
 42
6.513795318482858
  0
ELLIPSE
  5
83
330
7F
100
AcDbEntity
  8
중심선
100
AcDbEllipse
 10
20.54032771746488
 20
12.04717430159265
 30
0.0
 11
3.960054785062283
 21
1.540847449632565E-10
 31
0.0
210
0.0
220
0.0
230
1.0
 40
0.3939339440162632
 41
1.131841032648279
 42
5.62031148352944
  0
LINE
  5
84
330
7F
100
AcDbEntity
  8
중심선
100
AcDbLine
 10
2.268634060543552
 20
16.24717430164393
 30
0.0
 11
5.714909304380834
 21
16.24717430164393
 31
0.0
  0
LINE
  5
85
330
7F
100
AcDbEntity
  8
중심선
100
AcDbLine
 10
5.245725140726316
 20
7.84717430164391
 30
0.0
 11
8.692000384563599
 21
7.84717430164391
 31
0.0
  0
LINE
  5
86
330
7F
100
AcDbEntity
  8
중심선
100
AcDbLine
 10
15.74043728645272
 20
16.24717430164393
 30
0.0
 11
8.692000384563599
 21
7.84717430164391
 31
0.0
  0
LINE
  5
87
330
7F
100
AcDbEntity
  8
중심선
100
AcDbLine
 10
0.1404042013395286
 20
13.71084872107135
 30
0.0
 11
3.58671253028996
 21
13.71088815037384
 31
0.0
  0
LINE
  5
88
330
7F
100
AcDbEntity
  8
중심선
100
AcDbLine
 10
2.750260043222114
 20
10.84717430164391
 30
0.0
 11
6.196535287059397
 21
10.84717430164391
 31
0.0
  0
LINE
  5
89
330
7F
100
AcDbEntity
  8
중심선
100
AcDbLine
 10
12.29416204261559
 20
16.24717430164393
 30
0.0
 11
5.245725140726316
 21
7.84717430164391
 31
0.0
  0
LINE
  5
8A
330
7F
100
AcDbEntity
  8
중심선
100
AcDbLine
 10
10.72767329541681
 20
16.24717430164393
 30
0.0
 11
6.196535287059397
 21
10.84717430164391
 31
0.0
  0
LINE
  5
8B
330
7F
100
AcDbEntity
  8
중심선
100
AcDbLine
 10
7.28139805157953
 20
16.24717430164393
 30
0.0
 11
2.750260043222114
 21
10.84717430164391
 31
0.0
  0
LINE
  5
8C
330
7F
100
AcDbEntity
  8
중심선
100
AcDbLine
 10
5.714909304380834
 20
16.24717430164393
 30
0.0
 11
3.58671253028996
 21
13.71088815037384
 31
0.0
  0
LINE
  5
8D
330
7F
100
AcDbEntity
  8
중심선
100
AcDbLine
 10
2.268634060543552
 20
16.24717430164393
 30
0.0
 11
0.1404042013395286
 21
13.71084872107135
 31
0.0
  0
LINE
  5
8E
330
7F
100
AcDbEntity
  8
중심선
100
AcDbLine
 10
7.28139805157953
 20
16.24717430164393
 30
0.0
 11
10.72767329541681
 21
16.24717430164393
 31
0.0
  0
LINE
  5
8F
330
7F
100
AcDbEntity
  8
중심선
100
AcDbLine
 10
12.29416204261559
 20
16.24717430164393
 30
0.0
 11
15.74043728645272
 21
16.24717430164393
 31
0.0
  0
LINE
  5
90
330
7F
100
AcDbEntity
  8
중심선
100
AcDbLine
 10
19.22036997980202
 20
11.08717430171403
 30
0.0
 11
23.66174974927406
 21
11.08717430171406
 31
0.0
  0
LINE
  5
91
330
7F
100
AcDbEntity
  8
중심선
100
AcDbLine
 10
19.22039502424796
 20
13.00717430171391
 30
0.0
 11
19.22036997980202
 21
11.08717430171403
 31
0.0
  0
LINE
  5
92
330
7F
100
AcDbEntity
  8
중심선
100
AcDbLine
 10
19.22039502424796
 20
13.00717430171391
 30
0.0
 11
26.96566020931264
 21
13.00717430171391
 31
0.0
  0
LINE
  5
93
330
7F
100
AcDbEntity
  8
중심선
100
AcDbLine
 10
22.22332737316547
 20
13.45928029700563
 30
0.0
 11
24.52862924686651
 21
15.39360700705356
 31
0.0
  0
ATTDEF
  5
95
330
7F
100
AcDbEntity
  8
FORMAT
 62
     2
100
AcDbText
 10
-7.268459303319146
 20
2.075366912832191
 30
0.0
 40
4.233333333333333
  1
SEME6420005150E
 41
0.75
  7
SLDTEXTSTYLE0
 11
-7.268459303319146
 21
-0.0412997538344756
 31
0.0
100
AcDbAttributeDefinition
  3

  2
AUTOATTR0
 70
     0
 74
     1
  0
ENDBLK
  5
81
330
7F
100
AcDbEntity
  8
0
100
AcDbBlockEnd
  0
BLOCK
  5
D6
330
D5
100
AcDbEntity
  8
0
100
AcDbBlockBegin
  2
_D
 70
     0
 10
0.0
 20
0.0
 30
0.0
  3
_D
  1

  0
LINE
  5
D8
330
D5
100
AcDbEntity
  8
치수문자_일반주서
 62
     0
370
    -2
100
AcDbLine
 10
35.74281313483669
 20
9.999131452862883
 30
0.0
 11
76.46781609732194
 21
9.999131452863034
 31
0.0
  0
LINE
  5
D9
330
D5
100
AcDbEntity
  8
치수문자_일반주서
 62
     0
370
    -2
100
AcDbLine
 10
34.76600017277784
 20
-9.999999999999988
 30
0.0
 11
76.46781609732201
 21
-9.999999999999833
 31
0.0
  0
LINE
  5
DA
330
D5
100
AcDbEntity
  8
치수문자_일반주서
 62
     0
370
    -2
100
AcDbLine
 10
76.46781609732196
 20
6.697131452863035
 30
0.0
 11
76.467816097322
 21
-6.697999999999833
 31
0.0
  0
SOLID
  5
DB
330
D5
100
AcDbEntity
  8
치수문자_일반주서
 62
     0
100
AcDbTrace
 10
77.01814943065528
 20
6.697131452863037
 30
0.0
 11
75.91748276398863
 21
6.697131452863033
 31
0.0
 12
76.46781609732194
 22
9.999131452863034
 32
0.0
 13
76.46781609732194
 23
9.999131452863034
 33
0.0
  0
SOLID
  5
DC
330
D5
100
AcDbEntity
  8
치수문자_일반주서
 62
     0
100
AcDbTrace
 10
75.91748276398867
 20
-6.697999999999835
 30
0.0
 11
77.01814943065533
 21
-6.697999999999832
 31
0.0
 12
76.46781609732201
 22
-9.999999999999833
 32
0.0
 13
76.46781609732201
 23
-9.999999999999833
 33
0.0
  0
MTEXT
  5
DD
330
D5
100
AcDbEntity
  8
치수문자_일반주서
 62
     0
100
AcDbMText
 10
72.09281609732197
 20
-0.000000000000035
 30
0.0
 40
3.5
 41
0.0
 71
     2
 72
     1
  1
\A1;%%c20
  7
SLDTEXTSTYLE0
 11
-3.552867970465719E-15
 21
1.0
 31
0.0
 73
     1
 44
1.0
  0
POINT
  5
DE
330
D5
100
AcDbEntity
  8
Defpoints
 62
     0
100
AcDbPoint
 10
35.68031313483669
 20
9.999131452862883
 30
0.0
  0
POINT
  5
DF
330
D5
100
AcDbEntity
  8
Defpoints
 62
     0
100
AcDbPoint
 10
34.70350017277784
 20
-9.999999999999988
 30
0.0
  0
POINT
  5
E0
330
D5
100
AcDbEntity
  8
Defpoints
 62
     0
100
AcDbPoint
 10
76.46781609732201
 20
-9.999999999999831
 30
0.0
  0
ENDBLK
  5
D7
330
D5
100
AcDbEntity
  8
0
100
AcDbBlockEnd
  0
BLOCK
  5
E3
330
E2
100
AcDbEntity
  8
0
100
AcDbBlockBegin
  2
_D_1
 70
     0
 10
0.0
 20
0.0
 30
0.0
  3
_D_1
  1

  0
LINE
  5
E5
330
E2
100
AcDbEntity
  8
치수문자_일반주서
 62
     0
370
    -2
100
AcDbLine
 10
-92.9125
 20
10.00000000000001
 30
0.0
 11
-102.8384684361648
 21
9.999999999999972
 31
0.0
  0
LINE
  5
E6
330
E2
100
AcDbEntity
  8
치수문자_일반주서
 62
     0
370
    -2
100
AcDbLine
 10
-92.9125
 20
-10.00000000000001
 30
0.0
 11
-102.8384684361648
 21
-10.00000000000005
 31
0.0
  0
LINE
  5
E7
330
E2
100
AcDbEntity
  8
치수문자_일반주서
 62
     0
370
    -2
100
AcDbLine
 10
-102.8384684361648
 20
6.697999999999972
 30
0.0
 11
-102.8384684361648
 21
-6.698000000000047
 31
0.0
  0
SOLID
  5
E8
330
E2
100
AcDbEntity
  8
치수문자_일반주서
 62
     0
100
AcDbTrace
 10
-102.2881351028315
 20
6.697999999999974
 30
0.0
 11
-103.3888017694981
 21
6.69799999999997
 31
0.0
 12
-102.8384684361648
 22
9.999999999999972
 32
0.0
 13
-102.8384684361648
 23
9.999999999999972
 33
0.0
  0
SOLID
  5
E9
330
E2
100
AcDbEntity
  8
치수문자_일반주서
 62
     0
100
AcDbTrace
 10
-103.3888017694981
 20
-6.698000000000048
 30
0.0
 11
-102.2881351028314
 21
-6.698000000000045
 31
0.0
 12
-102.8384684361648
 22
-10.00000000000005
 32
0.0
 13
-102.8384684361648
 23
-10.00000000000005
 33
0.0
  0
MTEXT
  5
EA
330
E2
100
AcDbEntity
  8
치수문자_일반주서
 62
     0
100
AcDbMText
 10
-107.2134684361648
 20
-0.0000000000000056
 30
0.0
 40
3.5
 41
0.0
 71
     2
 72
     1
  1
\A1;%%c20
  7
SLDTEXTSTYLE0
 11
-3.552713678800498E-15
 21
1.0
 31
0.0
 73
     1
 44
1.0
  0
POINT
  5
EB
330
E2
100
AcDbEntity
  8
Defpoints
 62
     0
100
AcDbPoint
 10
-92.85
 20
10.00000000000001
 30
0.0
  0
POINT
  5
EC
330
E2
100
AcDbEntity
  8
Defpoints
 62
     0
100
AcDbPoint
 10
-92.85
 20
-10.00000000000001
 30
0.0
  0
POINT
  5
ED
330
E2
100
AcDbEntity
  8
Defpoints
 62
     0
100
AcDbPoint
 10
-102.8384684361648
 20
-10.00000000000005
 30
0.0
  0
ENDBLK
  5
E4
330
E2
100
AcDbEntity
  8
0
100
AcDbBlockEnd
  0
BLOCK
  5
F1
330
F0
100
AcDbEntity
  8
0
100
AcDbBlockBegin
  2
_D_2
 70
     0
 10
0.0
 20
0.0
 30
0.0
  3
_D_2
  1

  0
LINE
  5
F3
330
F0
100
AcDbEntity
  8
치수문자_일반주서
 62
     0
370
    -2
100
AcDbLine
 10
55.15000000000003
 20
9.515136859702212
 30
0.0
 11
55.15000000000003
 21
19.58867562374522
 31
0.0
  0
LINE
  5
F4
330
F0
100
AcDbEntity
  8
치수문자_일반주서
 62
     0
370
    -2
100
AcDbLine
 10
15.15000000000003
 20
9.294855484093752
 30
0.0
 11
15.15000000000003
 21
19.58867562374522
 31
0.0
  0
LINE
  5
F5
330
F0
100
AcDbEntity
  8
치수문자_일반주서
 62
     0
370
    -2
100
AcDbLine
 10
51.84800000000003
 20
19.58867562374522
 30
0.0
 11
18.45200000000003
 21
19.58867562374522
 31
0.0
  0
SOLID
  5
F6
330
F0
100
AcDbEntity
  8
치수문자_일반주서
 62
     0
100
AcDbTrace
 10
51.84800000000003
 20
19.03834229041188
 30
0.0
 11
51.84800000000003
 21
20.13900895707855
 31
0.0
 12
55.15000000000003
 22
19.58867562374522
 32
0.0
 13
55.15000000000003
 23
19.58867562374522
 33
0.0
  0
SOLID
  5
F7
330
F0
100
AcDbEntity
  8
치수문자_일반주서
 62
     0
100
AcDbTrace
 10
18.45200000000003
 20
20.13900895707855
 30
0.0
 11
18.45200000000003
 21
19.03834229041188
 31
0.0
 12
15.15000000000003
 22
19.58867562374522
 32
0.0
 13
15.15000000000003
 23
19.58867562374522
 33
0.0
  0
MTEXT
  5
F8
330
F0
100
AcDbEntity
  8
치수문자_일반주서
 62
     0
100
AcDbMText
 10
35.15000000000001
 20
23.96367562374522
 30
0.0
 40
3.5
 41
0.0
 71
     2
 72
     1
  1
\A1;40
  7
SLDTEXTSTYLE0
 73
     1
 44
1.0
  0
POINT
  5
13E
330
F0
100
AcDbEntity
  8
Defpoints
 62
     0
100
AcDbPoint
 10
55.15000000000003
 20
9.452636859702212
 30
0.0
  0
POINT
  5
13F
330
F0
100
AcDbEntity
  8
Defpoints
 62
     0
100
AcDbPoint
 10
15.15000000000003
 20
9.232355484093752
 30
0.0
  0
POINT
  5
140
330
F0
100
AcDbEntity
  8
Defpoints
 62
     0
100
AcDbPoint
 10
15.15000000000003
 20
19.58867562374522
 30
0.0
  0
ENDBLK
  5
F2
330
F0
100
AcDbEntity
  8
0
100
AcDbBlockEnd
  0
BLOCK
  5
FB
330
FA
100
AcDbEntity
  8
0
100
AcDbBlockBegin
  2
_D_3
 70
     0
 10
0.0
 20
0.0
 30
0.0
  3
_D_3
  1

  0
LINE
  5
FD
330
FA
100
AcDbEntity
  8
치수문자_일반주서
 62
     0
370
    -2
100
AcDbLine
 10
55.15000000000003
 20
9.515136859702212
 30
0.0
 11
55.15000000000003
 21
25.58867562374519
 31
0.0
  0
LINE
  5
FE
330
FA
100
AcDbEntity
  8
치수문자_일반주서
 62
     0
370
    -2
100
AcDbLine
 10
0.150000000000011
 20
9.912499999999998
 30
0.0
 11
0.1500000000000128
 21
25.58867562374519
 31
0.0
  0
LINE
  5
FF
330
FA
100
AcDbEntity
  8
치수문자_일반주서
 62
     0
370
    -2
100
AcDbLine
 10
51.84800000000003
 20
25.58867562374519
 30
0.0
 11
3.452000000000012
 21
25.58867562374519
 31
0.0
  0
SOLID
  5
100
330
FA
100
AcDbEntity
  8
치수문자_일반주서
 62
     0
100
AcDbTrace
 10
51.84800000000003
 20
25.03834229041185
 30
0.0
 11
51.84800000000003
 21
26.13900895707852
 31
0.0
 12
55.15000000000003
 22
25.58867562374519
 32
0.0
 13
55.15000000000003
 23
25.58867562374519
 33
0.0
  0
SOLID
  5
101
330
FA
100
AcDbEntity
  8
치수문자_일반주서
 62
     0
100
AcDbTrace
 10
3.452000000000012
 20
26.13900895707852
 30
0.0
 11
3.452000000000012
 21
25.03834229041185
 31
0.0
 12
0.1500000000000128
 22
25.58867562374519
 32
0.0
 13
0.1500000000000128
 23
25.58867562374519
 33
0.0
  0
MTEXT
  5
102
330
FA
100
AcDbEntity
  8
치수문자_일반주서
 62
     0
100
AcDbMText
 10
27.65000000000003
 20
29.96367562374519
 30
0.0
 40
3.5
 41
0.0
 71
     2
 72
     1
  1
\A1;55
  7
SLDTEXTSTYLE0
 73
     1
 44
1.0
  0
POINT
  5
141
330
FA
100
AcDbEntity
  8
Defpoints
 62
     0
100
AcDbPoint
 10
55.15000000000003
 20
9.452636859702212
 30
0.0
  0
POINT
  5
142
330
FA
100
AcDbEntity
  8
Defpoints
 62
     0
100
AcDbPoint
 10
0.150000000000011
 20
9.849999999999998
 30
0.0
  0
POINT
  5
143
330
FA
100
AcDbEntity
  8
Defpoints
 62
     0
100
AcDbPoint
 10
0.150000000000011
 20
25.58867562374519
 30
0.0
  0
ENDBLK
  5
FC
330
FA
100
AcDbEntity
  8
0
100
AcDbBlockEnd
  0
BLOCK
  5
105
330
104
100
AcDbEntity
  8
0
100
AcDbBlockBegin
  2
_D_4
 70
     0
 10
0.0
 20
0.0
 30
0.0
  3
_D_4
  1

  0
LINE
  5
107
330
104
100
AcDbEntity
  8
치수문자_일반주서
 62
     0
370
    -2
100
AcDbLine
 10
55.15000000000003
 20
9.515136859702212
 30
0.0
 11
55.15000000000003
 21
33.9961729249071
 31
0.0
  0
LINE
  5
108
330
104
100
AcDbEntity
  8
치수문자_일반주서
 62
     0
370
    -2
100
AcDbLine
 10
-94.85
 20
8.062500000000021
 30
0.0
 11
-94.85
 21
33.9961729249071
 31
0.0
  0
LINE
  5
109
330
104
100
AcDbEntity
  8
치수문자_일반주서
 62
     0
370
    -2
100
AcDbLine
 10
51.84800000000003
 20
33.9961729249071
 30
0.0
 11
-91.548
 21
33.9961729249071
 31
0.0
  0
SOLID
  5
10A
330
104
100
AcDbEntity
  8
치수문자_일반주서
 62
     0
100
AcDbTrace
 10
51.84800000000003
 20
33.44583959157377
 30
0.0
 11
51.84800000000003
 21
34.54650625824043
 31
0.0
 12
55.15000000000003
 22
33.9961729249071
 32
0.0
 13
55.15000000000003
 23
33.9961729249071
 33
0.0
  0
SOLID
  5
10B
330
104
100
AcDbEntity
  8
치수문자_일반주서
 62
     0
100
AcDbTrace
 10
-91.548
 20
34.54650625824043
 30
0.0
 11
-91.548
 21
33.44583959157377
 31
0.0
 12
-94.85
 22
33.9961729249071
 32
0.0
 13
-94.85
 23
33.9961729249071
 33
0.0
  0
MTEXT
  5
10C
330
104
100
AcDbEntity
  8
치수문자_일반주서
 62
     0
100
AcDbMText
 10
-19.84999999999998
 20
38.3711729249071
 30
0.0
 40
3.5
 41
0.0
 71
     2
 72
     1
  1
\A1;150
  7
SLDTEXTSTYLE0
 73
     1
 44
1.0
  0
POINT
  5
144
330
104
100
AcDbEntity
  8
Defpoints
 62
     0
100
AcDbPoint
 10
55.15000000000003
 20
9.452636859702212
 30
0.0
  0
POINT
  5
145
330
104
100
AcDbEntity
  8
Defpoints
 62
     0
100
AcDbPoint
 10
-94.85
 20
8.000000000000021
 30
0.0
  0
POINT
  5
146
330
104
100
AcDbEntity
  8
Defpoints
 62
     0
100
AcDbPoint
 10
-94.85
 20
33.9961729249071
 30
0.0
  0
ENDBLK
  5
106
330
104
100
AcDbEntity
  8
0
100
AcDbBlockEnd
  0
BLOCK
  5
115
330
114
100
AcDbEntity
  8
0
100
AcDbBlockBegin
  2
SW_DOWELSYMBOL_0
 70
     0
 10
0.0
 20
0.0
 30
0.0
  3
SW_DOWELSYMBOL_0
  1

  0
CIRCLE
  5
117
330
114
100
AcDbEntity
  8
해칭선
 62
     0
100
AcDbCircle
 10
0.0
 20
0.0
 30
0.0
 40
3.000000000000008
  0
HATCH
  5
118
330
114
100
AcDbEntity
  8
0
  6
Continuous
 62
     0
370
     0
100
AcDbHatch
 10
0.0
 20
0.0
 30
0.0
210
0.0
220
0.0
230
1.0
  2
SOLID
 70
     1
 71
     0
 91
        1
 92
        0
 93
        3
 72
     2
 10
0.0
 20
0.0
 40
3.000000000000008
 50
0.0
 51
90.0
 73
     1
 72
     1
 10
0.0
 20
3.000000000000008
 11
0.0
 21
0.0
 72
     1
 10
0.0
 20
0.0
 11
3.000000000000008
 21
0.0
 97
        0
 75
     0
 76
     1
 98
        1
 10
0.0
 20
0.0
  0
HATCH
  5
119
330
114
100
AcDbEntity
  8
0
  6
Continuous
 62
     0
370
     0
100
AcDbHatch
 10
0.0
 20
0.0
 30
0.0
210
0.0
220
0.0
230
1.0
  2
SOLID
 70
     1
 71
     0
 91
        1
 92
        0
 93
        3
 72
     2
 10
0.0
 20
0.0
 40
3.000000000000008
 50
180.0
 51
270.0000000000008
 73
     1
 72
     1
 10
0.0
 20
-3.000000000000008
 11
0.0
 21
0.0
 72
     1
 10
0.0
 20
0.0
 11
-3.000000000000008
 21
0.0
 97
        0
 75
     0
 76
     1
 98
        1
 10
0.0
 20
0.0
  0
ENDBLK
  5
116
330
114
100
AcDbEntity
  8
0
100
AcDbBlockEnd
  0
BLOCK
  5
151
330
150
100
AcDbEntity
  8
0
100
AcDbBlockBegin
  2
*D8
 70
     1
 10
0.0
 20
0.0
 30
0.0
  3
*D8
  1

  0
LINE
  5
153
330
150
100
AcDbEntity
  8
0
 62
     0
370
    -2
100
AcDbLine
 10
75.74190213897516
 20
-17.81374087853295
 30
0.0
 11
60.80123547230851
 21
-17.81374087853295
 31
0.0
  0
LINE
  5
154
330
150
100
AcDbEntity
  8
0
 62
     0
370
    -2
100
AcDbLine
 10
60.80123547230851
 20
-17.81374087853295
 30
0.0
 11
56.90306838692749
 21
-12.51513369134597
 31
0.0
  0
MTEXT
  5
155
330
150
100
AcDbEntity
  8
0
 62
     0
100
AcDbMText
 10
69.03356880564183
 20
-14.24807421186628
 30
0.0
 40
3.5
 41
0.0
 71
     5
 72
     1
  1
R0,50
 73
     1
 44
1.0
  0
LINE
  5
156
330
150
100
AcDbEntity
  8
0
 62
     0
370
    -2
100
AcDbLine
 10
54.65000000000006
 20
-9.45263685970218
 30
0.0
 11
54.94630041911203
 21
-9.855384996425457
 31
0.0
  0
SOLID
  5
157
330
150
100
AcDbEntity
  8
0
 62
     0
100
AcDbTrace
 10
57.34635983608091
 20
-12.18900569671006
 30
0.0
 11
56.45977693777407
 21
-12.84126168598188
 31
0.0
 12
54.94630041911203
 22
-9.855384996425457
 32
0.0
 13
54.94630041911203
 23
-9.855384996425457
 33
0.0
  0
POINT
  5
158
330
150
100
AcDbEntity
  8
Defpoints
 62
     0
100
AcDbPoint
 10
54.94630041911203
 20
-9.855384996425457
 30
0.0
  0
POINT
  5
159
330
150
100
AcDbEntity
  8
Defpoints
 62
     0
100
AcDbPoint
 10
54.65000000000006
 20
-9.45263685970218
 30
0.0
  0
ENDBLK
  5
152
330
150
100
AcDbEntity
  8
0
100
AcDbBlockEnd
  0
ENDSEC
  0
SECTION
  2
ENTITIES
  0
LINE
  5
96
330
1F
100
AcDbEntity
  8
외형선
  6
Continuous
 62
     1
370
    15
100
AcDbLine
 10
35.52708478384903
 20
9.999999999999995
 30
0.0
 11
29.42871243059037
 21
9.999999999999993
 31
0.0
  0
LINE
  5
97
330
1F
100
AcDbEntity
  8
외형선
  6
Continuous
 62
     1
370
    15
100
AcDbLine
 10
29.42871243059028
 20
-9.99999999999999
 30
0.0
 11
35.52708478384906
 21
-9.999999999999988
 31
0.0
  0
LINE
  5
98
330
1F
100
AcDbEntity
  8
외형선
  6
Continuous
370
    15
100
AcDbLine
 10
-92.85000000000001
 20
-9.999999999999998
 30
0.0
 11
0.0
 21
-9.999999999999998
 31
0.0
  0
LINE
  5
99
330
1F
100
AcDbEntity
  8
외형선
  6
Continuous
370
    15
100
AcDbLine
 10
0.0
 20
9.999999999999998
 30
0.0
 11
-92.85000000000001
 21
9.999999999999998
 31
0.0
  0
LINE
  5
9A
330
1F
100
AcDbEntity
  8
외형선
  6
Continuous
370
    15
100
AcDbLine
 10
0.0
 20
-10.0
 30
0.0
 11
0.150000000000011
 21
-9.849999999999998
 31
0.0
  0
LINE
  5
9B
330
1F
100
AcDbEntity
  8
외형선
  6
Continuous
370
    15
100
AcDbLine
 10
0.150000000000011
 20
9.849999999999998
 30
0.0
 11
0.0
 21
10.0
 31
0.0
  0
LINE
  5
9C
330
1F
100
AcDbEntity
  8
외형선
  6
Continuous
370
    15
100
AcDbLine
 10
-92.85000000000001
 20
9.999999999999998
 30
0.0
 11
-94.85
 21
8.000000000000021
 31
0.0
  0
LINE
  5
9D
330
1F
100
AcDbEntity
  8
외형선
  6
Continuous
370
    15
100
AcDbLine
 10
-94.85
 20
-8.000000000000021
 30
0.0
 11
-92.85000000000001
 21
-9.999999999999998
 31
0.0
  0
LINE
  5
9E
330
1F
100
AcDbEntity
  8
외형선
  6
Continuous
370
    15
100
AcDbLine
 10
0.150000000000011
 20
-9.849999999999998
 30
0.0
 11
14.14961311141724
 21
-9.849999999999998
 31
0.0
  0
LINE
  5
9F
330
1F
100
AcDbEntity
  8
외형선
  6
Continuous
370
    15
100
AcDbLine
 10
14.14961311141724
 20
9.849999999999998
 30
0.0
 11
0.150000000000011
 21
9.849999999999998
 31
0.0
  0
SPLINE
  5
A0
330
1F
100
AcDbEntity
  8
외형선
  6
Continuous
 62
     1
370
    15
100
AcDbSpline
210
0.0
220
0.0
230
1.0
 70
     8
 71
     3
 72
    14
 73
    10
 74
     0
 42
0.000000001
 43
0.00000001
 40
0.0
 40
0.0
 40
0.0
 40
0.0
 40
0.25
 40
0.25
 40
0.5
 40
0.5
 40
0.75
 40
0.75
 40
1.0
 40
1.0
 40
1.0
 40
1.0
 10
54.65000000000003
 20
1.144504290020708
 30
0.0
 10
54.70972202156349
 20
1.110230014277132
 30
0.0
 10
54.76983158721738
 20
1.077807196841661
 30
0.0
 10
54.88792188416078
 20
1.019297373558569
 30
0.0
 10
54.94383798503458
 20
0.9942978769859466
 30
0.0
 10
55.04152771508755
 20
0.9565530494917216
 30
0.0
 10
55.08188547425316
 20
0.9444441630981046
 30
0.0
 10
55.13604851491807
 20
0.935380202853619
 30
0.0
 10
55.15000000000006
 20
0.9383064771622905
 30
0.0
 10
55.15000000000006
 20
0.9474473065026489
 30
0.0
  0
LINE
  5
A1
330
1F
100
AcDbEntity
  8
외형선
  6
Continuous
 62
     1
370
    15
100
AcDbLine
 10
55.15000000000003
 20
-8.659947306502541
 30
0.0
 11
55.15000000000003
 21
0.9474473065026502
 31
0.0
  0
SPLINE
  5
A2
330
1F
100
AcDbEntity
  8
외형선
  6
Continuous
 62
     1
370
    15
100
AcDbSpline
210
0.0
220
0.0
230
1.0
 70
     8
 71
     3
 72
    10
 73
     6
 74
     0
 42
0.000000001
 43
0.00000001
 40
0.0
 40
0.0
 40
0.0
 40
0.0
 40
0.5
 40
0.5
 40
1.0
 40
1.0
 40
1.0
 40
1.0
 10
55.15000000000003
 20
-8.659947306502549
 30
0.0
 10
55.15000000000006
 20
-8.779586680828098
 30
0.0
 10
55.08582277560376
 20
-8.867092692595405
 30
0.0
 10
54.90164020828129
 20
-8.957737467984602
 30
0.0
 10
54.78030408636928
 20
-8.964327415561536
 30
0.0
 10
54.64999999999998
 20
-8.930455879337204
 30
0.0
  0
SPLINE
  5
A3
330
1F
100
AcDbEntity
  8
외형선
  6
Continuous
 62
     1
370
    15
100
AcDbSpline
210
0.0
220
0.0
230
1.0
 70
     8
 71
     3
 72
    54
 73
    50
 74
     0
 42
0.000000001
 43
0.00000001
 40
0.0
 40
0.0
 40
0.0
 40
0.0
 40
0.0624999999999985
 40
0.0624999999999985
 40
0.0937499999999985
 40
0.0937499999999985
 40
0.1249999999999986
 40
0.1249999999999986
 40
0.1562499999999986
 40
0.1562499999999986
 40
0.1874999999999986
 40
0.1874999999999986
 40
0.2187499999999986
 40
0.2187499999999986
 40
0.2499999999999986
 40
0.2499999999999986
 40
0.3125000000000002
 40
0.3125000000000002
 40
0.3750000000000018
 40
0.3750000000000018
 40
0.4062500000000018
 40
0.4062500000000018
 40
0.4375000000000018
 40
0.4375000000000018
 40
0.5000000000000019
 40
0.5000000000000019
 40
0.5312500000000027
 40
0.5312500000000027
 40
0.5625000000000034
 40
0.5625000000000034
 40
0.6250000000000036
 40
0.6250000000000036
 40
0.6562500000000036
 40
0.6562500000000036
 40
0.6875000000000036
 40
0.6875000000000036
 40
0.7500000000000028
 40
0.7500000000000028
 40
0.7812500000000026
 40
0.7812500000000026
 40
0.8125000000000022
 40
0.8125000000000022
 40
0.8750000000000014
 40
0.8750000000000014
 40
0.9375000000000008
 40
0.9375000000000008
 40
0.9687500000000004
 40
0.9687500000000004
 40
1.0
 40
1.0
 40
1.0
 40
1.0
 10
54.64999999999998
 20
-8.930455879337195
 30
0.0
 10
53.82783997516471
 20
-8.71674176000811
 30
0.0
 10
53.00009174393139
 20
-8.472176083004964
 30
0.0
 10
51.76890957659641
 20
-8.06468416258196
 30
0.0
 10
51.35880477612323
 20
-7.921960796591233
 30
0.0
 10
50.53489000079983
 20
-7.622906098427706
 30
0.0
 10
50.12217242286973
 20
-7.466694254907237
 30
0.0
 10
49.29836041921113
 20
-7.142092986174728
 30
0.0
 10
48.88846151375548
 20
-6.973875093488633
 30
0.0
 10
48.06744960962153
 20
-6.625786233009601
 30
0.0
 10
47.65525615356781
 20
-6.445749341456591
 30
0.0
 10
46.83062450829823
 20
-6.075011610790814
 30
0.0
 10
46.41818897819555
 20
-5.88431195673252
 30
0.0
 10
45.5962148987101
 20
-5.49373520764787
 30
0.0
 10
45.18697932228635
 20
-5.293920684784664
 30
0.0
 10
43.95211974323707
 20
-4.680388370205327
 30
0.0
 10
43.12520883710028
 20
-4.253451491710335
 30
0.0
 10
41.48591154400189
 20
-3.376271171839226
 30
0.0
 10
40.65834557679529
 20
-2.923328529175922
 30
0.0
 10
39.42392947869161
 20
-2.232620211535743
 30
0.0
 10
39.01482632353937
 20
-2.000745224424877
 30
0.0
 10
38.19247875566275
 20
-1.533227190845773
 30
0.0
 10
37.77996094393893
 20
-1.297716817159863
 30
0.0
 10
36.54308314112162
 20
-0.5886112854180842
 30
0.0
 10
35.72442721787511
 20
-0.1134150132714907
 30
0.0
 10
34.48840443935275
 20
0.5990878914707588
 30
0.0
 10
34.0756904786165
 20
0.8364175541848847
 30
0.0
 10
33.25199326252298
 20
1.308927089158073
 30
0.0
 10
32.84228560955929
 20
1.543864633894225
 30
0.0
 10
31.61042695056693
 20
2.244692200579675
 30
0.0
 10
30.78264629274502
 20
2.707101702302134
 30
0.0
 10
29.54998789719338
 20
3.382978592918292
 30
0.0
 10
29.14064780611217
 20
3.605323009060188
 30
0.0
 10
28.31726770248272
 20
4.044380933134027
 30
0.0
 10
27.90457875753732
 20
4.260844311358357
 30
0.0
 10
26.66822945519637
 20
4.898553862596645
 30
0.0
 10
25.8497439883138
 20
5.307565505127599
 30
0.0
 10
24.61301578890787
 20
5.893571466105943
 30
0.0
 10
24.20041376582818
 20
6.084127648984143
 30
0.0
 10
23.37763174774349
 20
6.454251683247898
 30
0.0
 10
22.96855953486077
 20
6.633670812025267
 30
0.0
 10
21.73476783125378
 20
7.155607767402474
 30
0.0
 10
20.9070823119383
 20
7.481126484172987
 30
0.0
 10
19.26648622650384
 20
8.077549537136973
 30
0.0
 10
18.44099848482356
 20
8.350008409798146
 30
0.0
 10
17.20563586502274
 20
8.714598941783741
 30
0.0
 10
16.79609458407805
 20
8.828640864414218
 30
0.0
 10
15.97463555182233
 20
9.041842665912391
 30
0.0
 10
15.56232498995763
 20
9.141016271383062
 30
0.0
 10
15.15
 20
9.232355484093747
 30
0.0
  0
SPLINE
  5
A4
330
1F
100
AcDbEntity
  8
외형선
  6
Continuous
 62
     1
370
    15
100
AcDbSpline
210
0.0
220
0.0
230
1.0
 70
     8
 71
     3
 72
    18
 73
    14
 74
     0
 42
0.000000001
 43
0.00000001
 40
0.0
 40
0.0
 40
0.0
 40
0.0
 40
0.072161309605903
 40
0.160525154426043
 40
0.2488890212730697
 40
0.3372529181578978
 40
0.4256168530906355
 40
0.5139808340803701
 40
0.6111895099617467
 40
0.7083981956661806
 40
0.8056044582462472
 40
0.9028058677132261
 40
1.0
 40
1.0
 40
1.0
 40
1.0
 10
18.88920348404402
 20
8.184072004746772
 30
0.0
 10
19.7493458441263
 20
8.458830905985895
 30
0.0
 10
21.6627601922674
 20
9.070040919942349
 30
0.0
 10
24.62944623989816
 20
9.667067301711452
 30
0.0
 10
27.78926544967758
 20
10.01195615420142
 30
0.0
 10
30.9490755272473
 20
10.0165469763369
 30
0.0
 10
34.10892613024785
 20
9.69081861470269
 30
0.0
 10
37.37405538486144
 20
9.021286503382274
 30
0.0
 10
40.74521498308906
 20
7.993989865791359
 30
0.0
 10
44.22161657381205
 20
6.613839641207319
 30
0.0
 10
47.6979587193192
 20
4.967353011854678
 30
0.0
 10
51.17408542805116
 20
3.12481464562999
 30
0.0
 10
53.49139072539119
 20
1.804591267741343
 30
0.0
 10
54.65000000000001
 20
1.144504290020706
 30
0.0
  0
SPLINE
  5
A6
330
1F
100
AcDbEntity
  8
외형선
  6
Continuous
 62
     1
370
    15
100
AcDbSpline
210
0.0
220
0.0
230
1.0
 70
     8
 71
     3
 72
    17
 73
    13
 74
     0
 42
0.000000001
 43
0.00000001
 40
0.0
 40
0.0
 40
0.0
 40
0.0
 40
0.0300880993720447
 40
0.132187266554673
 40
0.2342867182127715
 40
0.3363864634819571
 40
0.438486511490013
 40
0.5507721717848262
 40
0.6630691456421655
 40
0.7753746430563071
 40
0.887685863634236
 40
1.0
 40
1.0
 40
1.0
 40
1.0
 10
46.10136764210765
 20
-8.1656916431012
 30
0.0
 10
45.7909585478653
 20
-8.276419867423215
 30
0.0
 10
44.42722569208605
 20
-8.762886663567176
 30
0.0
 10
42.01016366256991
 20
-9.3469187807045
 30
0.0
 10
38.85018298005797
 20
-9.874421826661541
 30
0.0
 10
35.69017670073693
 20
-10.05427000100228
 30
0.0
 10
32.42513621770099
 20
-9.90088937756499
 30
0.0
 10
29.05466661913508
 20
-9.37239173090589
 30
0.0
 10
25.57887765061381
 20
-8.452472989548756
 30
0.0
 10
22.10276072855574
 20
-7.190175703033818
 30
0.0
 10
18.62643442373624
 20
-5.650341243021544
 30
0.0
 10
16.3088215026356
 20
-4.445015379484868
 30
0.0
 10
15.15
 20
-3.842344624747348
 30
0.0
  0
SPLINE
  5
A7
330
1F
100
AcDbEntity
  8
외형선
  6
Continuous
370
    15
100
AcDbSpline
210
0.0
220
0.0
230
1.0
 70
    24
 71
     3
 72
    30
 73
    26
 74
     0
 42
0.000000001
 43
0.00000001
 40
0.0
 40
0.0
 40
0.0
 40
0.0
 40
0.1250000000000001
 40
0.1250000000000001
 40
0.2500000000000001
 40
0.2500000000000001
 40
0.3125
 40
0.3125
 40
0.3437500000000001
 40
0.3437500000000001
 40
0.3750000000000001
 40
0.3750000000000001
 40
0.5000000000000001
 40
0.5000000000000001
 40
0.6250000000000001
 40
0.6250000000000001
 40
0.7500000000000001
 40
0.7500000000000001
 40
0.8125000000000001
 40
0.8125000000000001
 40
0.8750000000000001
 40
0.8750000000000001
 40
0.9375
 40
0.9375
 40
1.0
 40
1.0
 40
1.0
 40
1.0
 10
15.14999999999997
 20
-3.842344624747343
 30
0.0
 10
15.15
 20
-3.779655649082497
 30
0.0
 10
15.14999999999997
 20
-3.600150323755146
 30
0.0
 10
15.15
 20
-3.129414800207613
 30
0.0
 10
15.15
 20
-2.839189791959052
 30
0.0
 10
15.15
 20
-2.385853669164177
 30
0.0
 10
15.15
 20
-2.231365201731109
 30
0.0
 10
15.15000000000003
 20
-1.999490052048342
 30
0.0
 10
15.15
 20
-1.923467538249434
 30
0.0
 10
15.15
 20
-1.764993050328009
 30
0.0
 10
15.14999999999997
 20
-1.68183060045427
 30
0.0
 10
15.14999999999997
 20
-1.24498217526915
 30
0.0
 10
15.15
 20
-0.8273313681647059
 30
0.0
 10
15.15
 20
0.1708597039193218
 30
0.0
 10
15.14999999999997
 20
0.7530937136859354
 30
0.0
 10
15.15
 20
2.061994430104737
 30
0.0
 10
15.14999999999997
 20
2.789836234722855
 30
0.0
 10
15.14999999999997
 20
3.902727980837242
 30
0.0
 10
15.15
 20
4.27627789426647
 30
0.0
 10
15.14999999999997
 20
5.004924516281569
 30
0.0
 10
15.14999999999997
 20
5.359860105910282
 30
0.0
 10
15.14999999999994
 20
6.025695066673604
 30
0.0
 10
15.14999999999997
 20
6.336411401214281
 30
0.0
 10
15.14999999999994
 20
6.891850573019417
 30
0.0
 10
15.15
 20
7.136447487066598
 30
0.0
 10
15.14999999999997
 20
7.341351697997732
 30
0.0
  0
SPLINE
  5
A8
330
1F
100
AcDbEntity
  8
외형선
  6
Continuous
 62
     1
370
    15
100
AcDbSpline
210
0.0
220
0.0
230
1.0
 70
     8
 71
     3
 72
    54
 73
    50
 74
     0
 42
0.000000001
 43
0.00000001
 40
0.0
 40
0.0
 40
0.0
 40
0.0
 40
0.0625000000000028
 40
0.0625000000000028
 40
0.0937500000000034
 40
0.0937500000000034
 40
0.125000000000004
 40
0.125000000000004
 40
0.1562500000000046
 40
0.1562500000000046
 40
0.1875000000000052
 40
0.1875000000000052
 40
0.2187500000000059
 40
0.2187500000000059
 40
0.2500000000000065
 40
0.2500000000000065
 40
0.3125000000000077
 40
0.3125000000000077
 40
0.375000000000009
 40
0.375000000000009
 40
0.4062500000000088
 40
0.4062500000000088
 40
0.4375000000000087
 40
0.4375000000000087
 40
0.5000000000000083
 40
0.5000000000000083
 40
0.5312500000000082
 40
0.5312500000000082
 40
0.562500000000008
 40
0.562500000000008
 40
0.6250000000000077
 40
0.6250000000000077
 40
0.6562500000000071
 40
0.6562500000000071
 40
0.6875000000000066
 40
0.6875000000000066
 40
0.7500000000000053
 40
0.7500000000000053
 40
0.7812500000000048
 40
0.7812500000000048
 40
0.8125000000000041
 40
0.8125000000000041
 40
0.875000000000003
 40
0.875000000000003
 40
0.937500000000002
 40
0.937500000000002
 40
0.968750000000001
 40
0.968750000000001
 40
1.0
 40
1.0
 40
1.0
 40
1.0
 10
54.65000000000006
 20
-9.95263685970218
 30
0.0
 10
53.82783997516483
 20
-9.879930692208763
 30
0.0
 10
53.00009174393142
 20
-9.791664027564153
 30
0.0
 10
51.76890957659647
 20
-9.6104924184695
 30
0.0
 10
51.35880477612323
 20
-9.541950064591843
 30
0.0
 10
50.53489000079997
 20
-9.388610104641335
 30
0.0
 10
50.12217242286984
 20
-9.303864455208396
 30
0.0
 10
49.29836041921121
 20
-9.11886926967965
 30
0.0
 10
48.88846151375554
 20
-9.018727159962754
 30
0.0
 10
48.06744960962168
 20
-8.803289920436587
 30
0.0
 10
47.65525615356783
 20
-8.687883115314888
 30
0.0
 10
46.83062450829836
 20
-8.442506041269148
 30
0.0
 10
46.41818897819564
 20
-8.31253654927059
 30
0.0
 10
45.59621489871022
 20
-8.039070627590167
 30
0.0
 10
45.18697932228641
 20
-7.895628939353413
 30
0.0
 10
43.9521197432371
 20
-7.444795384525233
 30
0.0
 10
43.12520883710022
 20
-7.117446669676807
 30
0.0
 10
41.48591154400197
 20
-6.418879187325225
 30
0.0
 10
40.65834557679543
 20
-6.045505367618118
 30
0.0
 10
39.42392947869161
 20
-5.457672520250005
 30
0.0
 10
39.01482632353934
 20
-5.257327998093769
 30
0.0
 10
38.19247875566271
 20
-4.847419173586681
 30
0.0
 10
37.77996094393896
 20
-4.637961573575336
 30
0.0
 10
36.54308314112165
 20
-3.998438432529328
 30
0.0
 10
35.72442721787517
 20
-3.558131157928583
 30
0.0
 10
34.48840443935281
 20
-2.880432702207762
 30
0.0
 10
34.07569047861656
 20
-2.651769354048297
 30
0.0
 10
33.25199326252304
 20
-2.190658377490156
 30
0.0
 10
32.84228560955929
 20
-1.958454566755596
 30
0.0
 10
31.61042695056685
 20
-1.256957574209114
 30
0.0
 10
30.78264629274494
 20
-0.7821990821007939
 30
0.0
 10
29.54998789719332
 20
-0.0702140517456868
 30
0.0
 10
29.14064780611217
 20
0.1670768609821813
 30
0.0
 10
28.31726770248272
 20
0.641878642306761
 30
0.0
 10
27.90457875753732
 20
0.8791283481793509
 30
0.0
 10
26.66822945519648
 20
1.587711519455414
 30
0.0
 10
25.84974398831388
 20
2.055227647940098
 30
0.0
 10
24.61301578890787
 20
2.745404864799725
 30
0.0
 10
24.20041376582821
 20
2.973395850057031
 30
0.0
 10
23.37763174774349
 20
3.423515596259906
 30
0.0
 10
22.96855953486071
 20
3.645451187635962
 30
0.0
 10
21.73476783125372
 20
4.302633908891122
 30
0.0
 10
20.90708231193825
 20
4.728515318686003
 30
0.0
 10
19.26648622650384
 20
5.542967472426489
 30
0.0
 10
18.44099848482353
 20
5.933633776308848
 30
0.0
 10
17.20563586502266
 20
6.487073537760923
 30
0.0
 10
16.79609458407805
 20
6.665887694586972
 30
0.0
 10
15.97463555182233
 20
7.012301394930541
 30
0.0
 10
15.56232498995752
 20
7.179940794796973
 30
0.0
 10
15.14999999999997
 20
7.341351697997746
 30
0.0
  0
LINE
  5
A9
330
1F
100
AcDbEntity
  8
외형선
  6
Continuous
370
    15
100
AcDbLine
 10
15.15000000000003
 20
9.232355484093752
 30
0.0
 11
15.15
 21
7.341351697997733
 31
0.0
  0
SPLINE
  5
AA
330
1F
100
AcDbEntity
  8
외형선
  6
Continuous
 62
     1
370
    15
100
AcDbSpline
210
0.0
220
0.0
230
1.0
 70
     8
 71
     3
 72
    10
 73
     6
 74
     0
 42
0.000000001
 43
0.00000001
 40
0.0
 40
0.0
 40
0.0
 40
0.0
 40
0.5
 40
0.5
 40
1.0
 40
1.0
 40
1.0
 40
1.0
 10
55.15000000000003
 20
3.905804993672723
 30
0.0
 10
55.15000000000003
 20
3.997902690324088
 30
0.0
 10
55.0858227756037
 20
4.116993272235433
 30
0.0
 10
54.90164020828123
 20
4.332809231202311
 30
0.0
 10
54.78030408636931
 20
4.432437300505643
 30
0.0
 10
54.64999999999998
 20
4.499661963660256
 30
0.0
  0
LINE
  5
AB
330
1F
100
AcDbEntity
  8
외형선
  6
Continuous
 62
     1
370
    15
100
AcDbLine
 10
55.15000000000003
 20
3.905804993672732
 30
0.0
 11
55.15000000000003
 21
0.9474473065026503
 31
0.0
  0
SPLINE
  5
AC
330
1F
100
AcDbEntity
  8
외형선
  6
Continuous
 62
     1
370
    15
100
AcDbSpline
210
0.0
220
0.0
230
1.0
 70
     8
 71
     3
 72
    14
 73
    10
 74
     0
 42
0.000000001
 43
0.00000001
 40
0.0
 40
0.0
 40
0.0
 40
0.0
 40
0.1652440414798797
 40
0.3304884989477563
 40
0.4957333872250973
 40
0.660978721121872
 40
0.8262245154361542
 40
0.9914707849537455
 40
1.0
 40
1.0
 40
1.0
 40
1.0
 10
54.64999999999998
 20
4.499661963660232
 30
0.0
 10
53.59668558429562
 20
5.02825467204055
 30
0.0
 10
51.49005410125629
 20
6.085441419488936
 30
0.0
 10
48.33010080822162
 20
7.429886010325629
 30
0.0
 10
45.17013772556625
 20
8.535773812358114
 30
0.0
 10
42.0101644467433
 20
9.365495620687557
 30
0.0
 10
38.85018039810309
 20
9.847718226587167
 30
0.0
 10
36.68915283919372
 20
10.04931623757246
 30
0.0
 10
35.58145270943525
 20
9.994560351392852
 30
0.0
 10
35.52708478384903
 20
9.991872833476002
 30
0.0
  0
SPLINE
  5
AD
330
1F
100
AcDbEntity
  8
외형선
  6
Continuous
 62
     1
370
    15
100
AcDbSpline
210
0.0
220
0.0
230
1.0
 70
     8
 71
     3
 72
    12
 73
     8
 74
     0
 42
0.000000001
 43
0.00000001
 40
0.0
 40
0.0
 40
0.0
 40
0.0
 40
0.2212955334530952
 40
0.442591081941175
 40
0.6638866655289317
 40
0.8851823042801222
 40
1.0
 40
1.0
 40
1.0
 40
1.0
 10
15.14999999999997
 20
-6.790033523209259
 30
0.0
 10
16.20327170380681
 20
-7.214431897017158
 30
0.0
 10
18.30981518298056
 20
-8.063228673466899
 30
0.0
 10
21.46963064058252
 20
-9.01259169262073
 30
0.0
 10
24.62944671298173
 20
-9.66229791760014
 30
0.0
 10
27.28247400230727
 20
-9.987496439620688
 30
0.0
 10
28.88222941145415
 20
-9.96587173357334
 30
0.0
 10
29.42871243059028
 20
-9.958484645159
 30
0.0
  0
LINE
  5
AE
330
1F
100
AcDbEntity
  8
외형선
  6
Continuous
370
    15
100
AcDbLine
 10
15.15000000000003
 20
-3.842344624747345
 30
0.0
 11
15.15
 21
-6.790033523209255
 31
0.0
  0
SPLINE
  5
B0
330
1F
100
AcDbEntity
  8
외형선
  6
Continuous
 62
     1
370
    15
100
AcDbSpline
210
0.0
220
0.0
230
1.0
 70
     8
 71
     3
 72
    10
 73
     6
 74
     0
 42
0.000000001
 43
0.00000001
 40
0.0
 40
0.0
 40
0.0
 40
0.0
 40
0.1867689707491802
 40
0.5933997069910274
 40
1.0
 40
1.0
 40
1.0
 40
1.0
 10
46.1013676421076
 20
8.165691643101201
 30
0.0
 10
46.63358219335673
 20
8.349701490418393
 30
0.0
 10
48.32452666609644
 20
8.93433494983882
 30
0.0
 10
51.17408514409058
 20
9.578391451372488
 30
0.0
 10
53.49139063074002
 20
9.815659846962824
 30
0.0
 10
54.65000000000006
 20
9.95263685970221
 30
0.0
  0
LINE
  5
B1
330
1F
100
AcDbEntity
  8
외형선
  6
Continuous
 62
     1
370
    15
100
AcDbLine
 10
55.15000000000003
 20
3.900651703548618
 30
0.0
 11
55.15000000000003
 21
9.452636859702212
 31
0.0
  0
SPLINE
  5
B2
330
1F
100
AcDbEntity
  8
외형선
  6
Continuous
 62
     1
370
    15
100
AcDbSpline
210
0.0
220
0.0
230
1.0
 70
     8
 71
     3
 72
     9
 73
     5
 74
     0
 42
0.000000001
 43
0.00000001
 40
0.0
 40
0.0
 40
0.0
 40
0.0
 40
0.0702672131471584
 40
1.0
 40
1.0
 40
1.0
 40
1.0
 10
18.88920348404391
 20
-8.184072004746776
 30
0.0
 10
18.80162278653061
 20
-8.21670609649859
 30
0.0
 10
17.55522786647221
 20
-8.681134530332592
 30
0.0
 10
16.30882324358404
 20
-8.966780790538444
 30
0.0
 10
15.15
 20
-9.232355484093722
 30
0.0
  0
SPLINE
  5
B3
330
1F
100
AcDbEntity
  8
외형선
  6
Continuous
370
    15
100
AcDbSpline
210
0.0
220
0.0
230
1.0
 70
    24
 71
     3
 72
    11
 73
     7
 74
     0
 42
0.000000001
 43
0.00000001
 40
0.0
 40
0.0
 40
0.0
 40
0.0
 40
0.2654168487598757
 40
0.5340575945459176
 40
0.9382637555132051
 40
1.0
 40
1.0
 40
1.0
 40
1.0
 10
15.15000000000003
 20
-9.232355484093727
 30
0.0
 10
15.15
 20
-9.015405123275594
 30
0.0
 10
15.14999999999991
 20
-8.578869204867399
 30
0.0
 10
15.15000000000003
 20
-7.835652859465084
 30
0.0
 10
15.14999999999994
 20
-7.259202697474822
 30
0.0
 10
15.14999999999991
 20
-6.936929962902251
 30
0.0
 10
15.14999999999994
 20
-6.894229603157979
 30
0.0
  0
LINE
  5
B4
330
1F
100
AcDbEntity
  8
외형선
  6
Continuous
 62
     1
370
    15
100
AcDbLine
 10
55.15000000000003
 20
-8.659947306502541
 30
0.0
 11
55.15000000000003
 21
-9.452636859702213
 31
0.0
  0
LINE
  5
B5
330
1F
100
AcDbEntity
  8
외형선
  6
Continuous
370
    15
100
AcDbLine
 10
0.0
 20
0.0
 30
0.0
 11
0.0
 21
9.999999999999998
 31
0.0
  0
LINE
  5
B6
330
1F
100
AcDbEntity
  8
외형선
  6
Continuous
370
    15
100
AcDbLine
 10
0.0
 20
-9.999999999999998
 30
0.0
 11
0.0
 21
0.0
 31
0.0
  0
LINE
  5
B7
330
1F
100
AcDbEntity
  8
외형선
  6
Continuous
370
    15
100
AcDbLine
 10
-92.85000000000001
 20
0.0
 30
0.0
 11
-92.85000000000001
 21
9.999999999999998
 31
0.0
  0
LINE
  5
B8
330
1F
100
AcDbEntity
  8
외형선
  6
Continuous
370
    15
100
AcDbLine
 10
-92.85000000000001
 20
-9.999999999999998
 30
0.0
 11
-92.85000000000001
 21
0.0
 31
0.0
  0
LINE
  5
B9
330
1F
100
AcDbEntity
  8
외형선
  6
Continuous
370
    15
100
AcDbLine
 10
0.150000000000011
 20
0.0
 30
0.0
 11
0.150000000000011
 21
9.849999999999998
 31
0.0
  0
LINE
  5
BA
330
1F
100
AcDbEntity
  8
외형선
  6
Continuous
370
    15
100
AcDbLine
 10
0.150000000000011
 20
-9.849999999999998
 30
0.0
 11
0.150000000000011
 21
0.0
 31
0.0
  0
LINE
  5
BB
330
1F
100
AcDbEntity
  8
외형선
  6
Continuous
370
    15
100
AcDbLine
 10
-94.85
 20
0.0
 30
0.0
 11
-94.85
 21
8.000000000000021
 31
0.0
  0
LINE
  5
BC
330
1F
100
AcDbEntity
  8
외형선
  6
Continuous
370
    15
100
AcDbLine
 10
-94.85
 20
-8.000000000000021
 30
0.0
 11
-94.85
 21
0.0
 31
0.0
  0
LINE
  5
BD
330
1F
100
AcDbEntity
  8
외형선
  6
Continuous
370
    15
100
AcDbLine
 10
15.15
 20
7.261751396596631
 30
0.0
 11
15.15
 21
7.341351697997733
 31
0.0
  0
SPLINE
  5
BE
330
1F
100
AcDbEntity
  8
외형선
  6
Continuous
370
    15
100
AcDbSpline
210
0.0
220
0.0
230
1.0
 70
     8
 71
     3
 72
     8
 73
     4
 74
     0
 42
0.000000001
 43
0.00000001
 40
0.0
 40
0.0
 40
0.0
 40
0.0
 40
1.0
 40
1.0
 40
1.0
 40
1.0
 10
15.15
 20
7.261751396596632
 30
0.0
 10
14.81626850421355
 20
7.389798191525071
 30
0.0
 10
14.48252889608645
 20
7.513810100493667
 30
0.0
 10
14.14961311141724
 20
7.633487849057802
 30
0.0
  0
SPLINE
  5
BF
330
1F
100
AcDbEntity
  8
외형선
  6
Continuous
370
    15
100
AcDbSpline
210
0.0
220
0.0
230
1.0
 70
     8
 71
     3
 72
     8
 73
     4
 74
     0
 42
0.000000001
 43
0.00000001
 40
0.0
 40
0.0
 40
0.0
 40
0.0
 40
1.0
 40
1.0
 40
1.0
 40
1.0
 10
15.15000000000003
 20
-3.826270503593832
 30
0.0
 10
14.81626850421358
 20
-3.651633987543721
 30
0.0
 10
14.48252889608645
 20
-3.474869719855436
 30
0.0
 10
14.14961311141724
 20
-3.296423517500462
 30
0.0
  0
SPLINE
  5
C0
330
1F
100
AcDbEntity
  8
외형선
  6
Continuous
370
    15
100
AcDbSpline
210
0.0
220
0.0
230
1.0
 70
     8
 71
     3
 72
     8
 73
     4
 74
     0
 42
0.000000001
 43
0.00000001
 40
0.0
 40
0.0
 40
0.0
 40
0.0
 40
1.0
 40
1.0
 40
1.0
 40
1.0
 10
15.15
 20
-6.655033182037998
 30
0.0
 10
14.81626850421355
 20
-6.515312767959379
 30
0.0
 10
14.48252889608645
 20
-6.371892734064211
 30
0.0
 10
14.14961311141724
 20
-6.225139617573794
 30
0.0
  0
LINE
  5
C1
330
1F
100
AcDbEntity
  8
외형선
  6
Continuous
370
    15
100
AcDbLine
 10
14.14961311141724
 20
-9.849999999999998
 30
0.0
 11
14.14961311141724
 21
-6.225130339686469
 31
0.0
  0
SPLINE
  5
C2
330
1F
100
AcDbEntity
  8
외형선
  6
Continuous
370
    15
100
AcDbSpline
210
0.0
220
0.0
230
1.0
 70
     8
 71
     3
 72
     8
 73
     4
 74
     0
 42
0.000000001
 43
0.00000001
 40
0.0
 40
0.0
 40
0.0
 40
0.0
 40
1.0
 40
1.0
 40
1.0
 40
1.0
 10
15.15000000000003
 20
-9.076461537037883
 30
0.0
 10
14.81626850421358
 20
-9.1500812562959
 30
0.0
 10
14.48252889608645
 20
-9.218657151165404
 30
0.0
 10
14.14961311141724
 20
-9.282030596441174
 30
0.0
  0
LINE
  5
C3
330
1F
100
AcDbEntity
  8
외형선
  6
Continuous
370
    15
100
AcDbLine
 10
14.14961311141724
 20
9.28201692856133
 30
0.0
 11
14.14961311141724
 21
9.849999999999998
 31
0.0
  0
SPLINE
  5
C4
330
1F
100
AcDbEntity
  8
외형선
  6
Continuous
370
    15
100
AcDbSpline
210
0.0
220
0.0
230
1.0
 70
     8
 71
     3
 72
     8
 73
     4
 74
     0
 42
0.000000001
 43
0.00000001
 40
0.0
 40
0.0
 40
0.0
 40
0.0
 40
1.0
 40
1.0
 40
1.0
 40
1.0
 10
15.15000000000003
 20
9.07646153703791
 30
0.0
 10
14.81626850421358
 20
9.150081256295929
 30
0.0
 10
14.48252889608645
 20
9.21865715116543
 30
0.0
 10
14.14961311141724
 20
9.282030596441198
 30
0.0
  0
LINE
  5
C5
330
1F
100
AcDbEntity
  8
외형선
  6
Continuous
370
    15
100
AcDbLine
 10
14.14961311141724
 20
-3.296462003102947
 30
0.0
 11
14.14961311141724
 21
7.633495415202309
 31
0.0
  0
SPLINE
  5
C6
330
1F
100
AcDbEntity
  8
외형선
  6
Continuous
370
    15
100
AcDbSpline
210
0.0
220
0.0
230
1.0
 70
    24
 71
     3
 72
    30
 73
    26
 74
     0
 42
0.000000001
 43
0.00000001
 40
0.0
 40
0.0
 40
0.0
 40
0.0
 40
0.1250000000000001
 40
0.1250000000000001
 40
0.2500000000000001
 40
0.2500000000000001
 40
0.3125000000000001
 40
0.3125000000000001
 40
0.3437500000000001
 40
0.3437500000000001
 40
0.3749999999999999
 40
0.3749999999999999
 40
0.4999999999999999
 40
0.4999999999999999
 40
0.6249999999999999
 40
0.6249999999999999
 40
0.75
 40
0.75
 40
0.8125
 40
0.8125
 40
0.875
 40
0.875
 40
0.9375000000000001
 40
0.9375000000000001
 40
1.0
 40
1.0
 40
1.0
 40
1.0
 10
15.15
 20
-3.826270503593864
 30
0.0
 10
15.15000000000003
 20
-3.747717373526799
 30
0.0
 10
15.15000000000003
 20
-3.560991005003882
 30
0.0
 10
15.15000000000005
 20
-3.085849398566852
 30
0.0
 10
15.15000000000003
 20
-2.798236482373489
 30
0.0
 10
15.15000000000003
 20
-2.351149451181423
 30
0.0
 10
15.15
 20
-2.19915763806661
 30
0.0
 10
15.15
 20
-1.971269997538885
 30
0.0
 10
15.15000000000003
 20
-1.896625548158071
 30
0.0
 10
15.15000000000003
 20
-1.739184695074526
 30
0.0
 10
15.15000000000003
 20
-1.656643134993628
 30
0.0
 10
15.15000000000005
 20
-1.223496604629859
 30
0.0
 10
15.15000000000005
 20
-0.8107559949496307
 30
0.0
 10
15.15
 20
0.1720493293445788
 30
0.0
 10
15.14999999999997
 20
0.7436714076762226
 30
0.0
 10
15.14999999999997
 20
2.026862086394467
 30
0.0
 10
15.14999999999997
 20
2.739535937916207
 30
0.0
 10
15.15000000000003
 20
3.832273258796924
 30
0.0
 10
15.15
 20
4.199604497042388
 30
0.0
 10
15.15
 20
4.918265565575735
 30
0.0
 10
15.15
 20
5.26945161186778
 30
0.0
 10
15.14999999999994
 20
5.931503542194074
 30
0.0
 10
15.15
 20
6.242200424742722
 30
0.0
 10
15.15
 20
6.801859711132939
 30
0.0
 10
15.15000000000003
 20
7.050697696648566
 30
0.0
 10
15.15
 20
7.261751396596617
 30
0.0
  0
SPLINE
  5
C7
330
1F
100
AcDbEntity
  8
외형선
  6
Continuous
370
    15
100
AcDbSpline
210
0.0
220
0.0
230
1.0
 70
    24
 71
     3
 72
    10
 73
     6
 74
     0
 42
0.000000001
 43
0.00000001
 40
0.0
 40
0.0
 40
0.0
 40
0.0
 40
0.2831686187380742
 40
0.56975173573523
 40
1.0
 40
1.0
 40
1.0
 40
1.0
 10
15.15
 20
-9.076461537037892
 30
0.0
 10
15.15
 20
-8.861424644866515
 30
0.0
 10
15.14999999999994
 20
-8.42875790690754
 30
0.0
 10
15.15000000000005
 20
-7.687482015513424
 30
0.0
 10
15.15000000000005
 20
-7.191757596577522
 30
0.0
 10
15.15000000000005
 20
-6.89421960315798
 30
0.0
  0
LINE
  5
C8
330
1F
100
AcDbEntity
  8
중심선
 62
     1
100
AcDbLine
 10
-97.85
 20
-0.0000000000000039
 30
0.0
 11
58.15000000000003
 21
0.0000000000000156
 31
0.0
  0
LINE
  5
C9
330
1F
100
AcDbEntity
  8
참조1
100
AcDbLine
 10
-19.84999999999998
 20
-0.0000000000000039
 30
0.0
 11
-19.84999999999998
 21
-40.00000000000001
 31
0.0
  0
LINE
  5
CA
330
1F
100
AcDbEntity
  8
참조1
100
AcDbLine
 10
-19.84999999999998
 20
-40.00000000000001
 30
0.0
 11
-80.00885681430867
 21
-40.0
 31
0.0
  0
CIRCLE
  5
CB
330
1F
100
AcDbEntity
  8
해칭선
100
AcDbCircle
 10
0.0
 20
-0.0010749287238931
 30
0.0
 40
3.000000000000008
  0
INSERT
  5
CC
330
1F
100
AcDbEntity
  8
0
  6
Continuous
 62
     7
100
AcDbBlockReference
 66
     1
  2
블럭10
 10
-33.79027293212519
 20
-52.04717430164393
 30
0.0
  0
ATTRIB
  5
CD
330
CC
100
AcDbEntity
  8
FORMAT
 62
     2
100
AcDbText
 10
-54.64852046371773
 20
-49.97180738881175
 30
0.0
 40
4.233333333333333
  1
SEME6420005150E [ 4 FLUTE ]
 41
0.75
  7
SLDTEXTSTYLE0
 11
-54.64852046371773
 21
-52.08847405547841
 31
0.0
100
AcDbAttribute
  2
AUTOATTR0
 70
     0
 74
     1
  0
SEQEND
  5
CE
330
CC
100
AcDbEntity
  8
0
  6
Continuous
 62
     7
  0
HATCH
  5
CF
330
1F
100
AcDbEntity
  8
중심선
100
AcDbHatch
 10
0.0
 20
0.0
 30
0.0
210
0.0
220
0.0
230
1.0
  2
SOLID
 70
     1
 71
     0
 91
        1
 92
        0
 93
        4
 72
     1
 10
-28.07536362774434
 20
-35.8
 11
-31.52163887158163
 21
-35.8
 72
     1
 10
-31.52163887158163
 20
-35.8
 11
-33.64986873078565
 21
-38.3363255805726
 72
     1
 10
-33.64986873078565
 20
-38.3363255805726
 11
-30.20356040183522
 21
-38.33628615127011
 72
     1
 10
-30.20356040183522
 20
-38.33628615127011
 11
-28.07536362774434
 21
-35.8
 97
        0
 75
     0
 76
     1
 98
        1
 10
4.999999999999977
 20
-0.0010749287238931
  0
HATCH
  5
D0
330
1F
100
AcDbEntity
  8
중심선
100
AcDbHatch
 10
0.0
 20
0.0
 30
0.0
210
0.0
220
0.0
230
1.0
  2
SOLID
 70
     1
 71
     0
 91
        1
 92
        0
 93
        4
 72
     1
 10
-23.0625996367084
 20
-35.8
 11
-26.50887488054563
 21
-35.79999999999998
 72
     1
 10
-26.50887488054563
 20
-35.79999999999998
 11
-31.04001288890307
 21
-41.20000000000002
 72
     1
 10
-31.04001288890306
 20
-41.20000000000002
 11
-27.59373764506579
 21
-41.20000000000002
 72
     1
 10
-27.59373764506579
 20
-41.20000000000002
 11
-23.06259963670839
 21
-35.8
 97
        0
 75
     0
 76
     1
 98
        1
 10
4.999999999999977
 20
-0.0010749287238931
  0
HATCH
  5
D1
330
1F
100
AcDbEntity
  8
중심선
100
AcDbHatch
 10
0.0
 20
0.0
 30
0.0
210
0.0
220
0.0
230
1.0
  2
SOLID
 70
     1
 71
     0
 91
        1
 92
        0
 93
        4
 72
     1
 10
-18.04983564567245
 20
-35.79999999999998
 11
-21.49611088950962
 21
-35.79999999999998
 72
     1
 10
-21.49611088950962
 20
-35.79999999999998
 11
-28.54454779139886
 21
-44.20000000000002
 72
     1
 10
-28.54454779139886
 20
-44.20000000000002
 11
-25.09827254756158
 21
-44.20000000000002
 72
     1
 10
-25.09827254756159
 20
-44.20000000000002
 11
-18.04983564567245
 21
-35.79999999999998
 97
        0
 75
     0
 76
     1
 98
        1
 10
4.999999999999977
 20
-0.0010749287238931
  0
HATCH
  5
D2
330
1F
100
AcDbEntity
  8
중심선
100
AcDbHatch
 10
0.0
 20
0.0
 30
0.0
210
0.0
220
0.0
230
1.0
  2
SOLID
 70
     1
 71
     0
 91
        1
 92
        0
 93
        6
 72
     3
 10
-13.2499452146603
 20
-40.00000000005127
 11
3.960054785062283
 21
1.540882976769353E-10
 40
0.3939339440162628
 50
17.09539180608455
 51
320.0019657685075
 73
     0
 72
     1
 10
-11.56694555895974
 20
-38.5878940046383
 11
-9.261643685258697
 21
-36.65356729459038
 72
     3
 10
-13.24994521471315
 20
-40.00000000000015
 11
6.600054785286829
 21
-1.278976924368180E-13
 40
0.636358354079598
 50
39.99873849337429
 51
368.4976242363725
 73
     1
 72
     1
 10
-6.824612722812567
 20
-39.03999999993002
 11
-14.56987790787725
 21
-39.03999999993002
 72
     1
 10
-14.56987790787725
 20
-39.03999999993002
 11
-14.56990295232316
 21
-40.95999999992991
 72
     1
 10
-14.56990295232316
 20
-40.95999999992991
 11
-10.12852318285115
 21
-40.95999999992988
 97
        0
 75
     0
 76
     1
 98
        1
 10
4.999999999999977
 20
-0.0010749287238931
  0
DIMENSION
  5
D3
330
1F
100
AcDbEntity
  8
치수문자_일반주서
100
AcDbDimension
  2
_D
 10
76.46781609732201
 20
-9.999999999999833
 30
0.0
 11
76.46781609732197
 21
-0.0000000000000195
 31
0.0
 70
   160
  1
%%c<>
 71
     2
 42
19.99913145286287
 52
-270.0
  3
SLDDIMSTYLE0
100
AcDbAlignedDimension
 13
35.68031313483669
 23
9.999131452862883
 33
0.0
 14
34.70350017277784
 24
-9.999999999999988
 34
0.0
 50
90.0000000000002
100
AcDbRotatedDimension
1001
PE_URL
1000

  0
DIMENSION
  5
E1
330
1F
100
AcDbEntity
  8
치수문자_일반주서
100
AcDbDimension
  2
_D_1
 10
-102.8384684361648
 20
-10.00000000000005
 30
0.0
 11
-102.8384684361648
 21
0.0000000000000098
 31
0.0
 70
   160
  1
%%c<>
 71
     2
 42
20.00000000000002
 52
-270.0
  3
SLDDIMSTYLE0
100
AcDbAlignedDimension
 13
-92.85
 23
10.00000000000001
 33
0.0
 14
-92.85
 24
-10.00000000000001
 34
0.0
 50
90.0000000000002
100
AcDbRotatedDimension
  0
DIMENSION
  5
EE
330
1F
100
AcDbEntity
  8
치수문자_일반주서
100
AcDbDimension
  2
_D_2
 10
15.15000000000003
 20
19.58867562374522
 30
0.0
 11
35.15000000000001
 21
19.58867562374522
 31
0.0
 70
   160
  1
<>
 71
     2
 42
40.00000000000001
  3
SLDDIMSTYLE0
100
AcDbAlignedDimension
 13
55.15000000000003
 23
9.452636859702212
 33
0.0
 14
15.15000000000003
 24
9.232355484093752
 34
0.0
 50
0.0000000000000102
100
AcDbRotatedDimension
1001
PE_URL
1000

  0
DIMENSION
  5
F9
330
1F
100
AcDbEntity
  8
치수문자_일반주서
100
AcDbDimension
  2
_D_3
 10
0.1500000000000128
 20
25.58867562374519
 30
0.0
 11
27.65000000000003
 21
25.58867562374519
 31
0.0
 70
   160
  1
<>
 71
     2
 42
55.00000000000002
  3
SLDDIMSTYLE0
100
AcDbAlignedDimension
 13
55.15000000000003
 23
9.452636859702212
 33
0.0
 14
0.150000000000011
 24
9.849999999999998
 34
0.0
 50
0.0000000000000037
100
AcDbRotatedDimension
1001
PE_URL
1000

  0
DIMENSION
  5
103
330
1F
100
AcDbEntity
  8
치수문자_일반주서
100
AcDbDimension
  2
_D_4
 10
-94.85
 20
33.9961729249071
 30
0.0
 11
-19.84999999999998
 21
33.9961729249071
 31
0.0
 70
   160
  1
<>
 71
     2
 42
150.0
  3
SLDDIMSTYLE0
100
AcDbAlignedDimension
 13
55.15000000000003
 23
9.452636859702212
 33
0.0
 14
-94.85
 24
8.000000000000021
 34
0.0
 50
0.0000000000000027
100
AcDbRotatedDimension
1001
PE_URL
1000

  0
LINE
  5
10D
330
1F
100
AcDbEntity
  8
참조1
100
AcDbLine
 10
17.9634838153456
 20
7.440000000000002
 30
0.0
 11
17.9634838153456
 21
-7.440000000000002
 31
0.0
  0
LINE
  5
10E
330
1F
100
AcDbEntity
  8
참조1
100
AcDbLine
 10
30.6634838153456
 20
5.440000000000002
 30
0.0
 11
17.9634838153456
 21
5.440000000000002
 31
0.0
  0
SOLID
  5
10F
330
1F
100
AcDbEntity
  8
참조1
100
AcDbTrace
 10
17.9634838153456
 20
5.440000000000002
 30
0.0
 11
24.3134838153456
 21
4.424000000000002
 31
0.0
 12
24.3134838153456
 22
6.456000000000002
 32
0.0
 13
24.3134838153456
 23
6.456000000000002
 33
0.0
  0
LINE
  5
110
330
1F
100
AcDbEntity
  8
참조1
100
AcDbLine
 10
30.6634838153456
 20
-5.440000000000002
 30
0.0
 11
17.9634838153456
 21
-5.440000000000002
 31
0.0
  0
SOLID
  5
111
330
1F
100
AcDbEntity
  8
참조1
100
AcDbTrace
 10
17.9634838153456
 20
-5.440000000000002
 30
0.0
 11
24.3134838153456
 21
-6.456000000000002
 31
0.0
 12
24.3134838153456
 22
-4.424000000000002
 32
0.0
 13
24.3134838153456
 23
-4.424000000000002
 33
0.0
  0
MTEXT
  5
112
330
1F
100
AcDbEntity
  8
참조1
100
AcDbMText
 10
27.36097390781588
 20
10.98821664464994
 30
0.0
 40
3.5
 41
0.0
 71
     1
 72
     1
  1
A
  7
SLDTEXTSTYLE0
 73
     1
 44
1.0
  0
MTEXT
  5
113
330
1F
100
AcDbEntity
  8
참조1
100
AcDbMText
 10
27.36097390781588
 20
0.1082166446499319
 30
0.0
 40
3.5
 41
0.0
 71
     1
 72
     1
  1
A
  7
SLDTEXTSTYLE0
 73
     1
 44
1.0
  0
INSERT
  5
11A
330
1F
100
AcDbEntity
  8
해칭선
100
AcDbBlockReference
  2
SW_DOWELSYMBOL_0
 10
0.0
 20
-0.0010749287238931
 30
0.0
  0
ARC
  5
147
330
1F
100
AcDbEntity
  8
0
 62
     1
100
AcDbCircle
 10
54.65000000000006
 20
9.45263685970221
 30
0.0
 40
0.5
100
AcDbArc
 50
0.0
 51
90.0
  0
ARC
  5
148
102
{ACAD_REACTORS
102
}
330
1F
100
AcDbEntity
  8
0
 62
     1
100
AcDbCircle
 10
54.65000000000006
 20
-9.45263685970218
 30
0.0
 40
0.5
100
AcDbArc
 50
270.0
 51
0.0
  0
DIMENSION
  5
14D
102
{ACAD_REACTORS
102
}
102
{ACAD_XDICTIONARY
360
14E
102
}
330
1F
100
AcDbEntity
  8
0
100
AcDbDimension
  2
*D8
 10
54.65000000000006
 20
-9.45263685970218
 30
0.0
 11
69.03356880564183
 21
-17.81374087853295
 31
0.0
 70
   164
 71
     5
 42
0.5000000000000019
  3
ISO-25
100
AcDbRadialDimension
 15
54.94630041911203
 25
-9.855384996425457
 35
0.0
 40
0.0
1001
ACAD
1000
DSTYLE
1002
{
1070
   179
1070
     2
1070
   143
1040
0.0393700787401575
1070
    41
1040
3.302
1070
    44
1040
1.0
1070
    42
1040
1.0
1070
   147
1040
1.524
1070
    73
1070
     1
1070
    74
1070
     1
1070
   140
1040
3.5
1070
   284
1070
     0
1070
    78
1070
     0
1002
}
1001
ACAD_DSTYLE_DIMRADIAL_EXTENSION
1070
   387
1070
     1
1070
   388
1040
4.71238898038469
1070
   390
1040
0.0
  0
ENDSEC
  0
SECTION
  2
OBJECTS
  0
DICTIONARY
  5
C
330
0
100
AcDbDictionary
281
     1
  3
ACAD_GROUP
350
D
  3
ACAD_LAYOUT
350
1A
  3
ACAD_MLINESTYLE
350
17
  3
ACAD_PLOTSETTINGS
350
19
  3
ACAD_PLOTSTYLENAME
350
E
  3
ACAD_SCALELIST
350
47
  3
APPDATA
350
13C
  3
DWGPROPS
350
15A
  0
DICTIONARY
  5
14E
330
14D
100
AcDbDictionary
280
     1
281
     1
  0
DICTIONARY
  5
D
102
{ACAD_REACTORS
330
C
102
}
330
C
100
AcDbDictionary
281
     1
  0
DICTIONARY
  5
1A
102
{ACAD_REACTORS
330
C
102
}
330
C
100
AcDbDictionary
281
     1
  3
Layout1
350
1E
  3
Layout2
350
26
  3
Model
350
22
  0
DICTIONARY
  5
17
102
{ACAD_REACTORS
330
C
102
}
330
C
100
AcDbDictionary
281
     1
  3
Standard
350
18
  0
DICTIONARY
  5
19
102
{ACAD_REACTORS
330
C
102
}
330
C
100
AcDbDictionary
281
     1
  0
ACDBDICTIONARYWDFLT
  5
E
102
{ACAD_REACTORS
330
C
102
}
330
C
100
AcDbDictionary
281
     1
  3
Normal
350
F
100
AcDbDictionaryWithDefault
340
F
  0
DICTIONARY
  5
47
102
{ACAD_REACTORS
330
C
102
}
330
C
100
AcDbDictionary
281
     1
  3
A0
350
48
  3
A1
350
49
  3
A2
350
4A
  3
A3
350
4B
  3
A4
350
4C
  3
A5
350
4D
  3
A6
350
4E
  3
A7
350
4F
  3
A8
350
50
  3
A9
350
51
  3
B0
350
52
  3
B1
350
53
  3
B2
350
54
  3
B3
350
55
  3
B4
350
56
  3
B5
350
57
  3
B6
350
58
  3
B7
350
59
  3
B8
350
5A
  3
B9
350
5B
  3
C0
350
5C
  3
C1
350
5D
  3
C2
350
5E
  3
C3
350
5F
  3
C4
350
60
  3
C5
350
61
  3
C6
350
62
  3
C7
350
63
  3
C8
350
64
  3
C9
350
65
  3
D0
350
66
  3
D1
350
67
  3
D2
350
68
  0
DICTIONARY
  5
13C
102
{ACAD_REACTORS
330
C
102
}
330
C
100
AcDbDictionary
281
     1
  0
XRECORD
  5
15A
102
{ACAD_REACTORS
330
C
102
}
330
C
100
AcDbXrecord
280
     1
  1
DWGPROPS COOKIE
  2

  3

  4

  6

  7

  8
USER
  9

300
=
301
=
302
=
303
=
304
=
305
=
306
=
307
=
308
=
309
=
 40
0.0
 41
2458274.342561134
 42
2458275.105554282
  1

 90
        0
  0
LAYOUT
  5
1E
102
{ACAD_REACTORS
330
1A
102
}
330
1A
100
AcDbPlotSettings
  1

  2
none_device
  4

  6

 40
0.0
 41
0.0
 42
0.0
 43
0.0
 44
0.0
 45
0.0
 46
0.0
 47
0.0
 48
0.0
 49
0.0
140
0.0
141
0.0
142
1.0
143
1.0
 70
   688
 72
     1
 73
     0
 74
     5
  7

 75
    16
147
1.0
148
0.0
149
0.0
100
AcDbLayout
  1
Layout1
 70
     1
 71
     1
 10
0.0
 20
0.0
 11
420.0
 21
297.0
 12
0.0
 22
0.0
 32
0.0
 14
1.000000000000000E+20
 24
1.000000000000000E+20
 34
1.000000000000000E+20
 15
-1.000000000000000E+20
 25
-1.000000000000000E+20
 35
-1.000000000000000E+20
146
0.0
 13
0.0
 23
0.0
 33
0.0
 16
1.0
 26
0.0
 36
0.0
 17
0.0
 27
1.0
 37
0.0
 76
     0
330
1B
  0
LAYOUT
  5
26
102
{ACAD_REACTORS
330
1A
102
}
330
1A
100
AcDbPlotSettings
  1

  2
none_device
  4

  6

 40
0.0
 41
0.0
 42
0.0
 43
0.0
 44
0.0
 45
0.0
 46
0.0
 47
0.0
 48
0.0
 49
0.0
140
0.0
141
0.0
142
1.0
143
1.0
 70
   688
 72
     1
 73
     0
 74
     5
  7

 75
    16
147
1.0
148
0.0
149
0.0
100
AcDbLayout
  1
Layout2
 70
     1
 71
     2
 10
0.0
 20
0.0
 11
0.0
 21
0.0
 12
0.0
 22
0.0
 32
0.0
 14
0.0
 24
0.0
 34
0.0
 15
0.0
 25
0.0
 35
0.0
146
0.0
 13
0.0
 23
0.0
 33
0.0
 16
1.0
 26
0.0
 36
0.0
 17
0.0
 27
1.0
 37
0.0
 76
     0
330
23
  0
LAYOUT
  5
22
102
{ACAD_REACTORS
330
1A
102
}
330
1A
100
AcDbPlotSettings
  1

  2
none_device
  4
ANSI_A_(11.00_x_8.50_Inches)
  6

 40
6.35
 41
19.05
 42
6.35000508
 43
19.05000254
 44
279.4
 45
215.9
 46
169.8979456206236
 47
98.39337390152487
 48
0.0
 49
0.0
140
0.0
141
0.0
142
0.0612426189036592
143
1.0
 70
  1696
 72
     0
 73
     0
 74
     0
  7

 75
     0
147
0.0235690232323232
148
0.0
149
0.0
100
AcDbLayout
  1
Model
 70
     1
 71
     0
 10
0.0
 20
0.0
 11
420.0
 21
297.0
 12
0.0
 22
0.0
 32
0.0
 14
-107.2134684361648
 24
-49.97180738881175
 34
0.0
 15
77.01814943065534
 25
38.3711729249071
 35
0.0
146
0.0
 13
0.0
 23
0.0
 33
0.0
 16
1.0
 26
0.0
 36
0.0
 17
0.0
 27
1.0
 37
0.0
 76
     0
330
1F
331
29
  0
MLINESTYLE
  5
18
102
{ACAD_REACTORS
330
17
102
}
330
17
100
AcDbMlineStyle
  2
Standard
 70
     0
  3

 62
   256
 51
90.0
 52
90.0
 71
     2
 49
0.5
 62
   256
  6
BYLAYER
 49
-0.5
 62
   256
  6
BYLAYER
  0
ACDBPLACEHOLDER
  5
F
102
{ACAD_REACTORS
330
E
102
}
330
E
  0
SCALE
  5
48
102
{ACAD_REACTORS
330
47
102
}
330
47
100
AcDbScale
 70
     0
300
1:1
140
1.0
141
1.0
290
     1
  0
SCALE
  5
49
102
{ACAD_REACTORS
330
47
102
}
330
47
100
AcDbScale
 70
     0
300
1:2
140
1.0
141
2.0
290
     0
  0
SCALE
  5
4A
102
{ACAD_REACTORS
330
47
102
}
330
47
100
AcDbScale
 70
     0
300
1:4
140
1.0
141
4.0
290
     0
  0
SCALE
  5
4B
102
{ACAD_REACTORS
330
47
102
}
330
47
100
AcDbScale
 70
     0
300
1:5
140
1.0
141
5.0
290
     0
  0
SCALE
  5
4C
102
{ACAD_REACTORS
330
47
102
}
330
47
100
AcDbScale
 70
     0
300
1:8
140
1.0
141
8.0
290
     0
  0
SCALE
  5
4D
102
{ACAD_REACTORS
330
47
102
}
330
47
100
AcDbScale
 70
     0
300
1:10
140
1.0
141
10.0
290
     0
  0
SCALE
  5
4E
102
{ACAD_REACTORS
330
47
102
}
330
47
100
AcDbScale
 70
     0
300
1:16
140
1.0
141
16.0
290
     0
  0
SCALE
  5
4F
102
{ACAD_REACTORS
330
47
102
}
330
47
100
AcDbScale
 70
     0
300
1:20
140
1.0
141
20.0
290
     0
  0
SCALE
  5
50
102
{ACAD_REACTORS
330
47
102
}
330
47
100
AcDbScale
 70
     0
300
1:30
140
1.0
141
30.0
290
     0
  0
SCALE
  5
51
102
{ACAD_REACTORS
330
47
102
}
330
47
100
AcDbScale
 70
     0
300
1:40
140
1.0
141
40.0
290
     0
  0
SCALE
  5
52
102
{ACAD_REACTORS
330
47
102
}
330
47
100
AcDbScale
 70
     0
300
1:50
140
1.0
141
50.0
290
     0
  0
SCALE
  5
53
102
{ACAD_REACTORS
330
47
102
}
330
47
100
AcDbScale
 70
     0
300
1:100
140
1.0
141
100.0
290
     0
  0
SCALE
  5
54
102
{ACAD_REACTORS
330
47
102
}
330
47
100
AcDbScale
 70
     0
300
2:1
140
2.0
141
1.0
290
     0
  0
SCALE
  5
55
102
{ACAD_REACTORS
330
47
102
}
330
47
100
AcDbScale
 70
     0
300
4:1
140
4.0
141
1.0
290
     0
  0
SCALE
  5
56
102
{ACAD_REACTORS
330
47
102
}
330
47
100
AcDbScale
 70
     0
300
8:1
140
8.0
141
1.0
290
     0
  0
SCALE
  5
57
102
{ACAD_REACTORS
330
47
102
}
330
47
100
AcDbScale
 70
     0
300
10:1
140
10.0
141
1.0
290
     0
  0
SCALE
  5
58
102
{ACAD_REACTORS
330
47
102
}
330
47
100
AcDbScale
 70
     0
300
100:1
140
100.0
141
1.0
290
     0
  0
SCALE
  5
59
102
{ACAD_REACTORS
330
47
102
}
330
47
100
AcDbScale
 70
     0
300
1/128" = 1'-0"
140
0.0078125
141
12.0
290
     0
  0
SCALE
  5
5A
102
{ACAD_REACTORS
330
47
102
}
330
47
100
AcDbScale
 70
     0
300
1/64" = 1'-0"
140
0.015625
141
12.0
290
     0
  0
SCALE
  5
5B
102
{ACAD_REACTORS
330
47
102
}
330
47
100
AcDbScale
 70
     0
300
1/32" = 1'-0"
140
0.03125
141
12.0
290
     0
  0
SCALE
  5
5C
102
{ACAD_REACTORS
330
47
102
}
330
47
100
AcDbScale
 70
     0
300
1/16" = 1'-0"
140
0.0625
141
12.0
290
     0
  0
SCALE
  5
5D
102
{ACAD_REACTORS
330
47
102
}
330
47
100
AcDbScale
 70
     0
300
3/32" = 1'-0"
140
0.09375
141
12.0
290
     0
  0
SCALE
  5
5E
102
{ACAD_REACTORS
330
47
102
}
330
47
100
AcDbScale
 70
     0
300
1/8" = 1'-0"
140
0.125
141
12.0
290
     0
  0
SCALE
  5
5F
102
{ACAD_REACTORS
330
47
102
}
330
47
100
AcDbScale
 70
     0
300
3/16" = 1'-0"
140
0.1875
141
12.0
290
     0
  0
SCALE
  5
60
102
{ACAD_REACTORS
330
47
102
}
330
47
100
AcDbScale
 70
     0
300
1/4" = 1'-0"
140
0.25
141
12.0
290
     0
  0
SCALE
  5
61
102
{ACAD_REACTORS
330
47
102
}
330
47
100
AcDbScale
 70
     0
300
3/8" = 1'-0"
140
0.375
141
12.0
290
     0
  0
SCALE
  5
62
102
{ACAD_REACTORS
330
47
102
}
330
47
100
AcDbScale
 70
     0
300
1/2" = 1'-0"
140
0.5
141
12.0
290
     0
  0
SCALE
  5
63
102
{ACAD_REACTORS
330
47
102
}
330
47
100
AcDbScale
 70
     0
300
3/4" = 1'-0"
140
0.75
141
12.0
290
     0
  0
SCALE
  5
64
102
{ACAD_REACTORS
330
47
102
}
330
47
100
AcDbScale
 70
     0
300
1" = 1'-0"
140
1.0
141
12.0
290
     0
  0
SCALE
  5
65
102
{ACAD_REACTORS
330
47
102
}
330
47
100
AcDbScale
 70
     0
300
1-1/2" = 1'-0"
140
1.5
141
12.0
290
     0
  0
SCALE
  5
66
102
{ACAD_REACTORS
330
47
102
}
330
47
100
AcDbScale
 70
     0
300
3" = 1'-0"
140
3.0
141
12.0
290
     0
  0
SCALE
  5
67
102
{ACAD_REACTORS
330
47
102
}
330
47
100
AcDbScale
 70
     0
300
6" = 1'-0"
140
6.0
141
12.0
290
     0
  0
SCALE
  5
68
102
{ACAD_REACTORS
330
47
102
}
330
47
100
AcDbScale
 70
     0
300
1'-0" = 1'-0"
140
12.0
141
12.0
290
     0
  0
ENDSEC
  0
EOF
