  0
SECTION
  2
HEADER
  9
$ACADVER
  1
AC1015
  9
$ACADMAINTVER
 70
     6
  9
$DWGCODEPAGE
  3
ANSI_949
  9
$INSBASE
 10
0.0
 20
0.0
 30
0.0
  9
$EXTMIN
 10
-107.2134684361648
 20
-49.97180738881175
 30
0.0
  9
$EXTMAX
 10
75.35534323899927
 20
37.86356136860483
 30
0.0
  9
$LIMMIN
 10
0.0
 20
0.0
  9
$LIMMAX
 10
420.0
 20
297.0
  9
$ORTHOMODE
 70
     0
  9
$REGENMODE
 70
     1
  9
$FILLMODE
 70
     1
  9
$QTEXTMODE
 70
     0
  9
$MIRRTEXT
 70
     1
  9
$LTSCALE
 40
1.0
  9
$ATTMODE
 70
     1
  9
$TEXTSIZE
 40
3.5
  9
$TRACEWID
 40
1.0
  9
$TEXTSTYLE
  7
Standard
  9
$CLAYER
  8
0
  9
$CELTYPE
  6
ByLayer
  9
$CECOLOR
 62
   256
  9
$CELTSCALE
 40
1.0
  9
$DISPSILH
 70
     0
  9
$DIMSCALE
 40
1.0
  9
$DIMASZ
 40
3.302
  9
$DIMEXO
 40
1.0
  9
$DIMDLI
 40
3.75
  9
$DIMRND
 40
0.0
  9
$DIMDLE
 40
0.0
  9
$DIMEXE
 40
1.0
  9
$DIMTP
 40
0.0
  9
$DIMTM
 40
0.0
  9
$DIMTXT
 40
3.5
  9
$DIMCEN
 40
2.5
  9
$DIMTSZ
 40
0.0
  9
$DIMTOL
 70
     0
  9
$DIMLIM
 70
     0
  9
$DIMTIH
 70
     1
  9
$DIMTOH
 70
     1
  9
$DIMSE1
 70
     0
  9
$DIMSE2
 70
     0
  9
$DIMTAD
 70
     1
  9
$DIMZIN
 70
     0
  9
$DIMBLK
  1

  9
$DIMASO
 70
     1
  9
$DIMSHO
 70
     1
  9
$DIMPOST
  1

  9
$DIMAPOST
  1

  9
$DIMALT
 70
     0
  9
$DIMALTD
 70
     3
  9
$DIMALTF
 40
0.0393700787401575
  9
$DIMLFAC
 40
1.0
  9
$DIMTOFL
 70
     1
  9
$DIMTVP
 40
0.0
  9
$DIMTIX
 70
     0
  9
$DIMSOXD
 70
     0
  9
$DIMSAH
 70
     0
  9
$DIMBLK1
  1

  9
$DIMBLK2
  1

  9
$DIMSTYLE
  2
ISO-25
  9
$DIMCLRD
 70
     0
  9
$DIMCLRE
 70
     0
  9
$DIMCLRT
 70
     0
  9
$DIMTFAC
 40
1.0
  9
$DIMGAP
 40
1.524
  9
$DIMJUST
 70
     0
  9
$DIMSD1
 70
     0
  9
$DIMSD2
 70
     0
  9
$DIMTOLJ
 70
     0
  9
$DIMTZIN
 70
     0
  9
$DIMALTZ
 70
     0
  9
$DIMALTTZ
 70
     0
  9
$DIMUPT
 70
     0
  9
$DIMDEC
 70
     2
  9
$DIMTDEC
 70
     2
  9
$DIMALTU
 70
     2
  9
$DIMALTTD
 70
     3
  9
$DIMTXSTY
  7
Standard
  9
$DIMAUNIT
 70
     0
  9
$DIMADEC
 70
     2
  9
$DIMALTRND
 40
0.0
  9
$DIMAZIN
 70
     0
  9
$DIMDSEP
 70
    44
  9
$DIMATFIT
 70
     3
  9
$DIMFRAC
 70
     0
  9
$DIMLDRBLK
  1

  9
$DIMLUNIT
 70
     2
  9
$DIMLWD
 70
    -2
  9
$DIMLWE
 70
    -2
  9
$DIMTMOVE
 70
     0
  9
$LUNITS
 70
     2
  9
$LUPREC
 70
     2
  9
$SKETCHINC
 40
1.0
  9
$FILLETRAD
 40
10.0
  9
$AUNITS
 70
     0
  9
$AUPREC
 70
     2
  9
$MENU
  1
.
  9
$ELEVATION
 40
0.0
  9
$PELEVATION
 40
0.0
  9
$THICKNESS
 40
0.0
  9
$LIMCHECK
 70
     0
  9
$CHAMFERA
 40
0.0
  9
$CHAMFERB
 40
0.0
  9
$CHAMFERC
 40
0.0
  9
$CHAMFERD
 40
0.0
  9
$SKPOLY
 70
     0
  9
$TDCREATE
 40
2458274.717939225
  9
$TDUCREATE
 40
2458274.342939225
  9
$TDUPDATE
 40
2458275.482775914
  9
$TDUUPDATE
 40
2458275.107775914
  9
$TDINDWG
 40
0.0009285995
  9
$TDUSRTIMER
 40
0.000928588
  9
$USRTIMER
 70
     1
  9
$ANGBASE
 50
0.0
  9
$ANGDIR
 70
     0
  9
$PDMODE
 70
     0
  9
$PDSIZE
 40
-1.0
  9
$PLINEWID
 40
0.0
  9
$SPLFRAME
 70
     0
  9
$SPLINETYPE
 70
     6
  9
$SPLINESEGS
 70
     8
  9
$HANDSEED
  5
159
  9
$SURFTAB1
 70
     6
  9
$SURFTAB2
 70
     6
  9
$SURFTYPE
 70
     6
  9
$SURFU
 70
     6
  9
$SURFV
 70
     6
  9
$UCSBASE
  2

  9
$UCSNAME
  2

  9
$UCSORG
 10
0.0
 20
0.0
 30
0.0
  9
$UCSXDIR
 10
1.0
 20
0.0
 30
0.0
  9
$UCSYDIR
 10
0.0
 20
1.0
 30
0.0
  9
$UCSORTHOREF
  2

  9
$UCSORTHOVIEW
 70
     0
  9
$UCSORGTOP
 10
0.0
 20
0.0
 30
0.0
  9
$UCSORGBOTTOM
 10
0.0
 20
0.0
 30
0.0
  9
$UCSORGLEFT
 10
0.0
 20
0.0
 30
0.0
  9
$UCSORGRIGHT
 10
0.0
 20
0.0
 30
0.0
  9
$UCSORGFRONT
 10
0.0
 20
0.0
 30
0.0
  9
$UCSORGBACK
 10
0.0
 20
0.0
 30
0.0
  9
$PUCSBASE
  2

  9
$PUCSNAME
  2

  9
$PUCSORG
 10
0.0
 20
0.0
 30
0.0
  9
$PUCSXDIR
 10
1.0
 20
0.0
 30
0.0
  9
$PUCSYDIR
 10
0.0
 20
1.0
 30
0.0
  9
$PUCSORTHOREF
  2

  9
$PUCSORTHOVIEW
 70
     0
  9
$PUCSORGTOP
 10
0.0
 20
0.0
 30
0.0
  9
$PUCSORGBOTTOM
 10
0.0
 20
0.0
 30
0.0
  9
$PUCSORGLEFT
 10
0.0
 20
0.0
 30
0.0
  9
$PUCSORGRIGHT
 10
0.0
 20
0.0
 30
0.0
  9
$PUCSORGFRONT
 10
0.0
 20
0.0
 30
0.0
  9
$PUCSORGBACK
 10
0.0
 20
0.0
 30
0.0
  9
$USERI1
 70
     0
  9
$USERI2
 70
     0
  9
$USERI3
 70
     0
  9
$USERI4
 70
     0
  9
$USERI5
 70
     0
  9
$USERR1
 40
0.0
  9
$USERR2
 40
0.0
  9
$USERR3
 40
0.0
  9
$USERR4
 40
0.0
  9
$USERR5
 40
0.0
  9
$WORLDVIEW
 70
     1
  9
$SHADEDGE
 70
     3
  9
$SHADEDIF
 70
    70
  9
$TILEMODE
 70
     1
  9
$MAXACTVP
 70
    64
  9
$PINSBASE
 10
0.0
 20
0.0
 30
0.0
  9
$PLIMCHECK
 70
     0
  9
$PEXTMIN
 10
1.000000000000000E+20
 20
1.000000000000000E+20
 30
1.000000000000000E+20
  9
$PEXTMAX
 10
-1.000000000000000E+20
 20
-1.000000000000000E+20
 30
-1.000000000000000E+20
  9
$PLIMMIN
 10
0.0
 20
0.0
  9
$PLIMMAX
 10
0.0
 20
0.0
  9
$UNITMODE
 70
     0
  9
$VISRETAIN
 70
     1
  9
$PLINEGEN
 70
     0
  9
$PSLTSCALE
 70
     1
  9
$TREEDEPTH
 70
  3020
  9
$CMLSTYLE
  2
Standard
  9
$CMLJUST
 70
     0
  9
$CMLSCALE
 40
20.0
  9
$PROXYGRAPHICS
 70
     1
  9
$MEASUREMENT
 70
     1
  9
$CELWEIGHT
370
    -1
  9
$ENDCAPS
280
     0
  9
$JOINSTYLE
280
     0
  9
$LWDISPLAY
290
     1
  9
$INSUNITS
 70
     4
  9
$HYPERLINKBASE
  1

  9
$STYLESHEET
  1

  9
$XEDIT
290
     1
  9
$CEPSNTYPE
380
     0
  9
$PSTYLEMODE
290
     1
  9
$FINGERPRINTGUID
  2
{633C5187-11ED-4C9D-8F0C-D64AFEADA395}
  9
$VERSIONGUID
  2
{FAEB1C32-E019-11D5-929B-00C0DF256EC4}
  9
$EXTNAMES
290
     1
  9
$PSVPSCALE
 40
0.0
  9
$OLESTARTUP
290
     0
  0
ENDSEC
  0
SECTION
  2
CLASSES
  0
CLASS
  1
ACDBDICTIONARYWDFLT
  2
AcDbDictionaryWithDefault
  3
ObjectDBX Classes
 90
        0
280
     0
281
     0
  0
CLASS
  1
VISUALSTYLE
  2
AcDbVisualStyle
  3
ObjectDBX Classes
 90
     4095
280
     0
281
     0
  0
CLASS
  1
MATERIAL
  2
AcDbMaterial
  3
ObjectDBX Classes
 90
     1153
280
     0
281
     0
  0
CLASS
  1
SCALE
  2
AcDbScale
  3
ObjectDBX Classes
 90
     1153
280
     0
281
     0
  0
CLASS
  1
SUN
  2
AcDbSun
  3
SCENEOE
 90
     1153
280
     0
281
     0
  0
CLASS
  1
ACDBPLACEHOLDER
  2
AcDbPlaceHolder
  3
ObjectDBX Classes
 90
        0
280
     0
281
     0
  0
CLASS
  1
LAYOUT
  2
AcDbLayout
  3
ObjectDBX Classes
 90
        0
280
     0
281
     0
  0
CLASS
  1
TABLESTYLE
  2
AcDbTableStyle
  3
ObjectDBX Classes
 90
     4095
280
     0
281
     0
  0
CLASS
  1
MLEADERSTYLE
  2
AcDbMLeaderStyle
  3
ACDB_MLEADERSTYLE_CLASS
 90
     4095
280
     0
281
     0
  0
CLASS
  1
DIMASSOC
  2
AcDbDimAssoc
  3
"AcDbDimAssoc|Product Desc:     AcDim ARX App For Dimension|Company:          Autodesk, Inc.|WEB Address:      www.autodesk.com"
 90
        0
280
     0
281
     0
  0
ENDSEC
  0
SECTION
  2
TABLES
  0
TABLE
  2
VPORT
  5
8
330
0
100
AcDbSymbolTable
 70
     1
  0
VPORT
  5
29
330
8
100
AcDbSymbolTableRecord
100
AcDbViewportTableRecord
  2
*Active
 70
     0
 10
0.0
 20
0.0
 11
1.0
 21
1.0
 12
-15.92906259858277
 22
-6.05412301010346
 13
0.0
 23
0.0
 14
10.0
 24
10.0
 15
10.0
 25
10.0
 16
0.0
 26
0.0
 36
1.0
 17
0.0
 27
0.0
 37
0.0
 40
89.59207613256491
 41
2.400311526479751
 42
50.0
 43
0.0
 44
0.0
 50
0.0
 51
0.0
 71
    16
 72
  2000
 73
     1
 74
     3
 75
     0
 76
     0
 77
     0
 78
     0
281
     0
 65
     1
110
0.0
120
0.0
130
0.0
111
1.0
121
0.0
131
0.0
112
0.0
122
1.0
132
0.0
 79
     0
146
0.0
  0
ENDTAB
  0
TABLE
  2
LTYPE
  5
5
330
0
100
AcDbSymbolTable
 70
     6
  0
LTYPE
  5
14
330
5
100
AcDbSymbolTableRecord
100
AcDbLinetypeTableRecord
  2
ByBlock
 70
     0
  3

 72
    65
 73
     0
 40
0.0
  0
LTYPE
  5
15
330
5
100
AcDbSymbolTableRecord
100
AcDbLinetypeTableRecord
  2
ByLayer
 70
     0
  3

 72
    65
 73
     0
 40
0.0
  0
LTYPE
  5
16
330
5
100
AcDbSymbolTableRecord
100
AcDbLinetypeTableRecord
  2
Continuous
 70
     0
  3
Solid line
 72
    65
 73
     0
 40
0.0
  0
LTYPE
  5
6A
330
5
100
AcDbSymbolTableRecord
100
AcDbLinetypeTableRecord
  2
HIDDEN
 70
     0
  3
Hidden __ __ __ __ __ __ __ __ __ __ __ __ __ __
 72
    65
 73
     2
 40
1.905
 49
1.27
 74
     0
 49
-0.635
 74
     0
  0
LTYPE
  5
6B
330
5
100
AcDbSymbolTableRecord
100
AcDbLinetypeTableRecord
  2
PHANTOM
 70
     0
  3
Phantom ______  __  __  ______  __  __  ______
 72
    65
 73
     6
 40
12.7
 49
6.35
 74
     0
 49
-1.27
 74
     0
 49
1.27
 74
     0
 49
-1.27
 74
     0
 49
1.27
 74
     0
 49
-1.27
 74
     0
  0
LTYPE
  5
6C
330
5
100
AcDbSymbolTableRecord
100
AcDbLinetypeTableRecord
  2
CENTER
 70
     0
  3
Center ____ _ ____ _ ____ _ ____ _ ____ _ ____
 72
    65
 73
     4
 40
10.16
 49
6.35
 74
     0
 49
-1.27
 74
     0
 49
1.27
 74
     0
 49
-1.27
 74
     0
  0
LTYPE
  5
6D
330
5
100
AcDbSymbolTableRecord
100
AcDbLinetypeTableRecord
  2
CENTERX2
 70
     0
  3
Center (2x) ________  __  ________  __  _____
 72
    65
 73
     4
 40
20.32
 49
12.7
 74
     0
 49
-2.54
 74
     0
 49
2.54
 74
     0
 49
-2.54
 74
     0
  0
LTYPE
  5
6E
330
5
100
AcDbSymbolTableRecord
100
AcDbLinetypeTableRecord
  2
DOT2
 70
     0
  3
Dot (.5x) ........................................
 72
    65
 73
     2
 40
0.635
 49
0.0
 74
     0
 49
-0.635
 74
     0
  0
ENDTAB
  0
TABLE
  2
LAYER
  5
2
330
0
100
AcDbSymbolTable
 70
    18
  0
LAYER
  5
10
330
2
100
AcDbSymbolTableRecord
100
AcDbLayerTableRecord
  2
0
 70
     0
 62
     7
  6
Continuous
370
    -3
390
F
  0
LAYER
  5
6F
330
2
100
AcDbSymbolTableRecord
100
AcDbLayerTableRecord
  2
FORMAT
 70
     0
 62
     2
  6
Continuous
370
    -3
390
F
  0
LAYER
  5
70
330
2
100
AcDbSymbolTableRecord
100
AcDbLayerTableRecord
  2
외형선
 70
     0
 62
     4
  6
Continuous
370
    30
390
F
  0
LAYER
  5
71
330
2
100
AcDbSymbolTableRecord
100
AcDbLayerTableRecord
  2
숨은선
 70
     0
 62
     2
  6
HIDDEN
370
    15
390
F
  0
LAYER
  5
72
330
2
100
AcDbSymbolTableRecord
100
AcDbLayerTableRecord
  2
중심선
 70
     0
 62
     1
  6
CENTERX2
370
    -3
390
F
  0
LAYER
  5
73
330
2
100
AcDbSymbolTableRecord
100
AcDbLayerTableRecord
  2
파단선
 70
     0
 62
     4
  6
Continuous
370
    -3
390
F
  0
LAYER
  5
74
330
2
100
AcDbSymbolTableRecord
100
AcDbLayerTableRecord
  2
해칭선
 70
     0
 62
   100
  6
Continuous
370
    -3
390
F
  0
LAYER
  5
75
330
2
100
AcDbSymbolTableRecord
100
AcDbLayerTableRecord
  2
가는실선
 70
     0
 62
     4
  6
Continuous
370
    -3
390
F
  0
LAYER
  5
76
330
2
100
AcDbSymbolTableRecord
100
AcDbLayerTableRecord
  2
치수_보조선
 70
     0
 62
     4
  6
Continuous
370
    -3
390
F
  0
LAYER
  5
77
330
2
100
AcDbSymbolTableRecord
100
AcDbLayerTableRecord
  2
치수문자_일반주서
 70
     0
 62
     7
  6
Continuous
370
    15
390
F
  0
LAYER
  5
78
330
2
100
AcDbSymbolTableRecord
100
AcDbLayerTableRecord
  2
개별주서
 70
     0
 62
   100
  6
Continuous
370
    30
390
F
  0
LAYER
  5
79
330
2
100
AcDbSymbolTableRecord
100
AcDbLayerTableRecord
  2
중간선
 70
     0
 62
     2
  6
Continuous
370
    15
390
F
  0
LAYER
  5
7A
330
2
100
AcDbSymbolTableRecord
100
AcDbLayerTableRecord
  2
윤곽선
 70
     0
 62
     3
  6
Continuous
370
    40
390
F
  0
LAYER
  5
7B
330
2
100
AcDbSymbolTableRecord
100
AcDbLayerTableRecord
  2
중심마크
 70
     0
 62
   100
  6
Continuous
370
    30
390
F
  0
LAYER
  5
7C
330
2
100
AcDbSymbolTableRecord
100
AcDbLayerTableRecord
  2
가상선
 70
     0
 62
     4
  6
PHANTOM
370
    -3
390
F
  0
LAYER
  5
7D
330
2
100
AcDbSymbolTableRecord
100
AcDbLayerTableRecord
  2
특수지정선
 70
     0
 62
     5
  6
CENTERX2
370
    60
390
F
  0
LAYER
  5
7E
330
2
100
AcDbSymbolTableRecord
100
AcDbLayerTableRecord
  2
참조1
 70
     0
 62
    -4
  6
Continuous
370
    -3
390
F
  0
LAYER
  5
13D
330
2
100
AcDbSymbolTableRecord
100
AcDbLayerTableRecord
  2
Defpoints
 70
     0
 62
     7
  6
Continuous
290
     0
370
    -3
390
F
  0
ENDTAB
  0
TABLE
  2
STYLE
  5
3
330
0
100
AcDbSymbolTable
 70
     2
  0
STYLE
  5
11
330
3
100
AcDbSymbolTableRecord
100
AcDbTextStyleTableRecord
  2
Standard
 70
     0
 40
0.0
 41
1.0
 50
0.0
 71
     0
 42
3.5
  3
txt
  4

  0
STYLE
  5
94
330
3
100
AcDbSymbolTableRecord
100
AcDbTextStyleTableRecord
  2
SLDTEXTSTYLE0
 70
     0
 40
0.0
 41
0.75
 50
0.0
 71
     0
 42
3.5
  3
TXT
  4

  0
ENDTAB
  0
TABLE
  2
VIEW
  5
6
330
0
100
AcDbSymbolTable
 70
     0
  0
ENDTAB
  0
TABLE
  2
UCS
  5
7
330
0
100
AcDbSymbolTable
 70
     0
  0
ENDTAB
  0
TABLE
  2
APPID
  5
9
330
0
100
AcDbSymbolTable
 70
     3
  0
APPID
  5
12
330
9
100
AcDbSymbolTableRecord
100
AcDbRegAppTableRecord
  2
ACAD
 70
     0
  0
APPID
  5
149
330
9
100
AcDbSymbolTableRecord
100
AcDbRegAppTableRecord
  2
PE_URL
 70
     0
  0
APPID
  5
14A
330
9
100
AcDbSymbolTableRecord
100
AcDbRegAppTableRecord
  2
ACAD_DSTYLE_DIMRADIAL_EXTENSION
 70
     0
  0
ENDTAB
  0
TABLE
  2
DIMSTYLE
  5
A
330
0
100
AcDbSymbolTable
 70
     3
100
AcDbDimStyleTable
  0
DIMSTYLE
105
27
102
{ACAD_REACTORS
330
14B
102
}
330
A
100
AcDbSymbolTableRecord
100
AcDbDimStyleTableRecord
  2
ISO-25
 70
     0
 41
2.5
 42
0.625
 43
3.75
 44
1.25
 73
     0
 74
     0
 77
     1
 78
     8
140
2.5
141
2.5
143
0.03937007874016
147
0.625
171
     3
172
     1
178
     0
271
     2
272
     2
274
     3
278
    44
283
     0
284
     8
340
11
  0
DIMSTYLE
105
D4
102
{ACAD_REACTORS
330
D3
330
E1
330
EE
330
F9
330
103
102
}
330
A
100
AcDbSymbolTableRecord
100
AcDbDimStyleTableRecord
  2
SLDDIMSTYLE0
 70
     0
 41
3.302
 44
0.0
 45
0.000000001
 73
     0
 74
     0
 77
     1
 78
    12
 79
     3
140
3.5
147
0.875
172
     1
173
     1
178
     0
271
     2
272
     2
276
     2
284
    12
289
     0
340
94
  0
DIMSTYLE
105
EF
330
A
100
AcDbSymbolTableRecord
100
AcDbDimStyleTableRecord
  2
SLDDIMSTYLE1
 70
     0
 41
3.302
 44
0.0
 45
0.000000001
 73
     0
 74
     0
 77
     1
 78
    12
 79
     3
140
3.5
147
0.875
173
     1
178
     0
271
     2
272
     2
276
     2
284
    12
340
94
  0
ENDTAB
  0
TABLE
  2
BLOCK_RECORD
  5
1
330
0
100
AcDbSymbolTable
 70
     9
  0
BLOCK_RECORD
  5
1F
330
1
100
AcDbSymbolTableRecord
100
AcDbBlockTableRecord
  2
*Model_Space
340
22
  0
BLOCK_RECORD
  5
1B
330
1
100
AcDbSymbolTableRecord
100
AcDbBlockTableRecord
  2
*Paper_Space
340
1E
  0
BLOCK_RECORD
  5
23
330
1
100
AcDbSymbolTableRecord
100
AcDbBlockTableRecord
  2
*Paper_Space0
340
26
  0
BLOCK_RECORD
  5
7F
330
1
100
AcDbSymbolTableRecord
100
AcDbBlockTableRecord
  2
블럭10
340
0
102
{BLKREFS
331
CC
102
}
  0
BLOCK_RECORD
  5
D5
330
1
100
AcDbSymbolTableRecord
100
AcDbBlockTableRecord
  2
_D
340
0
  0
BLOCK_RECORD
  5
E2
330
1
100
AcDbSymbolTableRecord
100
AcDbBlockTableRecord
  2
_D_1
340
0
  0
BLOCK_RECORD
  5
F0
330
1
100
AcDbSymbolTableRecord
100
AcDbBlockTableRecord
  2
_D_2
340
0
  0
BLOCK_RECORD
  5
FA
330
1
100
AcDbSymbolTableRecord
100
AcDbBlockTableRecord
  2
_D_3
340
0
  0
BLOCK_RECORD
  5
104
330
1
100
AcDbSymbolTableRecord
100
AcDbBlockTableRecord
  2
_D_4
340
0
  0
BLOCK_RECORD
  5
114
330
1
100
AcDbSymbolTableRecord
100
AcDbBlockTableRecord
  2
SW_DOWELSYMBOL_0
340
0
102
{BLKREFS
331
11A
102
}
  0
BLOCK_RECORD
  5
14E
330
1
100
AcDbSymbolTableRecord
100
AcDbBlockTableRecord
  2
*D8
340
0
  0
ENDTAB
  0
ENDSEC
  0
SECTION
  2
BLOCKS
  0
BLOCK
  5
20
330
1F
100
AcDbEntity
  8
0
100
AcDbBlockBegin
  2
*Model_Space
 70
     0
 10
0.0
 20
0.0
 30
0.0
  3
*Model_Space
  1

  0
ENDBLK
  5
21
330
1F
100
AcDbEntity
  8
0
100
AcDbBlockEnd
  0
BLOCK
  5
1C
330
1B
100
AcDbEntity
 67
     1
  8
0
100
AcDbBlockBegin
  2
*Paper_Space
 70
     0
 10
0.0
 20
0.0
 30
0.0
  3
*Paper_Space
  1

  0
ENDBLK
  5
1D
330
1B
100
AcDbEntity
 67
     1
  8
0
100
AcDbBlockEnd
  0
BLOCK
  5
24
330
23
100
AcDbEntity
  8
0
100
AcDbBlockBegin
  2
*Paper_Space0
 70
     0
 10
0.0
 20
0.0
 30
0.0
  3
*Paper_Space0
  1

  0
ENDBLK
  5
25
330
23
100
AcDbEntity
  8
0
100
AcDbBlockEnd
  0
BLOCK
  5
80
330
7F
100
AcDbEntity
  8
0
100
AcDbBlockBegin
  2
블럭10
 70
     2
 10
0.0
 20
0.0
 30
0.0
  3
블럭10
  1

  0
ELLIPSE
  5
82
330
7F
100
AcDbEntity
  8
중심선
100
AcDbEllipse
 10
20.54032771741204
 20
12.0471743016438
 30
0.0
 11
6.600054785286829
 21
-1.261213355974178E-13
 31
0.0
210
0.0
220
0.0
230
1.0
 40
0.636358354079598
 41
0.9219305317359503
 42
6.513795318482858
  0
ELLIPSE
  5
83
330
7F
100
AcDbEntity
  8
중심선
100
AcDbEllipse
 10
20.54032771746488
 20
12.04717430159265
 30
0.0
 11
3.960054785062283
 21
1.540847449632565E-10
 31
0.0
210
0.0
220
0.0
230
1.0
 40
0.3939339440162632
 41
1.131841032648279
 42
5.62031148352944
  0
LINE
  5
84
330
7F
100
AcDbEntity
  8
중심선
100
AcDbLine
 10
2.268634060543552
 20
16.24717430164393
 30
0.0
 11
5.714909304380834
 21
16.24717430164393
 31
0.0
  0
LINE
  5
85
330
7F
100
AcDbEntity
  8
중심선
100
AcDbLine
 10
5.245725140726316
 20
7.84717430164391
 30
0.0
 11
8.692000384563599
 21
7.84717430164391
 31
0.0
  0
LINE
  5
86
330
7F
100
AcDbEntity
  8
중심선
100
AcDbLine
 10
15.74043728645272
 20
16.24717430164393
 30
0.0
 11
8.692000384563599
 21
7.84717430164391
 31
0.0
  0
LINE
  5
87
330
7F
100
AcDbEntity
  8
중심선
100
AcDbLine
 10
0.1404042013395286
 20
13.71084872107135
 30
0.0
 11
3.58671253028996
 21
13.71088815037384
 31
0.0
  0
LINE
  5
88
330
7F
100
AcDbEntity
  8
중심선
100
AcDbLine
 10
2.750260043222114
 20
10.84717430164391
 30
0.0
 11
6.196535287059397
 21
10.84717430164391
 31
0.0
  0
LINE
  5
89
330
7F
100
AcDbEntity
  8
중심선
100
AcDbLine
 10
12.29416204261559
 20
16.24717430164393
 30
0.0
 11
5.245725140726316
 21
7.84717430164391
 31
0.0
  0
LINE
  5
8A
330
7F
100
AcDbEntity
  8
중심선
100
AcDbLine
 10
10.72767329541681
 20
16.24717430164393
 30
0.0
 11
6.196535287059397
 21
10.84717430164391
 31
0.0
  0
LINE
  5
8B
330
7F
100
AcDbEntity
  8
중심선
100
AcDbLine
 10
7.28139805157953
 20
16.24717430164393
 30
0.0
 11
2.750260043222114
 21
10.84717430164391
 31
0.0
  0
LINE
  5
8C
330
7F
100
AcDbEntity
  8
중심선
100
AcDbLine
 10
5.714909304380834
 20
16.24717430164393
 30
0.0
 11
3.58671253028996
 21
13.71088815037384
 31
0.0
  0
LINE
  5
8D
330
7F
100
AcDbEntity
  8
중심선
100
AcDbLine
 10
2.268634060543552
 20
16.24717430164393
 30
0.0
 11
0.1404042013395286
 21
13.71084872107135
 31
0.0
  0
LINE
  5
8E
330
7F
100
AcDbEntity
  8
중심선
100
AcDbLine
 10
7.28139805157953
 20
16.24717430164393
 30
0.0
 11
10.72767329541681
 21
16.24717430164393
 31
0.0
  0
LINE
  5
8F
330
7F
100
AcDbEntity
  8
중심선
100
AcDbLine
 10
12.29416204261559
 20
16.24717430164393
 30
0.0
 11
15.74043728645272
 21
16.24717430164393
 31
0.0
  0
LINE
  5
90
330
7F
100
AcDbEntity
  8
중심선
100
AcDbLine
 10
19.22036997980202
 20
11.08717430171403
 30
0.0
 11
23.66174974927406
 21
11.08717430171406
 31
0.0
  0
LINE
  5
91
330
7F
100
AcDbEntity
  8
중심선
100
AcDbLine
 10
19.22039502424796
 20
13.00717430171391
 30
0.0
 11
19.22036997980202
 21
11.08717430171403
 31
0.0
  0
LINE
  5
92
330
7F
100
AcDbEntity
  8
중심선
100
AcDbLine
 10
19.22039502424796
 20
13.00717430171391
 30
0.0
 11
26.96566020931264
 21
13.00717430171391
 31
0.0
  0
LINE
  5
93
330
7F
100
AcDbEntity
  8
중심선
100
AcDbLine
 10
22.22332737316547
 20
13.45928029700563
 30
0.0
 11
24.52862924686651
 21
15.39360700705356
 31
0.0
  0
ATTDEF
  5
95
330
7F
100
AcDbEntity
  8
FORMAT
 62
     2
100
AcDbText
 10
-7.268459303319146
 20
2.075366912832191
 30
0.0
 40
4.233333333333333
  1
SEME6420010150E
 41
0.75
  7
SLDTEXTSTYLE0
 11
-7.268459303319146
 21
-0.0412997538344756
 31
0.0
100
AcDbAttributeDefinition
  3

  2
AUTOATTR0
 70
     0
 74
     1
  0
ENDBLK
  5
81
330
7F
100
AcDbEntity
  8
0
100
AcDbBlockEnd
  0
BLOCK
  5
D6
330
D5
100
AcDbEntity
  8
0
100
AcDbBlockBegin
  2
_D
 70
     0
 10
0.0
 20
0.0
 30
0.0
  3
_D
  1

  0
LINE
  5
D8
330
D5
100
AcDbEntity
  8
치수문자_일반주서
 62
     0
370
    -2
100
AcDbLine
 10
35.58940556567597
 20
9.999999999999995
 30
0.0
 11
74.80500990566588
 21
10.00000000000014
 31
0.0
  0
LINE
  5
D9
330
D5
100
AcDbEntity
  8
치수문자_일반주서
 62
     0
370
    -2
100
AcDbLine
 10
35.58940556567597
 20
-9.999999999999988
 30
0.0
 11
74.80500990566595
 21
-9.99999999999984
 31
0.0
  0
LINE
  5
DA
330
D5
100
AcDbEntity
  8
치수문자_일반주서
 62
     0
370
    -2
100
AcDbLine
 10
74.8050099056659
 20
6.698000000000143
 30
0.0
 11
74.80500990566594
 21
-6.697999999999841
 31
0.0
  0
SOLID
  5
DB
330
D5
100
AcDbEntity
  8
치수문자_일반주서
 62
     0
100
AcDbTrace
 10
75.35534323899923
 20
6.698000000000144
 30
0.0
 11
74.25467657233257
 21
6.698000000000141
 31
0.0
 12
74.80500990566588
 22
10.00000000000014
 32
0.0
 13
74.80500990566588
 23
10.00000000000014
 33
0.0
  0
SOLID
  5
DC
330
D5
100
AcDbEntity
  8
치수문자_일반주서
 62
     0
100
AcDbTrace
 10
74.25467657233261
 20
-6.697999999999842
 30
0.0
 11
75.35534323899927
 21
-6.697999999999839
 31
0.0
 12
74.80500990566595
 22
-9.99999999999984
 32
0.0
 13
74.80500990566595
 23
-9.99999999999984
 33
0.0
  0
MTEXT
  5
DD
330
D5
100
AcDbEntity
  8
치수문자_일반주서
 62
     0
100
AcDbMText
 10
70.43000990566593
 20
-0.2848011986085103
 30
0.0
 40
3.5
 41
0.0
 71
     2
 72
     1
  1
\A1;%%c20
  7
SLDTEXTSTYLE0
 11
-3.552713678800504E-15
 21
1.0
 31
0.0
 73
     1
 44
1.0
  0
POINT
  5
DE
330
D5
100
AcDbEntity
  8
Defpoints
 62
     0
100
AcDbPoint
 10
35.52690556567597
 20
9.999999999999995
 30
0.0
  0
POINT
  5
DF
330
D5
100
AcDbEntity
  8
Defpoints
 62
     0
100
AcDbPoint
 10
35.52690556567597
 20
-9.999999999999988
 30
0.0
  0
POINT
  5
E0
330
D5
100
AcDbEntity
  8
Defpoints
 62
     0
100
AcDbPoint
 10
74.80500990566595
 20
-9.99999999999984
 30
0.0
  0
ENDBLK
  5
D7
330
D5
100
AcDbEntity
  8
0
100
AcDbBlockEnd
  0
BLOCK
  5
E3
330
E2
100
AcDbEntity
  8
0
100
AcDbBlockBegin
  2
_D_1
 70
     0
 10
0.0
 20
0.0
 30
0.0
  3
_D_1
  1

  0
LINE
  5
E5
330
E2
100
AcDbEntity
  8
치수문자_일반주서
 62
     0
370
    -2
100
AcDbLine
 10
-92.9125
 20
10.00000000000001
 30
0.0
 11
-102.8384684361648
 21
9.999999999999972
 31
0.0
  0
LINE
  5
E6
330
E2
100
AcDbEntity
  8
치수문자_일반주서
 62
     0
370
    -2
100
AcDbLine
 10
-92.9125
 20
-10.00000000000001
 30
0.0
 11
-102.8384684361648
 21
-10.00000000000005
 31
0.0
  0
LINE
  5
E7
330
E2
100
AcDbEntity
  8
치수문자_일반주서
 62
     0
370
    -2
100
AcDbLine
 10
-102.8384684361648
 20
6.697999999999972
 30
0.0
 11
-102.8384684361648
 21
-6.698000000000047
 31
0.0
  0
SOLID
  5
E8
330
E2
100
AcDbEntity
  8
치수문자_일반주서
 62
     0
100
AcDbTrace
 10
-102.2881351028315
 20
6.697999999999974
 30
0.0
 11
-103.3888017694981
 21
6.69799999999997
 31
0.0
 12
-102.8384684361648
 22
9.999999999999972
 32
0.0
 13
-102.8384684361648
 23
9.999999999999972
 33
0.0
  0
SOLID
  5
E9
330
E2
100
AcDbEntity
  8
치수문자_일반주서
 62
     0
100
AcDbTrace
 10
-103.3888017694981
 20
-6.698000000000048
 30
0.0
 11
-102.2881351028314
 21
-6.698000000000045
 31
0.0
 12
-102.8384684361648
 22
-10.00000000000005
 32
0.0
 13
-102.8384684361648
 23
-10.00000000000005
 33
0.0
  0
MTEXT
  5
EA
330
E2
100
AcDbEntity
  8
치수문자_일반주서
 62
     0
100
AcDbMText
 10
-107.2134684361648
 20
-0.0000000000000056
 30
0.0
 40
3.5
 41
0.0
 71
     2
 72
     1
  1
\A1;%%c20
  7
SLDTEXTSTYLE0
 11
-3.552713678800498E-15
 21
1.0
 31
0.0
 73
     1
 44
1.0
  0
POINT
  5
EB
330
E2
100
AcDbEntity
  8
Defpoints
 62
     0
100
AcDbPoint
 10
-92.85
 20
10.00000000000001
 30
0.0
  0
POINT
  5
EC
330
E2
100
AcDbEntity
  8
Defpoints
 62
     0
100
AcDbPoint
 10
-92.85
 20
-10.00000000000001
 30
0.0
  0
POINT
  5
ED
330
E2
100
AcDbEntity
  8
Defpoints
 62
     0
100
AcDbPoint
 10
-102.8384684361648
 20
-10.00000000000005
 30
0.0
  0
ENDBLK
  5
E4
330
E2
100
AcDbEntity
  8
0
100
AcDbBlockEnd
  0
BLOCK
  5
F1
330
F0
100
AcDbEntity
  8
0
100
AcDbBlockBegin
  2
_D_2
 70
     0
 10
0.0
 20
0.0
 30
0.0
  3
_D_2
  1

  0
LINE
  5
F3
330
F0
100
AcDbEntity
  8
치수문자_일반주서
 62
     0
370
    -2
100
AcDbLine
 10
55.15000000000001
 20
9.007525303399936
 30
0.0
 11
55.15000000000001
 21
19.08106406744294
 31
0.0
  0
LINE
  5
F4
330
F0
100
AcDbEntity
  8
치수문자_일반주서
 62
     0
370
    -2
100
AcDbLine
 10
15.15
 20
9.294855484093745
 30
0.0
 11
15.15
 21
19.08106406744294
 31
0.0
  0
LINE
  5
F5
330
F0
100
AcDbEntity
  8
치수문자_일반주서
 62
     0
370
    -2
100
AcDbLine
 10
51.84800000000001
 20
19.08106406744294
 30
0.0
 11
18.452
 21
19.08106406744294
 31
0.0
  0
SOLID
  5
F6
330
F0
100
AcDbEntity
  8
치수문자_일반주서
 62
     0
100
AcDbTrace
 10
51.84800000000001
 20
18.53073073410961
 30
0.0
 11
51.84800000000001
 21
19.63139740077628
 31
0.0
 12
55.15000000000001
 22
19.08106406744294
 32
0.0
 13
55.15000000000001
 23
19.08106406744294
 33
0.0
  0
SOLID
  5
F7
330
F0
100
AcDbEntity
  8
치수문자_일반주서
 62
     0
100
AcDbTrace
 10
18.452
 20
19.63139740077628
 30
0.0
 11
18.452
 21
18.53073073410961
 31
0.0
 12
15.15
 22
19.08106406744294
 32
0.0
 13
15.15
 23
19.08106406744294
 33
0.0
  0
MTEXT
  5
F8
330
F0
100
AcDbEntity
  8
치수문자_일반주서
 62
     0
100
AcDbMText
 10
35.15000000000001
 20
23.45606406744294
 30
0.0
 40
3.5
 41
0.0
 71
     2
 72
     1
  1
\A1;40
  7
SLDTEXTSTYLE0
 73
     1
 44
1.0
  0
POINT
  5
13E
330
F0
100
AcDbEntity
  8
Defpoints
 62
     0
100
AcDbPoint
 10
55.15000000000001
 20
8.945025303399936
 30
0.0
  0
POINT
  5
13F
330
F0
100
AcDbEntity
  8
Defpoints
 62
     0
100
AcDbPoint
 10
15.15
 20
9.232355484093745
 30
0.0
  0
POINT
  5
140
330
F0
100
AcDbEntity
  8
Defpoints
 62
     0
100
AcDbPoint
 10
15.15
 20
19.08106406744294
 30
0.0
  0
ENDBLK
  5
F2
330
F0
100
AcDbEntity
  8
0
100
AcDbBlockEnd
  0
BLOCK
  5
FB
330
FA
100
AcDbEntity
  8
0
100
AcDbBlockBegin
  2
_D_3
 70
     0
 10
0.0
 20
0.0
 30
0.0
  3
_D_3
  1

  0
LINE
  5
FD
330
FA
100
AcDbEntity
  8
치수문자_일반주서
 62
     0
370
    -2
100
AcDbLine
 10
55.15000000000001
 20
9.007525303399936
 30
0.0
 11
55.15000000000001
 21
25.08106406744291
 31
0.0
  0
LINE
  5
FE
330
FA
100
AcDbEntity
  8
치수문자_일반주서
 62
     0
370
    -2
100
AcDbLine
 10
0.150000000000011
 20
9.912499999999998
 30
0.0
 11
0.1500000000000128
 21
25.08106406744291
 31
0.0
  0
LINE
  5
FF
330
FA
100
AcDbEntity
  8
치수문자_일반주서
 62
     0
370
    -2
100
AcDbLine
 10
51.84800000000001
 20
25.08106406744291
 30
0.0
 11
3.452000000000012
 21
25.08106406744291
 31
0.0
  0
SOLID
  5
100
330
FA
100
AcDbEntity
  8
치수문자_일반주서
 62
     0
100
AcDbTrace
 10
51.84800000000001
 20
24.53073073410958
 30
0.0
 11
51.84800000000001
 21
25.63139740077625
 31
0.0
 12
55.15000000000001
 22
25.08106406744291
 32
0.0
 13
55.15000000000001
 23
25.08106406744291
 33
0.0
  0
SOLID
  5
101
330
FA
100
AcDbEntity
  8
치수문자_일반주서
 62
     0
100
AcDbTrace
 10
3.452000000000012
 20
25.63139740077625
 30
0.0
 11
3.452000000000012
 21
24.53073073410958
 31
0.0
 12
0.1500000000000128
 22
25.08106406744291
 32
0.0
 13
0.1500000000000128
 23
25.08106406744291
 33
0.0
  0
MTEXT
  5
102
330
FA
100
AcDbEntity
  8
치수문자_일반주서
 62
     0
100
AcDbMText
 10
27.65000000000002
 20
29.45606406744291
 30
0.0
 40
3.5
 41
0.0
 71
     2
 72
     1
  1
\A1;55
  7
SLDTEXTSTYLE0
 73
     1
 44
1.0
  0
POINT
  5
141
330
FA
100
AcDbEntity
  8
Defpoints
 62
     0
100
AcDbPoint
 10
55.15000000000001
 20
8.945025303399936
 30
0.0
  0
POINT
  5
142
330
FA
100
AcDbEntity
  8
Defpoints
 62
     0
100
AcDbPoint
 10
0.150000000000011
 20
9.849999999999998
 30
0.0
  0
POINT
  5
143
330
FA
100
AcDbEntity
  8
Defpoints
 62
     0
100
AcDbPoint
 10
0.150000000000011
 20
25.08106406744291
 30
0.0
  0
ENDBLK
  5
FC
330
FA
100
AcDbEntity
  8
0
100
AcDbBlockEnd
  0
BLOCK
  5
105
330
104
100
AcDbEntity
  8
0
100
AcDbBlockBegin
  2
_D_4
 70
     0
 10
0.0
 20
0.0
 30
0.0
  3
_D_4
  1

  0
LINE
  5
107
330
104
100
AcDbEntity
  8
치수문자_일반주서
 62
     0
370
    -2
100
AcDbLine
 10
55.15000000000001
 20
9.007525303399936
 30
0.0
 11
55.15000000000001
 21
33.48856136860483
 31
0.0
  0
LINE
  5
108
330
104
100
AcDbEntity
  8
치수문자_일반주서
 62
     0
370
    -2
100
AcDbLine
 10
-94.85
 20
8.062500000000021
 30
0.0
 11
-94.85
 21
33.48856136860483
 31
0.0
  0
LINE
  5
109
330
104
100
AcDbEntity
  8
치수문자_일반주서
 62
     0
370
    -2
100
AcDbLine
 10
51.84800000000001
 20
33.48856136860483
 30
0.0
 11
-91.548
 21
33.48856136860483
 31
0.0
  0
SOLID
  5
10A
330
104
100
AcDbEntity
  8
치수문자_일반주서
 62
     0
100
AcDbTrace
 10
51.84800000000001
 20
32.93822803527149
 30
0.0
 11
51.84800000000001
 21
34.03889470193816
 31
0.0
 12
55.15000000000001
 22
33.48856136860483
 32
0.0
 13
55.15000000000001
 23
33.48856136860483
 33
0.0
  0
SOLID
  5
10B
330
104
100
AcDbEntity
  8
치수문자_일반주서
 62
     0
100
AcDbTrace
 10
-91.548
 20
34.03889470193816
 30
0.0
 11
-91.548
 21
32.93822803527149
 31
0.0
 12
-94.85
 22
33.48856136860483
 32
0.0
 13
-94.85
 23
33.48856136860483
 33
0.0
  0
MTEXT
  5
10C
330
104
100
AcDbEntity
  8
치수문자_일반주서
 62
     0
100
AcDbMText
 10
-19.84999999999999
 20
37.86356136860483
 30
0.0
 40
3.5
 41
0.0
 71
     2
 72
     1
  1
\A1;150
  7
SLDTEXTSTYLE0
 73
     1
 44
1.0
  0
POINT
  5
144
330
104
100
AcDbEntity
  8
Defpoints
 62
     0
100
AcDbPoint
 10
55.15000000000001
 20
8.945025303399936
 30
0.0
  0
POINT
  5
145
330
104
100
AcDbEntity
  8
Defpoints
 62
     0
100
AcDbPoint
 10
-94.85
 20
8.000000000000021
 30
0.0
  0
POINT
  5
146
330
104
100
AcDbEntity
  8
Defpoints
 62
     0
100
AcDbPoint
 10
-94.85
 20
33.48856136860483
 30
0.0
  0
ENDBLK
  5
106
330
104
100
AcDbEntity
  8
0
100
AcDbBlockEnd
  0
BLOCK
  5
115
330
114
100
AcDbEntity
  8
0
100
AcDbBlockBegin
  2
SW_DOWELSYMBOL_0
 70
     0
 10
0.0
 20
0.0
 30
0.0
  3
SW_DOWELSYMBOL_0
  1

  0
CIRCLE
  5
117
330
114
100
AcDbEntity
  8
해칭선
 62
     0
100
AcDbCircle
 10
0.0
 20
0.0
 30
0.0
 40
3.000000000000008
  0
HATCH
  5
118
330
114
100
AcDbEntity
  8
0
  6
Continuous
 62
     0
370
     0
100
AcDbHatch
 10
0.0
 20
0.0
 30
0.0
210
0.0
220
0.0
230
1.0
  2
SOLID
 70
     1
 71
     0
 91
        1
 92
        0
 93
        3
 72
     2
 10
0.0
 20
0.0
 40
3.000000000000008
 50
0.0
 51
90.0
 73
     1
 72
     1
 10
0.0
 20
3.000000000000008
 11
0.0
 21
0.0
 72
     1
 10
0.0
 20
0.0
 11
3.000000000000008
 21
0.0
 97
        0
 75
     0
 76
     1
 98
        1
 10
0.0
 20
0.0
  0
HATCH
  5
119
330
114
100
AcDbEntity
  8
0
  6
Continuous
 62
     0
370
     0
100
AcDbHatch
 10
0.0
 20
0.0
 30
0.0
210
0.0
220
0.0
230
1.0
  2
SOLID
 70
     1
 71
     0
 91
        1
 92
        0
 93
        3
 72
     2
 10
0.0
 20
0.0
 40
3.000000000000008
 50
180.0
 51
270.0000000000008
 73
     1
 72
     1
 10
0.0
 20
-3.000000000000008
 11
0.0
 21
0.0
 72
     1
 10
0.0
 20
0.0
 11
-3.000000000000008
 21
0.0
 97
        0
 75
     0
 76
     1
 98
        1
 10
0.0
 20
0.0
  0
ENDBLK
  5
116
330
114
100
AcDbEntity
  8
0
100
AcDbBlockEnd
  0
BLOCK
  5
14F
330
14E
100
AcDbEntity
  8
0
100
AcDbBlockBegin
  2
*D8
 70
     1
 10
0.0
 20
0.0
 30
0.0
  3
*D8
  1

  0
LINE
  5
151
330
14E
100
AcDbEntity
  8
0
 62
     0
370
    -2
100
AcDbLine
 10
73.92610025781647
 20
-18.33465681020581
 30
0.0
 11
60.15210025781648
 21
-18.33465681020581
 31
0.0
  0
LINE
  5
152
330
14E
100
AcDbEntity
  8
0
 62
     0
370
    -2
100
AcDbLine
 10
60.15210025781648
 20
-18.33465681020581
 30
0.0
 11
56.46701935028674
 21
-12.56974947640902
 31
0.0
  0
MTEXT
  5
153
330
14E
100
AcDbEntity
  8
0
 62
     0
100
AcDbMText
 10
67.80110025781647
 20
-14.76899014353915
 30
0.0
 40
3.5
 41
0.0
 71
     5
 72
     1
  1
R1,00
 73
     1
 44
1.0
  0
LINE
  5
154
330
14E
100
AcDbEntity
  8
0
 62
     0
370
    -2
100
AcDbLine
 10
54.14999999999995
 20
-8.945025303399907
 30
0.0
 11
54.68859120183323
 21
-9.787592521672597
 31
0.0
  0
SOLID
  5
155
330
14E
100
AcDbEntity
  8
0
 62
     0
100
AcDbTrace
 10
56.93071217607614
 20
-12.2733447850001
 30
0.0
 11
56.00332652449734
 21
-12.86615416781794
 31
0.0
 12
54.68859120183323
 22
-9.787592521672597
 32
0.0
 13
54.68859120183323
 23
-9.787592521672597
 33
0.0
  0
POINT
  5
156
330
14E
100
AcDbEntity
  8
Defpoints
 62
     0
100
AcDbPoint
 10
54.68859120183323
 20
-9.787592521672597
 30
0.0
  0
POINT
  5
157
330
14E
100
AcDbEntity
  8
Defpoints
 62
     0
100
AcDbPoint
 10
54.14999999999995
 20
-8.945025303399907
 30
0.0
  0
ENDBLK
  5
150
330
14E
100
AcDbEntity
  8
0
100
AcDbBlockEnd
  0
ENDSEC
  0
SECTION
  2
ENTITIES
  0
LINE
  5
96
330
1F
100
AcDbEntity
  8
외형선
  6
Continuous
 62
     1
370
    15
100
AcDbLine
 10
35.52673896947081
 20
9.999999999999995
 30
0.0
 11
29.42870611464959
 21
9.999999999999993
 31
0.0
  0
LINE
  5
97
330
1F
100
AcDbEntity
  8
외형선
  6
Continuous
 62
     1
370
    15
100
AcDbLine
 10
29.42870611464949
 20
-9.99999999999999
 30
0.0
 11
35.52673896947087
 21
-9.999999999999988
 31
0.0
  0
LINE
  5
98
330
1F
100
AcDbEntity
  8
외형선
  6
Continuous
370
    15
100
AcDbLine
 10
-92.85000000000001
 20
-9.999999999999998
 30
0.0
 11
0.0
 21
-9.999999999999998
 31
0.0
  0
LINE
  5
99
330
1F
100
AcDbEntity
  8
외형선
  6
Continuous
370
    15
100
AcDbLine
 10
0.0
 20
9.999999999999998
 30
0.0
 11
-92.85000000000001
 21
9.999999999999998
 31
0.0
  0
LINE
  5
9A
330
1F
100
AcDbEntity
  8
외형선
  6
Continuous
370
    15
100
AcDbLine
 10
0.0
 20
-10.0
 30
0.0
 11
0.150000000000011
 21
-9.849999999999998
 31
0.0
  0
LINE
  5
9B
330
1F
100
AcDbEntity
  8
외형선
  6
Continuous
370
    15
100
AcDbLine
 10
0.150000000000011
 20
9.849999999999998
 30
0.0
 11
0.0
 21
10.0
 31
0.0
  0
LINE
  5
9C
330
1F
100
AcDbEntity
  8
외형선
  6
Continuous
370
    15
100
AcDbLine
 10
-92.85000000000001
 20
9.999999999999998
 30
0.0
 11
-94.85
 21
8.000000000000021
 31
0.0
  0
LINE
  5
9D
330
1F
100
AcDbEntity
  8
외형선
  6
Continuous
370
    15
100
AcDbLine
 10
-94.85
 20
-8.000000000000021
 30
0.0
 11
-92.85000000000001
 21
-9.999999999999998
 31
0.0
  0
LINE
  5
9E
330
1F
100
AcDbEntity
  8
외형선
  6
Continuous
370
    15
100
AcDbLine
 10
0.150000000000011
 20
-9.849999999999998
 30
0.0
 11
14.14961311032922
 21
-9.849999999999998
 31
0.0
  0
LINE
  5
9F
330
1F
100
AcDbEntity
  8
외형선
  6
Continuous
370
    15
100
AcDbLine
 10
14.14961311032922
 20
9.849999999999998
 30
0.0
 11
0.150000000000011
 21
9.849999999999998
 31
0.0
  0
SPLINE
  5
A0
330
1F
100
AcDbEntity
  8
외형선
  6
Continuous
 62
     1
370
    15
100
AcDbSpline
210
0.0
220
0.0
230
1.0
 70
     8
 71
     3
 72
    14
 73
    10
 74
     0
 42
0.000000001
 43
0.00000001
 40
0.0
 40
0.0
 40
0.0
 40
0.0
 40
0.25
 40
0.25
 40
0.5
 40
0.5
 40
0.75
 40
0.75
 40
1.0
 40
1.0
 40
1.0
 40
1.0
 10
54.14999999999998
 20
1.430712992991061
 30
0.0
 10
54.26936431916768
 20
1.362563113228242
 30
0.0
 10
54.3895981535362
 20
1.297444414177608
 30
0.0
 10
54.62544316958817
 20
1.179207469747175
 30
0.0
 10
54.73735042451572
 20
1.128104438679292
 30
0.0
 10
54.93208580806658
 20
1.048266465932739
 30
0.0
 10
55.01276499589311
 20
1.020429947359252
 30
0.0
 10
55.12145698441775
 20
0.9898419158058233
 30
0.0
 10
55.14999999999992
 20
0.9866780437009239
 30
0.0
 10
55.14999999999995
 20
0.9932383004778672
 30
0.0
  0
LINE
  5
A1
330
1F
100
AcDbEntity
  8
외형선
  6
Continuous
 62
     1
370
    15
100
AcDbLine
 10
55.15000000000001
 20
-8.243238300477753
 30
0.0
 11
55.15000000000001
 21
0.9824070193384425
 31
0.0
  0
SPLINE
  5
A2
330
1F
100
AcDbEntity
  8
외형선
  6
Continuous
 62
     1
370
    15
100
AcDbSpline
210
0.0
220
0.0
230
1.0
 70
     8
 71
     3
 72
    14
 73
    10
 74
     0
 42
0.000000001
 43
0.00000001
 40
0.0
 40
0.0
 40
0.0
 40
0.0
 40
0.25
 40
0.25
 40
0.5
 40
0.5
 40
0.75
 40
0.75
 40
1.0
 40
1.0
 40
1.0
 40
1.0
 10
55.15000000000001
 20
-8.243238300477753
 30
0.0
 10
55.15000000000003
 20
-8.369090204548487
 30
0.0
 10
55.1171502156447
 20
-8.479402721985045
 30
0.0
 10
55.0053149183882
 20
-8.656586018320917
 30
0.0
 10
54.92636225625841
 20
-8.723839678617486
 30
0.0
 10
54.74092677042727
 20
-8.814718841767174
 30
0.0
 10
54.63433201039536
 20
-8.838931518671318
 30
0.0
 10
54.40287703393754
 20
-8.847650209873906
 30
0.0
 10
54.27914689921601
 20
-8.832313768105136
 30
0.0
 10
54.15000000000001
 20
-8.796884502973723
 30
0.0
  0
SPLINE
  5
A3
330
1F
100
AcDbEntity
  8
외형선
  6
Continuous
 62
     1
370
    15
100
AcDbSpline
210
0.0
220
0.0
230
1.0
 70
     8
 71
     3
 72
    54
 73
    50
 74
     0
 42
0.000000001
 43
0.00000001
 40
0.0
 40
0.0
 40
0.0
 40
0.0
 40
0.0312499999999987
 40
0.0312499999999987
 40
0.0624999999999974
 40
0.0624999999999974
 40
0.1249999999999949
 40
0.1249999999999949
 40
0.1562499999999944
 40
0.1562499999999944
 40
0.1874999999999939
 40
0.1874999999999939
 40
0.2499999999999913
 40
0.2499999999999913
 40
0.2812499999999909
 40
0.2812499999999909
 40
0.3124999999999905
 40
0.3124999999999905
 40
0.3749999999999911
 40
0.3749999999999911
 40
0.4062499999999915
 40
0.4062499999999915
 40
0.4374999999999918
 40
0.4374999999999918
 40
0.4999999999999925
 40
0.4999999999999925
 40
0.5312499999999936
 40
0.5312499999999936
 40
0.5624999999999948
 40
0.5624999999999948
 40
0.6249999999999954
 40
0.6249999999999954
 40
0.6562499999999957
 40
0.6562499999999957
 40
0.6874999999999961
 40
0.6874999999999961
 40
0.7499999999999968
 40
0.7499999999999968
 40
0.7812499999999974
 40
0.7812499999999974
 40
0.8124999999999982
 40
0.8124999999999982
 40
0.8749999999999988
 40
0.8749999999999988
 40
0.9374999999999993
 40
0.9374999999999993
 40
0.9687499999999996
 40
0.9687499999999996
 40
1.0
 40
1.0
 40
1.0
 40
1.0
 10
54.14999999999998
 20
-8.796884502973716
 30
0.0
 10
53.74325880961977
 20
-8.685301944187309
 30
0.0
 10
53.33577365041617
 20
-8.566377750036583
 30
0.0
 10
52.52234114197574
 20
-8.31473002515773
 30
0.0
 10
52.11748548996017
 20
-8.182133736444671
 30
0.0
 10
50.90182752174871
 20
-7.764360421505474
 30
0.0
 10
50.08463724878035
 20
-7.45844301533459
 30
0.0
 10
48.86684207675737
 20
-6.965181296310404
 30
0.0
 10
48.4629016028057
 20
-6.795160720949657
 30
0.0
 10
47.65036381587434
 20
-6.44354477906522
 30
0.0
 10
47.242969342261
 20
-6.262105612667353
 30
0.0
 10
46.02194444551508
 20
-5.702886407120949
 30
0.0
 10
45.21385547082116
 20
-5.310930870473143
 30
0.0
 10
43.99315886624333
 20
-4.697305149877176
 30
0.0
 10
43.58569890330241
 20
-4.488615345998381
 30
0.0
 10
42.77268191368813
 20
-4.064496727229336
 30
0.0
 10
42.3684388598031
 20
-3.849306760314287
 30
0.0
 10
41.15162537802176
 20
-3.194040773805779
 30
0.0
 10
40.33439234841504
 20
-2.744092589260442
 30
0.0
 10
39.11762754473214
 20
-2.05949146980391
 30
0.0
 10
38.71336364626196
 20
-1.829656131969081
 30
0.0
 10
37.9003262779882
 20
-1.366494178932258
 30
0.0
 10
37.49286424954276
 20
-1.133413414627905
 30
0.0
 10
36.27218589639014
 20
-0.4322648521042743
 30
0.0
 10
35.46409113993212
 20
0.0370462632932255
 30
0.0
 10
34.24305389082832
 20
0.7402175939891437
 30
0.0
 10
33.83566345670205
 20
0.9742618084765229
 30
0.0
 10
33.023149962953
 20
1.439922930954359
 30
0.0
 10
32.6192168512783
 20
1.671315557138382
 30
0.0
 10
31.40137884302144
 20
2.361938088830927
 30
0.0
 10
30.58419255587552
 20
2.817040611632274
 30
0.0
 10
29.36858909008877
 20
3.48165842625738
 30
0.0
 10
28.96369911868707
 20
3.700458034626226
 30
0.0
 10
28.15025015347256
 20
4.132244008743903
 30
0.0
 10
27.74276490349714
 20
4.345033195878131
 30
0.0
 10
26.5225654762474
 20
4.971719059999748
 30
0.0
 10
25.71420531101585
 20
5.373613132425545
 30
0.0
 10
24.49295992953105
 20
5.949317930262779
 30
0.0
 10
24.08568333152639
 20
6.13648661526722
 30
0.0
 10
23.27376112884669
 20
6.499996515170444
 30
0.0
 10
22.86983519182603
 20
6.67624718015121
 30
0.0
 10
21.65110401351414
 20
7.189057603486662
 30
0.0
 10
20.83405395078653
 20
7.508852244319728
 30
0.0
 10
19.21497184878787
 20
8.095005958439673
 30
0.0
 10
18.39921677896422
 20
8.363035088265912
 30
0.0
 10
17.17962848674137
 20
8.72190614283472
 30
0.0
 10
16.77534174835444
 20
8.834218925185652
 30
0.0
 10
15.96419993489798
 20
9.04435174651044
 30
0.0
 10
15.55710697546814
 20
9.14217217836659
 30
0.0
 10
15.15000000000003
 20
9.232355484093747
 30
0.0
  0
SPLINE
  5
A4
330
1F
100
AcDbEntity
  8
외형선
  6
Continuous
 62
     1
370
    15
100
AcDbSpline
210
0.0
220
0.0
230
1.0
 70
     8
 71
     3
 72
    18
 73
    14
 74
     0
 42
0.000000001
 43
0.00000001
 40
0.0
 40
0.0
 40
0.0
 40
0.0
 40
0.0709448501129886
 40
0.1594224680263931
 40
0.2479002663774141
 40
0.3363783079373701
 40
0.4248566554521383
 40
0.5133353716355871
 40
0.610667107990781
 40
0.7080009017537494
 40
0.8053352903056513
 40
0.9026688105155087
 40
1.0
 40
1.0
 40
1.0
 40
1.0
 10
18.88794755921169
 20
8.182990593530507
 30
0.0
 10
19.72179315138864
 20
8.45042453166006
 30
0.0
 10
21.59555455966655
 20
9.05138398654268
 30
0.0
 10
24.50923420100231
 20
9.646399610794028
 30
0.0
 10
27.62899277641944
 20
10.00135671785835
 30
0.0
 10
30.74875237086533
 20
10.02466134458485
 30
0.0
 10
33.86855955972776
 20
9.725733390150133
 30
0.0
 10
37.09229822123999
 20
9.091085620198841
 30
0.0
 10
40.42065968176536
 20
8.105709796146268
 30
0.0
 10
43.85298339209717
 20
6.772534355924195
 30
0.0
 10
47.28537215741854
 20
5.173253759642169
 30
0.0
 10
50.71771533150421
 20
3.375543657756828
 30
0.0
 10
53.00591424272206
 20
2.078984706668876
 30
0.0
 10
54.15000000000003
 20
1.430712992991037
 30
0.0
  0
SPLINE
  5
A6
330
1F
100
AcDbEntity
  8
외형선
  6
Continuous
 62
     1
370
    15
100
AcDbSpline
210
0.0
220
0.0
230
1.0
 70
     8
 71
     3
 72
    17
 73
    13
 74
     0
 42
0.000000001
 43
0.00000001
 40
0.0
 40
0.0
 40
0.0
 40
0.0
 40
0.0419265633728103
 40
0.1427765074406011
 40
0.2436272662906805
 40
0.3444789109820433
 40
0.4453315124812596
 40
0.5562550731211735
 40
0.6671853628946918
 40
0.7781207231370432
 40
0.8890594908241658
 40
1.0
 40
1.0
 40
1.0
 40
1.0
 10
46.08749905923332
 20
-8.166082400426864
 30
0.0
 10
45.65515239637539
 20
-8.31674638367251
 30
0.0
 10
44.18284125134872
 20
-8.82981675229836
 30
0.0
 10
41.67055135853376
 20
-9.418386759306696
 30
0.0
 10
38.55062622357253
 20
-9.904093263318373
 30
0.0
 10
35.4306476114993
 20
-10.05333765563093
 30
0.0
 10
32.20686944756546
 20
-9.875913295109187
 30
0.0
 10
28.87883792499507
 20
-9.33304154179491
 30
0.0
 10
25.44686234710197
 20
-8.409127016118395
 30
0.0
 10
22.01467719652228
 20
-7.153136986484478
 30
0.0
 10
18.58237130923832
 20
-5.628019568805274
 30
0.0
 10
16.29412975640529
 20
-4.437572720631122
 30
0.0
 10
15.15
 20
-3.842344624747345
 30
0.0
  0
SPLINE
  5
A7
330
1F
100
AcDbEntity
  8
외형선
  6
Continuous
370
    15
100
AcDbSpline
210
0.0
220
0.0
230
1.0
 70
    24
 71
     3
 72
    30
 73
    26
 74
     0
 42
0.000000001
 43
0.00000001
 40
0.0
 40
0.0
 40
0.0
 40
0.0
 40
0.1249999999999992
 40
0.1249999999999992
 40
0.2499999999999985
 40
0.2499999999999985
 40
0.3124999999999982
 40
0.3124999999999982
 40
0.3437499999999982
 40
0.3437499999999982
 40
0.3749999999999982
 40
0.3749999999999982
 40
0.4999999999999984
 40
0.4999999999999984
 40
0.6249999999999987
 40
0.6249999999999987
 40
0.749999999999999
 40
0.749999999999999
 40
0.8124999999999992
 40
0.8124999999999992
 40
0.8749999999999994
 40
0.8749999999999994
 40
0.9374999999999998
 40
0.9374999999999998
 40
1.0
 40
1.0
 40
1.0
 40
1.0
 10
15.14999999999997
 20
-3.842344624747358
 30
0.0
 10
15.15
 20
-3.77965564908251
 30
0.0
 10
15.15
 20
-3.600150323755158
 30
0.0
 10
15.15
 20
-3.129414800207623
 30
0.0
 10
15.15000000000003
 20
-2.839189791959063
 30
0.0
 10
15.15
 20
-2.385853669164186
 30
0.0
 10
15.15
 20
-2.23136520173112
 30
0.0
 10
15.15000000000003
 20
-1.999490052048351
 30
0.0
 10
15.15
 20
-1.923467538249442
 30
0.0
 10
15.15
 20
-1.764993050328018
 30
0.0
 10
15.14999999999997
 20
-1.681830600454279
 30
0.0
 10
15.14999999999997
 20
-1.244982175269158
 30
0.0
 10
15.14999999999997
 20
-0.8273313681647143
 30
0.0
 10
15.15000000000003
 20
0.1708597039193147
 30
0.0
 10
15.15
 20
0.7530937136859303
 30
0.0
 10
15.15
 20
2.061994430104732
 30
0.0
 10
15.14999999999997
 20
2.789836234722848
 30
0.0
 10
15.14999999999997
 20
3.902727980837238
 30
0.0
 10
15.14999999999997
 20
4.276277894266462
 30
0.0
 10
15.14999999999997
 20
5.00492451628156
 30
0.0
 10
15.14999999999997
 20
5.359860105910274
 30
0.0
 10
15.14999999999997
 20
6.0256950666736
 30
0.0
 10
15.15000000000003
 20
6.336411401214275
 30
0.0
 10
15.15
 20
6.89185057301941
 30
0.0
 10
15.14999999999991
 20
7.136447487066585
 30
0.0
 10
15.14999999999997
 20
7.341351697997722
 30
0.0
  0
SPLINE
  5
A8
330
1F
100
AcDbEntity
  8
외형선
  6
Continuous
 62
     1
370
    15
100
AcDbSpline
210
0.0
220
0.0
230
1.0
 70
     8
 71
     3
 72
    54
 73
    50
 74
     0
 42
0.000000001
 43
0.00000001
 40
0.0
 40
0.0
 40
0.0
 40
0.0
 40
0.0312500000000006
 40
0.0312500000000006
 40
0.0625000000000012
 40
0.0625000000000012
 40
0.1250000000000025
 40
0.1250000000000025
 40
0.1562500000000023
 40
0.1562500000000023
 40
0.1875000000000021
 40
0.1875000000000021
 40
0.2500000000000017
 40
0.2500000000000017
 40
0.2812500000000014
 40
0.2812500000000014
 40
0.3125000000000012
 40
0.3125000000000012
 40
0.3750000000000008
 40
0.3750000000000008
 40
0.4062500000000014
 40
0.4062500000000014
 40
0.4375000000000019
 40
0.4375000000000019
 40
0.5000000000000016
 40
0.5000000000000016
 40
0.5312500000000013
 40
0.5312500000000013
 40
0.562500000000001
 40
0.562500000000001
 40
0.6250000000000006
 40
0.6250000000000006
 40
0.6562500000000008
 40
0.6562500000000008
 40
0.687500000000001
 40
0.687500000000001
 40
0.7500000000000013
 40
0.7500000000000013
 40
0.7812500000000016
 40
0.7812500000000016
 40
0.8125000000000017
 40
0.8125000000000017
 40
0.8750000000000011
 40
0.8750000000000011
 40
0.9375000000000007
 40
0.9375000000000007
 40
0.9687500000000003
 40
0.9687500000000003
 40
1.0
 40
1.0
 40
1.0
 40
1.0
 10
54.14999999999995
 20
-9.945025303399907
 30
0.0
 10
53.74325880961983
 20
-9.86355377186207
 30
0.0
 10
53.33577365041623
 20
-9.821779803844805
 30
0.0
 10
52.52234114197579
 20
-9.722135255116207
 30
0.0
 10
52.11748548996026
 20
-9.66432591287648
 30
0.0
 10
50.90182752174877
 20
-9.467137331299478
 30
0.0
 10
50.08463724878032
 20
-9.303530609235619
 30
0.0
 10
48.8668420767574
 20
-9.013445556269424
 30
0.0
 10
48.46290160280576
 20
-8.909409684113577
 30
0.0
 10
47.6503638158744
 20
-8.686420397273157
 30
0.0
 10
47.24296934226111
 20
-8.567553933021276
 30
0.0
 10
46.02194444551516
 20
-8.19012394346483
 30
0.0
 10
45.2138554708211
 20
-7.911259643309839
 30
0.0
 10
43.99315886624333
 20
-7.454252052457289
 30
0.0
 10
43.58569890330247
 20
-7.295555218123877
 30
0.0
 10
42.77268191368808
 20
-6.966629597792168
 30
0.0
 10
42.36843885980307
 20
-6.796594902475239
 30
0.0
 10
41.15162537802176
 20
-6.269555523592546
 30
0.0
 10
40.3343923484151
 20
-5.895394326868654
 30
0.0
 10
39.11762754473217
 20
-5.308247722871716
 30
0.0
 10
38.71336364626199
 20
-5.108214972803727
 30
0.0
 10
37.9003262779882
 20
-4.699309122702153
 30
0.0
 10
37.49286424954279
 20
-4.490645043237534
 30
0.0
 10
36.27218589639014
 20
-3.854332884727998
 30
0.0
 10
35.46409113993221
 20
-3.416998134378468
 30
0.0
 10
34.24305389082829
 20
-2.744668285332638
 30
0.0
 10
33.83566345670216
 20
-2.518033470121867
 30
0.0
 10
33.02314996295306
 20
-2.061404639478956
 30
0.0
 10
32.61921685127825
 20
-1.83163972524949
 30
0.0
 10
31.40137884302138
 20
-1.137246966449516
 30
0.0
 10
30.58419255587552
 20
-0.668016241640769
 30
0.0
 10
29.36858909008869
 20
0.034871191023067
 30
0.0
 10
28.96369911868702
 20
0.2692717166692377
 30
0.0
 10
28.15025015347253
 20
0.7379473077109318
 30
0.0
 10
27.74276490349717
 20
0.9720145419001487
 30
0.0
 10
26.52256547624734
 20
1.670797443431604
 30
0.0
 10
25.71420531101582
 20
2.131703619229752
 30
0.0
 10
24.49295992953108
 20
2.811881419043161
 30
0.0
 10
24.08568333152644
 20
3.036504382186767
 30
0.0
 10
23.27376112884666
 20
3.479890584378548
 30
0.0
 10
22.86983519182598
 20
3.698531604565993
 30
0.0
 10
21.65110401351416
 20
4.346014991123535
 30
0.0
 10
20.83405395078661
 20
4.765485754524429
 30
0.0
 10
19.21497184878784
 20
5.56776731865102
 30
0.0
 10
18.39921677896422
 20
5.952848259911261
 30
0.0
 10
17.17962848674131
 20
6.498462005638598
 30
0.0
 10
16.77534174835438
 20
6.674791887049526
 30
0.0
 10
15.96419993489795
 20
7.016543557934637
 30
0.0
 10
15.55710697546808
 20
7.181983466117313
 30
0.0
 10
15.14999999999997
 20
7.341351697997734
 30
0.0
  0
LINE
  5
A9
330
1F
100
AcDbEntity
  8
외형선
  6
Continuous
370
    15
100
AcDbLine
 10
15.15
 20
9.232355484093745
 30
0.0
 11
15.15
 21
7.341351697997728
 31
0.0
  0
SPLINE
  5
AA
330
1F
100
AcDbEntity
  8
외형선
  6
Continuous
 62
     1
370
    15
100
AcDbSpline
210
0.0
220
0.0
230
1.0
 70
     8
 71
     3
 72
    14
 73
    10
 74
     0
 42
0.000000001
 43
0.00000001
 40
0.0
 40
0.0
 40
0.0
 40
0.0
 40
0.2499999999999997
 40
0.2499999999999997
 40
0.4999999999999998
 40
0.4999999999999998
 40
0.7499999999999999
 40
0.7499999999999999
 40
1.0
 40
1.0
 40
1.0
 40
1.0
 10
55.15000000000001
 20
3.612343051474458
 30
0.0
 10
55.15000000000001
 20
3.69320179018288
 30
0.0
 10
55.11715021564459
 20
3.791237573373766
 30
0.0
 10
55.00531491838817
 20
3.999317686611842
 30
0.0
 10
54.92636225625846
 20
4.109392089015451
 30
0.0
 10
54.74092677042727
 20
4.321276795319188
 30
0.0
 10
54.6343320103953
 20
4.423483805693739
 30
0.0
 10
54.40287703393748
 20
4.60821392210442
 30
0.0
 10
54.27914689921598
 20
4.689966309986108
 30
0.0
 10
54.15000000000001
 20
4.755504499139887
 30
0.0
  0
LINE
  5
AB
330
1F
100
AcDbEntity
  8
외형선
  6
Continuous
 62
     1
370
    15
100
AcDbLine
 10
55.15000000000001
 20
3.612343051474459
 30
0.0
 11
55.15000000000001
 21
0.9932383004778679
 31
0.0
  0
SPLINE
  5
AC
330
1F
100
AcDbEntity
  8
외형선
  6
Continuous
 62
     1
370
    15
100
AcDbSpline
210
0.0
220
0.0
230
1.0
 70
     8
 71
     3
 72
    13
 73
     9
 74
     0
 42
0.000000001
 43
0.00000001
 40
0.0
 40
0.0
 40
0.0
 40
0.0
 40
0.1675235380900023
 40
0.3350480747381255
 40
0.5025737283710036
 40
0.6701006172985807
 40
0.8376288597017915
 40
1.0
 40
1.0
 40
1.0
 40
1.0
 10
54.14999999999998
 20
4.755504499139908
 30
0.0
 10
53.11005896301807
 20
5.268823681902522
 30
0.0
 10
51.03017069027419
 20
6.295465107171141
 30
0.0
 10
47.91032364299805
 20
7.590037010467615
 30
0.0
 10
44.79045190335401
 20
8.651849866534885
 30
0.0
 10
41.67055237479578
 20
9.424035234445718
 30
0.0
 10
38.58264629537153
 20
9.912056791664432
 30
0.0
 10
36.53470335890577
 20
9.96775600376611
 30
0.0
 10
35.52673896947081
 20
9.995170255070873
 30
0.0
  0
SPLINE
  5
AD
330
1F
100
AcDbEntity
  8
외형선
  6
Continuous
 62
     1
370
    15
100
AcDbSpline
210
0.0
220
0.0
230
1.0
 70
     8
 71
     3
 72
    12
 73
     8
 74
     0
 42
0.000000001
 43
0.00000001
 40
0.0
 40
0.0
 40
0.0
 40
0.0
 40
0.2184891561909353
 40
0.4369784478176938
 40
0.6554680299668981
 40
0.8739580576947735
 40
1.0
 40
1.0
 40
1.0
 40
1.0
 10
15.14999999999997
 20
-6.790033523209272
 30
0.0
 10
16.18991365605343
 20
-7.209356467505727
 30
0.0
 10
18.26974161277617
 20
-8.048002616026173
 30
0.0
 10
21.3894856023707
 20
-8.990366549182799
 30
0.0
 10
24.50923466323449
 20
-9.642889975424543
 30
0.0
 10
27.18897504742237
 20
-9.979121129124586
 30
0.0
 10
28.82880024109205
 20
-9.965437029755218
 30
0.0
 10
29.42870611464949
 20
-9.960430903725614
 30
0.0
  0
LINE
  5
AE
330
1F
100
AcDbEntity
  8
외형선
  6
Continuous
370
    15
100
AcDbLine
 10
15.15
 20
-3.842344624747341
 30
0.0
 11
15.15
 21
-6.790033523209263
 31
0.0
  0
LINE
  5
B0
330
1F
100
AcDbEntity
  8
외형선
  6
Continuous
 62
     1
370
    15
100
AcDbLine
 10
55.15000000000001
 20
3.612343051474459
 30
0.0
 11
55.15000000000001
 21
8.945025303399936
 31
0.0
  0
SPLINE
  5
B1
330
1F
100
AcDbEntity
  8
외형선
  6
Continuous
 62
     1
370
    15
100
AcDbSpline
210
0.0
220
0.0
230
1.0
 70
     8
 71
     3
 72
    10
 73
     6
 74
     0
 42
0.000000001
 43
0.00000001
 40
0.0
 40
0.0
 40
0.0
 40
0.0
 40
0.1485738181389037
 40
0.5742920061427746
 40
1.0
 40
1.0
 40
1.0
 40
1.0
 10
46.08749905923332
 20
8.166082400426866
 30
0.0
 10
46.48679269555825
 20
8.307359214960577
 30
0.0
 10
48.03020826041038
 20
8.853445640256401
 30
0.0
 10
50.71771574992817
 20
9.489128822842211
 30
0.0
 10
53.00591438219563
 20
9.761126587415227
 30
0.0
 10
54.14999999999995
 20
9.94502530339994
 30
0.0
  0
SPLINE
  5
B2
330
1F
100
AcDbEntity
  8
외형선
  6
Continuous
 62
     1
370
    15
100
AcDbSpline
210
0.0
220
0.0
230
1.0
 70
     8
 71
     3
 72
     9
 73
     5
 74
     0
 42
0.000000001
 43
0.00000001
 40
0.0
 40
0.0
 40
0.0
 40
0.0
 40
0.0817457225536341
 40
1.0
 40
1.0
 40
1.0
 40
1.0
 10
18.88794755921153
 20
-8.182990593530503
 30
0.0
 10
18.78609412442539
 20
-8.220824307986156
 30
0.0
 10
17.5401153550859
 20
-8.68364625479601
 30
0.0
 10
16.29413072041708
 20
-8.969692393594757
 30
0.0
 10
15.15
 20
-9.232355484093723
 30
0.0
  0
SPLINE
  5
B3
330
1F
100
AcDbEntity
  8
외형선
  6
Continuous
370
    15
100
AcDbSpline
210
0.0
220
0.0
230
1.0
 70
    24
 71
     3
 72
    11
 73
     7
 74
     0
 42
0.000000001
 43
0.00000001
 40
0.0
 40
0.0
 40
0.0
 40
0.0
 40
0.2654168487598785
 40
0.534057594545926
 40
0.9382637555132155
 40
1.0
 40
1.0
 40
1.0
 40
1.0
 10
15.15
 20
-9.23235548409372
 30
0.0
 10
15.14999999999997
 20
-9.015405123275583
 30
0.0
 10
15.15
 20
-8.578869204867381
 30
0.0
 10
15.1499999999998
 20
-7.835652859465074
 30
0.0
 10
15.15000000000011
 20
-7.259202697474822
 30
0.0
 10
15.15
 20
-6.936929962902251
 30
0.0
 10
15.15000000000003
 20
-6.894229603157988
 30
0.0
  0
LINE
  5
B4
330
1F
100
AcDbEntity
  8
외형선
  6
Continuous
 62
     1
370
    15
100
AcDbLine
 10
55.15000000000001
 20
-8.243238300477753
 30
0.0
 11
55.15000000000001
 21
-8.945025303399936
 31
0.0
  0
LINE
  5
B5
330
1F
100
AcDbEntity
  8
외형선
  6
Continuous
370
    15
100
AcDbLine
 10
0.0
 20
0.0
 30
0.0
 11
0.0
 21
9.999999999999998
 31
0.0
  0
LINE
  5
B6
330
1F
100
AcDbEntity
  8
외형선
  6
Continuous
370
    15
100
AcDbLine
 10
0.0
 20
-9.999999999999998
 30
0.0
 11
0.0
 21
0.0
 31
0.0
  0
LINE
  5
B7
330
1F
100
AcDbEntity
  8
외형선
  6
Continuous
370
    15
100
AcDbLine
 10
-92.85000000000001
 20
0.0
 30
0.0
 11
-92.85000000000001
 21
9.999999999999998
 31
0.0
  0
LINE
  5
B8
330
1F
100
AcDbEntity
  8
외형선
  6
Continuous
370
    15
100
AcDbLine
 10
-92.85000000000001
 20
-9.999999999999998
 30
0.0
 11
-92.85000000000001
 21
0.0
 31
0.0
  0
LINE
  5
B9
330
1F
100
AcDbEntity
  8
외형선
  6
Continuous
370
    15
100
AcDbLine
 10
0.150000000000011
 20
0.0
 30
0.0
 11
0.150000000000011
 21
9.849999999999998
 31
0.0
  0
LINE
  5
BA
330
1F
100
AcDbEntity
  8
외형선
  6
Continuous
370
    15
100
AcDbLine
 10
0.150000000000011
 20
-9.849999999999998
 30
0.0
 11
0.150000000000011
 21
0.0
 31
0.0
  0
LINE
  5
BB
330
1F
100
AcDbEntity
  8
외형선
  6
Continuous
370
    15
100
AcDbLine
 10
-94.85
 20
0.0
 30
0.0
 11
-94.85
 21
8.000000000000021
 31
0.0
  0
LINE
  5
BC
330
1F
100
AcDbEntity
  8
외형선
  6
Continuous
370
    15
100
AcDbLine
 10
-94.85
 20
-8.000000000000021
 30
0.0
 11
-94.85
 21
0.0
 31
0.0
  0
LINE
  5
BD
330
1F
100
AcDbEntity
  8
외형선
  6
Continuous
370
    15
100
AcDbLine
 10
15.15000000000003
 20
7.26175139659663
 30
0.0
 11
15.15
 21
7.341351697997728
 31
0.0
  0
SPLINE
  5
BE
330
1F
100
AcDbEntity
  8
외형선
  6
Continuous
370
    15
100
AcDbSpline
210
0.0
220
0.0
230
1.0
 70
     8
 71
     3
 72
     8
 73
     4
 74
     0
 42
0.000000001
 43
0.00000001
 40
0.0
 40
0.0
 40
0.0
 40
0.0
 40
1.0
 40
1.0
 40
1.0
 40
1.0
 10
15.15
 20
7.261751396596623
 30
0.0
 10
14.81626850385001
 20
7.389798191664556
 30
0.0
 10
14.48252889535934
 20
7.513810100763845
 30
0.0
 10
14.14961311032925
 20
7.633487849448922
 30
0.0
  0
SPLINE
  5
BF
330
1F
100
AcDbEntity
  8
외형선
  6
Continuous
370
    15
100
AcDbSpline
210
0.0
220
0.0
230
1.0
 70
     8
 71
     3
 72
     8
 73
     4
 74
     0
 42
0.000000001
 43
0.00000001
 40
0.0
 40
0.0
 40
0.0
 40
0.0
 40
1.0
 40
1.0
 40
1.0
 40
1.0
 10
15.15000000000003
 20
-3.82627050359385
 30
0.0
 10
14.81626850385001
 20
-3.651633987353492
 30
0.0
 10
14.48252889535934
 20
-3.47486971947032
 30
0.0
 10
14.14961311032922
 20
-3.296423516917286
 30
0.0
  0
SPLINE
  5
C0
330
1F
100
AcDbEntity
  8
외형선
  6
Continuous
370
    15
100
AcDbSpline
210
0.0
220
0.0
230
1.0
 70
     8
 71
     3
 72
     8
 73
     4
 74
     0
 42
0.000000001
 43
0.00000001
 40
0.0
 40
0.0
 40
0.0
 40
0.0
 40
1.0
 40
1.0
 40
1.0
 40
1.0
 10
15.15
 20
-6.655033182038011
 30
0.0
 10
14.81626850385001
 20
-6.51531276780718
 30
0.0
 10
14.48252889535934
 20
-6.37189273375174
 30
0.0
 10
14.14961311032925
 20
-6.225139617094197
 30
0.0
  0
LINE
  5
C1
330
1F
100
AcDbEntity
  8
외형선
  6
Continuous
370
    15
100
AcDbLine
 10
14.14961311032922
 20
-9.849999999999998
 30
0.0
 11
14.14961311032922
 21
-6.225130339206824
 31
0.0
  0
SPLINE
  5
C2
330
1F
100
AcDbEntity
  8
외형선
  6
Continuous
370
    15
100
AcDbSpline
210
0.0
220
0.0
230
1.0
 70
     8
 71
     3
 72
     8
 73
     4
 74
     0
 42
0.000000001
 43
0.00000001
 40
0.0
 40
0.0
 40
0.0
 40
0.0
 40
1.0
 40
1.0
 40
1.0
 40
1.0
 10
15.15000000000003
 20
-9.076461537037876
 30
0.0
 10
14.81626850385001
 20
-9.150081256376096
 30
0.0
 10
14.48252889535934
 20
-9.218657151314803
 30
0.0
 10
14.14961311032922
 20
-9.282030596648285
 30
0.0
  0
LINE
  5
C3
330
1F
100
AcDbEntity
  8
외형선
  6
Continuous
370
    15
100
AcDbLine
 10
14.14961311032922
 20
9.282016928768465
 30
0.0
 11
14.14961311032922
 21
9.849999999999998
 31
0.0
  0
SPLINE
  5
C4
330
1F
100
AcDbEntity
  8
외형선
  6
Continuous
370
    15
100
AcDbSpline
210
0.0
220
0.0
230
1.0
 70
     8
 71
     3
 72
     8
 73
     4
 74
     0
 42
0.000000001
 43
0.00000001
 40
0.0
 40
0.0
 40
0.0
 40
0.0
 40
1.0
 40
1.0
 40
1.0
 40
1.0
 10
15.15000000000003
 20
9.076461537037899
 30
0.0
 10
14.81626850385001
 20
9.150081256376117
 30
0.0
 10
14.48252889535934
 20
9.218657151314826
 30
0.0
 10
14.14961311032922
 20
9.282030596648307
 30
0.0
  0
LINE
  5
C5
330
1F
100
AcDbEntity
  8
외형선
  6
Continuous
370
    15
100
AcDbLine
 10
14.14961311032922
 20
-3.296462002519706
 30
0.0
 11
14.14961311032922
 21
7.633495415593459
 31
0.0
  0
SPLINE
  5
C6
330
1F
100
AcDbEntity
  8
외형선
  6
Continuous
370
    15
100
AcDbSpline
210
0.0
220
0.0
230
1.0
 70
    24
 71
     3
 72
    30
 73
    26
 74
     0
 42
0.000000001
 43
0.00000001
 40
0.0
 40
0.0
 40
0.0
 40
0.0
 40
0.1250000000000002
 40
0.1250000000000002
 40
0.2500000000000003
 40
0.2500000000000003
 40
0.3125000000000004
 40
0.3125000000000004
 40
0.3437500000000003
 40
0.3437500000000003
 40
0.3750000000000003
 40
0.3750000000000003
 40
0.5000000000000002
 40
0.5000000000000002
 40
0.6250000000000002
 40
0.6250000000000002
 40
0.7500000000000002
 40
0.7500000000000002
 40
0.8125000000000002
 40
0.8125000000000002
 40
0.8750000000000001
 40
0.8750000000000001
 40
0.9375000000000001
 40
0.9375000000000001
 40
1.0
 40
1.0
 40
1.0
 40
1.0
 10
15.15
 20
-3.82627050359388
 30
0.0
 10
15.15000000000003
 20
-3.747717373526813
 30
0.0
 10
15.15
 20
-3.560991005003897
 30
0.0
 10
15.15
 20
-3.085849398566864
 30
0.0
 10
15.15000000000003
 20
-2.7982364823735
 30
0.0
 10
15.15000000000003
 20
-2.351149451181434
 30
0.0
 10
15.15000000000003
 20
-2.199157638066624
 30
0.0
 10
15.15
 20
-1.971269997538897
 30
0.0
 10
15.15000000000003
 20
-1.896625548158082
 30
0.0
 10
15.15
 20
-1.739184695074536
 30
0.0
 10
15.15000000000005
 20
-1.65664313499364
 30
0.0
 10
15.15
 20
-1.22349660462987
 30
0.0
 10
15.14999999999997
 20
-0.8107559949496417
 30
0.0
 10
15.15
 20
0.1720493293445676
 30
0.0
 10
15.15
 20
0.7436714076762113
 30
0.0
 10
15.15
 20
2.026862086394456
 30
0.0
 10
15.14999999999997
 20
2.739535937916201
 30
0.0
 10
15.15
 20
3.832273258796915
 30
0.0
 10
15.15
 20
4.199604497042382
 30
0.0
 10
15.15
 20
4.918265565575727
 30
0.0
 10
15.15
 20
5.269451611867774
 30
0.0
 10
15.15
 20
5.931503542194065
 30
0.0
 10
15.15
 20
6.24220042474272
 30
0.0
 10
15.14999999999997
 20
6.801859711132931
 30
0.0
 10
15.15
 20
7.050697696648558
 30
0.0
 10
15.14999999999997
 20
7.261751396596607
 30
0.0
  0
SPLINE
  5
C7
330
1F
100
AcDbEntity
  8
외형선
  6
Continuous
370
    15
100
AcDbSpline
210
0.0
220
0.0
230
1.0
 70
    24
 71
     3
 72
    10
 73
     6
 74
     0
 42
0.000000001
 43
0.00000001
 40
0.0
 40
0.0
 40
0.0
 40
0.0
 40
0.2831686187380804
 40
0.5697517357352438
 40
1.0
 40
1.0
 40
1.0
 40
1.0
 10
15.15
 20
-9.076461537037884
 30
0.0
 10
15.14999999999997
 20
-8.861424644866503
 30
0.0
 10
15.14999999999994
 20
-8.428757906907517
 30
0.0
 10
15.14999999999994
 20
-7.687482015513422
 30
0.0
 10
15.14999999999997
 20
-7.191757596577522
 30
0.0
 10
15.15000000000003
 20
-6.894219603157987
 30
0.0
  0
LINE
  5
C8
330
1F
100
AcDbEntity
  8
중심선
 62
     1
100
AcDbLine
 10
-97.85
 20
-0.0000000000000039
 30
0.0
 11
58.15000000000001
 21
0.0000000000000156
 31
0.0
  0
LINE
  5
C9
330
1F
100
AcDbEntity
  8
참조1
100
AcDbLine
 10
-19.84999999999999
 20
-0.0000000000000039
 30
0.0
 11
-19.84999999999999
 21
-40.00000000000001
 31
0.0
  0
LINE
  5
CA
330
1F
100
AcDbEntity
  8
참조1
100
AcDbLine
 10
-19.84999999999999
 20
-40.00000000000001
 30
0.0
 11
-80.00885681430867
 21
-40.0
 31
0.0
  0
CIRCLE
  5
CB
330
1F
100
AcDbEntity
  8
해칭선
100
AcDbCircle
 10
0.0
 20
-0.0010749287238931
 30
0.0
 40
3.000000000000008
  0
INSERT
  5
CC
330
1F
100
AcDbEntity
  8
0
  6
Continuous
 62
     7
100
AcDbBlockReference
 66
     1
  2
블럭10
 10
-33.79027293212521
 20
-52.04717430164393
 30
0.0
  0
ATTRIB
  5
CD
330
CC
100
AcDbEntity
  8
FORMAT
 62
     2
100
AcDbText
 10
-54.64852046371774
 20
-49.97180738881175
 30
0.0
 40
4.233333333333333
  1
SEME6420010150E [ 4 FLUTE ]
 41
0.75
  7
SLDTEXTSTYLE0
 11
-54.64852046371774
 21
-52.08847405547841
 31
0.0
100
AcDbAttribute
  2
AUTOATTR0
 70
     0
 74
     1
  0
SEQEND
  5
CE
330
CC
100
AcDbEntity
  8
0
  6
Continuous
 62
     7
  0
HATCH
  5
CF
330
1F
100
AcDbEntity
  8
중심선
100
AcDbHatch
 10
0.0
 20
0.0
 30
0.0
210
0.0
220
0.0
230
1.0
  2
SOLID
 70
     1
 71
     0
 91
        1
 92
        0
 93
        4
 72
     1
 10
-28.07536362774434
 20
-35.8
 11
-31.52163887158163
 21
-35.8
 72
     1
 10
-31.52163887158163
 20
-35.8
 11
-33.64986873078565
 21
-38.3363255805726
 72
     1
 10
-33.64986873078565
 20
-38.3363255805726
 11
-30.20356040183522
 21
-38.33628615127011
 72
     1
 10
-30.20356040183522
 20
-38.33628615127011
 11
-28.07536362774434
 21
-35.8
 97
        0
 75
     0
 76
     1
 98
        1
 10
4.999999999999977
 20
-0.0010749287238931
  0
HATCH
  5
D0
330
1F
100
AcDbEntity
  8
중심선
100
AcDbHatch
 10
0.0
 20
0.0
 30
0.0
210
0.0
220
0.0
230
1.0
  2
SOLID
 70
     1
 71
     0
 91
        1
 92
        0
 93
        4
 72
     1
 10
-23.0625996367084
 20
-35.8
 11
-26.50887488054563
 21
-35.79999999999998
 72
     1
 10
-26.50887488054563
 20
-35.79999999999998
 11
-31.04001288890307
 21
-41.20000000000002
 72
     1
 10
-31.04001288890306
 20
-41.20000000000002
 11
-27.59373764506579
 21
-41.20000000000002
 72
     1
 10
-27.59373764506579
 20
-41.20000000000002
 11
-23.06259963670839
 21
-35.8
 97
        0
 75
     0
 76
     1
 98
        1
 10
4.999999999999977
 20
-0.0010749287238931
  0
HATCH
  5
D1
330
1F
100
AcDbEntity
  8
중심선
100
AcDbHatch
 10
0.0
 20
0.0
 30
0.0
210
0.0
220
0.0
230
1.0
  2
SOLID
 70
     1
 71
     0
 91
        1
 92
        0
 93
        4
 72
     1
 10
-18.04983564567245
 20
-35.79999999999998
 11
-21.49611088950962
 21
-35.79999999999998
 72
     1
 10
-21.49611088950962
 20
-35.79999999999998
 11
-28.54454779139886
 21
-44.20000000000002
 72
     1
 10
-28.54454779139886
 20
-44.20000000000002
 11
-25.09827254756158
 21
-44.20000000000002
 72
     1
 10
-25.09827254756159
 20
-44.20000000000002
 11
-18.04983564567245
 21
-35.79999999999998
 97
        0
 75
     0
 76
     1
 98
        1
 10
4.999999999999977
 20
-0.0010749287238931
  0
HATCH
  5
D2
330
1F
100
AcDbEntity
  8
중심선
100
AcDbHatch
 10
0.0
 20
0.0
 30
0.0
210
0.0
220
0.0
230
1.0
  2
SOLID
 70
     1
 71
     0
 91
        1
 92
        0
 93
        6
 72
     3
 10
-13.2499452146603
 20
-40.00000000005127
 11
3.960054785062283
 21
1.540882976769353E-10
 40
0.3939339440162628
 50
17.09539180608455
 51
320.0019657685075
 73
     0
 72
     1
 10
-11.56694555895974
 20
-38.5878940046383
 11
-9.261643685258697
 21
-36.65356729459038
 72
     3
 10
-13.24994521471315
 20
-40.00000000000015
 11
6.600054785286829
 21
-1.278976924368180E-13
 40
0.636358354079598
 50
39.99873849337429
 51
368.4976242363725
 73
     1
 72
     1
 10
-6.824612722812567
 20
-39.03999999993002
 11
-14.56987790787725
 21
-39.03999999993002
 72
     1
 10
-14.56987790787725
 20
-39.03999999993002
 11
-14.56990295232316
 21
-40.95999999992991
 72
     1
 10
-14.56990295232316
 20
-40.95999999992991
 11
-10.12852318285115
 21
-40.95999999992988
 97
        0
 75
     0
 76
     1
 98
        1
 10
4.999999999999977
 20
-0.0010749287238931
  0
DIMENSION
  5
D3
330
1F
100
AcDbEntity
  8
치수문자_일반주서
100
AcDbDimension
  2
_D
 10
74.80500990566595
 20
-9.99999999999984
 30
0.0
 11
74.80500990566593
 21
-0.2848011986084948
 31
0.0
 70
   160
  1
%%c<>
 71
     2
 42
19.99999999999998
 52
-270.0
  3
SLDDIMSTYLE0
100
AcDbAlignedDimension
 13
35.52690556567597
 23
9.999999999999995
 33
0.0
 14
35.52690556567597
 24
-9.999999999999988
 34
0.0
 50
90.0000000000002
100
AcDbRotatedDimension
1001
PE_URL
1000

  0
DIMENSION
  5
E1
330
1F
100
AcDbEntity
  8
치수문자_일반주서
100
AcDbDimension
  2
_D_1
 10
-102.8384684361648
 20
-10.00000000000005
 30
0.0
 11
-102.8384684361648
 21
0.0000000000000098
 31
0.0
 70
   160
  1
%%c<>
 71
     2
 42
20.00000000000002
 52
-270.0
  3
SLDDIMSTYLE0
100
AcDbAlignedDimension
 13
-92.85
 23
10.00000000000001
 33
0.0
 14
-92.85
 24
-10.00000000000001
 34
0.0
 50
90.0000000000002
100
AcDbRotatedDimension
  0
DIMENSION
  5
EE
330
1F
100
AcDbEntity
  8
치수문자_일반주서
100
AcDbDimension
  2
_D_2
 10
15.15
 20
19.08106406744294
 30
0.0
 11
35.15000000000001
 21
19.08106406744294
 31
0.0
 70
   160
  1
<>
 71
     2
 42
40.00000000000001
  3
SLDDIMSTYLE0
100
AcDbAlignedDimension
 13
55.15000000000001
 23
8.945025303399936
 33
0.0
 14
15.15
 24
9.232355484093745
 34
0.0
100
AcDbRotatedDimension
1001
PE_URL
1000

  0
DIMENSION
  5
F9
330
1F
100
AcDbEntity
  8
치수문자_일반주서
100
AcDbDimension
  2
_D_3
 10
0.1500000000000128
 20
25.08106406744291
 30
0.0
 11
27.65000000000002
 21
25.08106406744291
 31
0.0
 70
   160
  1
<>
 71
     2
 42
54.99999999999999
  3
SLDDIMSTYLE0
100
AcDbAlignedDimension
 13
55.15000000000001
 23
8.945025303399936
 33
0.0
 14
0.150000000000011
 24
9.849999999999998
 34
0.0
100
AcDbRotatedDimension
1001
PE_URL
1000

  0
DIMENSION
  5
103
330
1F
100
AcDbEntity
  8
치수문자_일반주서
100
AcDbDimension
  2
_D_4
 10
-94.85
 20
33.48856136860483
 30
0.0
 11
-19.84999999999999
 21
33.48856136860483
 31
0.0
 70
   160
  1
<>
 71
     2
 42
150.0
  3
SLDDIMSTYLE0
100
AcDbAlignedDimension
 13
55.15000000000001
 23
8.945025303399936
 33
0.0
 14
-94.85
 24
8.000000000000021
 34
0.0
 50
0.0000000000000054
100
AcDbRotatedDimension
1001
PE_URL
1000

  0
LINE
  5
10D
330
1F
100
AcDbEntity
  8
참조1
100
AcDbLine
 10
17.9634838153456
 20
7.440000000000002
 30
0.0
 11
17.9634838153456
 21
-7.440000000000002
 31
0.0
  0
LINE
  5
10E
330
1F
100
AcDbEntity
  8
참조1
100
AcDbLine
 10
30.6634838153456
 20
5.440000000000002
 30
0.0
 11
17.9634838153456
 21
5.440000000000002
 31
0.0
  0
SOLID
  5
10F
330
1F
100
AcDbEntity
  8
참조1
100
AcDbTrace
 10
17.9634838153456
 20
5.440000000000002
 30
0.0
 11
24.3134838153456
 21
4.424000000000002
 31
0.0
 12
24.3134838153456
 22
6.456000000000002
 32
0.0
 13
24.3134838153456
 23
6.456000000000002
 33
0.0
  0
LINE
  5
110
330
1F
100
AcDbEntity
  8
참조1
100
AcDbLine
 10
30.6634838153456
 20
-5.440000000000002
 30
0.0
 11
17.9634838153456
 21
-5.440000000000002
 31
0.0
  0
SOLID
  5
111
330
1F
100
AcDbEntity
  8
참조1
100
AcDbTrace
 10
17.9634838153456
 20
-5.440000000000002
 30
0.0
 11
24.3134838153456
 21
-6.456000000000002
 31
0.0
 12
24.3134838153456
 22
-4.424000000000002
 32
0.0
 13
24.3134838153456
 23
-4.424000000000002
 33
0.0
  0
MTEXT
  5
112
330
1F
100
AcDbEntity
  8
참조1
100
AcDbMText
 10
27.36097390781588
 20
10.98821664464994
 30
0.0
 40
3.5
 41
0.0
 71
     1
 72
     1
  1
A
  7
SLDTEXTSTYLE0
 73
     1
 44
1.0
  0
MTEXT
  5
113
330
1F
100
AcDbEntity
  8
참조1
100
AcDbMText
 10
27.36097390781588
 20
0.1082166446499319
 30
0.0
 40
3.5
 41
0.0
 71
     1
 72
     1
  1
A
  7
SLDTEXTSTYLE0
 73
     1
 44
1.0
  0
INSERT
  5
11A
330
1F
100
AcDbEntity
  8
해칭선
100
AcDbBlockReference
  2
SW_DOWELSYMBOL_0
 10
0.0
 20
-0.0010749287238931
 30
0.0
  0
ARC
  5
147
330
1F
100
AcDbEntity
  8
0
 62
     1
100
AcDbCircle
 10
54.14999999999995
 20
8.94502530339994
 30
0.0
 40
1.0
100
AcDbArc
 50
0.0
 51
90.0
  0
ARC
  5
148
102
{ACAD_REACTORS
102
}
330
1F
100
AcDbEntity
  8
0
 62
     1
100
AcDbCircle
 10
54.14999999999995
 20
-8.945025303399907
 30
0.0
 40
1.0
100
AcDbArc
 50
270.0
 51
0.0
  0
DIMENSION
  5
14B
102
{ACAD_REACTORS
102
}
102
{ACAD_XDICTIONARY
360
14C
102
}
330
1F
100
AcDbEntity
  8
0
100
AcDbDimension
  2
*D8
 10
54.14999999999995
 20
-8.945025303399907
 30
0.0
 11
67.80110025781647
 21
-18.33465681020581
 31
0.0
 70
   164
 71
     5
 42
0.9999999999999999
  3
ISO-25
100
AcDbRadialDimension
 15
54.68859120183323
 25
-9.787592521672597
 35
0.0
 40
0.0
1001
ACAD
1000
DSTYLE
1002
{
1070
   179
1070
     2
1070
   143
1040
0.0393700787401575
1070
    41
1040
3.302
1070
    44
1040
1.0
1070
    42
1040
1.0
1070
   147
1040
1.524
1070
    73
1070
     1
1070
    74
1070
     1
1070
   140
1040
3.5
1070
   284
1070
     0
1070
    78
1070
     0
1002
}
1001
ACAD_DSTYLE_DIMRADIAL_EXTENSION
1070
   387
1070
     1
1070
   388
1040
4.71238898038469
1070
   390
1040
0.0
  0
ENDSEC
  0
SECTION
  2
OBJECTS
  0
DICTIONARY
  5
C
330
0
100
AcDbDictionary
281
     1
  3
ACAD_GROUP
350
D
  3
ACAD_LAYOUT
350
1A
  3
ACAD_MLINESTYLE
350
17
  3
ACAD_PLOTSETTINGS
350
19
  3
ACAD_PLOTSTYLENAME
350
E
  3
ACAD_SCALELIST
350
47
  3
APPDATA
350
13C
  3
DWGPROPS
350
158
  0
DICTIONARY
  5
14C
330
14B
100
AcDbDictionary
280
     1
281
     1
  0
DICTIONARY
  5
D
102
{ACAD_REACTORS
330
C
102
}
330
C
100
AcDbDictionary
281
     1
  0
DICTIONARY
  5
1A
102
{ACAD_REACTORS
330
C
102
}
330
C
100
AcDbDictionary
281
     1
  3
Layout1
350
1E
  3
Layout2
350
26
  3
Model
350
22
  0
DICTIONARY
  5
17
102
{ACAD_REACTORS
330
C
102
}
330
C
100
AcDbDictionary
281
     1
  3
Standard
350
18
  0
DICTIONARY
  5
19
102
{ACAD_REACTORS
330
C
102
}
330
C
100
AcDbDictionary
281
     1
  0
ACDBDICTIONARYWDFLT
  5
E
102
{ACAD_REACTORS
330
C
102
}
330
C
100
AcDbDictionary
281
     1
  3
Normal
350
F
100
AcDbDictionaryWithDefault
340
F
  0
DICTIONARY
  5
47
102
{ACAD_REACTORS
330
C
102
}
330
C
100
AcDbDictionary
281
     1
  3
A0
350
48
  3
A1
350
49
  3
A2
350
4A
  3
A3
350
4B
  3
A4
350
4C
  3
A5
350
4D
  3
A6
350
4E
  3
A7
350
4F
  3
A8
350
50
  3
A9
350
51
  3
B0
350
52
  3
B1
350
53
  3
B2
350
54
  3
B3
350
55
  3
B4
350
56
  3
B5
350
57
  3
B6
350
58
  3
B7
350
59
  3
B8
350
5A
  3
B9
350
5B
  3
C0
350
5C
  3
C1
350
5D
  3
C2
350
5E
  3
C3
350
5F
  3
C4
350
60
  3
C5
350
61
  3
C6
350
62
  3
C7
350
63
  3
C8
350
64
  3
C9
350
65
  3
D0
350
66
  3
D1
350
67
  3
D2
350
68
  0
DICTIONARY
  5
13C
102
{ACAD_REACTORS
330
C
102
}
330
C
100
AcDbDictionary
281
     1
  0
XRECORD
  5
158
102
{ACAD_REACTORS
330
C
102
}
330
C
100
AcDbXrecord
280
     1
  1
DWGPROPS COOKIE
  2

  3

  4

  6

  7

  8
USER
  9

300
=
301
=
302
=
303
=
304
=
305
=
306
=
307
=
308
=
309
=
 40
0.0
 41
2458274.342939225
 42
2458275.107775914
  1

 90
        0
  0
LAYOUT
  5
1E
102
{ACAD_REACTORS
330
1A
102
}
330
1A
100
AcDbPlotSettings
  1

  2
none_device
  4

  6

 40
0.0
 41
0.0
 42
0.0
 43
0.0
 44
0.0
 45
0.0
 46
0.0
 47
0.0
 48
0.0
 49
0.0
140
0.0
141
0.0
142
1.0
143
1.0
 70
   688
 72
     1
 73
     0
 74
     5
  7

 75
    16
147
1.0
148
0.0
149
0.0
100
AcDbLayout
  1
Layout1
 70
     1
 71
     1
 10
0.0
 20
0.0
 11
420.0
 21
297.0
 12
0.0
 22
0.0
 32
0.0
 14
1.000000000000000E+20
 24
1.000000000000000E+20
 34
1.000000000000000E+20
 15
-1.000000000000000E+20
 25
-1.000000000000000E+20
 35
-1.000000000000000E+20
146
0.0
 13
0.0
 23
0.0
 33
0.0
 16
1.0
 26
0.0
 36
0.0
 17
0.0
 27
1.0
 37
0.0
 76
     0
330
1B
  0
LAYOUT
  5
26
102
{ACAD_REACTORS
330
1A
102
}
330
1A
100
AcDbPlotSettings
  1

  2
none_device
  4

  6

 40
0.0
 41
0.0
 42
0.0
 43
0.0
 44
0.0
 45
0.0
 46
0.0
 47
0.0
 48
0.0
 49
0.0
140
0.0
141
0.0
142
1.0
143
1.0
 70
   688
 72
     1
 73
     0
 74
     5
  7

 75
    16
147
1.0
148
0.0
149
0.0
100
AcDbLayout
  1
Layout2
 70
     1
 71
     2
 10
0.0
 20
0.0
 11
0.0
 21
0.0
 12
0.0
 22
0.0
 32
0.0
 14
0.0
 24
0.0
 34
0.0
 15
0.0
 25
0.0
 35
0.0
146
0.0
 13
0.0
 23
0.0
 33
0.0
 16
1.0
 26
0.0
 36
0.0
 17
0.0
 27
1.0
 37
0.0
 76
     0
330
23
  0
LAYOUT
  5
22
102
{ACAD_REACTORS
330
1A
102
}
330
1A
100
AcDbPlotSettings
  1

  2
none_device
  4
ANSI_A_(11.00_x_8.50_Inches)
  6

 40
6.35
 41
19.05
 42
6.35000508
 43
19.05000254
 44
279.4
 45
215.9
 46
169.8979456206236
 47
98.78818465741502
 48
0.0
 49
0.0
140
0.0
141
0.0
142
0.0612426189036592
143
1.0
 70
  1696
 72
     0
 73
     0
 74
     0
  7

 75
     0
147
0.0235690232323232
148
0.0
149
0.0
100
AcDbLayout
  1
Model
 70
     1
 71
     0
 10
0.0
 20
0.0
 11
420.0
 21
297.0
 12
0.0
 22
0.0
 32
0.0
 14
-107.2134684361648
 24
-49.97180738881175
 34
0.0
 15
75.35534323899927
 25
37.86356136860483
 35
0.0
146
0.0
 13
0.0
 23
0.0
 33
0.0
 16
1.0
 26
0.0
 36
0.0
 17
0.0
 27
1.0
 37
0.0
 76
     0
330
1F
331
29
  0
MLINESTYLE
  5
18
102
{ACAD_REACTORS
330
17
102
}
330
17
100
AcDbMlineStyle
  2
Standard
 70
     0
  3

 62
   256
 51
90.0
 52
90.0
 71
     2
 49
0.5
 62
   256
  6
BYLAYER
 49
-0.5
 62
   256
  6
BYLAYER
  0
ACDBPLACEHOLDER
  5
F
102
{ACAD_REACTORS
330
E
102
}
330
E
  0
SCALE
  5
48
102
{ACAD_REACTORS
330
47
102
}
330
47
100
AcDbScale
 70
     0
300
1:1
140
1.0
141
1.0
290
     1
  0
SCALE
  5
49
102
{ACAD_REACTORS
330
47
102
}
330
47
100
AcDbScale
 70
     0
300
1:2
140
1.0
141
2.0
290
     0
  0
SCALE
  5
4A
102
{ACAD_REACTORS
330
47
102
}
330
47
100
AcDbScale
 70
     0
300
1:4
140
1.0
141
4.0
290
     0
  0
SCALE
  5
4B
102
{ACAD_REACTORS
330
47
102
}
330
47
100
AcDbScale
 70
     0
300
1:5
140
1.0
141
5.0
290
     0
  0
SCALE
  5
4C
102
{ACAD_REACTORS
330
47
102
}
330
47
100
AcDbScale
 70
     0
300
1:8
140
1.0
141
8.0
290
     0
  0
SCALE
  5
4D
102
{ACAD_REACTORS
330
47
102
}
330
47
100
AcDbScale
 70
     0
300
1:10
140
1.0
141
10.0
290
     0
  0
SCALE
  5
4E
102
{ACAD_REACTORS
330
47
102
}
330
47
100
AcDbScale
 70
     0
300
1:16
140
1.0
141
16.0
290
     0
  0
SCALE
  5
4F
102
{ACAD_REACTORS
330
47
102
}
330
47
100
AcDbScale
 70
     0
300
1:20
140
1.0
141
20.0
290
     0
  0
SCALE
  5
50
102
{ACAD_REACTORS
330
47
102
}
330
47
100
AcDbScale
 70
     0
300
1:30
140
1.0
141
30.0
290
     0
  0
SCALE
  5
51
102
{ACAD_REACTORS
330
47
102
}
330
47
100
AcDbScale
 70
     0
300
1:40
140
1.0
141
40.0
290
     0
  0
SCALE
  5
52
102
{ACAD_REACTORS
330
47
102
}
330
47
100
AcDbScale
 70
     0
300
1:50
140
1.0
141
50.0
290
     0
  0
SCALE
  5
53
102
{ACAD_REACTORS
330
47
102
}
330
47
100
AcDbScale
 70
     0
300
1:100
140
1.0
141
100.0
290
     0
  0
SCALE
  5
54
102
{ACAD_REACTORS
330
47
102
}
330
47
100
AcDbScale
 70
     0
300
2:1
140
2.0
141
1.0
290
     0
  0
SCALE
  5
55
102
{ACAD_REACTORS
330
47
102
}
330
47
100
AcDbScale
 70
     0
300
4:1
140
4.0
141
1.0
290
     0
  0
SCALE
  5
56
102
{ACAD_REACTORS
330
47
102
}
330
47
100
AcDbScale
 70
     0
300
8:1
140
8.0
141
1.0
290
     0
  0
SCALE
  5
57
102
{ACAD_REACTORS
330
47
102
}
330
47
100
AcDbScale
 70
     0
300
10:1
140
10.0
141
1.0
290
     0
  0
SCALE
  5
58
102
{ACAD_REACTORS
330
47
102
}
330
47
100
AcDbScale
 70
     0
300
100:1
140
100.0
141
1.0
290
     0
  0
SCALE
  5
59
102
{ACAD_REACTORS
330
47
102
}
330
47
100
AcDbScale
 70
     0
300
1/128" = 1'-0"
140
0.0078125
141
12.0
290
     0
  0
SCALE
  5
5A
102
{ACAD_REACTORS
330
47
102
}
330
47
100
AcDbScale
 70
     0
300
1/64" = 1'-0"
140
0.015625
141
12.0
290
     0
  0
SCALE
  5
5B
102
{ACAD_REACTORS
330
47
102
}
330
47
100
AcDbScale
 70
     0
300
1/32" = 1'-0"
140
0.03125
141
12.0
290
     0
  0
SCALE
  5
5C
102
{ACAD_REACTORS
330
47
102
}
330
47
100
AcDbScale
 70
     0
300
1/16" = 1'-0"
140
0.0625
141
12.0
290
     0
  0
SCALE
  5
5D
102
{ACAD_REACTORS
330
47
102
}
330
47
100
AcDbScale
 70
     0
300
3/32" = 1'-0"
140
0.09375
141
12.0
290
     0
  0
SCALE
  5
5E
102
{ACAD_REACTORS
330
47
102
}
330
47
100
AcDbScale
 70
     0
300
1/8" = 1'-0"
140
0.125
141
12.0
290
     0
  0
SCALE
  5
5F
102
{ACAD_REACTORS
330
47
102
}
330
47
100
AcDbScale
 70
     0
300
3/16" = 1'-0"
140
0.1875
141
12.0
290
     0
  0
SCALE
  5
60
102
{ACAD_REACTORS
330
47
102
}
330
47
100
AcDbScale
 70
     0
300
1/4" = 1'-0"
140
0.25
141
12.0
290
     0
  0
SCALE
  5
61
102
{ACAD_REACTORS
330
47
102
}
330
47
100
AcDbScale
 70
     0
300
3/8" = 1'-0"
140
0.375
141
12.0
290
     0
  0
SCALE
  5
62
102
{ACAD_REACTORS
330
47
102
}
330
47
100
AcDbScale
 70
     0
300
1/2" = 1'-0"
140
0.5
141
12.0
290
     0
  0
SCALE
  5
63
102
{ACAD_REACTORS
330
47
102
}
330
47
100
AcDbScale
 70
     0
300
3/4" = 1'-0"
140
0.75
141
12.0
290
     0
  0
SCALE
  5
64
102
{ACAD_REACTORS
330
47
102
}
330
47
100
AcDbScale
 70
     0
300
1" = 1'-0"
140
1.0
141
12.0
290
     0
  0
SCALE
  5
65
102
{ACAD_REACTORS
330
47
102
}
330
47
100
AcDbScale
 70
     0
300
1-1/2" = 1'-0"
140
1.5
141
12.0
290
     0
  0
SCALE
  5
66
102
{ACAD_REACTORS
330
47
102
}
330
47
100
AcDbScale
 70
     0
300
3" = 1'-0"
140
3.0
141
12.0
290
     0
  0
SCALE
  5
67
102
{ACAD_REACTORS
330
47
102
}
330
47
100
AcDbScale
 70
     0
300
6" = 1'-0"
140
6.0
141
12.0
290
     0
  0
SCALE
  5
68
102
{ACAD_REACTORS
330
47
102
}
330
47
100
AcDbScale
 70
     0
300
1'-0" = 1'-0"
140
12.0
141
12.0
290
     0
  0
ENDSEC
  0
EOF
