  0
SECTION
  2
HEADER
  9
$ACADVER
  1
AC1015
  9
$ACADMAINTVER
 70
     6
  9
$DWGCODEPAGE
  3
ANSI_949
  9
$INSBASE
 10
0.0
 20
0.0
 30
0.0
  9
$EXTMIN
 10
-50.3346626104056
 20
-49.97073246008785
 30
0.0
  9
$EXTMAX
 10
37.99328416623207
 20
28.61341044024269
 30
0.0
  9
$LIMMIN
 10
0.0
 20
0.0
  9
$LIMMAX
 10
420.0
 20
297.0
  9
$ORTHOMODE
 70
     0
  9
$REGENMODE
 70
     1
  9
$FILLMODE
 70
     1
  9
$QTEXTMODE
 70
     0
  9
$MIRRTEXT
 70
     1
  9
$LTSCALE
 40
1.0
  9
$ATTMODE
 70
     1
  9
$TEXTSIZE
 40
3.5
  9
$TRACEWID
 40
1.0
  9
$TEXTSTYLE
  7
Standard
  9
$CLAYER
  8
0
  9
$CELTYPE
  6
ByLayer
  9
$CECOLOR
 62
   256
  9
$CELTSCALE
 40
1.0
  9
$DISPSILH
 70
     0
  9
$DIMSCALE
 40
1.0
  9
$DIMASZ
 40
3.302
  9
$DIMEXO
 40
1.0
  9
$DIMDLI
 40
3.75
  9
$DIMRND
 40
0.0
  9
$DIMDLE
 40
0.0
  9
$DIMEXE
 40
1.0
  9
$DIMTP
 40
0.0
  9
$DIMTM
 40
0.0
  9
$DIMTXT
 40
3.5
  9
$DIMCEN
 40
2.5
  9
$DIMTSZ
 40
0.0
  9
$DIMTOL
 70
     0
  9
$DIMLIM
 70
     0
  9
$DIMTIH
 70
     1
  9
$DIMTOH
 70
     1
  9
$DIMSE1
 70
     0
  9
$DIMSE2
 70
     0
  9
$DIMTAD
 70
     1
  9
$DIMZIN
 70
     0
  9
$DIMBLK
  1

  9
$DIMASO
 70
     1
  9
$DIMSHO
 70
     1
  9
$DIMPOST
  1

  9
$DIMAPOST
  1

  9
$DIMALT
 70
     0
  9
$DIMALTD
 70
     3
  9
$DIMALTF
 40
0.0393700787401575
  9
$DIMLFAC
 40
1.0
  9
$DIMTOFL
 70
     1
  9
$DIMTVP
 40
0.0
  9
$DIMTIX
 70
     0
  9
$DIMSOXD
 70
     0
  9
$DIMSAH
 70
     0
  9
$DIMBLK1
  1

  9
$DIMBLK2
  1

  9
$DIMSTYLE
  2
ISO-25
  9
$DIMCLRD
 70
     0
  9
$DIMCLRE
 70
     0
  9
$DIMCLRT
 70
     0
  9
$DIMTFAC
 40
1.0
  9
$DIMGAP
 40
1.524
  9
$DIMJUST
 70
     0
  9
$DIMSD1
 70
     0
  9
$DIMSD2
 70
     0
  9
$DIMTOLJ
 70
     0
  9
$DIMTZIN
 70
     0
  9
$DIMALTZ
 70
     0
  9
$DIMALTTZ
 70
     0
  9
$DIMUPT
 70
     0
  9
$DIMDEC
 70
     2
  9
$DIMTDEC
 70
     2
  9
$DIMALTU
 70
     2
  9
$DIMALTTD
 70
     3
  9
$DIMTXSTY
  7
Standard
  9
$DIMAUNIT
 70
     0
  9
$DIMADEC
 70
     2
  9
$DIMALTRND
 40
0.0
  9
$DIMAZIN
 70
     0
  9
$DIMDSEP
 70
    44
  9
$DIMATFIT
 70
     3
  9
$DIMFRAC
 70
     0
  9
$DIMLDRBLK
  1

  9
$DIMLUNIT
 70
     2
  9
$DIMLWD
 70
    -2
  9
$DIMLWE
 70
    -2
  9
$DIMTMOVE
 70
     0
  9
$LUNITS
 70
     2
  9
$LUPREC
 70
     2
  9
$SKETCHINC
 40
1.0
  9
$FILLETRAD
 40
10.0
  9
$AUNITS
 70
     0
  9
$AUPREC
 70
     2
  9
$MENU
  1
.
  9
$ELEVATION
 40
0.0
  9
$PELEVATION
 40
0.0
  9
$THICKNESS
 40
0.0
  9
$LIMCHECK
 70
     0
  9
$CHAMFERA
 40
0.0
  9
$CHAMFERB
 40
0.0
  9
$CHAMFERC
 40
0.0
  9
$CHAMFERD
 40
0.0
  9
$SKPOLY
 70
     0
  9
$TDCREATE
 40
2458262.534407998
  9
$TDUCREATE
 40
2458262.159407998
  9
$TDUPDATE
 40
2458264.771386111
  9
$TDUUPDATE
 40
2458264.396386111
  9
$TDINDWG
 40
0.004875463
  9
$TDUSRTIMER
 40
2458264.39599765
  9
$USRTIMER
 70
     1
  9
$ANGBASE
 50
0.0
  9
$ANGDIR
 70
     0
  9
$PDMODE
 70
     0
  9
$PDSIZE
 40
-1.0
  9
$PLINEWID
 40
0.0
  9
$SPLFRAME
 70
     0
  9
$SPLINETYPE
 70
     6
  9
$SPLINESEGS
 70
     8
  9
$HANDSEED
  5
19E
  9
$SURFTAB1
 70
     6
  9
$SURFTAB2
 70
     6
  9
$SURFTYPE
 70
     6
  9
$SURFU
 70
     6
  9
$SURFV
 70
     6
  9
$UCSBASE
  2

  9
$UCSNAME
  2

  9
$UCSORG
 10
0.0
 20
0.0
 30
0.0
  9
$UCSXDIR
 10
1.0
 20
0.0
 30
0.0
  9
$UCSYDIR
 10
0.0
 20
1.0
 30
0.0
  9
$UCSORTHOREF
  2

  9
$UCSORTHOVIEW
 70
     0
  9
$UCSORGTOP
 10
0.0
 20
0.0
 30
0.0
  9
$UCSORGBOTTOM
 10
0.0
 20
0.0
 30
0.0
  9
$UCSORGLEFT
 10
0.0
 20
0.0
 30
0.0
  9
$UCSORGRIGHT
 10
0.0
 20
0.0
 30
0.0
  9
$UCSORGFRONT
 10
0.0
 20
0.0
 30
0.0
  9
$UCSORGBACK
 10
0.0
 20
0.0
 30
0.0
  9
$PUCSBASE
  2

  9
$PUCSNAME
  2

  9
$PUCSORG
 10
0.0
 20
0.0
 30
0.0
  9
$PUCSXDIR
 10
1.0
 20
0.0
 30
0.0
  9
$PUCSYDIR
 10
0.0
 20
1.0
 30
0.0
  9
$PUCSORTHOREF
  2

  9
$PUCSORTHOVIEW
 70
     0
  9
$PUCSORGTOP
 10
0.0
 20
0.0
 30
0.0
  9
$PUCSORGBOTTOM
 10
0.0
 20
0.0
 30
0.0
  9
$PUCSORGLEFT
 10
0.0
 20
0.0
 30
0.0
  9
$PUCSORGRIGHT
 10
0.0
 20
0.0
 30
0.0
  9
$PUCSORGFRONT
 10
0.0
 20
0.0
 30
0.0
  9
$PUCSORGBACK
 10
0.0
 20
0.0
 30
0.0
  9
$USERI1
 70
     0
  9
$USERI2
 70
     0
  9
$USERI3
 70
     0
  9
$USERI4
 70
     0
  9
$USERI5
 70
     0
  9
$USERR1
 40
0.0
  9
$USERR2
 40
0.0
  9
$USERR3
 40
0.0
  9
$USERR4
 40
0.0
  9
$USERR5
 40
0.0
  9
$WORLDVIEW
 70
     1
  9
$SHADEDGE
 70
     3
  9
$SHADEDIF
 70
    70
  9
$TILEMODE
 70
     1
  9
$MAXACTVP
 70
    64
  9
$PINSBASE
 10
0.0
 20
0.0
 30
0.0
  9
$PLIMCHECK
 70
     0
  9
$PEXTMIN
 10
1.000000000000000E+20
 20
1.000000000000000E+20
 30
1.000000000000000E+20
  9
$PEXTMAX
 10
-1.000000000000000E+20
 20
-1.000000000000000E+20
 30
-1.000000000000000E+20
  9
$PLIMMIN
 10
0.0
 20
0.0
  9
$PLIMMAX
 10
0.0
 20
0.0
  9
$UNITMODE
 70
     0
  9
$VISRETAIN
 70
     1
  9
$PLINEGEN
 70
     0
  9
$PSLTSCALE
 70
     1
  9
$TREEDEPTH
 70
  3020
  9
$CMLSTYLE
  2
Standard
  9
$CMLJUST
 70
     0
  9
$CMLSCALE
 40
20.0
  9
$PROXYGRAPHICS
 70
     1
  9
$MEASUREMENT
 70
     1
  9
$CELWEIGHT
370
    -1
  9
$ENDCAPS
280
     0
  9
$JOINSTYLE
280
     0
  9
$LWDISPLAY
290
     1
  9
$INSUNITS
 70
     4
  9
$HYPERLINKBASE
  1

  9
$STYLESHEET
  1

  9
$XEDIT
290
     1
  9
$CEPSNTYPE
380
     0
  9
$PSTYLEMODE
290
     1
  9
$FINGERPRINTGUID
  2
{8F62BDA3-688D-423A-B2B8-37FFCA366A98}
  9
$VERSIONGUID
  2
{FAEB1C32-E019-11D5-929B-00C0DF256EC4}
  9
$EXTNAMES
290
     1
  9
$PSVPSCALE
 40
0.0
  9
$OLESTARTUP
290
     0
  0
ENDSEC
  0
SECTION
  2
CLASSES
  0
CLASS
  1
ACDBDICTIONARYWDFLT
  2
AcDbDictionaryWithDefault
  3
ObjectDBX Classes
 90
        0
280
     0
281
     0
  0
CLASS
  1
VISUALSTYLE
  2
AcDbVisualStyle
  3
ObjectDBX Classes
 90
     4095
280
     0
281
     0
  0
CLASS
  1
MATERIAL
  2
AcDbMaterial
  3
ObjectDBX Classes
 90
     1153
280
     0
281
     0
  0
CLASS
  1
SCALE
  2
AcDbScale
  3
ObjectDBX Classes
 90
     1153
280
     0
281
     0
  0
CLASS
  1
SUN
  2
AcDbSun
  3
SCENEOE
 90
     1153
280
     0
281
     0
  0
CLASS
  1
ACDBPLACEHOLDER
  2
AcDbPlaceHolder
  3
ObjectDBX Classes
 90
        0
280
     0
281
     0
  0
CLASS
  1
LAYOUT
  2
AcDbLayout
  3
ObjectDBX Classes
 90
        0
280
     0
281
     0
  0
CLASS
  1
TABLESTYLE
  2
AcDbTableStyle
  3
ObjectDBX Classes
 90
     4095
280
     0
281
     0
  0
CLASS
  1
MLEADERSTYLE
  2
AcDbMLeaderStyle
  3
ACDB_MLEADERSTYLE_CLASS
 90
     4095
280
     0
281
     0
  0
CLASS
  1
RASTERVARIABLES
  2
AcDbRasterVariables
  3
ISM
 90
        0
280
     0
281
     0
  0
ENDSEC
  0
SECTION
  2
TABLES
  0
TABLE
  2
VPORT
  5
8
330
0
100
AcDbSymbolTable
 70
     1
  0
VPORT
  5
29
330
8
100
AcDbSymbolTableRecord
100
AcDbViewportTableRecord
  2
*Active
 70
     0
 10
0.0
 20
0.0
 11
1.0
 21
1.0
 12
-6.170689222086757
 22
-10.67866100992259
 13
0.0
 23
0.0
 14
10.0
 24
10.0
 15
10.0
 25
10.0
 16
0.0
 26
0.0
 36
1.0
 17
0.0
 27
0.0
 37
0.0
 40
80.15582575833714
 41
1.293966623876765
 42
50.0
 43
0.0
 44
0.0
 50
0.0
 51
0.0
 71
    16
 72
  2000
 73
     1
 74
     3
 75
     0
 76
     0
 77
     0
 78
     0
281
     0
 65
     1
110
0.0
120
0.0
130
0.0
111
1.0
121
0.0
131
0.0
112
0.0
122
1.0
132
0.0
 79
     0
146
0.0
  0
ENDTAB
  0
TABLE
  2
LTYPE
  5
5
330
0
100
AcDbSymbolTable
 70
     6
  0
LTYPE
  5
14
330
5
100
AcDbSymbolTableRecord
100
AcDbLinetypeTableRecord
  2
ByBlock
 70
     0
  3

 72
    65
 73
     0
 40
0.0
  0
LTYPE
  5
15
330
5
100
AcDbSymbolTableRecord
100
AcDbLinetypeTableRecord
  2
ByLayer
 70
     0
  3

 72
    65
 73
     0
 40
0.0
  0
LTYPE
  5
16
330
5
100
AcDbSymbolTableRecord
100
AcDbLinetypeTableRecord
  2
Continuous
 70
     0
  3
Solid line
 72
    65
 73
     0
 40
0.0
  0
LTYPE
  5
6A
330
5
100
AcDbSymbolTableRecord
100
AcDbLinetypeTableRecord
  2
HIDDEN
 70
     0
  3
Hidden __ __ __ __ __ __ __ __ __ __ __ __ __ __
 72
    65
 73
     2
 40
1.905
 49
1.27
 74
     0
 49
-0.635
 74
     0
  0
LTYPE
  5
6B
330
5
100
AcDbSymbolTableRecord
100
AcDbLinetypeTableRecord
  2
PHANTOM
 70
     0
  3
Phantom ______  __  __  ______  __  __  ______
 72
    65
 73
     6
 40
12.7
 49
6.35
 74
     0
 49
-1.27
 74
     0
 49
1.27
 74
     0
 49
-1.27
 74
     0
 49
1.27
 74
     0
 49
-1.27
 74
     0
  0
LTYPE
  5
6C
330
5
100
AcDbSymbolTableRecord
100
AcDbLinetypeTableRecord
  2
CENTER
 70
     0
  3
Center ____ _ ____ _ ____ _ ____ _ ____ _ ____
 72
    65
 73
     4
 40
10.16
 49
6.35
 74
     0
 49
-1.27
 74
     0
 49
1.27
 74
     0
 49
-1.27
 74
     0
  0
LTYPE
  5
6D
330
5
100
AcDbSymbolTableRecord
100
AcDbLinetypeTableRecord
  2
CENTERX2
 70
     0
  3
Center (2x) ________  __  ________  __  _____
 72
    65
 73
     4
 40
20.32
 49
12.7
 74
     0
 49
-2.54
 74
     0
 49
2.54
 74
     0
 49
-2.54
 74
     0
  0
LTYPE
  5
6E
330
5
100
AcDbSymbolTableRecord
100
AcDbLinetypeTableRecord
  2
DOT2
 70
     0
  3
Dot (.5x) ........................................
 72
    65
 73
     2
 40
0.635
 49
0.0
 74
     0
 49
-0.635
 74
     0
  0
ENDTAB
  0
TABLE
  2
LAYER
  5
2
330
0
100
AcDbSymbolTable
 70
    17
  0
LAYER
  5
10
330
2
100
AcDbSymbolTableRecord
100
AcDbLayerTableRecord
  2
0
 70
     0
 62
     7
  6
Continuous
370
    -3
390
F
  0
LAYER
  5
6F
330
2
100
AcDbSymbolTableRecord
100
AcDbLayerTableRecord
  2
FORMAT
 70
     0
 62
     2
  6
Continuous
370
    -3
390
F
  0
LAYER
  5
70
330
2
100
AcDbSymbolTableRecord
100
AcDbLayerTableRecord
  2
외형선
 70
     0
 62
   100
  6
Continuous
370
    30
390
F
  0
LAYER
  5
71
330
2
100
AcDbSymbolTableRecord
100
AcDbLayerTableRecord
  2
숨은선
 70
     0
 62
     2
  6
HIDDEN
370
    15
390
F
  0
LAYER
  5
72
330
2
100
AcDbSymbolTableRecord
100
AcDbLayerTableRecord
  2
중심선
 70
     0
 62
     1
  6
CENTERX2
370
    -3
390
F
  0
LAYER
  5
73
330
2
100
AcDbSymbolTableRecord
100
AcDbLayerTableRecord
  2
파단선
 70
     0
 62
     4
  6
Continuous
370
    -3
390
F
  0
LAYER
  5
74
330
2
100
AcDbSymbolTableRecord
100
AcDbLayerTableRecord
  2
해칭선
 70
     0
 62
     4
  6
Continuous
370
    -3
390
F
  0
LAYER
  5
75
330
2
100
AcDbSymbolTableRecord
100
AcDbLayerTableRecord
  2
가는실선
 70
     0
 62
     4
  6
Continuous
370
    -3
390
F
  0
LAYER
  5
76
330
2
100
AcDbSymbolTableRecord
100
AcDbLayerTableRecord
  2
치수_보조선
 70
     0
 62
     4
  6
Continuous
370
    -3
390
F
  0
LAYER
  5
77
330
2
100
AcDbSymbolTableRecord
100
AcDbLayerTableRecord
  2
치수문자_일반주서
 70
     0
 62
     7
  6
Continuous
370
    15
390
F
  0
LAYER
  5
78
330
2
100
AcDbSymbolTableRecord
100
AcDbLayerTableRecord
  2
개별주서
 70
     0
 62
   100
  6
Continuous
370
    30
390
F
  0
LAYER
  5
79
330
2
100
AcDbSymbolTableRecord
100
AcDbLayerTableRecord
  2
중간선
 70
     0
 62
     2
  6
Continuous
370
    15
390
F
  0
LAYER
  5
7A
330
2
100
AcDbSymbolTableRecord
100
AcDbLayerTableRecord
  2
윤곽선
 70
     0
 62
     3
  6
Continuous
370
    40
390
F
  0
LAYER
  5
7B
330
2
100
AcDbSymbolTableRecord
100
AcDbLayerTableRecord
  2
중심마크
 70
     0
 62
   100
  6
Continuous
370
    30
390
F
  0
LAYER
  5
7C
330
2
100
AcDbSymbolTableRecord
100
AcDbLayerTableRecord
  2
가상선
 70
     0
 62
     4
  6
PHANTOM
370
    -3
390
F
  0
LAYER
  5
7D
330
2
100
AcDbSymbolTableRecord
100
AcDbLayerTableRecord
  2
특수지정선
 70
     0
 62
     5
  6
CENTERX2
370
    60
390
F
  0
LAYER
  5
14A
330
2
100
AcDbSymbolTableRecord
100
AcDbLayerTableRecord
  2
Defpoints
 70
     0
 62
     7
  6
Continuous
290
     0
370
    -3
390
F
  0
ENDTAB
  0
TABLE
  2
STYLE
  5
3
330
0
100
AcDbSymbolTable
 70
     2
  0
STYLE
  5
11
330
3
100
AcDbSymbolTableRecord
100
AcDbTextStyleTableRecord
  2
Standard
 70
     0
 40
0.0
 41
1.0
 50
0.0
 71
     0
 42
3.5
  3
txt
  4

  0
STYLE
  5
93
330
3
100
AcDbSymbolTableRecord
100
AcDbTextStyleTableRecord
  2
SLDTEXTSTYLE0
 70
     0
 40
0.0
 41
0.75
 50
0.0
 71
     0
 42
3.5
  3
TXT
  4

  0
ENDTAB
  0
TABLE
  2
VIEW
  5
6
330
0
100
AcDbSymbolTable
 70
     0
  0
ENDTAB
  0
TABLE
  2
UCS
  5
7
330
0
100
AcDbSymbolTable
 70
     0
  0
ENDTAB
  0
TABLE
  2
APPID
  5
9
330
0
100
AcDbSymbolTable
 70
     1
  0
APPID
  5
12
330
9
100
AcDbSymbolTableRecord
100
AcDbRegAppTableRecord
  2
ACAD
 70
     0
  0
ENDTAB
  0
TABLE
  2
DIMSTYLE
  5
A
330
0
100
AcDbSymbolTable
 70
     4
100
AcDbDimStyleTable
  0
DIMSTYLE
105
27
330
A
100
AcDbSymbolTableRecord
100
AcDbDimStyleTableRecord
  2
ISO-25
 70
     0
 41
2.5
 42
0.625
 43
3.75
 44
1.25
 73
     0
 74
     0
 77
     1
 78
     8
140
2.5
141
2.5
143
0.03937007874016
147
0.625
171
     3
172
     1
178
     0
271
     2
272
     2
274
     3
278
    44
283
     0
284
     8
340
11
  0
DIMSTYLE
105
ED
102
{ACAD_REACTORS
330
EC
102
}
330
A
100
AcDbSymbolTableRecord
100
AcDbDimStyleTableRecord
  2
SLDDIMSTYLE0
 70
     0
 41
3.302
 44
0.0
 45
0.000000001
 73
     0
 74
     0
 77
     1
 78
     4
 79
     1
140
3.5
147
0.875
172
     1
173
     1
178
     0
271
     2
272
     2
276
     2
284
    12
289
     0
340
93
  0
DIMSTYLE
105
FB
102
{ACAD_REACTORS
330
FA
102
}
330
A
100
AcDbSymbolTableRecord
100
AcDbDimStyleTableRecord
  2
SLDDIMSTYLE1
 70
     0
 41
3.302
 44
0.0
 45
0.000000001
 73
     0
 74
     0
 77
     1
 78
    12
 79
     3
140
3.5
147
0.875
173
     1
178
     0
271
     2
272
     2
276
     2
284
    12
340
93
  0
DIMSTYLE
105
106
102
{ACAD_REACTORS
330
105
330
112
102
}
330
A
100
AcDbSymbolTableRecord
100
AcDbDimStyleTableRecord
  2
SLDDIMSTYLE2
 70
     0
 41
3.302
 44
0.0
 45
0.000000001
 73
     0
 74
     0
 77
     1
 78
    12
 79
     3
140
3.5
147
0.875
172
     1
173
     1
178
     0
271
     2
272
     2
276
     2
284
    12
289
     0
340
93
  0
ENDTAB
  0
TABLE
  2
BLOCK_RECORD
  5
1
330
0
100
AcDbSymbolTable
 70
     7
  0
BLOCK_RECORD
  5
1F
330
1
100
AcDbSymbolTableRecord
100
AcDbBlockTableRecord
  2
*Model_Space
340
22
  0
BLOCK_RECORD
  5
1B
330
1
100
AcDbSymbolTableRecord
100
AcDbBlockTableRecord
  2
*Paper_Space
340
1E
  0
BLOCK_RECORD
  5
23
330
1
100
AcDbSymbolTableRecord
100
AcDbBlockTableRecord
  2
*Paper_Space0
340
26
  0
BLOCK_RECORD
  5
7E
330
1
100
AcDbSymbolTableRecord
100
AcDbBlockTableRecord
  2
블럭10
340
0
102
{BLKREFS
331
E5
102
}
  0
BLOCK_RECORD
  5
EE
330
1
100
AcDbSymbolTableRecord
100
AcDbBlockTableRecord
  2
_D
340
0
  0
BLOCK_RECORD
  5
FC
330
1
100
AcDbSymbolTableRecord
100
AcDbBlockTableRecord
  2
_D_1
340
0
  0
BLOCK_RECORD
  5
107
330
1
100
AcDbSymbolTableRecord
100
AcDbBlockTableRecord
  2
_D_2
340
0
  0
BLOCK_RECORD
  5
113
330
1
100
AcDbSymbolTableRecord
100
AcDbBlockTableRecord
  2
_D_3
340
0
  0
BLOCK_RECORD
  5
11F
330
1
100
AcDbSymbolTableRecord
100
AcDbBlockTableRecord
  2
SW_DOWELSYMBOL_0
340
0
102
{BLKREFS
331
125
102
}
  0
ENDTAB
  0
ENDSEC
  0
SECTION
  2
BLOCKS
  0
BLOCK
  5
20
330
1F
100
AcDbEntity
  8
0
100
AcDbBlockBegin
  2
*Model_Space
 70
     0
 10
0.0
 20
0.0
 30
0.0
  3
*Model_Space
  1

  0
ENDBLK
  5
21
330
1F
100
AcDbEntity
  8
0
100
AcDbBlockEnd
  0
BLOCK
  5
1C
330
1B
100
AcDbEntity
 67
     1
  8
0
100
AcDbBlockBegin
  2
*Paper_Space
 70
     0
 10
0.0
 20
0.0
 30
0.0
  3
*Paper_Space
  1

  0
ENDBLK
  5
1D
330
1B
100
AcDbEntity
 67
     1
  8
0
100
AcDbBlockEnd
  0
BLOCK
  5
24
330
23
100
AcDbEntity
  8
0
100
AcDbBlockBegin
  2
*Paper_Space0
 70
     0
 10
0.0
 20
0.0
 30
0.0
  3
*Paper_Space0
  1

  0
ENDBLK
  5
25
330
23
100
AcDbEntity
  8
0
100
AcDbBlockEnd
  0
BLOCK
  5
7F
330
7E
100
AcDbEntity
  8
0
100
AcDbBlockBegin
  2
블럭10
 70
     2
 10
0.0
 20
0.0
 30
0.0
  3
블럭10
  1

  0
ELLIPSE
  5
81
330
7E
100
AcDbEntity
  8
중심선
100
AcDbEllipse
 10
20.54032771741204
 20
12.0471743016438
 30
0.0
 11
6.600054785286829
 21
-1.261213355974178E-13
 31
0.0
210
0.0
220
0.0
230
1.0
 40
0.636358354079598
 41
0.9219305317359503
 42
6.513795318482858
  0
ELLIPSE
  5
82
330
7E
100
AcDbEntity
  8
중심선
100
AcDbEllipse
 10
20.54032771746488
 20
12.04717430159265
 30
0.0
 11
3.960054785062283
 21
1.540847449632565E-10
 31
0.0
210
0.0
220
0.0
230
1.0
 40
0.3939339440162632
 41
1.131841032648279
 42
5.62031148352944
  0
LINE
  5
83
330
7E
100
AcDbEntity
  8
중심선
100
AcDbLine
 10
2.268634060543552
 20
16.24717430164393
 30
0.0
 11
5.714909304380834
 21
16.24717430164393
 31
0.0
  0
LINE
  5
84
330
7E
100
AcDbEntity
  8
중심선
100
AcDbLine
 10
5.245725140726316
 20
7.84717430164391
 30
0.0
 11
8.692000384563599
 21
7.84717430164391
 31
0.0
  0
LINE
  5
85
330
7E
100
AcDbEntity
  8
중심선
100
AcDbLine
 10
15.74043728645272
 20
16.24717430164393
 30
0.0
 11
8.692000384563599
 21
7.84717430164391
 31
0.0
  0
LINE
  5
86
330
7E
100
AcDbEntity
  8
중심선
100
AcDbLine
 10
0.1404042013395286
 20
13.71084872107135
 30
0.0
 11
3.58671253028996
 21
13.71088815037384
 31
0.0
  0
LINE
  5
87
330
7E
100
AcDbEntity
  8
중심선
100
AcDbLine
 10
2.750260043222114
 20
10.84717430164391
 30
0.0
 11
6.196535287059397
 21
10.84717430164391
 31
0.0
  0
LINE
  5
88
330
7E
100
AcDbEntity
  8
중심선
100
AcDbLine
 10
12.29416204261559
 20
16.24717430164393
 30
0.0
 11
5.245725140726316
 21
7.84717430164391
 31
0.0
  0
LINE
  5
89
330
7E
100
AcDbEntity
  8
중심선
100
AcDbLine
 10
10.72767329541681
 20
16.24717430164393
 30
0.0
 11
6.196535287059397
 21
10.84717430164391
 31
0.0
  0
LINE
  5
8A
330
7E
100
AcDbEntity
  8
중심선
100
AcDbLine
 10
7.28139805157953
 20
16.24717430164393
 30
0.0
 11
2.750260043222114
 21
10.84717430164391
 31
0.0
  0
LINE
  5
8B
330
7E
100
AcDbEntity
  8
중심선
100
AcDbLine
 10
5.714909304380834
 20
16.24717430164393
 30
0.0
 11
3.58671253028996
 21
13.71088815037384
 31
0.0
  0
LINE
  5
8C
330
7E
100
AcDbEntity
  8
중심선
100
AcDbLine
 10
2.268634060543552
 20
16.24717430164393
 30
0.0
 11
0.1404042013395286
 21
13.71084872107135
 31
0.0
  0
LINE
  5
8D
330
7E
100
AcDbEntity
  8
중심선
100
AcDbLine
 10
7.28139805157953
 20
16.24717430164393
 30
0.0
 11
10.72767329541681
 21
16.24717430164393
 31
0.0
  0
LINE
  5
8E
330
7E
100
AcDbEntity
  8
중심선
100
AcDbLine
 10
12.29416204261559
 20
16.24717430164393
 30
0.0
 11
15.74043728645272
 21
16.24717430164393
 31
0.0
  0
LINE
  5
8F
330
7E
100
AcDbEntity
  8
중심선
100
AcDbLine
 10
19.22036997980202
 20
11.08717430171403
 30
0.0
 11
23.66174974927406
 21
11.08717430171406
 31
0.0
  0
LINE
  5
90
330
7E
100
AcDbEntity
  8
중심선
100
AcDbLine
 10
19.22039502424796
 20
13.00717430171391
 30
0.0
 11
19.22036997980202
 21
11.08717430171403
 31
0.0
  0
LINE
  5
91
330
7E
100
AcDbEntity
  8
중심선
100
AcDbLine
 10
19.22039502424796
 20
13.00717430171391
 30
0.0
 11
26.96566020931264
 21
13.00717430171391
 31
0.0
  0
LINE
  5
92
330
7E
100
AcDbEntity
  8
중심선
100
AcDbLine
 10
22.22332737316547
 20
13.45928029700563
 30
0.0
 11
24.52862924686651
 21
15.39360700705356
 31
0.0
  0
ATTDEF
  5
94
330
7E
100
AcDbEntity
  8
FORMAT
 62
     2
100
AcDbText
 10
-16.11926103943555
 20
2.075366912832191
 30
0.0
 40
4.233333333333333
  1
SEME7001510E [ 2 FLUTE ]
 41
0.75
  7
SLDTEXTSTYLE0
 11
-16.11926103943555
 21
-0.0412997538344756
 31
0.0
100
AcDbAttributeDefinition
  3

  2
AUTOATTR0
 70
     0
 74
     1
  0
ENDBLK
  5
80
330
7E
100
AcDbEntity
  8
0
100
AcDbBlockEnd
  0
BLOCK
  5
EF
330
EE
100
AcDbEntity
  8
0
100
AcDbBlockBegin
  2
_D
 70
     0
 10
0.0
 20
0.0
 30
0.0
  3
_D
  1

  0
LINE
  5
F1
330
EE
100
AcDbEntity
  8
치수문자_일반주서
 62
     0
370
    -2
100
AcDbLine
 10
21.45961431702996
 20
-0.7493661114222336
 30
0.0
 11
37.44295083289872
 21
-0.749366111422173
 31
0.0
  0
LINE
  5
F2
330
EE
100
AcDbEntity
  8
치수문자_일반주서
 62
     0
370
    -2
100
AcDbLine
 10
21.45961431702995
 20
0.749366111422235
 30
0.0
 11
37.44295083289872
 21
0.7493661114222956
 31
0.0
  0
LINE
  5
F3
330
EE
100
AcDbEntity
  8
치수문자_일반주서
 62
     0
370
    -2
100
AcDbLine
 10
37.44295083289872
 20
-0.749366111422173
 30
0.0
 11
37.44295083289863
 21
18.2908661114223
 31
0.0
  0
LINE
  5
F4
330
EE
100
AcDbEntity
  8
치수문자_일반주서
 62
     0
370
    -2
100
AcDbLine
 10
37.44295083289872
 20
-0.749366111422173
 30
0.0
 11
37.44295083289872
 21
0.7493661114222956
 31
0.0
  0
LINE
  5
F5
330
EE
100
AcDbEntity
  8
치수문자_일반주서
 62
     0
370
    -2
100
AcDbLine
 10
37.44295083289874
 20
-4.051366111422173
 30
0.0
 11
37.44295083289875
 21
-7.353366111422172
 31
0.0
  0
LINE
  5
F6
330
EE
100
AcDbEntity
  8
치수문자_일반주서
 62
     0
370
    -2
100
AcDbLine
 10
37.4429508328987
 20
4.051366111422295
 30
0.0
 11
37.44295083289869
 21
7.353366111422295
 31
0.0
  0
SOLID
  5
F7
330
EE
100
AcDbEntity
  8
치수문자_일반주서
 62
     0
100
AcDbTrace
 10
37.99328416623207
 20
-4.05136611142217
 30
0.0
 11
36.8926174995654
 21
-4.051366111422175
 31
0.0
 12
37.44295083289872
 22
-0.749366111422173
 32
0.0
 13
37.44295083289872
 23
-0.749366111422173
 33
0.0
  0
SOLID
  5
F8
330
EE
100
AcDbEntity
  8
치수문자_일반주서
 62
     0
100
AcDbTrace
 10
36.89261749956537
 20
4.051366111422293
 30
0.0
 11
37.99328416623204
 21
4.051366111422298
 31
0.0
 12
37.44295083289872
 22
0.7493661114222956
 32
0.0
 13
37.44295083289872
 23
0.7493661114222956
 33
0.0
  0
MTEXT
  5
F9
330
EE
100
AcDbEntity
  8
치수문자_일반주서
 62
     0
100
AcDbMText
 10
33.06795083289866
 20
12.82211611142227
 30
0.0
 40
3.5
 41
0.0
 71
     2
 72
     1
  1
\A1;%%c1.50
  7
SLDTEXTSTYLE0
 11
-4.740958557703853E-15
 21
1.0
 31
0.0
 73
     1
 44
1.0
  0
POINT
  5
14C
330
EE
100
AcDbEntity
  8
Defpoints
 62
     0
100
AcDbPoint
 10
21.39711431702996
 20
-0.7493661114222339
 30
0.0
  0
POINT
  5
14D
330
EE
100
AcDbEntity
  8
Defpoints
 62
     0
100
AcDbPoint
 10
21.39711431702995
 20
0.7493661114222347
 30
0.0
  0
POINT
  5
14E
330
EE
100
AcDbEntity
  8
Defpoints
 62
     0
100
AcDbPoint
 10
37.44295083289872
 20
0.7493661114222947
 30
0.0
  0
ENDBLK
  5
F0
330
EE
100
AcDbEntity
  8
0
100
AcDbBlockEnd
  0
BLOCK
  5
FD
330
FC
100
AcDbEntity
  8
0
100
AcDbBlockBegin
  2
_D_1
 70
     0
 10
0.0
 20
0.0
 30
0.0
  3
_D_1
  1

  0
LINE
  5
FF
330
FC
100
AcDbEntity
  8
치수문자_일반주서
 62
     0
370
    -2
100
AcDbLine
 10
-38.60288568297004
 20
2.512499999999994
 30
0.0
 11
-38.60288568297004
 21
24.23841044024269
 31
0.0
  0
LINE
  5
100
330
FC
100
AcDbEntity
  8
치수문자_일반주서
 62
     0
370
    -2
100
AcDbLine
 10
21.39711431702996
 20
0.8118661114222356
 30
0.0
 11
21.39711431702996
 21
24.23841044024269
 31
0.0
  0
LINE
  5
101
330
FC
100
AcDbEntity
  8
치수문자_일반주서
 62
     0
370
    -2
100
AcDbLine
 10
-35.30088568297004
 20
24.23841044024269
 30
0.0
 11
18.09511431702996
 21
24.23841044024269
 31
0.0
  0
SOLID
  5
102
330
FC
100
AcDbEntity
  8
치수문자_일반주서
 62
     0
100
AcDbTrace
 10
-35.30088568297004
 20
24.78874377357602
 30
0.0
 11
-35.30088568297004
 21
23.68807710690935
 31
0.0
 12
-38.60288568297004
 22
24.23841044024269
 32
0.0
 13
-38.60288568297004
 23
24.23841044024269
 33
0.0
  0
SOLID
  5
103
330
FC
100
AcDbEntity
  8
치수문자_일반주서
 62
     0
100
AcDbTrace
 10
18.09511431702996
 20
23.68807710690935
 30
0.0
 11
18.09511431702996
 21
24.78874377357602
 31
0.0
 12
21.39711431702996
 22
24.23841044024269
 32
0.0
 13
21.39711431702996
 23
24.23841044024269
 33
0.0
  0
MTEXT
  5
104
330
FC
100
AcDbEntity
  8
치수문자_일반주서
 62
     0
100
AcDbMText
 10
-8.602885682970044
 20
28.61341044024269
 30
0.0
 40
3.5
 41
0.0
 71
     2
 72
     1
  1
\A1;60
  7
SLDTEXTSTYLE0
 73
     1
 44
1.0
  0
POINT
  5
152
330
FC
100
AcDbEntity
  8
Defpoints
 62
     0
100
AcDbPoint
 10
-38.60288568297004
 20
2.449999999999994
 30
0.0
  0
POINT
  5
153
330
FC
100
AcDbEntity
  8
Defpoints
 62
     0
100
AcDbPoint
 10
21.39711431702996
 20
0.7493661114222356
 30
0.0
  0
POINT
  5
154
330
FC
100
AcDbEntity
  8
Defpoints
 62
     0
100
AcDbPoint
 10
21.39711431702996
 20
24.23841044024269
 30
0.0
  0
ENDBLK
  5
FE
330
FC
100
AcDbEntity
  8
0
100
AcDbBlockEnd
  0
BLOCK
  5
108
330
107
100
AcDbEntity
  8
0
100
AcDbBlockBegin
  2
_D_2
 70
     0
 10
0.0
 20
0.0
 30
0.0
  3
_D_2
  1

  0
LINE
  5
10A
330
107
100
AcDbEntity
  8
치수문자_일반주서
 62
     0
370
    -2
100
AcDbLine
 10
11.39711431702995
 20
0.6552794986570986
 30
0.0
 11
11.39711431702995
 21
13.93977730482462
 31
0.0
  0
LINE
  5
10B
330
107
100
AcDbEntity
  8
치수문자_일반주서
 62
     0
370
    -2
100
AcDbLine
 10
21.39711431702995
 20
0.8118661114222346
 30
0.0
 11
21.39711431702995
 21
13.93977730482462
 31
0.0
  0
LINE
  5
10C
330
107
100
AcDbEntity
  8
치수문자_일반주서
 62
     0
370
    -2
100
AcDbLine
 10
14.69911431702995
 20
13.93977730482462
 30
0.0
 11
18.09511431702995
 21
13.93977730482462
 31
0.0
  0
SOLID
  5
10D
330
107
100
AcDbEntity
  8
치수문자_일반주서
 62
     0
100
AcDbTrace
 10
14.69911431702995
 20
14.49011063815795
 30
0.0
 11
14.69911431702995
 21
13.38944397149129
 31
0.0
 12
11.39711431702995
 22
13.93977730482462
 32
0.0
 13
11.39711431702995
 23
13.93977730482462
 33
0.0
  0
SOLID
  5
10E
330
107
100
AcDbEntity
  8
치수문자_일반주서
 62
     0
100
AcDbTrace
 10
18.09511431702995
 20
13.38944397149129
 30
0.0
 11
18.09511431702995
 21
14.49011063815795
 31
0.0
 12
21.39711431702995
 22
13.93977730482462
 32
0.0
 13
21.39711431702995
 23
13.93977730482462
 33
0.0
  0
MTEXT
  5
10F
330
107
100
AcDbEntity
  8
치수문자_일반주서
 62
     0
100
AcDbMText
 10
16.39711431702995
 20
18.31477730482462
 30
0.0
 40
3.5
 41
0.0
 71
     2
 72
     1
  1
\A1;10
  7
SLDTEXTSTYLE0
 73
     1
 44
1.0
  0
POINT
  5
110
330
107
100
AcDbEntity
  8
Defpoints
 62
     0
100
AcDbPoint
 10
11.39711431702995
 20
0.5927794986570986
 30
0.0
  0
POINT
  5
111
330
107
100
AcDbEntity
  8
Defpoints
 62
     0
100
AcDbPoint
 10
21.39711431702995
 20
0.7493661114222346
 30
0.0
  0
POINT
  5
155
330
107
100
AcDbEntity
  8
Defpoints
 62
     0
100
AcDbPoint
 10
21.39711431702995
 20
13.93977730482462
 30
0.0
  0
ENDBLK
  5
109
330
107
100
AcDbEntity
  8
0
100
AcDbBlockEnd
  0
BLOCK
  5
114
330
113
100
AcDbEntity
  8
0
100
AcDbBlockBegin
  2
_D_3
 70
     0
 10
0.0
 20
0.0
 30
0.0
  3
_D_3
  1

  0
LINE
  5
116
330
113
100
AcDbEntity
  8
치수문자_일반주서
 62
     0
370
    -2
100
AcDbLine
 10
-38.11538568297005
 20
2.999999999999994
 30
0.0
 11
-45.95966261040556
 21
2.999999999999964
 31
0.0
  0
LINE
  5
117
330
113
100
AcDbEntity
  8
치수문자_일반주서
 62
     0
370
    -2
100
AcDbLine
 10
-38.11538568297005
 20
-3.0
 30
0.0
 11
-45.95966261040554
 21
-3.00000000000003
 31
0.0
  0
LINE
  5
118
330
113
100
AcDbEntity
  8
치수문자_일반주서
 62
     0
370
    -2
100
AcDbLine
 10
-45.95966261040556
 20
2.999999999999964
 30
0.0
 11
-45.95966261040561
 21
15.72899999999997
 31
0.0
  0
LINE
  5
119
330
113
100
AcDbEntity
  8
치수문자_일반주서
 62
     0
370
    -2
100
AcDbLine
 10
-45.95966261040556
 20
2.999999999999964
 30
0.0
 11
-45.95966261040554
 21
-3.00000000000003
 31
0.0
  0
LINE
  5
11A
330
113
100
AcDbEntity
  8
치수문자_일반주서
 62
     0
370
    -2
100
AcDbLine
 10
-45.95966261040557
 20
6.301999999999964
 30
0.0
 11
-45.95966261040559
 21
9.603999999999964
 31
0.0
  0
LINE
  5
11B
330
113
100
AcDbEntity
  8
치수문자_일반주서
 62
     0
370
    -2
100
AcDbLine
 10
-45.95966261040552
 20
-6.30200000000003
 30
0.0
 11
-45.95966261040551
 21
-9.60400000000003
 31
0.0
  0
SOLID
  5
11C
330
113
100
AcDbEntity
  8
치수문자_일반주서
 62
     0
100
AcDbTrace
 10
-46.50999594373891
 20
6.301999999999962
 30
0.0
 11
-45.40932927707224
 21
6.301999999999966
 31
0.0
 12
-45.95966261040556
 22
2.999999999999964
 32
0.0
 13
-45.95966261040556
 23
2.999999999999964
 33
0.0
  0
SOLID
  5
11D
330
113
100
AcDbEntity
  8
치수문자_일반주서
 62
     0
100
AcDbTrace
 10
-45.40932927707219
 20
-6.302000000000028
 30
0.0
 11
-46.50999594373886
 21
-6.302000000000032
 31
0.0
 12
-45.95966261040554
 22
-3.00000000000003
 32
0.0
 13
-45.95966261040554
 23
-3.00000000000003
 33
0.0
  0
MTEXT
  5
11E
330
113
100
AcDbEntity
  8
치수문자_일반주서
 62
     0
100
AcDbMText
 10
-50.33466261040559
 20
12.66649999999995
 30
0.0
 40
3.5
 41
0.0
 71
     2
 72
     1
  1
\A1;%%c6
  7
SLDTEXTSTYLE0
 11
-3.552713678800504E-15
 21
1.0
 31
0.0
 73
     1
 44
1.0
  0
POINT
  5
14F
330
113
100
AcDbEntity
  8
Defpoints
 62
     0
100
AcDbPoint
 10
-38.05288568297005
 20
2.999999999999994
 30
0.0
  0
POINT
  5
150
330
113
100
AcDbEntity
  8
Defpoints
 62
     0
100
AcDbPoint
 10
-38.05288568297005
 20
-3.0
 30
0.0
  0
POINT
  5
151
330
113
100
AcDbEntity
  8
Defpoints
 62
     0
100
AcDbPoint
 10
-45.95966261040554
 20
-3.00000000000003
 30
0.0
  0
ENDBLK
  5
115
330
113
100
AcDbEntity
  8
0
100
AcDbBlockEnd
  0
BLOCK
  5
120
330
11F
100
AcDbEntity
  8
0
100
AcDbBlockBegin
  2
SW_DOWELSYMBOL_0
 70
     0
 10
0.0
 20
0.0
 30
0.0
  3
SW_DOWELSYMBOL_0
  1

  0
CIRCLE
  5
122
330
11F
100
AcDbEntity
  8
외형선
 62
     0
100
AcDbCircle
 10
0.0
 20
0.0
 30
0.0
 40
3.000000000000004
  0
HATCH
  5
123
330
11F
100
AcDbEntity
  8
0
  6
Continuous
 62
     0
370
    30
100
AcDbHatch
 10
0.0
 20
0.0
 30
0.0
210
0.0
220
0.0
230
1.0
  2
SOLID
 70
     1
 71
     0
 91
        1
 92
        0
 93
        3
 72
     2
 10
0.0000000000000104
 20
0.0
 40
3.000000000000004
 50
0.0
 51
90.0
 73
     1
 72
     1
 10
0.0000000000000104
 20
3.000000000000004
 11
0.0000000000000104
 21
0.0
 72
     1
 10
0.0000000000000104
 20
0.0
 11
3.000000000000015
 21
0.0
 97
        0
 75
     0
 76
     1
 98
        1
 10
0.0
 20
0.0
  0
HATCH
  5
124
330
11F
100
AcDbEntity
  8
0
  6
Continuous
 62
     0
370
    30
100
AcDbHatch
 10
0.0
 20
0.0
 30
0.0
210
0.0
220
0.0
230
1.0
  2
SOLID
 70
     1
 71
     0
 91
        1
 92
        0
 93
        3
 72
     2
 10
0.0000000000000104
 20
0.0
 40
3.000000000000004
 50
180.0
 51
270.0000000000007
 73
     1
 72
     1
 10
0.0000000000000104
 20
-3.000000000000004
 11
0.0000000000000104
 21
0.0
 72
     1
 10
0.0000000000000104
 20
0.0
 11
-2.999999999999994
 21
0.0
 97
        0
 75
     0
 76
     1
 98
        1
 10
0.0
 20
0.0
  0
ENDBLK
  5
121
330
11F
100
AcDbEntity
  8
0
100
AcDbBlockEnd
  0
ENDSEC
  0
SECTION
  2
ENTITIES
  0
LINE
  5
95
330
1F
100
AcDbEntity
  8
0
  6
Continuous
 62
     1
370
    15
100
AcDbLine
 10
19.07776935289683
 20
0.1906190595073073
 30
0.0
 11
19.03198823743548
 21
0.2154404501425879
 31
0.0
  0
LINE
  5
96
330
1F
100
AcDbEntity
  8
0
  6
Continuous
 62
     1
370
    15
100
AcDbLine
 10
17.36987941297509
 20
-0.7500000000000007
 30
0.0
 11
17.73222640097788
 21
-0.7500000000000007
 31
0.0
  0
LINE
  5
97
330
1F
100
AcDbEntity
  8
0
  6
Continuous
 62
     1
370
    15
100
AcDbLine
 10
13.65203647159595
 20
0.7500000000000011
 30
0.0
 11
13.28778286035805
 21
0.7500000000000011
 31
0.0
  0
LINE
  5
98
330
1F
100
AcDbEntity
  8
0
  6
Continuous
 62
     1
370
    15
100
AcDbLine
 10
13.28778286035805
 20
-0.7500000000000007
 30
0.0
 11
13.65203647159594
 21
-0.7500000000000007
 31
0.0
  0
LINE
  5
99
330
1F
100
AcDbEntity
  8
0
  6
Continuous
 62
     1
370
    15
100
AcDbLine
 10
17.73222640097787
 20
0.7500000000000011
 30
0.0
 11
17.36987941297509
 21
0.7500000000000011
 31
0.0
  0
SPLINE
  5
9A
330
1F
100
AcDbEntity
  8
0
  6
Continuous
 62
     1
370
    15
100
AcDbSpline
210
0.0
220
0.0
230
1.0
 70
     8
 71
     3
 72
     9
 73
     5
 74
     0
 42
0.000000001
 43
0.00000001
 40
0.0
 40
0.0
 40
0.0
 40
0.0
 40
0.5000367008902847
 40
1.0
 40
1.0
 40
1.0
 40
1.0
 10
19.45446633461284
 20
0.1923241133283283
 30
0.0
 10
19.41960355972534
 20
0.2088222850728619
 30
0.0
 10
19.34988312755418
 20
0.24181620674933
 30
0.0
 10
19.28021138793228
 20
0.2780437330227948
 30
0.0
 10
19.2453780751362
 20
0.2961561665770602
 30
0.0
  0
LINE
  5
9B
330
1F
100
AcDbEntity
  8
0
  6
Continuous
 62
     1
370
    15
100
AcDbLine
 10
15.19081853036482
 20
0.282589531134978
 30
0.0
 11
15.16431561137522
 21
0.2961635012895404
 31
0.0
  0
SPLINE
  5
9C
330
1F
100
AcDbEntity
  8
0
  6
Continuous
 62
     1
370
    15
100
AcDbSpline
210
0.0
220
0.0
230
1.0
 70
     8
 71
     3
 72
     9
 73
     5
 74
     0
 42
0.000000001
 43
0.00000001
 40
0.0
 40
0.0
 40
0.0
 40
0.0
 40
0.5725516113100916
 40
1.0
 40
1.0
 40
1.0
 40
1.0
 10
15.37360826224078
 20
0.1922354789015311
 30
0.0
 10
15.3387108174021
 20
0.2087088989926524
 30
0.0
 10
15.27776007663161
 20
0.2374808380907317
 30
0.0
 10
15.21685311358086
 20
0.2690817655930188
 30
0.0
 10
15.19081853036482
 20
0.282589531134978
 30
0.0
  0
SPLINE
  5
9D
330
1F
100
AcDbEntity
  8
0
  6
Continuous
 62
     1
370
    15
100
AcDbSpline
210
0.0
220
0.0
230
1.0
 70
     8
 71
     3
 72
     9
 73
     5
 74
     0
 42
0.000000001
 43
0.00000001
 40
0.0
 40
0.0
 40
0.0
 40
0.0
 40
0.5029894581121126
 40
1.0
 40
1.0
 40
1.0
 40
1.0
 10
13.99625372458945
 20
-0.624102215125598
 30
0.0
 10
14.18534723349903
 20
-0.6083514800850788
 30
0.0
 10
14.56128654168913
 20
-0.5770372352505306
 30
0.0
 10
14.9371605045717
 20
-0.5896846293156354
 30
0.0
 10
15.12397382654552
 20
-0.5959705174934029
 30
0.0
  0
SPLINE
  5
9E
330
1F
100
AcDbEntity
  8
0
  6
Continuous
 62
     1
370
    15
100
AcDbSpline
210
0.0
220
0.0
230
1.0
 70
     8
 71
     3
 72
     9
 73
     5
 74
     0
 42
0.000000001
 43
0.00000001
 40
0.0
 40
0.0
 40
0.0
 40
0.0
 40
0.9137016621762971
 40
1.0
 40
1.0
 40
1.0
 40
1.0
 10
19.20517558821912
 20
0.5959786861848235
 30
0.0
 10
19.0089267178589
 20
0.5865801209636955
 30
0.0
 10
18.7941423101204
 20
0.5762938693235902
 30
0.0
 10
18.57937771360269
 20
0.5911058270565532
 30
0.0
 10
18.60790347053013
 20
0.5892517853044248
 30
0.0
  0
SPLINE
  5
9F
330
1F
100
AcDbEntity
  8
0
  6
Continuous
 62
     1
370
    15
100
AcDbSpline
210
0.0
220
0.0
230
1.0
 70
     8
 71
     3
 72
    12
 73
     8
 74
     0
 42
0.000000001
 43
0.00000001
 40
0.0
 40
0.0
 40
0.0
 40
0.0
 40
0.2411881294223996
 40
0.4390056177473183
 40
0.6391148667903555
 40
0.7741697642574569
 40
1.0
 40
1.0
 40
1.0
 40
1.0
 10
18.07714616262141
 20
-0.6241177641296659
 30
0.0
 10
18.16792999533965
 20
-0.6159445611221289
 30
0.0
 10
18.33317283983363
 20
-0.6010678669668617
 30
0.0
 10
18.57314790348364
 20
-0.5889641004605054
 30
0.0
 10
18.7736890591283
 20
-0.5851213938590366
 30
0.0
 10
18.98440164976572
 20
-0.5862762031720096
 30
0.0
 10
19.12019838597575
 20
-0.5922441427553827
 30
0.0
 10
19.20517558821912
 20
-0.595978686184822
 30
0.0
  0
SPLINE
  5
A0
330
1F
100
AcDbEntity
  8
0
  6
Continuous
 62
     1
370
    15
100
AcDbSpline
210
0.0
220
0.0
230
1.0
 70
     8
 71
     3
 72
     9
 73
     5
 74
     0
 42
0.000000001
 43
0.00000001
 40
0.0
 40
0.0
 40
0.0
 40
0.0
 40
0.9286801444028444
 40
1.0
 40
1.0
 40
1.0
 40
1.0
 10
15.12397382654552
 20
0.5959705174934038
 30
0.0
 10
14.92750108258069
 20
0.5864622878375488
 30
0.0
 10
14.71593981991241
 20
0.5762238546017775
 30
0.0
 10
14.50440220546043
 20
0.5906993058525788
 30
0.0
 10
14.48931537334434
 20
0.5917316929454896
 30
0.0
  0
SPLINE
  5
A1
330
1F
100
AcDbEntity
  8
0
  6
Continuous
 62
     1
370
    15
100
AcDbSpline
210
0.0
220
0.0
230
1.0
 70
     8
 71
     3
 72
     9
 73
     5
 74
     0
 42
0.000000001
 43
0.00000001
 40
0.0
 40
0.0
 40
0.0
 40
0.0
 40
0.7074890233399918
 40
1.0
 40
1.0
 40
1.0
 40
1.0
 10
11.66874262446685
 20
-0.5603278880508628
 30
0.0
 10
11.79785789907586
 20
-0.5420179735599628
 30
0.0
 10
11.98035581826544
 20
-0.5161378342406834
 30
0.0
 10
12.16488434709183
 20
-0.5063737195036057
 30
0.0
 10
12.21886096728047
 20
-0.5035176087656427
 30
0.0
  0
SPLINE
  5
A2
330
1F
100
AcDbEntity
  8
0
  6
Continuous
 62
     1
370
    15
100
AcDbSpline
210
0.0
220
0.0
230
1.0
 70
     8
 71
     3
 72
    10
 73
     6
 74
     0
 42
0.000000001
 43
0.00000001
 40
0.0
 40
0.0
 40
0.0
 40
0.0
 40
0.4976133819991926
 40
0.85827016410512
 40
1.0
 40
1.0
 40
1.0
 40
1.0
 10
19.80720988829847
 20
-0.564122386203007
 30
0.0
 10
19.9015969119412
 20
-0.5506982043341694
 30
0.0
 10
20.06439310915315
 20
-0.5275445368639425
 30
0.0
 10
20.25305680287503
 20
-0.5091061639093422
 30
0.0
 10
20.3481991353487
 20
-0.5042887222432081
 30
0.0
 10
20.36453037112117
 20
-0.5034625955568464
 30
0.0
  0
SPLINE
  5
A3
330
1F
100
AcDbEntity
  8
0
  6
Continuous
 62
     1
370
    15
100
AcDbSpline
210
0.0
220
0.0
230
1.0
 70
     8
 71
     3
 72
    14
 73
    10
 74
     0
 42
0.000000001
 43
0.00000001
 40
0.0
 40
0.0
 40
0.0
 40
0.0
 40
0.2132598034406716
 40
0.3651874376428816
 40
0.5118110299461347
 40
0.5942700640393743
 40
0.6638647513734133
 40
0.7953289766259203
 40
1.0
 40
1.0
 40
1.0
 40
1.0
 10
17.03759880083232
 20
0.512974378935499
 30
0.0
 10
16.94417040185807
 20
0.5063170983874858
 30
0.0
 10
16.7841830199229
 20
0.4949171290272258
 30
0.0
 10
16.5611637662544
 20
0.4924857729984694
 30
0.0
 10
16.39422305148932
 20
0.4965653020358537
 30
0.0
 10
16.26357278794469
 20
0.5035966017152375
 30
0.0
 10
16.13998312843691
 20
0.5127553170252755
 30
0.0
 10
15.9633422189897
 20
0.5298714588170571
 30
0.0
 10
15.81584914710808
 20
0.5511716284099379
 30
0.0
 10
15.72604137453456
 20
0.56414119207941
 30
0.0
  0
SPLINE
  5
A4
330
1F
100
AcDbEntity
  8
0
  6
Continuous
 62
     1
370
    15
100
AcDbSpline
210
0.0
220
0.0
230
1.0
 70
     8
 71
     3
 72
    10
 73
     6
 74
     0
 42
0.000000001
 43
0.00000001
 40
0.0
 40
0.0
 40
0.0
 40
0.0
 40
0.4949713422972344
 40
0.8626932858225413
 40
1.0
 40
1.0
 40
1.0
 40
1.0
 10
15.72604137453456
 20
-0.5641411920794093
 30
0.0
 10
15.82221754859911
 20
-0.5504760170816835
 30
0.0
 10
15.9898445050134
 20
-0.5266587700762018
 30
0.0
 10
16.18288364687822
 20
-0.5081971180643662
 30
0.0
 10
16.28081745151704
 20
-0.5034050110204632
 30
0.0
 10
16.30744360176962
 20
-0.5021021374861611
 30
0.0
  0
SPLINE
  5
A5
330
1F
100
AcDbEntity
  8
0
  6
Continuous
 62
     1
370
    15
100
AcDbSpline
210
0.0
220
0.0
230
1.0
 70
     8
 71
     3
 72
    14
 73
    10
 74
     0
 42
0.000000001
 43
0.00000001
 40
0.0
 40
0.0
 40
0.0
 40
0.0
 40
0.2111382051321783
 40
0.3710043010550459
 40
0.5116612982726719
 40
0.5910037068854257
 40
0.6610175525162149
 40
0.7936600545501853
 40
1.0
 40
1.0
 40
1.0
 40
1.0
 10
21.10240873653301
 20
0.4947253536644481
 30
0.0
 10
21.01531734780163
 20
0.505600229793609
 30
0.0
 10
20.85537334999847
 20
0.4945266090426538
 30
0.0
 10
20.63403303170707
 20
0.4925387983698595
 30
0.0
 10
20.4690531088128
 20
0.4968757455985108
 30
0.0
 10
20.34322702622566
 20
0.5037026017844506
 30
0.0
 10
20.22120268054628
 20
0.5127393017364937
 30
0.0
 10
20.04457086631642
 20
0.5298489822268138
 30
0.0
 10
19.89702290879935
 20
0.5511539616554977
 30
0.0
 10
19.80720988829847
 20
0.5641223862030086
 30
0.0
  0
SPLINE
  5
A6
330
1F
100
AcDbEntity
  8
0
  6
Continuous
 62
     1
370
    15
100
AcDbSpline
210
0.0
220
0.0
230
1.0
 70
     8
 71
     3
 72
    14
 73
    10
 74
     0
 42
0.000000001
 43
0.00000001
 40
0.0
 40
0.0
 40
0.0
 40
0.0
 40
0.2128816031096427
 40
0.3597933411670916
 40
0.5154202155159522
 40
0.6029748266916807
 40
0.6733948749092942
 40
0.8019962831283242
 40
1.0
 40
1.0
 40
1.0
 40
1.0
 10
12.95641677905068
 20
0.5129629941990216
 30
0.0
 10
12.86462151414361
 20
0.5064005380096347
 30
0.0
 10
12.7094774125313
 20
0.495309264718978
 30
0.0
 10
12.48838905193589
 20
0.4924464066111654
 30
0.0
 10
12.32022861062956
 20
0.4962345792630185
 30
0.0
 10
12.18515945087363
 20
0.5034137070357737
 30
0.0
 10
12.06228464784958
 20
0.5124952454183831
 30
0.0
 10
11.8937270492829
 20
0.5286641463744929
 30
0.0
 10
11.75365875394949
 20
0.548377005716258
 30
0.0
 10
11.66874262446686
 20
0.5603278880508631
 30
0.0
  0
LINE
  5
A7
330
1F
100
AcDbEntity
  8
0
  6
Continuous
 62
   131
370
    15
100
AcDbLine
 10
2.0
 20
-2.999999999999999
 30
0.0
 11
10.39711431702995
 21
-0.7499999999999998
 31
0.0
  0
LINE
  5
A8
330
1F
100
AcDbEntity
  8
0
  6
Continuous
 62
   131
370
    15
100
AcDbLine
 10
10.39711431702995
 20
0.7500000000000002
 30
0.0
 11
2.0
 21
2.999999999999999
 31
0.0
  0
LINE
  5
A9
330
1F
100
AcDbEntity
  8
0
  6
Continuous
 62
   131
370
    15
100
AcDbLine
 10
2.0
 20
2.999999999999998
 30
0.0
 11
-38.05288568297005
 21
2.999999999999995
 31
0.0
  0
LINE
  5
AA
330
1F
100
AcDbEntity
  8
0
  6
Continuous
 62
   131
370
    15
100
AcDbLine
 10
-38.05288568297005
 20
-3.000000000000001
 30
0.0
 11
2.0
 21
-2.999999999999998
 31
0.0
  0
LINE
  5
AB
330
1F
100
AcDbEntity
  8
0
  6
Continuous
 62
   131
370
    15
100
AcDbLine
 10
-38.05288568297005
 20
2.999999999999994
 30
0.0
 11
-38.60288568297004
 21
2.449999999999994
 31
0.0
  0
LINE
  5
AC
330
1F
100
AcDbEntity
  8
0
  6
Continuous
 62
   131
370
    15
100
AcDbLine
 10
-38.60288568297004
 20
-2.45
 30
0.0
 11
-38.05288568297005
 21
-3.0
 31
0.0
  0
LINE
  5
AD
330
1F
100
AcDbEntity
  8
0
  6
Continuous
 62
   131
370
    15
100
AcDbLine
 10
10.59708062077839
 20
0.7500000000000002
 30
0.0
 11
10.39711431702995
 21
0.7500000000000002
 31
0.0
  0
LINE
  5
AE
330
1F
100
AcDbEntity
  8
0
  6
Continuous
 62
   131
370
    15
100
AcDbLine
 10
10.39711431702995
 20
-0.7499999999999998
 30
0.0
 11
10.59708062077839
 21
-0.7499999999999998
 31
0.0
  0
SPLINE
  5
AF
330
1F
100
AcDbEntity
  8
0
  6
Continuous
 62
   131
370
    15
100
AcDbSpline
210
0.0
220
0.0
230
1.0
 70
     8
 71
     3
 72
     9
 73
     5
 74
     0
 42
0.000000001
 43
0.00000001
 40
0.0
 40
0.0
 40
0.0
 40
0.0
 40
0.5010753661835818
 40
1.0
 40
1.0
 40
1.0
 40
1.0
 10
11.25092221134362
 20
0.2114885300063542
 30
0.0
 10
11.2221562169653
 20
0.2255166891624359
 30
0.0
 10
11.16474769856732
 20
0.2535127953428824
 30
0.0
 10
11.10716284168404
 20
0.2836686099643161
 30
0.0
 10
11.07843233805018
 20
0.2987140887317507
 30
0.0
  0
SPLINE
  5
B0
330
1F
100
AcDbEntity
  8
0
  6
Continuous
 62
   131
370
    15
100
AcDbSpline
210
0.0
220
0.0
230
1.0
 70
     8
 71
     3
 72
     9
 73
     5
 74
     0
 42
0.000000001
 43
0.00000001
 40
0.0
 40
0.0
 40
0.0
 40
0.0
 40
0.4870993484042122
 40
1.0
 40
1.0
 40
1.0
 40
1.0
 10
11.04307704122233
 20
0.5959786111469639
 30
0.0
 10
10.96954565073488
 20
0.5925803687522937
 30
0.0
 10
10.81858796473437
 20
0.5856038815001482
 30
0.0
 10
10.6689683859466
 20
0.5859047232266111
 30
0.0
 10
10.59222840649486
 20
0.5860590251441411
 30
0.0
  0
SPLINE
  5
B1
330
1F
100
AcDbEntity
  8
0
  6
Continuous
 62
   131
370
    15
100
AcDbSpline
210
0.0
220
0.0
230
1.0
 70
     8
 71
     3
 72
     9
 73
     5
 74
     0
 42
0.000000001
 43
0.00000001
 40
0.0
 40
0.0
 40
0.0
 40
0.0
 40
0.512900651595724
 40
1.0
 40
1.0
 40
1.0
 40
1.0
 10
10.59222840649486
 20
-0.5860590251441407
 30
0.0
 10
10.66896838594659
 20
-0.5859047232266105
 30
0.0
 10
10.81858796473436
 20
-0.5856038815001474
 30
0.0
 10
10.96954565073487
 20
-0.5925803687522928
 30
0.0
 10
11.04307704122233
 20
-0.5959786111469636
 30
0.0
  0
SPLINE
  5
B2
330
1F
100
AcDbEntity
  8
0
  6
Continuous
 62
     1
370
    15
100
AcDbSpline
210
0.0
220
0.0
230
1.0
 70
     8
 71
     3
 72
    18
 73
    14
 74
     0
 42
0.000000001
 43
0.00000001
 40
0.0
 40
0.0
 40
0.0
 40
0.0
 40
0.0253150166343327
 40
0.1174010246161178
 40
0.2096918843876521
 40
0.3145644820461382
 40
0.4194851412809316
 40
0.5243507238058822
 40
0.6291567701709647
 40
0.7339142797160078
 40
0.8386345029362111
 40
0.9433288846971694
 40
1.0
 40
1.0
 40
1.0
 40
1.0
 10
12.21596146628052
 20
0.5022031161245762
 30
0.0
 10
12.25941908303637
 20
0.5225119625798319
 30
0.0
 10
12.46095830413216
 20
0.6166963519112155
 30
0.0
 10
12.82091146069376
 20
0.7149267136560548
 30
0.0
 10
13.31769294375194
 20
0.7701072649768154
 30
0.0
 10
13.83687705979511
 20
0.7038079481000976
 30
0.0
 10
14.37766366883968
 20
0.5163654133985516
 30
0.0
 10
14.91826954734335
 20
0.2403571590412588
 30
0.0
 10
15.45853256670399
 20
-0.0760118389757263
 30
0.0
 10
15.99849641598254
 20
-0.3810384069333073
 30
0.0
 10
16.53822947219194
 20
-0.6150133834825634
 30
0.0
 10
16.99533107363321
 20
-0.7438217260255761
 30
0.0
 10
17.27252845941305
 20
-0.7365385386168021
 30
0.0
 10
17.36987941297509
 20
-0.7500000000000007
 30
0.0
  0
SPLINE
  5
B3
330
1F
100
AcDbEntity
  8
0
  6
Continuous
 62
     1
370
    15
100
AcDbSpline
210
0.0
220
0.0
230
1.0
 70
     8
 71
     3
 72
     9
 73
     5
 74
     0
 42
0.000000001
 43
0.00000001
 40
0.0
 40
0.0
 40
0.0
 40
0.0
 40
0.4716218896976249
 40
1.0
 40
1.0
 40
1.0
 40
1.0
 10
20.37357704653844
 20
0.5024125419641263
 30
0.0
 10
20.53446934698505
 20
0.567339388441739
 30
0.0
 10
20.87561615115431
 20
0.7050065491395598
 30
0.0
 10
21.21682632837444
 20
0.7340304941853959
 30
0.0
 10
21.39711431702995
 20
0.7493661114222347
 30
0.0
  0
SPLINE
  5
B4
330
1F
100
AcDbEntity
  8
0
  6
Continuous
 62
     1
370
    15
100
AcDbSpline
210
0.0
220
0.0
230
1.0
 70
    24
 71
     3
 72
     8
 73
     4
 74
     0
 42
0.000000001
 43
0.00000001
 40
0.0
 40
0.0
 40
0.0
 40
0.0
 40
1.0
 40
1.0
 40
1.0
 40
1.0
 10
21.39711431702995
 20
0.5250000000000012
 30
0.0
 10
21.39711431702995
 20
0.5886483852109723
 30
0.0
 10
21.39711431702996
 20
0.6742440422799779
 30
0.0
 10
21.39711431702996
 20
0.7493661114222356
 30
0.0
  0
LINE
  5
B5
330
1F
100
AcDbEntity
  8
0
  6
Continuous
 62
     1
370
    15
100
AcDbLine
 10
21.39711431702995
 20
0.5250000000000014
 30
0.0
 11
21.10240873653301
 21
0.4947253536644481
 31
0.0
  0
SPLINE
  5
B6
330
1F
100
AcDbEntity
  8
0
  6
Continuous
 62
     1
370
    15
100
AcDbSpline
210
0.0
220
0.0
230
1.0
 70
     8
 71
     3
 72
    12
 73
     8
 74
     0
 42
0.000000001
 43
0.00000001
 40
0.0
 40
0.0
 40
0.0
 40
0.0
 40
0.0473365965175251
 40
0.3190224248196848
 40
0.5905817759796665
 40
0.8617610932084317
 40
1.0
 40
1.0
 40
1.0
 40
1.0
 10
15.44057876314075
 20
-0.0639235229507426
 30
0.0
 10
15.40131295933781
 20
-0.0490085813352857
 30
0.0
 10
15.13668320427989
 20
0.051509858735611
 30
0.0
 10
14.64674627581989
 20
0.2583586226533411
 30
0.0
 10
13.97117944889513
 20
0.4585719729217919
 30
0.0
 10
13.40634149898734
 20
0.5464757159538169
 30
0.0
 10
13.06688206169148
 20
0.5099015331499428
 30
0.0
 10
12.95641677905068
 20
0.5129629941990216
 30
0.0
  0
SPLINE
  5
B7
330
1F
100
AcDbEntity
  8
0
  6
Continuous
 62
     1
370
    15
100
AcDbSpline
210
0.0
220
0.0
230
1.0
 70
     8
 71
     3
 72
    11
 73
     7
 74
     0
 42
0.000000001
 43
0.00000001
 40
0.0
 40
0.0
 40
0.0
 40
0.0
 40
0.2512554526316925
 40
0.5020800089034944
 40
0.7529692204613672
 40
0.9999999999999999
 40
0.9999999999999999
 40
0.9999999999999999
 40
0.9999999999999999
 10
11.39711431703025
 20
-0.0854481111230578
 30
0.0
 10
11.55549448399691
 20
-0.1752817371987198
 30
0.0
 10
11.87198320019335
 20
-0.3547949270916277
 30
0.0
 10
12.34637106650738
 20
-0.5726013237371188
 30
0.0
 10
12.81811807768193
 20
-0.7218620951622188
 30
0.0
 10
13.13203880053594
 20
-0.740096064698385
 30
0.0
 10
13.28778286035805
 20
-0.7491424010358425
 30
0.0
  0
SPLINE
  5
B8
330
1F
100
AcDbEntity
  8
0
  6
Continuous
 62
     1
370
    15
100
AcDbSpline
210
0.0
220
0.0
230
1.0
 70
     8
 71
     3
 72
    17
 73
    13
 74
     0
 42
0.000000001
 43
0.00000001
 40
0.0
 40
0.0
 40
0.0
 40
0.0
 40
0.0455388253312344
 40
0.1515383522041047
 40
0.2575234401391371
 40
0.363505889738972
 40
0.4694975155013477
 40
0.5755100836231729
 40
0.6815552503450213
 40
0.7876445015217244
 40
0.8937890940814488
 40
1.0
 40
1.0
 40
1.0
 40
1.0
 10
16.30645776051579
 20
0.5016781148082061
 30
0.0
 10
16.38372894653169
 20
0.5367244486106646
 30
0.0
 10
16.64086224139676
 20
0.6533472125179483
 30
0.0
 10
17.07780232274542
 20
0.7492817232244138
 30
0.0
 10
17.61728949246286
 20
0.7587563631783233
 30
0.0
 10
18.1567586621566
 20
0.6341105993629651
 30
0.0
 10
18.6962843101315
 20
0.4028003103760945
 30
0.0
 10
19.23593771104329
 20
0.1027110428881116
 30
0.0
 10
19.77578961887325
 20
-0.2154687496994477
 30
0.0
 10
20.315911868964
 20
-0.494572883970624
 30
0.0
 10
20.8563659695841
 20
-0.6986123539491701
 30
0.0
 10
21.21682734683004
 20
-0.7324446705998994
 30
0.0
 10
21.39711431702995
 20
-0.7493661114222329
 30
0.0
  0
SPLINE
  5
B9
330
1F
100
AcDbEntity
  8
0
  6
Continuous
 62
     1
370
    15
100
AcDbSpline
210
0.0
220
0.0
230
1.0
 70
     8
 71
     3
 72
    12
 73
     8
 74
     0
 42
0.000000001
 43
0.00000001
 40
0.0
 40
0.0
 40
0.0
 40
0.0
 40
0.060186215949879
 40
0.3317896758651175
 40
0.6031802941259485
 40
0.8741070562503898
 40
1.0
 40
1.0
 40
1.0
 40
1.0
 10
19.52215729154276
 20
-0.0639243236540786
 30
0.0
 10
19.47221868082879
 20
-0.0448293895839762
 30
0.0
 10
19.196921169589
 20
0.0604356098149071
 30
0.0
 10
18.69641731115272
 20
0.269876051269471
 30
0.0
 10
18.02110960018051
 20
0.4648071911766864
 30
0.0
 10
17.46680021130694
 20
0.5486532355202722
 30
0.0
 10
17.13767332721685
 20
0.5083435344646776
 30
0.0
 10
17.03759880083232
 20
0.512974378935499
 30
0.0
  0
SPLINE
  5
BA
330
1F
100
AcDbEntity
  8
0
  6
Continuous
 62
     1
370
    15
100
AcDbSpline
210
0.0
220
0.0
230
1.0
 70
     8
 71
     3
 72
    17
 73
    13
 74
     0
 42
0.000000001
 43
0.00000001
 40
0.0
 40
0.0
 40
0.0
 40
0.0
 40
0.0836005746938224
 40
0.1933615688735371
 40
0.3031252936037878
 40
0.4129039694545965
 40
0.5227097383700665
 40
0.6325546003012887
 40
0.7424503514187744
 40
0.85240852457537
 40
0.9624244633220715
 40
1.0
 40
1.0
 40
1.0
 40
1.0
 10
18.56762598408596
 20
-0.5904034997114467
 30
0.0
 10
18.43066324839447
 20
-0.6359569611913215
 30
0.0
 10
18.11387918862563
 20
-0.7413185428745598
 30
0.0
 10
17.61728336696887
 20
-0.7666950640413084
 30
0.0
 10
17.07779636804358
 20
-0.6762278659278305
 30
0.0
 10
16.53822189806352
 20
-0.4673316763826328
 30
0.0
 10
15.99848747239308
 20
-0.1795729772569451
 30
0.0
 10
15.45852355421501
 20
0.1384353895816272
 30
0.0
 10
14.91825730081056
 20
0.4351612086618617
 30
0.0
 10
14.37765968763431
 20
0.6491816883242639
 30
0.0
 10
13.95549671231993
 20
0.7549437399146431
 30
0.0
 10
13.71361699436909
 20
0.7394297744125203
 30
0.0
 10
13.65203647159595
 20
0.7500000000000011
 30
0.0
  0
LINE
  5
BB
330
1F
100
AcDbEntity
  8
0
  6
Continuous
 62
   131
370
    15
100
AcDbLine
 10
11.39711431702995
 20
-0.0854481111238349
 30
0.0
 11
11.39711431702995
 21
0.1236621892827515
 31
0.0
  0
SPLINE
  5
BC
330
1F
100
AcDbEntity
  8
0
  6
Continuous
 62
     1
370
    15
100
AcDbSpline
210
0.0
220
0.0
230
1.0
 70
     8
 71
     3
 72
    14
 73
    10
 74
     0
 42
0.000000001
 43
0.00000001
 40
0.0
 40
0.0
 40
0.0
 40
0.0
 40
0.1475366109812453
 40
0.2949811102420365
 40
0.4423487378928969
 40
0.5896551298396058
 40
0.736916239966584
 40
0.8841482588267765
 40
1.0
 40
1.0
 40
1.0
 40
1.0
 10
21.37804669701819
 20
-0.7021718419180428
 30
0.0
 10
21.19775944126066
 20
-0.6573711704732838
 30
0.0
 10
20.83729748871784
 20
-0.5677977980440927
 30
0.0
 10
20.29684251684683
 20
-0.302448959031406
 30
0.0
 10
19.75671938422789
 20
0.0070158732458606
 30
0.0
 10
19.21686658944895
 20
0.3202260559222979
 30
0.0
 10
18.67721229073248
 20
0.575987938346705
 30
0.0
 10
18.17599942801786
 20
0.7375936761406416
 30
0.0
 10
17.85466279596587
 20
0.745341345001377
 30
0.0
 10
17.71315878096611
 20
0.7487531136618059
 30
0.0
  0
SPLINE
  5
BD
330
1F
100
AcDbEntity
  8
0
  6
Continuous
 62
     1
370
    15
100
AcDbSpline
210
0.0
220
0.0
230
1.0
 70
     8
 71
     3
 72
    14
 73
    10
 74
     0
 42
0.000000001
 43
0.00000001
 40
0.0
 40
0.0
 40
0.0
 40
0.0
 40
0.0351631125099038
 40
0.2101676262567156
 40
0.3850920116426967
 40
0.5390291595373358
 40
0.6926245735370417
 40
0.8461803841843084
 40
1.0
 40
1.0
 40
1.0
 40
1.0
 10
14.48641730465006
 20
-0.5928828868648319
 30
0.0
 10
14.45019058221686
 20
-0.607789335362049
 30
0.0
 10
14.23366582893443
 20
-0.6968842041878882
 30
0.0
 10
13.83686188838267
 20
-0.7587958653286178
 30
0.0
 10
13.31768104765007
 20
-0.7453103275775764
 30
0.0
 10
12.82090519099727
 20
-0.6152584329752928
 30
0.0
 10
12.34636067776805
 20
-0.4114765585575567
 30
0.0
 10
11.87198085482054
 20
-0.1515345309595318
 30
0.0
 10
11.55549370473081
 20
0.0318774780417336
 30
0.0
 10
11.39711431703024
 20
0.1236621892829839
 30
0.0
  0
LINE
  5
BE
330
1F
100
AcDbEntity
  8
0
  6
Continuous
 62
     1
370
    15
100
AcDbLine
 10
21.39711431702996
 20
-0.7493661114222339
 30
0.0
 11
21.39711431702981
 21
-0.7117056519239263
 31
0.0
  0
SPLINE
  5
BF
330
1F
100
AcDbEntity
  8
0
  6
Continuous
 62
     1
370
    15
100
AcDbSpline
210
0.0
220
0.0
230
1.0
 70
     8
 71
     3
 72
    13
 73
     9
 74
     0
 42
0.000000001
 43
0.00000001
 40
0.0
 40
0.0
 40
0.0
 40
0.0
 40
0.1724934296796062
 40
0.3438864876602154
 40
0.517324405808857
 40
0.6884398612507685
 40
0.8616899711809094
 40
1.0
 40
1.0
 40
1.0
 40
1.0
 10
21.39711431702995
 20
-0.5917291982761606
 30
0.0
 10
21.2843774379179
 20
-0.5673864405767758
 30
0.0
 10
21.05962285184684
 20
-0.5188562127254666
 30
0.0
 10
20.72238722171507
 20
-0.3990965583875727
 30
0.0
 10
20.3844846437216
 20
-0.2581693844954719
 30
0.0
 10
20.04719865420982
 20
-0.0957250449511529
 30
0.0
 10
19.73120919288706
 20
0.0598203582382016
 30
0.0
 10
19.52791494445398
 20
0.1561615253290412
 30
0.0
 10
19.43766709223381
 20
0.198929992599252
 30
0.0
  0
SPLINE
  5
C0
330
1F
100
AcDbEntity
  8
0
  6
Continuous
 62
     1
370
    15
100
AcDbSpline
210
0.0
220
0.0
230
1.0
 70
     8
 71
     3
 72
    15
 73
    11
 74
     0
 42
0.000000001
 43
0.00000001
 40
0.0
 40
0.0
 40
0.0
 40
0.0
 40
0.0098845636704841
 40
0.1388771136223322
 40
0.2694836555047842
 40
0.398887471833355
 40
0.5285839735510609
 40
0.6589392654669414
 40
0.7880056546170496
 40
1.0
 40
1.0
 40
1.0
 40
1.0
 10
13.99658100157979
 20
-0.62262301044114
 30
0.0
 10
13.98800708121006
 20
-0.623954310835759
 30
0.0
 10
13.86754437257973
 20
-0.6426589458942671
 30
0.0
 10
13.63482837671053
 20
-0.6401023881798413
 30
0.0
 10
13.2969532685639
 20
-0.6101494762195925
 30
0.0
 10
12.95973708115823
 20
-0.5343395148922864
 30
0.0
 10
12.62239526146332
 20
-0.423766710364873
 30
0.0
 10
12.28477125535734
 20
-0.2858709460638572
 30
0.0
 10
11.8770952293166
 20
-0.0924985226656042
 30
0.0
 10
11.58109823290131
 20
0.0526183914158265
 30
0.0
 10
11.39711431702695
 20
0.1428192327610059
 30
0.0
  0
LINE
  5
C1
330
1F
100
AcDbEntity
  8
0
  6
Continuous
 62
     1
370
    15
100
AcDbLine
 10
21.39711431702995
 20
-0.711705651923925
 30
0.0
 11
21.39711431702995
 21
-0.5917291982761606
 31
0.0
  0
SPLINE
  5
C2
330
1F
100
AcDbEntity
  8
0
  6
Continuous
 62
     1
370
    15
100
AcDbSpline
210
0.0
220
0.0
230
1.0
 70
     8
 71
     3
 72
    16
 73
    12
 74
     0
 42
0.000000001
 43
0.00000001
 40
0.0
 40
0.0
 40
0.0
 40
0.0
 40
0.0210155108604762
 40
0.1442193496571724
 40
0.2686697029577736
 40
0.392466542728593
 40
0.5160068221917667
 40
0.6406774151382896
 40
0.7638165284311637
 40
0.8886281569997025
 40
1.0
 40
1.0
 40
1.0
 40
1.0
 10
18.07802577471172
 20
-0.6211282487601316
 30
0.0
 10
18.05892722699441
 20
-0.6239583842417086
 30
0.0
 10
17.92786307397558
 20
-0.6433802437103897
 30
0.0
 10
17.68469711200205
 20
-0.6392082018571711
 30
0.0
 10
17.34698289134777
 20
-0.6047102612641395
 30
0.0
 10
17.0096727006311
 20
-0.5257906313229557
 30
0.0
 10
16.67243344152708
 20
-0.4117861281427468
 30
0.0
 10
16.33462238586996
 20
-0.2720443753230543
 30
0.0
 10
15.99732441957292
 20
-0.1108982145080529
 30
0.0
 10
15.67034213003164
 20
0.0495588563598688
 30
0.0
 10
15.45626832749524
 20
0.1518529486165496
 30
0.0
 10
15.3553222546469
 20
0.2000895229500274
 30
0.0
  0
SPLINE
  5
C3
330
1F
100
AcDbEntity
  8
0
  6
Continuous
 62
     1
370
    15
100
AcDbSpline
210
0.0
220
0.0
230
1.0
 70
     8
 71
     3
 72
     8
 73
     4
 74
     0
 42
0.000000001
 43
0.00000001
 40
0.0
 40
0.0
 40
0.0
 40
0.0
 40
1.0
 40
1.0
 40
1.0
 40
1.0
 10
20.93369306263448
 20
0.2091243521614224
 30
0.0
 10
20.89986049511979
 20
0.2491581138994903
 30
0.0
 10
20.87044788964087
 20
0.2874656436820945
 30
0.0
 10
20.84726799057115
 20
0.323058847932888
 30
0.0
  0
LINE
  5
C4
330
1F
100
AcDbEntity
  8
0
  6
Continuous
 62
     1
370
    15
100
AcDbLine
 10
20.84726799057116
 20
0.3230588479328876
 30
0.0
 11
21.39711431702995
 21
0.0000000000000015
 31
0.0
  0
LINE
  5
C5
330
1F
100
AcDbEntity
  8
0
  6
Continuous
 62
     1
370
    15
100
AcDbLine
 10
21.39711431702995
 20
0.0000000000000015
 30
0.0
 11
21.39711431702995
 21
-0.200432209522232
 31
0.0
  0
SPLINE
  5
C6
330
1F
100
AcDbEntity
  8
0
  6
Continuous
 62
     1
370
    15
100
AcDbSpline
210
0.0
220
0.0
230
1.0
 70
     8
 71
     3
 72
    10
 73
     6
 74
     0
 42
0.000000001
 43
0.00000001
 40
0.0
 40
0.0
 40
0.0
 40
0.0
 40
0.5
 40
0.5
 40
1.0
 40
1.0
 40
1.0
 40
1.0
 10
21.39711431702996
 20
-0.2004322095222332
 30
0.0
 10
21.3169052604367
 20
-0.1373715394669084
 30
0.0
 10
21.23803532198718
 20
-0.0717255156068387
 30
0.0
 10
21.08302977800458
 20
0.0648455420662247
 30
0.0
 10
21.00616674524157
 20
0.1364836568451763
 30
0.0
 10
20.93369306263399
 20
0.2091243521597783
 30
0.0
  0
SPLINE
  5
C7
330
1F
100
AcDbEntity
  8
0
  6
Continuous
 62
     1
370
    15
100
AcDbSpline
210
0.0
220
0.0
230
1.0
 70
     8
 71
     3
 72
    11
 73
     7
 74
     0
 42
0.000000001
 43
0.00000001
 40
0.0
 40
0.0
 40
0.0
 40
0.0
 40
0.3236392903729554
 40
0.6472412878704131
 40
0.9708118631557118
 40
0.9999999999999999
 40
0.9999999999999999
 40
0.9999999999999999
 40
0.9999999999999999
 10
20.9336930626347
 20
0.2091243521613277
 30
0.0
 10
20.74720622252695
 20
0.286643490032051
 30
0.0
 10
20.37425403114398
 20
0.4416728332623865
 30
0.0
 10
19.81486630558086
 20
0.5730290096724927
 30
0.0
 10
19.42514615880691
 20
0.622250845167923
 30
0.0
 10
19.22188880300711
 20
0.5938880854329441
 30
0.0
 10
19.20507078176002
 20
0.5915412798574603
 30
0.0
  0
SPLINE
  5
C8
330
1F
100
AcDbEntity
  8
0
  6
Continuous
 62
     1
370
    15
100
AcDbSpline
210
0.0
220
0.0
230
1.0
 70
     8
 71
     3
 72
    15
 73
    11
 74
     0
 42
0.000000001
 43
0.00000001
 40
0.0
 40
0.0
 40
0.0
 40
0.0
 40
0.0632788123173126
 40
0.1878994824603362
 40
0.3125951275898621
 40
0.4373601310239861
 40
0.5620646263767848
 40
0.7080386948268518
 40
0.8539644243412798
 40
1.0
 40
1.0
 40
1.0
 40
1.0
 10
15.72604137453456
 20
-0.5641411920794093
 30
0.0
 10
15.64147442015166
 20
-0.5680048007845013
 30
0.0
 10
15.36997180374338
 20
-0.6178729212500613
 30
0.0
 10
14.91825411375967
 20
-0.5911108827357533
 30
0.0
 10
14.3776565937165
 20
-0.4765002289138686
 30
0.0
 10
13.83685621876207
 20
-0.2759778000393356
 30
0.0
 10
13.26542640893109
 20
-0.0151644178533066
 30
0.0
 10
12.66319377644979
 20
0.2642260724641404
 30
0.0
 10
12.03026273039532
 20
0.5060459010878073
 30
0.0
 10
11.60821671768543
 20
0.5638610487678507
 30
0.0
 10
11.39711431702995
 20
0.5927794986570986
 30
0.0
  0
SPLINE
  5
C9
330
1F
100
AcDbEntity
  8
0
  6
Continuous
 62
     1
370
    15
100
AcDbSpline
210
0.0
220
0.0
230
1.0
 70
    24
 71
     3
 72
     8
 73
     4
 74
     0
 42
0.000000001
 43
0.00000001
 40
0.0
 40
0.0
 40
0.0
 40
0.0
 40
1.0
 40
1.0
 40
1.0
 40
1.0
 10
21.39711431702995
 20
-0.5917291982761602
 30
0.0
 10
21.39711431702995
 20
-0.5010078852295441
 30
0.0
 10
21.39711431702995
 20
-0.3595289550547062
 30
0.0
 10
21.39711431702995
 20
-0.2004322095222573
 30
0.0
  0
SPLINE
  5
CA
330
1F
100
AcDbEntity
  8
0
  6
Continuous
 62
   131
370
    15
100
AcDbSpline
210
0.0
220
0.0
230
1.0
 70
    24
 71
     3
 72
    10
 73
     6
 74
     0
 42
0.000000001
 43
0.00000001
 40
0.0
 40
0.0
 40
0.0
 40
0.0
 40
0.2797156910871387
 40
0.6853807855543818
 40
1.0
 40
1.0
 40
1.0
 40
1.0
 10
11.39711431702995
 20
0.5927794986570983
 30
0.0
 10
11.39711431702995
 20
0.5713596129875627
 30
0.0
 10
11.39711431702995
 20
0.5188749704220583
 30
0.0
 10
11.39711431702995
 20
0.3734874345563762
 30
0.0
 10
11.39711431702995
 20
0.2309069251966623
 30
0.0
 10
11.39711431702995
 20
0.1686279510541946
 30
0.0
  0
SPLINE
  5
CB
330
1F
100
AcDbEntity
  8
0
  6
Continuous
 62
     1
370
    15
100
AcDbSpline
210
0.0
220
0.0
230
1.0
 70
     8
 71
     3
 72
    16
 73
    12
 74
     0
 42
0.000000001
 43
0.00000001
 40
0.0
 40
0.0
 40
0.0
 40
0.0
 40
0.117214083678573
 40
0.2359695540665222
 40
0.3505453271124672
 40
0.4651105893718765
 40
0.5796788728504779
 40
0.694263693392407
 40
0.808878478506531
 40
0.9235364961904227
 40
1.0
 40
1.0
 40
1.0
 40
1.0
 10
19.80754566692554
 20
-0.5633760760827576
 30
0.0
 10
19.62354020968359
 20
-0.5826786699910869
 30
0.0
 10
19.2531095896716
 20
-0.6215376904597018
 30
0.0
 10
18.70278852035371
 20
-0.5403566990899411
 30
0.0
 10
18.15676349810714
 20
-0.3727709410230602
 30
0.0
 10
17.61728512723088
 20
-0.1417357401535628
 30
0.0
 10
17.07779906397505
 20
0.1126344059109797
 30
0.0
 10
16.5382230480426
 20
0.3490214980063168
 30
0.0
 10
15.99848649894908
 20
0.5220878027271687
 30
0.0
 10
15.51856811552728
 20
0.6097863921464097
 30
0.0
 10
15.21853588832867
 20
0.5906183993044393
 30
0.0
 10
15.12397382654552
 20
0.5959705174934038
 30
0.0
  0
LINE
  5
CC
330
1F
100
AcDbEntity
  8
0
  6
Continuous
 62
     1
370
    15
100
AcDbLine
 10
11.66874262446685
 20
-0.5603278880508628
 30
0.0
 11
11.39711431702995
 21
-0.592779498657098
 31
0.0
  0
SPLINE
  5
CD
330
1F
100
AcDbEntity
  8
0
  6
Continuous
 62
   131
370
    15
100
AcDbSpline
210
0.0
220
0.0
230
1.0
 70
    24
 71
     3
 72
    10
 73
     6
 74
     0
 42
0.000000001
 43
0.00000001
 40
0.0
 40
0.0
 40
0.0
 40
0.0
 40
0.5
 40
0.5
 40
1.0
 40
1.0
 40
1.0
 40
1.0
 10
11.39711431702995
 20
-0.0812029510528381
 30
0.0
 10
11.39711431702995
 20
-0.2050956747021296
 30
0.0
 10
11.39711431702995
 20
-0.3248376825824583
 30
0.0
 10
11.39711431702995
 20
-0.5066814862405351
 30
0.0
 10
11.39711431702995
 20
-0.567374340543016
 30
0.0
 10
11.39711431702995
 20
-0.5927794986570977
 30
0.0
  0
SPLINE
  5
CE
330
1F
100
AcDbEntity
  8
0
  6
Continuous
 62
     1
370
    15
100
AcDbSpline
210
0.0
220
0.0
230
1.0
 70
     8
 71
     3
 72
     8
 73
     4
 74
     0
 42
0.000000001
 43
0.00000001
 40
0.0
 40
0.0
 40
0.0
 40
0.0
 40
1.0
 40
1.0
 40
1.0
 40
1.0
 10
21.39711431702995
 20
0.5250000000000014
 30
0.0
 10
21.21050505474346
 20
0.474167730831444
 30
0.0
 10
21.02576923091097
 20
0.4101971936935335
 30
0.0
 10
20.84726799057088
 20
0.3230588479331237
 30
0.0
  0
LINE
  5
CF
330
1F
100
AcDbEntity
  8
0
  6
Continuous
 62
     1
370
    15
100
AcDbLine
 10
21.39711431702995
 20
0.0000000000000015
 30
0.0
 11
21.39711431702995
 21
0.5250000000000014
 31
0.0
  0
LINE
  5
D0
330
1F
100
AcDbEntity
  8
0
  6
Continuous
 62
   131
370
    15
100
AcDbLine
 10
10.39711431702995
 20
0.7500000000000002
 30
0.0
 11
10.39711431702995
 21
-0.75
 31
0.0
  0
LINE
  5
D1
330
1F
100
AcDbEntity
  8
0
  6
Continuous
 62
   131
370
    15
100
AcDbLine
 10
2.0
 20
2.999999999999999
 30
0.0
 11
2.0
 21
-2.999999999999999
 31
0.0
  0
LINE
  5
D2
330
1F
100
AcDbEntity
  8
0
  6
Continuous
 62
   131
370
    15
100
AcDbLine
 10
-38.05288568297005
 20
2.999999999999994
 30
0.0
 11
-38.05288568297005
 21
-3.000000000000001
 31
0.0
  0
LINE
  5
D3
330
1F
100
AcDbEntity
  8
0
  6
Continuous
 62
   131
370
    15
100
AcDbLine
 10
-38.60288568297004
 20
2.449999999999994
 30
0.0
 11
-38.60288568297004
 21
-2.450000000000002
 31
0.0
  0
SPLINE
  5
D4
330
1F
100
AcDbEntity
  8
0
  6
Continuous
 62
   131
370
    15
100
AcDbSpline
210
0.0
220
0.0
230
1.0
 70
     8
 71
     3
 72
    12
 73
     8
 74
     0
 42
0.000000001
 43
0.00000001
 40
0.0
 40
0.0
 40
0.0
 40
0.0
 40
0.5
 40
0.5
 40
0.75
 40
0.75
 40
1.0
 40
1.0
 40
1.0
 40
1.0
 10
11.39711431702995
 20
-0.0812029510528375
 30
0.0
 10
11.26476251726348
 20
-0.0281613895254026
 30
0.0
 10
11.12761365823611
 20
0.0268026506867762
 30
0.0
 10
10.92896788684713
 20
0.1064123116349871
 30
0.0
 10
10.86465366625687
 20
0.1323862711799093
 30
0.0
 10
10.73193781902833
 20
0.1836313543768065
 30
0.0
 10
10.66447467555458
 20
0.2087710984531022
 30
0.0
 10
10.59709332802815
 20
0.232972018190469
 30
0.0
  0
SPLINE
  5
D5
330
1F
100
AcDbEntity
  8
0
  6
Continuous
 62
   131
370
    15
100
AcDbSpline
210
0.0
220
0.0
230
1.0
 70
    24
 71
     3
 72
     8
 73
     4
 74
     0
 42
0.000000001
 43
0.00000001
 40
0.0
 40
0.0
 40
0.0
 40
0.0
 40
1.0
 40
1.0
 40
1.0
 40
1.0
 10
10.59709756651995
 20
0.3601534947207967
 30
0.0
 10
10.59709756651995
 20
0.3440363517815695
 30
0.0
 10
10.59709756651995
 20
0.2941361650086842
 30
0.0
 10
10.59709756651995
 20
0.2329704958777826
 30
0.0
  0
SPLINE
  5
D6
330
1F
100
AcDbEntity
  8
0
  6
Continuous
 62
   131
370
    15
100
AcDbSpline
210
0.0
220
0.0
230
1.0
 70
     8
 71
     3
 72
    12
 73
     8
 74
     0
 42
0.000000001
 43
0.00000001
 40
0.0
 40
0.0
 40
0.0
 40
0.0
 40
0.5
 40
0.5
 40
0.75
 40
0.75
 40
1.0
 40
1.0
 40
1.0
 40
1.0
 10
11.39711431702995
 20
-0.085448111122885
 30
0.0
 10
11.26476321104105
 20
-0.0092512667968464
 30
0.0
 10
11.12761509570539
 20
0.0692062279257441
 30
0.0
 10
10.92897029196886
 20
0.1821180234119132
 30
0.0
 10
10.86465641443399
 20
0.2188363567561054
 30
0.0
 10
10.73194133202239
 20
0.2910317013245765
 30
0.0
 10
10.66447856443142
 20
0.3263214474469707
 30
0.0
 10
10.59709756651995
 20
0.3601611360982012
 30
0.0
  0
SPLINE
  5
D7
330
1F
100
AcDbEntity
  8
0
  6
Continuous
 62
   131
370
    15
100
AcDbSpline
210
0.0
220
0.0
230
1.0
 70
     8
 71
     3
 72
    12
 73
     8
 74
     0
 42
0.000000001
 43
0.00000001
 40
0.0
 40
0.0
 40
0.0
 40
0.0
 40
0.5000000000000002
 40
0.5000000000000002
 40
0.7500000000000001
 40
0.7500000000000001
 40
1.0
 40
1.0
 40
1.0
 40
1.0
 10
11.39711431702995
 20
0.1236621892831467
 30
0.0
 10
11.26476032644777
 20
0.1993103454362455
 30
0.0
 10
11.12760911898379
 20
0.2738548653356316
 30
0.0
 10
10.928960291945
 20
0.3762548651004203
 30
0.0
 10
10.86464498803157
 20
0.4087359489739127
 30
0.0
 10
10.73192672566127
 20
0.4709176593824678
 30
0.0
 10
10.6644623952259
 20
0.500442100036533
 30
0.0
 10
10.59707994369005
 20
0.5278492525558076
 30
0.0
  0
LWPOLYLINE
  5
D8
330
1F
100
AcDbEntity
  8
0
  6
Continuous
 62
   131
370
    15
100
AcDbPolyline
 90
       17
 70
   128
 43
0.0
 10
10.5970846933469
 20
-0.5278720842250243
 10
10.59708321760358
 20
-0.6142442654942721
 10
10.59708203870721
 20
-0.681014452631485
 10
10.59708119427918
 20
-0.7260518503000473
 10
10.59708071126718
 20
-0.7479192081186125
 10
10.59708060508527
 20
-0.7459186867360916
 10
10.59708087912198
 20
-0.7201141275436123
 10
10.59708152463214
 20
-0.6713290153440221
 10
10.59708252101599
 20
-0.6011201989949939
 10
10.59708383647655
 20
-0.5117282086624599
 10
10.59708542903434
 20
-0.4060057551788757
 10
10.59708724786708
 20
-0.2873266932616991
 10
10.59708923493147
 20
-0.1594783537921133
 10
10.59709132681558
 20
-0.0265406810868251
 10
10.59709345676241
 20
0.1072439678201954
 10
10.5970955568003
 20
0.2376062068717229
 10
10.59709755991204
 20
0.3603858672416462
  0
LWPOLYLINE
  5
D9
330
1F
100
AcDbEntity
  8
0
  6
Continuous
 62
   131
370
    15
100
AcDbPolyline
 90
        6
 70
   128
 43
0.0
 10
10.5970846933469
 20
0.5278720842250247
 10
10.59708321760358
 20
0.6142442654942725
 10
10.59708203870721
 20
0.6810144526314854
 10
10.59708119427918
 20
0.7260518503000477
 10
10.59708071126718
 20
0.7479192081186128
 10
10.59708062077839
 20
0.7500000000000002
  0
SPLINE
  5
DA
330
1F
100
AcDbEntity
  8
0
  6
Continuous
 62
   131
370
    15
100
AcDbSpline
210
0.0
220
0.0
230
1.0
 70
    24
 71
     3
 72
    10
 73
     6
 74
     0
 42
0.000000001
 43
0.00000001
 40
0.0
 40
0.0
 40
0.0
 40
0.0
 40
0.5
 40
0.5
 40
1.0
 40
1.0
 40
1.0
 40
1.0
 10
10.59709332802815
 20
0.2329720181904691
 30
0.0
 10
10.59709332802815
 20
0.1040712734108039
 30
0.0
 10
10.59709332802815
 20
-0.0416966887494519
 30
0.0
 10
10.59709332802815
 20
-0.3156338833483971
 30
0.0
 10
10.59709332802815
 20
-0.4416806267755047
 30
0.0
 10
10.59709332802815
 20
-0.5376885237372157
 30
0.0
  0
SPLINE
  5
DB
330
1F
100
AcDbEntity
  8
0
  6
Continuous
 62
   131
370
    15
100
AcDbSpline
210
0.0
220
0.0
230
1.0
 70
     8
 71
     3
 72
     9
 73
     5
 74
     0
 42
0.000000001
 43
0.00000001
 40
0.0
 40
0.0
 40
0.0
 40
0.0
 40
0.6330697078658745
 40
1.0
 40
1.0
 40
1.0
 40
1.0
 10
10.59708371499584
 20
-0.5376880789830222
 30
0.0
 10
10.59708348594475
 20
-0.5558615843207659
 30
0.0
 10
10.59708312413456
 20
-0.5845685420411216
 30
0.0
 10
10.59708325789388
 20
-0.5822946421285192
 30
0.0
 10
10.59708330697423
 20
-0.5814602793693043
 30
0.0
  0
SPLINE
  5
DC
330
1F
100
AcDbEntity
  8
0
  6
Continuous
 62
   131
370
    15
100
AcDbSpline
210
0.0
220
0.0
230
1.0
 70
    24
 71
     3
 72
     8
 73
     4
 74
     0
 42
0.000000001
 43
0.00000001
 40
0.0
 40
0.0
 40
0.0
 40
0.0
 40
1.0
 40
1.0
 40
1.0
 40
1.0
 10
10.59707994369005
 20
-0.4751521009441287
 30
0.0
 10
10.59707994369005
 20
-0.4954891471190634
 30
0.0
 10
10.59707994369005
 20
-0.5131792704385703
 30
0.0
 10
10.59707994369005
 20
-0.5278469322849326
 30
0.0
  0
SPLINE
  5
DD
330
1F
100
AcDbEntity
  8
0
  6
Continuous
 62
   131
370
    15
100
AcDbSpline
210
0.0
220
0.0
230
1.0
 70
     8
 71
     3
 72
     9
 73
     5
 74
     0
 42
0.000000001
 43
0.00000001
 40
0.0
 40
0.0
 40
0.0
 40
0.0
 40
0.7811789154430433
 40
0.9999999999999999
 40
0.9999999999999999
 40
0.9999999999999999
 40
0.9999999999999999
 10
11.39711431702695
 20
0.1428192327610059
 30
0.0
 10
11.35580901870276
 20
0.1628065587050972
 30
0.0
 10
11.30293342579104
 20
0.1883926639480371
 30
0.0
 10
11.2500064757032
 20
0.2114409636769702
 30
0.0
 10
11.23842494308269
 20
0.2164844176208492
 30
0.0
  0
SPLINE
  5
DE
330
1F
100
AcDbEntity
  8
0
  6
Continuous
 62
   131
370
    15
100
AcDbSpline
210
0.0
220
0.0
230
1.0
 70
     8
 71
     3
 72
     9
 73
     5
 74
     0
 42
0.000000001
 43
0.00000001
 40
0.0
 40
0.0
 40
0.0
 40
0.0
 40
0.6330697078658738
 40
1.0
 40
1.0
 40
1.0
 40
1.0
 10
10.59708371499584
 20
0.5376880789830226
 30
0.0
 10
10.59708348594475
 20
0.5558615843207662
 30
0.0
 10
10.59708312413456
 20
0.5845685420411219
 30
0.0
 10
10.59708325789388
 20
0.5822946421285197
 30
0.0
 10
10.59708330697423
 20
0.5814602793693047
 30
0.0
  0
LINE
  5
DF
330
1F
100
AcDbEntity
  8
0
  6
Continuous
 62
   131
370
    15
100
AcDbLine
 10
11.39711431702995
 20
0.5927794986570986
 30
0.0
 11
11.04279778483351
 21
0.5929870117449699
 31
0.0
  0
SPLINE
  5
E0
330
1F
100
AcDbEntity
  8
0
  6
Continuous
 62
   131
370
    15
100
AcDbSpline
210
0.0
220
0.0
230
1.0
 70
    24
 71
     3
 72
    10
 73
     6
 74
     0
 42
0.000000001
 43
0.00000001
 40
0.0
 40
0.0
 40
0.0
 40
0.0
 40
0.2797156910871389
 40
0.6853807855543823
 40
1.0
 40
1.0
 40
1.0
 40
1.0
 10
11.39711431702995
 20
0.5927794986570983
 30
0.0
 10
11.39711431702995
 20
0.5713596129875627
 30
0.0
 10
11.39711431702995
 20
0.5188749704220582
 30
0.0
 10
11.39711431702995
 20
0.373487434556376
 30
0.0
 10
11.39711431702995
 20
0.2309069251966622
 30
0.0
 10
11.39711431702995
 20
0.1686279510541946
 30
0.0
  0
SPLINE
  5
E1
330
1F
100
AcDbEntity
  8
0
  6
Continuous
 62
   131
370
    15
100
AcDbSpline
210
0.0
220
0.0
230
1.0
 70
     8
 71
     3
 72
    12
 73
     8
 74
     0
 42
0.000000001
 43
0.00000001
 40
0.0
 40
0.0
 40
0.0
 40
0.0
 40
0.5
 40
0.5
 40
0.75
 40
0.75
 40
1.0
 40
1.0
 40
1.0
 40
1.0
 10
11.39711431702995
 20
-0.592779498657098
 30
0.0
 10
11.26476215919664
 20
-0.6022698001031759
 30
0.0
 10
11.12761291634102
 20
-0.6023519821578729
 30
0.0
 10
10.9289666455357
 20
-0.5883463572885562
 30
0.0
 10
10.86465224788926
 20
-0.5814219159216553
 30
0.0
 10
10.73193600592975
 20
-0.5629382795279028
 30
0.0
 10
10.66447266845865
 20
-0.5513840049377544
 30
0.0
 10
10.59709114049221
 20
-0.5376880791008277
 30
0.0
  0
SPLINE
  5
E2
330
1F
100
AcDbEntity
  8
0
  6
Continuous
 62
   131
370
    15
100
AcDbSpline
210
0.0
220
0.0
230
1.0
 70
    24
 71
     3
 72
    10
 73
     6
 74
     0
 42
0.000000001
 43
0.00000001
 40
0.0
 40
0.0
 40
0.0
 40
0.0
 40
0.5
 40
0.5
 40
1.0
 40
1.0
 40
1.0
 40
1.0
 10
11.39711431702995
 20
-0.0812029510528381
 30
0.0
 10
11.39711431702995
 20
-0.2050956747021296
 30
0.0
 10
11.39711431702995
 20
-0.3248376825824583
 30
0.0
 10
11.39711431702995
 20
-0.5066814862405351
 30
0.0
 10
11.39711431702995
 20
-0.567374340543016
 30
0.0
 10
11.39711431702995
 20
-0.5927794986570977
 30
0.0
  0
LINE
  5
E3
330
1F
100
AcDbEntity
  8
중심선
 62
     1
100
AcDbLine
 10
-41.60288568297004
 20
-0.0000000000000046
 30
0.0
 11
22.89711431702995
 21
-0.0000000000000046
 31
0.0
  0
CIRCLE
  5
E4
330
1F
100
AcDbEntity
  8
외형선
100
AcDbCircle
 10
-0.0048846756935692
 20
-0.0010749287238892
 30
0.0
 40
3.000000000000005
  0
INSERT
  5
E5
330
1F
100
AcDbEntity
  8
0
  6
Continuous
 62
     7
100
AcDbBlockReference
 66
     1
  2
블럭10
 10
-22.93944368806589
 20
-52.04609937292004
 30
0.0
  0
ATTRIB
  5
E6
330
E5
100
AcDbEntity
  8
FORMAT
 62
     2
100
AcDbText
 10
-39.05870472750145
 20
-49.97073246008785
 30
0.0
 40
4.233333333333333
  1
SEME7001510E [ 2 FLUTE ]
 41
0.75
  7
SLDTEXTSTYLE0
 11
-39.05870472750145
 21
-52.08739912675452
 31
0.0
100
AcDbAttribute
  2
AUTOATTR0
 70
     0
 74
     1
  0
SEQEND
  5
E7
330
E5
100
AcDbEntity
  8
0
  6
Continuous
 62
     7
  0
HATCH
  5
E8
330
1F
100
AcDbEntity
  8
중심선
100
AcDbHatch
 10
0.0
 20
0.0
 30
0.0
210
0.0
220
0.0
230
1.0
  2
SOLID
 70
     1
 71
     0
 91
        1
 92
        0
 93
        4
 72
     1
 10
-17.22453438368504
 20
-35.7989250712761
 11
-20.67080962752232
 21
-35.7989250712761
 72
     1
 10
-20.67080962752232
 20
-35.7989250712761
 11
-22.79903948672635
 21
-38.3352506518487
 72
     1
 10
-22.79903948672635
 20
-38.3352506518487
 11
-19.35273115777591
 21
-38.33521122254621
 72
     1
 10
-19.35273115777591
 20
-38.33521122254621
 11
-17.22453438368504
 21
-35.7989250712761
 97
        0
 75
     0
 76
     1
 98
        1
 10
0.0
 20
0.0
  0
HATCH
  5
E9
330
1F
100
AcDbEntity
  8
중심선
100
AcDbHatch
 10
0.0
 20
0.0
 30
0.0
210
0.0
220
0.0
230
1.0
  2
SOLID
 70
     1
 71
     0
 91
        1
 92
        0
 93
        4
 72
     1
 10
-12.21177039264909
 20
-35.7989250712761
 11
-15.65804563648637
 21
-35.7989250712761
 72
     1
 10
-15.65804563648637
 20
-35.7989250712761
 11
-20.18918364484376
 21
-41.19892507127612
 72
     1
 10
-20.18918364484376
 20
-41.19892507127612
 11
-16.74290840100648
 21
-41.19892507127612
 72
     1
 10
-16.74290840100648
 20
-41.19892507127612
 11
-12.21177039264909
 21
-35.7989250712761
 97
        0
 75
     0
 76
     1
 98
        1
 10
0.0
 20
0.0
  0
HATCH
  5
EA
330
1F
100
AcDbEntity
  8
중심선
100
AcDbHatch
 10
0.0
 20
0.0
 30
0.0
210
0.0
220
0.0
230
1.0
  2
SOLID
 70
     1
 71
     0
 91
        1
 92
        0
 93
        4
 72
     1
 10
-7.199006401613195
 20
-35.79892507127613
 11
-10.64528164545031
 21
-35.7989250712761
 72
     1
 10
-10.64528164545031
 20
-35.7989250712761
 11
-17.69371854733956
 21
-44.19892507127612
 72
     1
 10
-17.69371854733956
 20
-44.19892507127612
 11
-14.24744330350228
 21
-44.19892507127612
 72
     1
 10
-14.24744330350228
 20
-44.19892507127612
 11
-7.199006401613195
 21
-35.79892507127613
 97
        0
 75
     0
 76
     1
 98
        1
 10
0.0
 20
0.0
  0
HATCH
  5
EB
330
1F
100
AcDbEntity
  8
중심선
100
AcDbHatch
 10
0.0
 20
0.0
 30
0.0
210
0.0
220
0.0
230
1.0
  2
SOLID
 70
     1
 71
     0
 91
        1
 92
        0
 93
        6
 72
     3
 10
-2.399115970600996
 20
-39.99892507132738
 11
3.960054785062284
 21
1.540850780301639E-10
 40
0.3939339440162633
 50
17.09539180608433
 51
320.0019657685079
 73
     0
 72
     1
 10
-0.7161163149004002
 20
-38.58681907591441
 11
1.589185558800638
 21
-36.65249236586649
 72
     3
 10
-2.399115970653842
 20
-39.99892507127625
 11
6.600054785286829
 21
-1.249000902703301E-13
 40
0.6363583540795982
 50
39.99873849337408
 51
368.4976242363724
 73
     1
 72
     1
 10
4.026216521246767
 20
-39.03892507120613
 11
-3.71904866381792
 21
-39.0389250712061
 72
     1
 10
-3.71904866381792
 20
-39.0389250712061
 11
-3.719073708263854
 21
-40.95892507120602
 72
     1
 10
-3.719073708263854
 20
-40.95892507120602
 11
0.7223060612081835
 21
-40.95892507120599
 97
        0
 75
     0
 76
     1
 98
        1
 10
0.0
 20
0.0
  0
DIMENSION
  5
EC
330
1F
100
AcDbEntity
  8
치수문자_일반주서
100
AcDbDimension
  2
_D
 10
37.44295083289872
 20
0.7493661114222956
 30
0.0
 11
37.44295083289866
 21
12.82211611142229
 31
0.0
 70
   160
  1
%%c<>
 71
     2
 42
1.498732222844469
 52
-270.0
  3
SLDDIMSTYLE0
100
AcDbAlignedDimension
 13
21.39711431702996
 23
-0.7493661114222339
 33
0.0
 14
21.39711431702995
 24
0.7493661114222347
 34
0.0
 50
90.0000000000002
100
AcDbRotatedDimension
  0
DIMENSION
  5
FA
330
1F
100
AcDbEntity
  8
치수문자_일반주서
100
AcDbDimension
  2
_D_1
 10
21.39711431702996
 20
24.23841044024269
 30
0.0
 11
-8.602885682970044
 21
24.23841044024269
 31
0.0
 70
   160
  1
<>
 71
     2
 42
60.0
  3
SLDDIMSTYLE1
100
AcDbAlignedDimension
 13
-38.60288568297004
 23
2.449999999999994
 33
0.0
 14
21.39711431702996
 24
0.7493661114222356
 34
0.0
 50
-0.0000000000000068
100
AcDbRotatedDimension
  0
DIMENSION
  5
105
330
1F
100
AcDbEntity
  8
치수문자_일반주서
100
AcDbDimension
  2
_D_2
 10
21.39711431702995
 20
13.93977730482462
 30
0.0
 11
16.39711431702995
 21
13.93977730482462
 31
0.0
 70
   160
  1
<>
 71
     2
 42
10.0
  3
SLDDIMSTYLE2
100
AcDbAlignedDimension
 13
11.39711431702995
 23
0.5927794986570986
 33
0.0
 14
21.39711431702995
 24
0.7493661114222346
 34
0.0
100
AcDbRotatedDimension
  0
DIMENSION
  5
112
330
1F
100
AcDbEntity
  8
치수문자_일반주서
100
AcDbDimension
  2
_D_3
 10
-45.95966261040554
 20
-3.00000000000003
 30
0.0
 11
-45.95966261040559
 21
12.66649999999997
 31
0.0
 70
   160
  1
%%c<>
 71
     2
 42
5.999999999999995
 52
-270.0
  3
SLDDIMSTYLE2
100
AcDbAlignedDimension
 13
-38.05288568297005
 23
2.999999999999994
 33
0.0
 14
-38.05288568297005
 24
-3.0
 34
0.0
 50
90.0000000000002
100
AcDbRotatedDimension
  0
INSERT
  5
125
330
1F
100
AcDbEntity
  8
외형선
100
AcDbBlockReference
  2
SW_DOWELSYMBOL_0
 10
-0.0048846756935692
 20
-0.0010749287238892
 30
0.0
  0
ENDSEC
  0
SECTION
  2
OBJECTS
  0
DICTIONARY
  5
C
330
0
100
AcDbDictionary
281
     1
  3
ACAD_GROUP
350
D
  3
ACAD_IMAGE_VARS
350
149
  3
ACAD_LAYOUT
350
1A
  3
ACAD_MLINESTYLE
350
17
  3
ACAD_PLOTSETTINGS
350
19
  3
ACAD_PLOTSTYLENAME
350
E
  3
ACAD_SCALELIST
350
47
  3
APPDATA
350
147
  3
DWGPROPS
350
19D
  0
DICTIONARY
  5
D
102
{ACAD_REACTORS
330
C
102
}
330
C
100
AcDbDictionary
281
     1
  0
RASTERVARIABLES
  5
149
102
{ACAD_REACTORS
330
C
102
}
330
C
100
AcDbRasterVariables
 90
        0
 70
     1
 71
     1
 72
     1
  0
DICTIONARY
  5
1A
102
{ACAD_REACTORS
330
C
102
}
330
C
100
AcDbDictionary
281
     1
  3
Layout1
350
1E
  3
Layout2
350
26
  3
Model
350
22
  0
DICTIONARY
  5
17
102
{ACAD_REACTORS
330
C
102
}
330
C
100
AcDbDictionary
281
     1
  3
Standard
350
18
  0
DICTIONARY
  5
19
102
{ACAD_REACTORS
330
C
102
}
330
C
100
AcDbDictionary
281
     1
  0
ACDBDICTIONARYWDFLT
  5
E
102
{ACAD_REACTORS
330
C
102
}
330
C
100
AcDbDictionary
281
     1
  3
Normal
350
F
100
AcDbDictionaryWithDefault
340
F
  0
DICTIONARY
  5
47
102
{ACAD_REACTORS
330
C
102
}
330
C
100
AcDbDictionary
281
     1
  3
A0
350
48
  3
A1
350
49
  3
A2
350
4A
  3
A3
350
4B
  3
A4
350
4C
  3
A5
350
4D
  3
A6
350
4E
  3
A7
350
4F
  3
A8
350
50
  3
A9
350
51
  3
B0
350
52
  3
B1
350
53
  3
B2
350
54
  3
B3
350
55
  3
B4
350
56
  3
B5
350
57
  3
B6
350
58
  3
B7
350
59
  3
B8
350
5A
  3
B9
350
5B
  3
C0
350
5C
  3
C1
350
5D
  3
C2
350
5E
  3
C3
350
5F
  3
C4
350
60
  3
C5
350
61
  3
C6
350
62
  3
C7
350
63
  3
C8
350
64
  3
C9
350
65
  3
D0
350
66
  3
D1
350
67
  3
D2
350
68
  0
DICTIONARY
  5
147
102
{ACAD_REACTORS
330
C
102
}
330
C
100
AcDbDictionary
281
     1
  0
XRECORD
  5
19D
102
{ACAD_REACTORS
330
C
102
}
330
C
100
AcDbXrecord
280
     1
  1
DWGPROPS COOKIE
  2

  3

  4

  6

  7

  8
12014102
  9

300
=
301
=
302
=
303
=
304
=
305
=
306
=
307
=
308
=
309
=
 40
0.0
 41
2458262.159407998
 42
2458264.396386111
  1

 90
        0
  0
LAYOUT
  5
1E
102
{ACAD_REACTORS
330
1A
102
}
330
1A
100
AcDbPlotSettings
  1

  2
none_device
  4

  6

 40
0.0
 41
0.0
 42
0.0
 43
0.0
 44
0.0
 45
0.0
 46
0.0
 47
0.0
 48
0.0
 49
0.0
140
0.0
141
0.0
142
1.0
143
1.0
 70
   688
 72
     1
 73
     0
 74
     5
  7

 75
    16
147
1.0
148
0.0
149
0.0
100
AcDbLayout
  1
Layout1
 70
     1
 71
     1
 10
0.0
 20
0.0
 11
420.0
 21
297.0
 12
0.0
 22
0.0
 32
0.0
 14
1.000000000000000E+20
 24
1.000000000000000E+20
 34
1.000000000000000E+20
 15
-1.000000000000000E+20
 25
-1.000000000000000E+20
 35
-1.000000000000000E+20
146
0.0
 13
0.0
 23
0.0
 33
0.0
 16
1.0
 26
0.0
 36
0.0
 17
0.0
 27
1.0
 37
0.0
 76
     0
330
1B
  0
LAYOUT
  5
26
102
{ACAD_REACTORS
330
1A
102
}
330
1A
100
AcDbPlotSettings
  1

  2
none_device
  4

  6

 40
0.0
 41
0.0
 42
0.0
 43
0.0
 44
0.0
 45
0.0
 46
0.0
 47
0.0
 48
0.0
 49
0.0
140
0.0
141
0.0
142
1.0
143
1.0
 70
   688
 72
     1
 73
     0
 74
     5
  7

 75
    16
147
1.0
148
0.0
149
0.0
100
AcDbLayout
  1
Layout2
 70
     1
 71
     2
 10
0.0
 20
0.0
 11
0.0
 21
0.0
 12
0.0
 22
0.0
 32
0.0
 14
0.0
 24
0.0
 34
0.0
 15
0.0
 25
0.0
 35
0.0
146
0.0
 13
0.0
 23
0.0
 33
0.0
 16
1.0
 26
0.0
 36
0.0
 17
0.0
 27
1.0
 37
0.0
 76
     0
330
23
  0
LAYOUT
  5
22
102
{ACAD_REACTORS
330
1A
102
}
330
1A
100
AcDbPlotSettings
  1

  2
none_device
  4
ANSI_A_(11.00_x_8.50_Inches)
  6

 40
6.35
 41
19.05
 42
6.35000508
 43
19.05000254
 44
279.4
 45
215.9
 46
145.765014758135
 47
118.4377884955873
 48
0.0
 49
0.0
140
0.0
141
0.0
142
0.1058944507156154
143
1.0
 70
  1696
 72
     0
 73
     0
 74
     0
  7

 75
     0
147
0.0235690232323232
148
0.0
149
0.0
100
AcDbLayout
  1
Model
 70
     1
 71
     0
 10
0.0
 20
0.0
 11
420.0
 21
297.0
 12
0.0
 22
0.0
 32
0.0
 14
-50.3346626104056
 24
-49.97073246008785
 34
0.0
 15
37.99328416623207
 25
28.61341044024269
 35
0.0
146
0.0
 13
0.0
 23
0.0
 33
0.0
 16
1.0
 26
0.0
 36
0.0
 17
0.0
 27
1.0
 37
0.0
 76
     0
330
1F
331
29
  0
MLINESTYLE
  5
18
102
{ACAD_REACTORS
330
17
102
}
330
17
100
AcDbMlineStyle
  2
Standard
 70
     0
  3

 62
   256
 51
90.0
 52
90.0
 71
     2
 49
0.5
 62
   256
  6
BYLAYER
 49
-0.5
 62
   256
  6
BYLAYER
  0
ACDBPLACEHOLDER
  5
F
102
{ACAD_REACTORS
330
E
102
}
330
E
  0
SCALE
  5
48
102
{ACAD_REACTORS
330
47
102
}
330
47
100
AcDbScale
 70
     0
300
1:1
140
1.0
141
1.0
290
     1
  0
SCALE
  5
49
102
{ACAD_REACTORS
330
47
102
}
330
47
100
AcDbScale
 70
     0
300
1:2
140
1.0
141
2.0
290
     0
  0
SCALE
  5
4A
102
{ACAD_REACTORS
330
47
102
}
330
47
100
AcDbScale
 70
     0
300
1:4
140
1.0
141
4.0
290
     0
  0
SCALE
  5
4B
102
{ACAD_REACTORS
330
47
102
}
330
47
100
AcDbScale
 70
     0
300
1:5
140
1.0
141
5.0
290
     0
  0
SCALE
  5
4C
102
{ACAD_REACTORS
330
47
102
}
330
47
100
AcDbScale
 70
     0
300
1:8
140
1.0
141
8.0
290
     0
  0
SCALE
  5
4D
102
{ACAD_REACTORS
330
47
102
}
330
47
100
AcDbScale
 70
     0
300
1:10
140
1.0
141
10.0
290
     0
  0
SCALE
  5
4E
102
{ACAD_REACTORS
330
47
102
}
330
47
100
AcDbScale
 70
     0
300
1:16
140
1.0
141
16.0
290
     0
  0
SCALE
  5
4F
102
{ACAD_REACTORS
330
47
102
}
330
47
100
AcDbScale
 70
     0
300
1:20
140
1.0
141
20.0
290
     0
  0
SCALE
  5
50
102
{ACAD_REACTORS
330
47
102
}
330
47
100
AcDbScale
 70
     0
300
1:30
140
1.0
141
30.0
290
     0
  0
SCALE
  5
51
102
{ACAD_REACTORS
330
47
102
}
330
47
100
AcDbScale
 70
     0
300
1:40
140
1.0
141
40.0
290
     0
  0
SCALE
  5
52
102
{ACAD_REACTORS
330
47
102
}
330
47
100
AcDbScale
 70
     0
300
1:50
140
1.0
141
50.0
290
     0
  0
SCALE
  5
53
102
{ACAD_REACTORS
330
47
102
}
330
47
100
AcDbScale
 70
     0
300
1:100
140
1.0
141
100.0
290
     0
  0
SCALE
  5
54
102
{ACAD_REACTORS
330
47
102
}
330
47
100
AcDbScale
 70
     0
300
2:1
140
2.0
141
1.0
290
     0
  0
SCALE
  5
55
102
{ACAD_REACTORS
330
47
102
}
330
47
100
AcDbScale
 70
     0
300
4:1
140
4.0
141
1.0
290
     0
  0
SCALE
  5
56
102
{ACAD_REACTORS
330
47
102
}
330
47
100
AcDbScale
 70
     0
300
8:1
140
8.0
141
1.0
290
     0
  0
SCALE
  5
57
102
{ACAD_REACTORS
330
47
102
}
330
47
100
AcDbScale
 70
     0
300
10:1
140
10.0
141
1.0
290
     0
  0
SCALE
  5
58
102
{ACAD_REACTORS
330
47
102
}
330
47
100
AcDbScale
 70
     0
300
100:1
140
100.0
141
1.0
290
     0
  0
SCALE
  5
59
102
{ACAD_REACTORS
330
47
102
}
330
47
100
AcDbScale
 70
     0
300
1/128" = 1'-0"
140
0.0078125
141
12.0
290
     0
  0
SCALE
  5
5A
102
{ACAD_REACTORS
330
47
102
}
330
47
100
AcDbScale
 70
     0
300
1/64" = 1'-0"
140
0.015625
141
12.0
290
     0
  0
SCALE
  5
5B
102
{ACAD_REACTORS
330
47
102
}
330
47
100
AcDbScale
 70
     0
300
1/32" = 1'-0"
140
0.03125
141
12.0
290
     0
  0
SCALE
  5
5C
102
{ACAD_REACTORS
330
47
102
}
330
47
100
AcDbScale
 70
     0
300
1/16" = 1'-0"
140
0.0625
141
12.0
290
     0
  0
SCALE
  5
5D
102
{ACAD_REACTORS
330
47
102
}
330
47
100
AcDbScale
 70
     0
300
3/32" = 1'-0"
140
0.09375
141
12.0
290
     0
  0
SCALE
  5
5E
102
{ACAD_REACTORS
330
47
102
}
330
47
100
AcDbScale
 70
     0
300
1/8" = 1'-0"
140
0.125
141
12.0
290
     0
  0
SCALE
  5
5F
102
{ACAD_REACTORS
330
47
102
}
330
47
100
AcDbScale
 70
     0
300
3/16" = 1'-0"
140
0.1875
141
12.0
290
     0
  0
SCALE
  5
60
102
{ACAD_REACTORS
330
47
102
}
330
47
100
AcDbScale
 70
     0
300
1/4" = 1'-0"
140
0.25
141
12.0
290
     0
  0
SCALE
  5
61
102
{ACAD_REACTORS
330
47
102
}
330
47
100
AcDbScale
 70
     0
300
3/8" = 1'-0"
140
0.375
141
12.0
290
     0
  0
SCALE
  5
62
102
{ACAD_REACTORS
330
47
102
}
330
47
100
AcDbScale
 70
     0
300
1/2" = 1'-0"
140
0.5
141
12.0
290
     0
  0
SCALE
  5
63
102
{ACAD_REACTORS
330
47
102
}
330
47
100
AcDbScale
 70
     0
300
3/4" = 1'-0"
140
0.75
141
12.0
290
     0
  0
SCALE
  5
64
102
{ACAD_REACTORS
330
47
102
}
330
47
100
AcDbScale
 70
     0
300
1" = 1'-0"
140
1.0
141
12.0
290
     0
  0
SCALE
  5
65
102
{ACAD_REACTORS
330
47
102
}
330
47
100
AcDbScale
 70
     0
300
1-1/2" = 1'-0"
140
1.5
141
12.0
290
     0
  0
SCALE
  5
66
102
{ACAD_REACTORS
330
47
102
}
330
47
100
AcDbScale
 70
     0
300
3" = 1'-0"
140
3.0
141
12.0
290
     0
  0
SCALE
  5
67
102
{ACAD_REACTORS
330
47
102
}
330
47
100
AcDbScale
 70
     0
300
6" = 1'-0"
140
6.0
141
12.0
290
     0
  0
SCALE
  5
68
102
{ACAD_REACTORS
330
47
102
}
330
47
100
AcDbScale
 70
     0
300
1'-0" = 1'-0"
140
12.0
141
12.0
290
     0
  0
ENDSEC
  0
EOF
